  0
SECTION
  2
HEADER
  9
$ACADVER
  1
AC1018
  9
$ACADMAINTVER
 70
    39
  9
$DWGCODEPAGE
  3
ANSI_932
  9
$LASTSAVEDBY
  1
yakata
  9
$INSBASE
 10
0.0
 20
0.0
 30
0.0
  9
$EXTMIN
 10
795.6181794903637
 20
-116.9027659723574
 30
-0.0000000000112498
  9
$EXTMAX
 10
965.7404508136236
 20
60.14712362904191
 30
0.0000000000002956
  9
$LIMMIN
 10
0.0
 20
0.0
  9
$LIMMAX
 10
12.0
 20
9.0
  9
$ORTHOMODE
 70
     0
  9
$REGENMODE
 70
     1
  9
$FILLMODE
 70
     1
  9
$QTEXTMODE
 70
     0
  9
$MIRRTEXT
 70
     1
  9
$LTSCALE
 40
0.5
  9
$ATTMODE
 70
     1
  9
$TEXTSIZE
 40
2.5
  9
$TRACEWID
 40
0.05
  9
$TEXTSTYLE
  7
CatalogDxf
  9
$CLAYER
  8
Z_OM_DIM
  9
$CELTYPE
  6
BYLAYER
  9
$CECOLOR
 62
   256
  9
$CELTSCALE
 40
1.0
  9
$DISPSILH
 70
     0
  9
$DIMSCALE
 40
1.0
  9
$DIMASZ
 40
2.5
  9
$DIMEXO
 40
0.625
  9
$DIMDLI
 40
3.75
  9
$DIMRND
 40
0.0
  9
$DIMDLE
 40
0.0
  9
$DIMEXE
 40
1.25
  9
$DIMTP
 40
0.0
  9
$DIMTM
 40
0.0
  9
$DIMTXT
 40
2.5
  9
$DIMCEN
 40
2.5
  9
$DIMTSZ
 40
0.0
  9
$DIMTOL
 70
     0
  9
$DIMLIM
 70
     0
  9
$DIMTIH
 70
     0
  9
$DIMTOH
 70
     0
  9
$DIMSE1
 70
     0
  9
$DIMSE2
 70
     0
  9
$DIMTAD
 70
     1
  9
$DIMZIN
 70
     8
  9
$DIMBLK
  1
OPEN30
  9
$DIMASO
 70
     1
  9
$DIMSHO
 70
     1
  9
$DIMPOST
  1

  9
$DIMAPOST
  1

  9
$DIMALT
 70
     0
  9
$DIMALTD
 70
     3
  9
$DIMALTF
 40
0.03937007874016
  9
$DIMLFAC
 40
1.0
  9
$DIMTOFL
 70
     1
  9
$DIMTVP
 40
0.0
  9
$DIMTIX
 70
     0
  9
$DIMSOXD
 70
     0
  9
$DIMSAH
 70
     0
  9
$DIMBLK1
  1

  9
$DIMBLK2
  1

  9
$DIMSTYLE
  2
CatalogDxf
  9
$DIMCLRD
 70
   256
  9
$DIMCLRE
 70
   256
  9
$DIMCLRT
 70
   256
  9
$DIMTFAC
 40
1.0
  9
$DIMGAP
 40
0.625
  9
$DIMJUST
 70
     0
  9
$DIMSD1
 70
     0
  9
$DIMSD2
 70
     0
  9
$DIMTOLJ
 70
     0
  9
$DIMTZIN
 70
     8
  9
$DIMALTZ
 70
     0
  9
$DIMALTTZ
 70
     0
  9
$DIMUPT
 70
     0
  9
$DIMDEC
 70
     1
  9
$DIMTDEC
 70
     1
  9
$DIMALTU
 70
     2
  9
$DIMALTTD
 70
     3
  9
$DIMTXSTY
  7
CatalogDxf
  9
$DIMAUNIT
 70
     0
  9
$DIMADEC
 70
     0
  9
$DIMALTRND
 40
0.0
  9
$DIMAZIN
 70
     0
  9
$DIMDSEP
 70
    46
  9
$DIMATFIT
 70
     3
  9
$DIMFRAC
 70
     0
  9
$DIMLDRBLK
  1
OPEN30
  9
$DIMLUNIT
 70
     2
  9
$DIMLWD
 70
    -1
  9
$DIMLWE
 70
    -1
  9
$DIMTMOVE
 70
     0
  9
$LUNITS
 70
     2
  9
$LUPREC
 70
     2
  9
$SKETCHINC
 40
0.1
  9
$FILLETRAD
 40
0.0
  9
$AUNITS
 70
     0
  9
$AUPREC
 70
     2
  9
$MENU
  1
acad
  9
$ELEVATION
 40
0.0
  9
$PELEVATION
 40
0.0
  9
$THICKNESS
 40
0.0
  9
$LIMCHECK
 70
     0
  9
$CHAMFERA
 40
0.0
  9
$CHAMFERB
 40
0.0
  9
$CHAMFERC
 40
0.0
  9
$CHAMFERD
 40
0.0
  9
$SKPOLY
 70
     0
  9
$TDCREATE
 40
2455090.761732894
  9
$TDUCREATE
 40
2455090.386732893
  9
$TDUPDATE
 40
2455953.625264190
  9
$TDUUPDATE
 40
2455953.250264190
  9
$TDINDWG
 40
0.7325092014
  9
$TDUSRTIMER
 40
0.7324986921
  9
$USRTIMER
 70
     1
  9
$ANGBASE
 50
0.0
  9
$ANGDIR
 70
     0
  9
$PDMODE
 70
     0
  9
$PDSIZE
 40
0.0
  9
$PLINEWID
 40
0.0
  9
$SPLFRAME
 70
     0
  9
$SPLINETYPE
 70
     6
  9
$SPLINESEGS
 70
     8
  9
$HANDSEED
  5
53B2
  9
$SURFTAB1
 70
     6
  9
$SURFTAB2
 70
     6
  9
$SURFTYPE
 70
     6
  9
$SURFU
 70
     6
  9
$SURFV
 70
     6
  9
$UCSBASE
  2

  9
$UCSNAME
  2

  9
$UCSORG
 10
0.0
 20
0.0
 30
0.0
  9
$UCSXDIR
 10
1.0
 20
0.0
 30
0.0
  9
$UCSYDIR
 10
0.0
 20
1.0
 30
0.0
  9
$UCSORTHOREF
  2

  9
$UCSORTHOVIEW
 70
     1
  9
$UCSORGTOP
 10
0.0
 20
0.0
 30
0.0
  9
$UCSORGBOTTOM
 10
0.0
 20
0.0
 30
0.0
  9
$UCSORGLEFT
 10
0.0
 20
0.0
 30
0.0
  9
$UCSORGRIGHT
 10
0.0
 20
0.0
 30
0.0
  9
$UCSORGFRONT
 10
0.0
 20
0.0
 30
0.0
  9
$UCSORGBACK
 10
0.0
 20
0.0
 30
0.0
  9
$PUCSBASE
  2

  9
$PUCSNAME
  2

  9
$PUCSORG
 10
0.0
 20
0.0
 30
0.0
  9
$PUCSXDIR
 10
1.0
 20
0.0
 30
0.0
  9
$PUCSYDIR
 10
0.0
 20
1.0
 30
0.0
  9
$PUCSORTHOREF
  2

  9
$PUCSORTHOVIEW
 70
     0
  9
$PUCSORGTOP
 10
0.0
 20
0.0
 30
0.0
  9
$PUCSORGBOTTOM
 10
0.0
 20
0.0
 30
0.0
  9
$PUCSORGLEFT
 10
0.0
 20
0.0
 30
0.0
  9
$PUCSORGRIGHT
 10
0.0
 20
0.0
 30
0.0
  9
$PUCSORGFRONT
 10
0.0
 20
0.0
 30
0.0
  9
$PUCSORGBACK
 10
0.0
 20
0.0
 30
0.0
  9
$USERI1
 70
     0
  9
$USERI2
 70
     0
  9
$USERI3
 70
     0
  9
$USERI4
 70
     0
  9
$USERI5
 70
     0
  9
$USERR1
 40
0.0
  9
$USERR2
 40
0.0
  9
$USERR3
 40
0.0
  9
$USERR4
 40
0.0
  9
$USERR5
 40
0.0
  9
$WORLDVIEW
 70
     1
  9
$SHADEDGE
 70
     3
  9
$SHADEDIF
 70
    70
  9
$TILEMODE
 70
     1
  9
$MAXACTVP
 70
    16
  9
$PINSBASE
 10
0.0
 20
0.0
 30
0.0
  9
$PLIMCHECK
 70
     0
  9
$PEXTMIN
 10
1.000000000000000E+20
 20
1.000000000000000E+20
 30
1.000000000000000E+20
  9
$PEXTMAX
 10
-1.000000000000000E+20
 20
-1.000000000000000E+20
 30
-1.000000000000000E+20
  9
$PLIMMIN
 10
0.0
 20
0.0
  9
$PLIMMAX
 10
12.0
 20
9.0
  9
$UNITMODE
 70
     0
  9
$VISRETAIN
 70
     0
  9
$PLINEGEN
 70
     0
  9
$PSLTSCALE
 70
     1
  9
$TREEDEPTH
 70
  3020
  9
$CMLSTYLE
  2
STANDARD
  9
$CMLJUST
 70
     0
  9
$CMLSCALE
 40
1.0
  9
$PROXYGRAPHICS
 70
     1
  9
$MEASUREMENT
 70
     0
  9
$CELWEIGHT
370
    -1
  9
$ENDCAPS
280
     0
  9
$JOINSTYLE
280
     0
  9
$LWDISPLAY
290
     0
  9
$INSUNITS
 70
     0
  9
$HYPERLINKBASE
  1

  9
$STYLESHEET
  1
monochrome.ctb
  9
$XEDIT
290
     1
  9
$CEPSNTYPE
380
     0
  9
$PSTYLEMODE
290
     1
  9
$FINGERPRINTGUID
  2
{AFC0AA2D-B3CD-48CF-B830-EF9C44F122D3}
  9
$VERSIONGUID
  2
{1EF0E353-B8A8-4185-814F-516B519D5C8A}
  9
$EXTNAMES
290
     1
  9
$PSVPSCALE
 40
0.0
  9
$OLESTARTUP
290
     0
  9
$SORTENTS
280
   127
  9
$INDEXCTL
280
     0
  9
$HIDETEXT
280
     0
  9
$XCLIPFRAME
290
     0
  9
$HALOGAP
280
     0
  9
$OBSCOLOR
 70
   257
  9
$OBSLTYPE
280
     0
  9
$INTERSECTIONDISPLAY
280
     0
  9
$INTERSECTIONCOLOR
 70
   257
  9
$DIMASSOC
280
     1
  9
$PROJECTNAME
  1

  0
ENDSEC
  0
SECTION
  2
CLASSES
  0
CLASS
  1
ACDBDICTIONARYWDFLT
  2
AcDbDictionaryWithDefault
  3
ObjectDBX Classes
 90
        0
 91
        1
280
     0
281
     0
  0
CLASS
  1
DICTIONARYVAR
  2
AcDbDictionaryVar
  3
ObjectDBX Classes
 90
        0
 91
        5
280
     0
281
     0
  0
CLASS
  1
MATERIAL
  2
AcDbMaterial
  3
ObjectDBX Classes
 90
        0
 91
        3
280
     0
281
     0
  0
CLASS
  1
VISUALSTYLE
  2
AcDbVisualStyle
  3
ObjectDBX Classes
 90
     4095
 91
       32
280
     0
281
     0
  0
CLASS
  1
TABLESTYLE
  2
AcDbTableStyle
  3
ObjectDBX Classes
 90
     2047
 91
        1
280
     0
281
     0
  0
CLASS
  1
DIMASSOC
  2
AcDbDimAssoc
  3
"AcDbDimAssoc|Product Desc:     AcDim ARX App For Dimension|Company:          Autodesk, Inc.|WEB Address:      www.autodesk.com"
 90
        0
 91
        0
280
     0
281
     0
  0
CLASS
  1
SORTENTSTABLE
  2
AcDbSortentsTable
  3
ObjectDBX Classes
 90
        0
 91
        1
280
     0
281
     0
  0
CLASS
  1
ACDBPLACEHOLDER
  2
AcDbPlaceHolder
  3
ObjectDBX Classes
 90
        0
 91
        1
280
     0
281
     0
  0
CLASS
  1
LAYOUT
  2
AcDbLayout
  3
ObjectDBX Classes
 90
        0
 91
        2
280
     0
281
     0
  0
ENDSEC
  0
SECTION
  2
TABLES
  0
TABLE
  2
VPORT
  5
8
102
{ACAD_XDICTIONARY
360
4C0E
102
}
330
0
100
AcDbSymbolTable
 70
    13
  0
VPORT
  5
53B1
330
8
100
AcDbSymbolTableRecord
100
AcDbViewportTableRecord
  2
*Active
 70
     0
 10
0.0
 20
0.0
 11
1.0
 21
1.0
 12
800.6310107036412
 22
-9.753804255078108
 13
0.0
 23
0.0
 14
1.0
 24
1.0
 15
0.0
 25
0.0
 16
0.0
 26
0.0
 36
1.0
 17
0.0
 27
0.0
 37
0.0
 40
274.7839139069085
 41
1.964512040557667
 42
50.0
 43
0.0
 44
0.0
 50
0.0
 51
0.0
 71
     0
 72
   100
 73
     1
 74
     1
 75
     0
 76
     0
 77
     0
 78
     0
281
     0
 65
     1
110
0.0
120
0.0
130
0.0
111
1.0
121
0.0
131
0.0
112
0.0
122
1.0
132
0.0
 79
     0
146
0.0
  0
ENDTAB
  0
TABLE
  2
LTYPE
  5
5
330
0
100
AcDbSymbolTable
 70
     3
  0
LTYPE
  5
11
330
5
100
AcDbSymbolTableRecord
100
AcDbLinetypeTableRecord
  2
BYBLOCK
 70
     0
  3

 72
    65
 73
     0
 40
0.0
  0
LTYPE
  5
12
330
5
100
AcDbSymbolTableRecord
100
AcDbLinetypeTableRecord
  2
BYLAYER
 70
     0
  3

 72
    65
 73
     0
 40
0.0
  0
LTYPE
  5
13
330
5
100
AcDbSymbolTableRecord
100
AcDbLinetypeTableRecord
  2
CONTINUOUS
 70
     0
  3
Solid line
 72
    65
 73
     0
 40
0.0
  0
LTYPE
  5
3DB3
330
5
100
AcDbSymbolTableRecord
100
AcDbLinetypeTableRecord
  2
CENTER2
 70
     0
  3
Center (.5x) ___ _ ___ _ ___ _ ___ _ ___ _ ___
 72
    65
 73
     4
 40
28.575
 49
19.05
 74
     0
 49
-3.174999999999998
 74
     0
 49
3.174999999999998
 74
     0
 49
-3.174999999999998
 74
     0
  0
LTYPE
  5
3DB4
330
5
100
AcDbSymbolTableRecord
100
AcDbLinetypeTableRecord
  2
HIDDEN2
 70
     0
  3
Hidden (.5x) _ _ _ _ _ _ _ _ _ _ _ _ _ _ _ _ _
 72
    65
 73
     2
 40
4.762499999999998
 49
3.174999999999998
 74
     0
 49
-1.587499999999999
 74
     0
  0
ENDTAB
  0
TABLE
  2
LAYER
  5
2
102
{ACAD_XDICTIONARY
360
3DBA
102
}
330
0
100
AcDbSymbolTable
 70
     4
  0
LAYER
  5
E
102
{ACAD_XDICTIONARY
360
4C10
102
}
330
2
100
AcDbSymbolTableRecord
100
AcDbLayerTableRecord
  2
0
 70
     0
 62
     7
  6
CONTINUOUS
370
    -3
390
3D41
  0
LAYER
  5
27
102
{ACAD_XDICTIONARY
360
4C12
102
}
330
2
100
AcDbSymbolTableRecord
100
AcDbLayerTableRecord
  2
Z_OM_DIM
 70
     0
 62
     4
  6
CONTINUOUS
370
    -3
390
3D41
  0
LAYER
  5
2B
102
{ACAD_XDICTIONARY
360
4C14
102
}
330
2
100
AcDbSymbolTableRecord
100
AcDbLayerTableRecord
  2
DEFPOINTS
 70
     0
 62
     7
  6
CONTINUOUS
290
     0
370
    -3
390
3D41
  0
LAYER
  5
3DB5
102
{ACAD_XDICTIONARY
360
4C18
102
}
330
2
100
AcDbSymbolTableRecord
100
AcDbLayerTableRecord
  2
additional
 70
     0
 62
    50
  6
CONTINUOUS
370
    -3
390
3D41
1001
AcAecLayerStandard
1000

1000

  0
ENDTAB
  0
TABLE
  2
STYLE
  5
3
330
0
100
AcDbSymbolTable
 70
     5
  0
STYLE
  5
F
330
3
100
AcDbSymbolTableRecord
100
AcDbTextStyleTableRecord
  2
STANDARD
 70
     0
 40
0.0
 41
1.08
 50
0.0
 71
     0
 42
3.0
  3
txt.shx
  4
bigfont.shx
  0
STYLE
  5
3DB6
330
3
100
AcDbSymbolTableRecord
100
AcDbTextStyleTableRecord
  2
CatalogDxf
 70
     0
 40
0.0
 41
1.0
 50
0.0
 71
     0
 42
2.5
  3
txt.shx
  4
bigfont.shx
  0
STYLE
  5
4196
330
3
100
AcDbSymbolTableRecord
100
AcDbTextStyleTableRecord
  2

 70
     1
 40
0.0
 41
1.0
 50
0.0
 71
     0
 42
3.0
  3
ltypeshp.shx
  4

  0
ENDTAB
  0
TABLE
  2
VIEW
  5
6
330
0
100
AcDbSymbolTable
 70
     0
  0
ENDTAB
  0
TABLE
  2
UCS
  5
7
330
0
100
AcDbSymbolTable
 70
     0
  0
ENDTAB
  0
TABLE
  2
APPID
  5
9
330
0
100
AcDbSymbolTable
 70
     8
  0
APPID
  5
10
330
9
100
AcDbSymbolTableRecord
100
AcDbRegAppTableRecord
  2
ACAD
 70
     0
  0
APPID
  5
3D5E
330
9
100
AcDbSymbolTableRecord
100
AcDbRegAppTableRecord
  2
ACAD_PSEXT
 70
     0
  0
APPID
  5
3DB9
330
9
100
AcDbSymbolTableRecord
100
AcDbRegAppTableRecord
  2
AcAecLayerStandard
 70
     0
  0
APPID
  5
41A3
330
9
100
AcDbSymbolTableRecord
100
AcDbRegAppTableRecord
  2
ACAD_DSTYLE_DIM_LINETYPE
 70
     0
  0
APPID
  5
41A4
330
9
100
AcDbSymbolTableRecord
100
AcDbRegAppTableRecord
  2
ACAD_DSTYLE_DIM_EXT1_LINETYPE
 70
     0
  0
APPID
  5
41A5
330
9
100
AcDbSymbolTableRecord
100
AcDbRegAppTableRecord
  2
ACAD_DSTYLE_DIM_EXT2_LINETYPE
 70
     0
  0
APPID
  5
44DE
330
9
100
AcDbSymbolTableRecord
100
AcDbRegAppTableRecord
  2
ACAD_EXEMPT_FROM_CAD_STANDARDS
 70
     0
  0
APPID
  5
4CDB
330
9
100
AcDbSymbolTableRecord
100
AcDbRegAppTableRecord
  2
ACAD_DSTYLE_DIMTEXT_FILL
 70
     0
  0
ENDTAB
  0
TABLE
  2
DIMSTYLE
  5
A
330
0
100
AcDbSymbolTable
 70
     5
100
AcDbDimStyleTable
 71
     2
340
3DB8
340
30
  0
DIMSTYLE
105
30
330
A
100
AcDbSymbolTableRecord
100
AcDbDimStyleTableRecord
  2
STANDARD
 70
     0
 41
6.0
 42
1.0
 43
16.0
 44
3.0
 73
     0
 74
     0
 77
     1
 78
     8
140
4.4
141
10.0
147
1.6
172
     1
176
   256
177
   256
178
   256
340
F
341
977
342
977
  0
DIMSTYLE
105
3DB8
102
{ACAD_REACTORS
330
4F1C
330
4F1D
330
4FB4
330
5022
330
50AD
330
51D9
330
52E5
102
}
330
A
100
AcDbSymbolTableRecord
100
AcDbDimStyleTableRecord
  2
CatalogDxf
 70
     0
 41
2.5
 42
0.625
 43
3.75
 44
1.25
 73
     0
 74
     0
 77
     1
 78
     8
140
2.5
141
2.5
143
0.03937007874016
147
0.625
171
     3
172
     1
176
   256
177
   256
178
   256
271
     1
272
     1
274
     3
283
     0
284
     8
340
3DB6
341
977
342
977
371
    -1
372
    -1
1001
ACAD_DSTYLE_DIM_LINETYPE
1070
   380
1005
12
1001
ACAD_DSTYLE_DIM_EXT1_LINETYPE
1070
   381
1005
12
1001
ACAD_DSTYLE_DIM_EXT2_LINETYPE
1070
   382
1005
12
  0
DIMSTYLE
105
4353
330
A
100
AcDbSymbolTableRecord
100
AcDbDimStyleTableRecord
  2
ISO-25
 70
     0
 41
2.5
 42
0.625
 43
3.75
 44
1.25
 73
     0
 74
     0
 77
     1
 78
     8
140
2.5
141
2.5
143
0.03937007874016
147
0.625
171
     3
172
     1
271
     2
272
     2
274
     3
278
    44
283
     0
284
     8
340
F
  0
ENDTAB
  0
TABLE
  2
BLOCK_RECORD
  5
1
330
0
100
AcDbSymbolTable
 70
    24
  0
BLOCK_RECORD
  5
17
102
{ACAD_XDICTIONARY
360
1808
102
}
330
1
100
AcDbSymbolTableRecord
100
AcDbBlockTableRecord
  2
*MODEL_SPACE
340
3D5B
  0
BLOCK_RECORD
  5
14
102
{ACAD_XDICTIONARY
360
1806
102
}
330
1
100
AcDbSymbolTableRecord
100
AcDbBlockTableRecord
  2
*PAPER_SPACE
340
3D5C
  0
BLOCK_RECORD
  5
977
330
1
100
AcDbSymbolTableRecord
100
AcDbBlockTableRecord
  2
_OPEN30
340
0
102
{BLKREFS
331
4BD3
331
4BD4
331
4BE0
331
4BE1
331
4C60
331
4C61
331
4C7A
331
4C7B
331
4CA7
331
4CA8
331
4CB0
331
4CB1
331
4CC9
331
4CCA
331
4CD5
331
4CD6
331
501B
331
501C
331
510E
331
510F
331
5149
331
514A
331
516D
331
516E
331
5176
331
5177
331
517F
331
5180
331
5188
331
5189
331
527D
331
527E
331
52B2
331
52B3
331
52D7
331
52D8
331
5348
331
5349
331
5351
331
5352
331
53A1
331
53A2
102
}
  0
BLOCK_RECORD
  5
4805
330
1
100
AcDbSymbolTableRecord
100
AcDbBlockTableRecord
  2
*D1
340
0
  0
BLOCK_RECORD
  5
4849
330
1
100
AcDbSymbolTableRecord
100
AcDbBlockTableRecord
  2
*D2
340
0
  0
BLOCK_RECORD
  5
4B9F
330
1
100
AcDbSymbolTableRecord
100
AcDbBlockTableRecord
  2
*D3
340
0
  0
BLOCK_RECORD
  5
4BAC
330
1
100
AcDbSymbolTableRecord
100
AcDbBlockTableRecord
  2
*D4
340
0
  0
BLOCK_RECORD
  5
4BB9
330
1
100
AcDbSymbolTableRecord
100
AcDbBlockTableRecord
  2
*D5
340
0
  0
BLOCK_RECORD
  5
4BCF
330
1
100
AcDbSymbolTableRecord
100
AcDbBlockTableRecord
  2
*D6
340
0
  0
BLOCK_RECORD
  5
4BDC
330
1
100
AcDbSymbolTableRecord
100
AcDbBlockTableRecord
  2
*D7
340
0
  0
BLOCK_RECORD
  5
4BE9
330
1
100
AcDbSymbolTableRecord
100
AcDbBlockTableRecord
  2
*D8
340
0
  0
BLOCK_RECORD
  5
4F1E
330
1
100
AcDbSymbolTableRecord
100
AcDbBlockTableRecord
  2
*D9
340
0
  0
BLOCK_RECORD
  5
4F2A
330
1
100
AcDbSymbolTableRecord
100
AcDbBlockTableRecord
  2
*D10
340
0
  0
BLOCK_RECORD
  5
4F80
330
1
100
AcDbSymbolTableRecord
100
AcDbBlockTableRecord
  2
*D11
340
0
  0
BLOCK_RECORD
  5
4FB5
330
1
100
AcDbSymbolTableRecord
100
AcDbBlockTableRecord
  2
*D12
340
0
  0
BLOCK_RECORD
  5
4FF7
330
1
100
AcDbSymbolTableRecord
100
AcDbBlockTableRecord
  2
*D13
340
0
  0
BLOCK_RECORD
  5
5003
330
1
100
AcDbSymbolTableRecord
100
AcDbBlockTableRecord
  2
*D14
340
0
  0
BLOCK_RECORD
  5
5023
330
1
100
AcDbSymbolTableRecord
100
AcDbBlockTableRecord
  2
*D15
340
0
  0
BLOCK_RECORD
  5
508D
330
1
100
AcDbSymbolTableRecord
100
AcDbBlockTableRecord
  2
*D16
340
0
  0
BLOCK_RECORD
  5
50AE
330
1
100
AcDbSymbolTableRecord
100
AcDbBlockTableRecord
  2
*D17
340
0
  0
BLOCK_RECORD
  5
5130
330
1
100
AcDbSymbolTableRecord
100
AcDbBlockTableRecord
  2
*D18
340
0
  0
BLOCK_RECORD
  5
51DC
330
1
100
AcDbSymbolTableRecord
100
AcDbBlockTableRecord
  2
*D19
340
0
  0
BLOCK_RECORD
  5
52D2
330
1
100
AcDbSymbolTableRecord
100
AcDbBlockTableRecord
  2
*D20
340
0
  0
BLOCK_RECORD
  5
52E6
330
1
100
AcDbSymbolTableRecord
100
AcDbBlockTableRecord
  2
*D21
340
0
  0
ENDTAB
  0
ENDSEC
  0
SECTION
  2
BLOCKS
  0
BLOCK
  5
2E
330
17
100
AcDbEntity
  8
0
100
AcDbBlockBegin
  2
*MODEL_SPACE
 70
     0
 10
0.0
 20
0.0
 30
0.0
  3
*MODEL_SPACE
  1

  0
ENDBLK
  5
2F
330
17
100
AcDbEntity
  8
0
100
AcDbBlockEnd
  0
BLOCK
  5
2C
330
14
100
AcDbEntity
 67
     1
  8
0
100
AcDbBlockBegin
  2
*PAPER_SPACE
 70
     0
 10
0.0
 20
0.0
 30
0.0
  3
*PAPER_SPACE
  1

  0
ENDBLK
  5
2D
330
14
100
AcDbEntity
 67
     1
  8
0
100
AcDbBlockEnd
  0
BLOCK
  5
97B
330
977
100
AcDbEntity
  8
0
100
AcDbBlockBegin
  2
_OPEN30
 70
     0
 10
0.0
 20
0.0
 30
0.0
  3
_OPEN30
  1

  0
LINE
  5
978
330
977
100
AcDbEntity
  8
0
  6
ByBlock
 62
     0
100
AcDbLine
 10
-1.0
 20
0.26794919
 30
0.0
 11
0.0
 21
0.0
 31
0.0
  0
LINE
  5
979
330
977
100
AcDbEntity
  8
0
  6
ByBlock
 62
     0
100
AcDbLine
 10
0.0
 20
0.0
 30
0.0
 11
-1.0
 21
-0.26794919
 31
0.0
  0
LINE
  5
97A
330
977
100
AcDbEntity
  8
0
  6
ByBlock
 62
     0
100
AcDbLine
 10
0.0
 20
0.0
 30
0.0
 11
-1.0
 21
0.0
 31
0.0
  0
ENDBLK
  5
97C
330
977
100
AcDbEntity
  8
0
100
AcDbBlockEnd
  0
BLOCK
  5
480F
330
4805
100
AcDbEntity
  8
0
100
AcDbBlockBegin
  2
*D1
 70
     1
 10
0.0
 20
0.0
 30
0.0
  3
*D1
  1

  0
LINE
  5
4C5D
330
4805
100
AcDbEntity
  8
Z_OM_DIM
100
AcDbLine
 10
667.7040780968241
 20
-18.04198356253954
 30
0.0
 11
652.003530283313
 21
-0.7560910109423276
 31
0.0
  0
LINE
  5
4C5E
330
4805
100
AcDbEntity
  8
Z_OM_DIM
100
AcDbLine
 10
693.1850647855815
 20
5.102059977480621
 30
0.0
 11
677.4845169720704
 21
22.38795252907784
 31
0.0
  0
LINE
  5
4C5F
330
4805
100
AcDbEntity
  8
Z_OM_DIM
100
AcDbLine
 10
654.6945545057956
 20
-0.0005192843593704
 30
0.0
 11
676.4743598198472
 21
19.78179011514186
 31
0.0
  0
INSERT
  5
4C60
330
4805
100
AcDbEntity
  8
Z_OM_DIM
100
AcDbBlockReference
  2
_OPEN30
 10
652.8439638184427
 20
-1.681386354618837
 30
0.0
 41
2.5
 42
2.5
 43
2.5
 50
222.248453540568
  0
INSERT
  5
4C61
330
4805
100
AcDbEntity
  8
Z_OM_DIM
100
AcDbBlockReference
  2
_OPEN30
 10
678.3249505072001
 20
21.46265718540133
 30
0.0
 41
2.5
 42
2.5
 43
2.5
 50
42.24845354056808
  0
MTEXT
  5
4C62
330
4805
100
AcDbEntity
  8
Z_OM_DIM
100
AcDbMText
 10
664.3238068601267
 20
11.27857843090595
 30
0.0
 40
2.5
 41
0.0
 71
     5
 72
     1
  1
180 - 200
  7
CatalogDxf
 11
0.740236274941171
 21
0.6723468281037841
 31
0.0
 73
     1
 44
1.0
1001
ACAD
1000
MTEXTBEGIN
1070
    73
1070
     1
1070
    44
1040
1.0
1070
    74
1070
     0
1000
MTEXTEND
  0
POINT
  5
4C63
330
4805
100
AcDbEntity
  8
DEFPOINTS
 62
     0
100
AcDbPoint
 10
668.1242948643887
 20
-18.50463123437777
 30
0.0
  0
POINT
  5
4C64
330
4805
100
AcDbEntity
  8
DEFPOINTS
 62
     0
100
AcDbPoint
 10
693.6052815531462
 20
4.639412305642394
 30
0.0
  0
POINT
  5
4C65
330
4805
100
AcDbEntity
  8
DEFPOINTS
 62
     0
100
AcDbPoint
 10
678.3249505072001
 20
21.46265718540133
 30
0.0
  0
ENDBLK
  5
4810
330
4805
100
AcDbEntity
  8
0
100
AcDbBlockEnd
  0
BLOCK
  5
4855
330
4849
100
AcDbEntity
  8
0
100
AcDbBlockBegin
  2
*D2
 70
     1
 10
0.0
 20
0.0
 30
0.0
  3
*D2
  1

  0
LINE
  5
4CD1
330
4849
100
AcDbEntity
  8
Z_OM_DIM
100
AcDbLine
 10
679.1242948643887
 20
-77.90542594235375
 30
0.0
 11
679.1242948643887
 21
-47.20519103868793
 31
0.0
  0
LINE
  5
4CD2
330
4849
100
AcDbEntity
  8
Z_OM_DIM
100
AcDbLine
 10
685.9242948643887
 20
-22.98720945528732
 30
0.0
 11
685.9242948643887
 21
-49.70519103868793
 31
0.0
  0
LINE
  5
4CD3
330
4849
100
AcDbEntity
  8
Z_OM_DIM
100
AcDbLine
 10
681.6242948643887
 20
-48.45519103868793
 30
0.0
 11
683.4242948643886
 21
-48.45519103868793
 31
0.0
  0
LINE
  5
4CD4
330
4849
100
AcDbEntity
  8
Z_OM_DIM
100
AcDbLine
 10
685.9242948643887
 20
-48.45519103868793
 30
0.0
 11
727.6742948643885
 21
-48.45519103868793
 31
0.0
  0
INSERT
  5
4CD5
330
4849
100
AcDbEntity
  8
Z_OM_DIM
100
AcDbBlockReference
  2
_OPEN30
 10
679.1242948643887
 20
-48.45519103868793
 30
0.0
 41
2.5
 42
2.5
 43
2.5
 50
180.0
  0
INSERT
  5
4CD6
330
4849
100
AcDbEntity
  8
Z_OM_DIM
100
AcDbBlockReference
  2
_OPEN30
 10
685.9242948643887
 20
-48.45519103868793
 30
0.0
 41
2.5
 42
2.5
 43
2.5
  0
MTEXT
  5
4CD7
330
4849
100
AcDbEntity
  8
Z_OM_DIM
100
AcDbMText
 10
708.0492948643885
 20
-46.16352437202126
 30
0.0
 40
2.5
 41
0.0
 71
     5
 72
     1
  1
(7) Movable length
  7
CatalogDxf
 73
     1
 44
1.0
1001
ACAD
1000
MTEXTBEGIN
1070
    73
1070
     1
1070
    44
1040
1.0
1070
    74
1070
     0
1000
MTEXTEND
  0
POINT
  5
4CD8
330
4849
100
AcDbEntity
  8
DEFPOINTS
 62
     0
100
AcDbPoint
 10
679.1242948643887
 20
-78.53042594235375
 30
0.0
  0
POINT
  5
4CD9
330
4849
100
AcDbEntity
  8
DEFPOINTS
 62
     0
100
AcDbPoint
 10
685.9242948643887
 20
-22.36220945528732
 30
0.0
  0
POINT
  5
4CDA
330
4849
100
AcDbEntity
  8
DEFPOINTS
 62
     0
100
AcDbPoint
 10
685.9242948643887
 20
-48.45519103868793
 30
0.0
  0
ENDBLK
  5
4856
330
4849
100
AcDbEntity
  8
0
100
AcDbBlockEnd
  0
BLOCK
  5
4BA9
330
4B9F
100
AcDbEntity
  8
0
100
AcDbBlockBegin
  2
*D3
 70
     1
 10
0.0
 20
0.0
 30
0.0
  3
*D3
  1

  0
LINE
  5
4CC6
330
4B9F
100
AcDbEntity
  8
Z_OM_DIM
100
AcDbLine
 10
665.1242948643887
 20
-71.7949244529371
 30
0.0
 11
665.1242948643887
 21
-60.12365607731728
 31
0.0
  0
LINE
  5
4CC7
330
4B9F
100
AcDbEntity
  8
Z_OM_DIM
100
AcDbLine
 10
657.1242948643887
 20
-71.79492445293712
 30
0.0
 11
657.1242948643887
 21
-60.12365607731728
 31
0.0
  0
LINE
  5
4CC8
330
4B9F
100
AcDbEntity
  8
Z_OM_DIM
100
AcDbLine
 10
662.6242948643887
 20
-61.37365607731728
 30
0.0
 11
659.6242948643887
 21
-61.37365607731728
 31
0.0
  0
INSERT
  5
4CC9
330
4B9F
100
AcDbEntity
  8
Z_OM_DIM
100
AcDbBlockReference
  2
_OPEN30
 10
665.1242948643887
 20
-61.37365607731728
 30
0.0
 41
2.5
 42
2.5
 43
2.5
  0
INSERT
  5
4CCA
330
4B9F
100
AcDbEntity
  8
Z_OM_DIM
100
AcDbBlockReference
  2
_OPEN30
 10
657.1242948643887
 20
-61.37365607731728
 30
0.0
 41
2.5
 42
2.5
 43
2.5
 50
180.0
  0
MTEXT
  5
4CCB
330
4B9F
100
AcDbEntity
  8
Z_OM_DIM
100
AcDbMText
 10
661.1242948643887
 20
-59.49865607731728
 30
0.0
 40
2.5
 41
0.0
 71
     5
 72
     1
  1
8
  7
CatalogDxf
 73
     1
 44
1.0
1001
ACAD
1000
MTEXTBEGIN
1070
    73
1070
     1
1070
    44
1040
1.0
1070
    74
1070
     0
1000
MTEXTEND
  0
POINT
  5
4CCC
330
4B9F
100
AcDbEntity
  8
DEFPOINTS
 62
     0
100
AcDbPoint
 10
665.1242948643887
 20
-72.4199244529371
 30
0.0
  0
POINT
  5
4CCD
330
4B9F
100
AcDbEntity
  8
DEFPOINTS
 62
     0
100
AcDbPoint
 10
657.1242948643887
 20
-72.41992445293712
 30
0.0
  0
POINT
  5
4CCE
330
4B9F
100
AcDbEntity
  8
DEFPOINTS
 62
     0
100
AcDbPoint
 10
657.1242948643887
 20
-61.37365607731728
 30
0.0
  0
ENDBLK
  5
4BAA
330
4B9F
100
AcDbEntity
  8
0
100
AcDbBlockEnd
  0
BLOCK
  5
4BB6
330
4BAC
100
AcDbEntity
  8
0
100
AcDbBlockBegin
  2
*D4
 70
     1
 10
0.0
 20
0.0
 30
0.0
  3
*D4
  1

  0
LINE
  5
4CAD
330
4BAC
100
AcDbEntity
  8
Z_OM_DIM
100
AcDbLine
 10
668.4958534080882
 20
-75.34949523236806
 30
0.0
 11
702.3994556798692
 21
-75.34949523236806
 31
0.0
  0
LINE
  5
4CAE
330
4BAC
100
AcDbEntity
  8
Z_OM_DIM
100
AcDbLine
 10
668.4958534080882
 20
-89.34949523236808
 30
0.0
 11
702.3994556798692
 21
-89.34949523236808
 31
0.0
  0
LINE
  5
4CAF
330
4BAC
100
AcDbEntity
  8
Z_OM_DIM
100
AcDbLine
 10
701.1494556798692
 20
-77.84949523236806
 30
0.0
 11
701.1494556798692
 21
-86.84949523236808
 31
0.0
  0
INSERT
  5
4CB0
330
4BAC
100
AcDbEntity
  8
Z_OM_DIM
100
AcDbBlockReference
  2
_OPEN30
 10
701.1494556798692
 20
-75.34949523236806
 30
0.0
 41
2.5
 42
2.5
 43
2.5
 50
90.0
  0
INSERT
  5
4CB1
330
4BAC
100
AcDbEntity
  8
Z_OM_DIM
100
AcDbBlockReference
  2
_OPEN30
 10
701.1494556798692
 20
-89.34949523236808
 30
0.0
 41
2.5
 42
2.5
 43
2.5
 50
270.0
  0
MTEXT
  5
4CB2
330
4BAC
100
AcDbEntity
  8
Z_OM_DIM
100
AcDbMText
 10
699.2744556798692
 20
-82.34949523236796
 30
0.0
 40
2.5
 41
0.0
 71
     5
 72
     1
  1
14
  7
CatalogDxf
 11
0.0000000000000001
 21
1.0
 31
0.0
 73
     1
 44
1.0
1001
ACAD
1000
MTEXTBEGIN
1070
    73
1070
     1
1070
    44
1040
1.0
1070
    74
1070
     0
1000
MTEXTEND
  0
POINT
  5
4CB3
330
4BAC
100
AcDbEntity
  8
DEFPOINTS
 62
     0
100
AcDbPoint
 10
667.8708534080882
 20
-75.34949523236806
 30
0.0
  0
POINT
  5
4CB4
330
4BAC
100
AcDbEntity
  8
DEFPOINTS
 62
     0
100
AcDbPoint
 10
667.8708534080882
 20
-89.34949523236808
 30
0.0
  0
POINT
  5
4CB5
330
4BAC
100
AcDbEntity
  8
DEFPOINTS
 62
     0
100
AcDbPoint
 10
701.1494556798692
 20
-89.34949523236808
 30
0.0
  0
ENDBLK
  5
4BB7
330
4BAC
100
AcDbEntity
  8
0
100
AcDbBlockEnd
  0
BLOCK
  5
4BC3
330
4BB9
100
AcDbEntity
  8
0
100
AcDbBlockBegin
  2
*D5
 70
     1
 10
0.0
 20
0.0
 30
0.0
  3
*D5
  1

  0
LINE
  5
4CA4
330
4BB9
100
AcDbEntity
  8
Z_OM_DIM
100
AcDbLine
 10
679.5992948643887
 20
-78.38042594235375
 30
0.0
 11
695.1932035249718
 21
-78.38042594235375
 31
0.0
  0
LINE
  5
4CA5
330
4BB9
100
AcDbEntity
  8
Z_OM_DIM
100
AcDbLine
 10
679.5992948643887
 20
-86.38042594235377
 30
0.0
 11
695.1932035249718
 21
-86.38042594235377
 31
0.0
  0
LINE
  5
4CA6
330
4BB9
100
AcDbEntity
  8
Z_OM_DIM
100
AcDbLine
 10
693.9432035249717
 20
-80.88042594235375
 30
0.0
 11
693.9432035249717
 21
-83.88042594235377
 31
0.0
  0
INSERT
  5
4CA7
330
4BB9
100
AcDbEntity
  8
Z_OM_DIM
100
AcDbBlockReference
  2
_OPEN30
 10
693.9432035249717
 20
-78.38042594235375
 30
0.0
 41
2.5
 42
2.5
 43
2.5
 50
90.0
  0
INSERT
  5
4CA8
330
4BB9
100
AcDbEntity
  8
Z_OM_DIM
100
AcDbBlockReference
  2
_OPEN30
 10
693.9432035249717
 20
-86.38042594235377
 30
0.0
 41
2.5
 42
2.5
 43
2.5
 50
270.0
  0
MTEXT
  5
4CA9
330
4BB9
100
AcDbEntity
  8
Z_OM_DIM
100
AcDbMText
 10
692.0682035249718
 20
-82.38042594235365
 30
0.0
 40
2.5
 41
0.0
 71
     5
 72
     1
  1
%%c8
  7
CatalogDxf
 11
0.0000000000000001
 21
1.0
 31
0.0
 73
     1
 44
1.0
1001
ACAD
1000
MTEXTBEGIN
1070
    73
1070
     1
1070
    44
1040
1.0
1070
    74
1070
     0
1000
MTEXTEND
  0
POINT
  5
4CAA
330
4BB9
100
AcDbEntity
  8
DEFPOINTS
 62
     0
100
AcDbPoint
 10
678.9742948643887
 20
-78.38042594235375
 30
0.0
  0
POINT
  5
4CAB
330
4BB9
100
AcDbEntity
  8
DEFPOINTS
 62
     0
100
AcDbPoint
 10
678.9742948643887
 20
-86.38042594235377
 30
0.0
  0
POINT
  5
4CAC
330
4BB9
100
AcDbEntity
  8
DEFPOINTS
 62
     0
100
AcDbPoint
 10
693.9432035249717
 20
-86.38042594235377
 30
0.0
  0
ENDBLK
  5
4BC4
330
4BB9
100
AcDbEntity
  8
0
100
AcDbBlockEnd
  0
BLOCK
  5
4BD9
330
4BCF
100
AcDbEntity
  8
0
100
AcDbBlockBegin
  2
*D6
 70
     1
 10
0.0
 20
0.0
 30
0.0
  3
*D6
  1

  0
LINE
  5
4BD0
330
4BCF
100
AcDbEntity
  8
Z_OM_DIM
100
AcDbLine
 10
576.0880593568875
 20
-71.59949523236806
 30
0.0
 11
590.7714662582836
 21
-71.59949523236806
 31
0.0
  0
LINE
  5
4BD1
330
4BCF
100
AcDbEntity
  8
Z_OM_DIM
100
AcDbLine
 10
576.0880593568875
 20
-93.09949523236808
 30
0.0
 11
590.7714662582836
 21
-93.09949523236808
 31
0.0
  0
LINE
  5
4BD2
330
4BCF
100
AcDbEntity
  8
Z_OM_DIM
100
AcDbLine
 10
589.5214662582834
 20
-74.09949523236806
 30
0.0
 11
589.5214662582834
 21
-90.59949523236808
 31
0.0
  0
INSERT
  5
4BD3
330
4BCF
100
AcDbEntity
  8
Z_OM_DIM
100
AcDbBlockReference
  2
_OPEN30
 10
589.5214662582834
 20
-71.59949523236806
 30
0.0
 41
2.5
 42
2.5
 43
2.5
 50
90.0
  0
INSERT
  5
4BD4
330
4BCF
100
AcDbEntity
  8
Z_OM_DIM
100
AcDbBlockReference
  2
_OPEN30
 10
589.5214662582834
 20
-93.09949523236808
 30
0.0
 41
2.5
 42
2.5
 43
2.5
 50
270.0
  0
MTEXT
  5
4BD5
330
4BCF
100
AcDbEntity
  8
Z_OM_DIM
100
AcDbMText
 10
587.6464662582836
 20
-82.34949523236798
 30
0.0
 40
2.5
 41
0.0
 71
     5
 72
     1
  1
21.5
  7
CatalogDxf
 11
0.0000000000000001
 21
1.0
 31
0.0
 73
     1
 44
1.0
1001
ACAD
1000
MTEXTBEGIN
1070
    73
1070
     1
1070
    44
1040
1.0
1070
    74
1070
     0
1000
MTEXTEND
  0
POINT
  5
4BD6
330
4BCF
100
AcDbEntity
  8
DEFPOINTS
 62
     0
100
AcDbPoint
 10
575.4630593568872
 20
-71.59949523236806
 30
0.0
  0
POINT
  5
4BD7
330
4BCF
100
AcDbEntity
  8
DEFPOINTS
 62
     0
100
AcDbPoint
 10
575.4630593568872
 20
-93.09949523236808
 30
0.0
  0
POINT
  5
4BD8
330
4BCF
100
AcDbEntity
  8
DEFPOINTS
 62
     0
100
AcDbPoint
 10
589.5214662582834
 20
-93.09949523236808
 30
0.0
  0
ENDBLK
  5
4BDA
330
4BCF
100
AcDbEntity
  8
0
100
AcDbBlockEnd
  0
BLOCK
  5
4BE6
330
4BDC
100
AcDbEntity
  8
0
100
AcDbBlockBegin
  2
*D7
 70
     1
 10
0.0
 20
0.0
 30
0.0
  3
*D7
  1

  0
LINE
  5
4BDD
330
4BDC
100
AcDbEntity
  8
Z_OM_DIM
100
AcDbLine
 10
549.4630593568873
 20
-93.72449523236808
 30
0.0
 11
549.4630593568873
 21
-108.0874438206497
 31
0.0
  0
LINE
  5
4BDE
330
4BDC
100
AcDbEntity
  8
Z_OM_DIM
100
AcDbLine
 10
575.4630593568872
 20
-93.72449523236808
 30
0.0
 11
575.4630593568872
 21
-108.0874438206497
 31
0.0
  0
LINE
  5
4BDF
330
4BDC
100
AcDbEntity
  8
Z_OM_DIM
100
AcDbLine
 10
551.9630593568876
 20
-106.8374438206497
 30
0.0
 11
572.9630593568875
 21
-106.8374438206497
 31
0.0
  0
INSERT
  5
4BE0
330
4BDC
100
AcDbEntity
  8
Z_OM_DIM
100
AcDbBlockReference
  2
_OPEN30
 10
549.4630593568873
 20
-106.8374438206497
 30
0.0
 41
2.5
 42
2.5
 43
2.5
 50
180.0
  0
INSERT
  5
4BE1
330
4BDC
100
AcDbEntity
  8
Z_OM_DIM
100
AcDbBlockReference
  2
_OPEN30
 10
575.4630593568872
 20
-106.8374438206497
 30
0.0
 41
2.5
 42
2.5
 43
2.5
  0
MTEXT
  5
4BE2
330
4BDC
100
AcDbEntity
  8
Z_OM_DIM
100
AcDbMText
 10
562.4630593568872
 20
-104.9624438206497
 30
0.0
 40
2.5
 41
0.0
 71
     5
 72
     1
  1
26
  7
CatalogDxf
 73
     1
 44
1.0
1001
ACAD
1000
MTEXTBEGIN
1070
    73
1070
     1
1070
    44
1040
1.0
1070
    74
1070
     0
1000
MTEXTEND
  0
POINT
  5
4BE3
330
4BDC
100
AcDbEntity
  8
DEFPOINTS
 62
     0
100
AcDbPoint
 10
549.4630593568873
 20
-93.09949523236808
 30
0.0
  0
POINT
  5
4BE4
330
4BDC
100
AcDbEntity
  8
DEFPOINTS
 62
     0
100
AcDbPoint
 10
575.4630593568872
 20
-93.09949523236808
 30
0.0
  0
POINT
  5
4BE5
330
4BDC
100
AcDbEntity
  8
DEFPOINTS
 62
     0
100
AcDbPoint
 10
575.4630593568872
 20
-106.8374438206497
 30
0.0
  0
ENDBLK
  5
4BE7
330
4BDC
100
AcDbEntity
  8
0
100
AcDbBlockEnd
  0
BLOCK
  5
4BF3
330
4BE9
100
AcDbEntity
  8
0
100
AcDbBlockBegin
  2
*D8
 70
     1
 10
0.0
 20
0.0
 30
0.0
  3
*D8
  1

  0
LINE
  5
4C77
330
4BE9
100
AcDbEntity
  8
Z_OM_DIM
100
AcDbLine
 10
616.7992948643886
 20
-13.50463123437777
 30
0.0
 11
600.6599382668177
 21
-13.50463123437776
 31
0.0
  0
LINE
  5
4C78
330
4BE9
100
AcDbEntity
  8
Z_OM_DIM
100
AcDbLine
 10
616.7992948643886
 20
-23.50463123437777
 30
0.0
 11
600.6599382668177
 21
-23.50463123437776
 31
0.0
  0
LINE
  5
4C79
330
4BE9
100
AcDbEntity
  8
Z_OM_DIM
100
AcDbLine
 10
601.9099382668177
 20
-16.00463123437776
 30
0.0
 11
601.9099382668177
 21
-21.00463123437776
 31
0.0
  0
INSERT
  5
4C7A
330
4BE9
100
AcDbEntity
  8
Z_OM_DIM
100
AcDbBlockReference
  2
_OPEN30
 10
601.9099382668177
 20
-13.50463123437776
 30
0.0
 41
2.5
 42
2.5
 43
2.5
 50
90.0
  0
INSERT
  5
4C7B
330
4BE9
100
AcDbEntity
  8
Z_OM_DIM
100
AcDbBlockReference
  2
_OPEN30
 10
601.9099382668177
 20
-23.50463123437776
 30
0.0
 41
2.5
 42
2.5
 43
2.5
 50
270.0
  0
MTEXT
  5
4C7C
330
4BE9
100
AcDbEntity
  8
Z_OM_DIM
100
AcDbMText
 10
600.0349382668177
 20
-18.50463123437766
 30
0.0
 40
2.5
 41
0.0
 71
     5
 72
     1
  1
%%c10
  7
CatalogDxf
 11
0.0000000000000001
 21
1.0
 31
0.0
 73
     1
 44
1.0
1001
ACAD
1000
MTEXTBEGIN
1070
    73
1070
     1
1070
    44
1040
1.0
1070
    74
1070
     0
1000
MTEXTEND
  0
POINT
  5
4C7D
330
4BE9
100
AcDbEntity
  8
DEFPOINTS
 62
     0
100
AcDbPoint
 10
617.4242948643886
 20
-13.50463123437777
 30
0.0
  0
POINT
  5
4C7E
330
4BE9
100
AcDbEntity
  8
DEFPOINTS
 62
     0
100
AcDbPoint
 10
617.4242948643886
 20
-23.50463123437777
 30
0.0
  0
POINT
  5
4C7F
330
4BE9
100
AcDbEntity
  8
DEFPOINTS
 62
     0
100
AcDbPoint
 10
601.9099382668177
 20
-23.50463123437776
 30
0.0
  0
ENDBLK
  5
4BF4
330
4BE9
100
AcDbEntity
  8
0
100
AcDbBlockEnd
  0
BLOCK
  5
4F28
330
4F1E
100
AcDbEntity
  8
0
100
AcDbBlockBegin
  2
*D9
 70
     1
 10
0.0
 20
0.0
 30
0.0
  3
*D9
  1

  0
LINE
  5
5173
330
4F1E
100
AcDbEntity
  8
Z_OM_DIM
100
AcDbLine
 10
821.0659927686418
 20
-42.35593333210863
 30
0.0
 11
835.5757651793046
 21
-42.35593333210863
 31
0.0
  0
LINE
  5
5174
330
4F1E
100
AcDbEntity
  8
Z_OM_DIM
100
AcDbLine
 10
821.0659927686418
 20
-60.35593333210863
 30
0.0
 11
835.5757651793046
 21
-60.35593333210863
 31
0.0
  0
LINE
  5
5175
330
4F1E
100
AcDbEntity
  8
Z_OM_DIM
100
AcDbLine
 10
834.3257651793047
 20
-44.85593333210863
 30
0.0
 11
834.3257651793047
 21
-57.85593333210863
 31
0.0
  0
INSERT
  5
5176
330
4F1E
100
AcDbEntity
  8
Z_OM_DIM
100
AcDbBlockReference
  2
_OPEN30
 10
834.3257651793047
 20
-42.35593333210863
 30
0.0
 41
2.5
 42
2.5
 43
2.5
 50
90.0
  0
INSERT
  5
5177
330
4F1E
100
AcDbEntity
  8
Z_OM_DIM
100
AcDbBlockReference
  2
_OPEN30
 10
834.3257651793047
 20
-60.35593333210863
 30
0.0
 41
2.5
 42
2.5
 43
2.5
 50
270.0
  0
MTEXT
  5
5178
330
4F1E
100
AcDbEntity
  8
Z_OM_DIM
100
AcDbMText
 10
832.4507651793046
 20
-51.3559333321085
 30
0.0
 40
2.5
 41
0.0
 71
     5
 72
     1
  1
18
  7
CatalogDxf
 11
0.0000000000000001
 21
1.0
 31
0.0
 73
     1
 44
1.0
1001
ACAD
1000
MTEXTBEGIN
1070
    73
1070
     1
1070
    44
1040
1.0
1070
    74
1070
     0
1000
MTEXTEND
  0
POINT
  5
5179
330
4F1E
100
AcDbEntity
  8
DEFPOINTS
 62
     0
100
AcDbPoint
 10
820.4409927686418
 20
-42.35593333210863
 30
0.0
  0
POINT
  5
517A
330
4F1E
100
AcDbEntity
  8
DEFPOINTS
 62
     0
100
AcDbPoint
 10
820.4409927686418
 20
-60.35593333210863
 30
0.0
  0
POINT
  5
517B
330
4F1E
100
AcDbEntity
  8
DEFPOINTS
 62
     0
100
AcDbPoint
 10
834.3257651793047
 20
-60.35593333210863
 30
0.0
  0
ENDBLK
  5
4F29
330
4F1E
100
AcDbEntity
  8
0
100
AcDbBlockEnd
  0
BLOCK
  5
4F34
330
4F2A
100
AcDbEntity
  8
0
100
AcDbBlockBegin
  2
*D10
 70
     1
 10
0.0
 20
0.0
 30
0.0
  3
*D10
  1

  0
LINE
  5
5185
330
4F2A
100
AcDbEntity
  8
Z_OM_DIM
100
AcDbLine
 10
798.4409927686417
 20
-60.98093333210863
 30
0.0
 11
798.4409927686417
 21
-75.54875181229427
 31
0.0
  0
LINE
  5
5186
330
4F2A
100
AcDbEntity
  8
Z_OM_DIM
100
AcDbLine
 10
820.4409927686418
 20
-60.98093333210863
 30
0.0
 11
820.4409927686418
 21
-75.54875181229427
 31
0.0
  0
LINE
  5
5187
330
4F2A
100
AcDbEntity
  8
Z_OM_DIM
100
AcDbLine
 10
800.9409927686418
 20
-74.29875181229427
 30
0.0
 11
817.9409927686418
 21
-74.29875181229427
 31
0.0
  0
INSERT
  5
5188
330
4F2A
100
AcDbEntity
  8
Z_OM_DIM
100
AcDbBlockReference
  2
_OPEN30
 10
798.4409927686417
 20
-74.29875181229427
 30
0.0
 41
2.5
 42
2.5
 43
2.5
 50
180.0
  0
INSERT
  5
5189
330
4F2A
100
AcDbEntity
  8
Z_OM_DIM
100
AcDbBlockReference
  2
_OPEN30
 10
820.4409927686418
 20
-74.29875181229427
 30
0.0
 41
2.5
 42
2.5
 43
2.5
  0
MTEXT
  5
518A
330
4F2A
100
AcDbEntity
  8
Z_OM_DIM
100
AcDbMText
 10
809.4409927686417
 20
-72.42375181229427
 30
0.0
 40
2.5
 41
0.0
 71
     5
 72
     1
  1
22
  7
CatalogDxf
 73
     1
 44
1.0
1001
ACAD
1000
MTEXTBEGIN
1070
    73
1070
     1
1070
    44
1040
1.0
1070
    74
1070
     0
1000
MTEXTEND
  0
POINT
  5
518B
330
4F2A
100
AcDbEntity
  8
DEFPOINTS
 62
     0
100
AcDbPoint
 10
798.4409927686417
 20
-60.35593333210863
 30
0.0
  0
POINT
  5
518C
330
4F2A
100
AcDbEntity
  8
DEFPOINTS
 62
     0
100
AcDbPoint
 10
820.4409927686418
 20
-60.35593333210863
 30
0.0
  0
POINT
  5
518D
330
4F2A
100
AcDbEntity
  8
DEFPOINTS
 62
     0
100
AcDbPoint
 10
820.4409927686418
 20
-74.29875181229427
 30
0.0
  0
ENDBLK
  5
4F35
330
4F2A
100
AcDbEntity
  8
0
100
AcDbBlockEnd
  0
BLOCK
  5
4F8A
330
4F80
100
AcDbEntity
  8
0
100
AcDbBlockBegin
  2
*D11
 70
     1
 10
0.0
 20
0.0
 30
0.0
  3
*D11
  1

  0
LINE
  5
517C
330
4F80
100
AcDbEntity
  8
Z_OM_DIM
100
AcDbLine
 10
860.0851733400572
 20
-47.36493333210853
 30
0.0
 11
848.0142386615153
 21
-47.36493333210853
 31
0.0
  0
LINE
  5
517D
330
4F80
100
AcDbEntity
  8
Z_OM_DIM
100
AcDbLine
 10
860.0851733400572
 20
-55.34693333210849
 30
0.0
 11
848.0142386615153
 21
-55.34693333210849
 31
0.0
  0
LINE
  5
517E
330
4F80
100
AcDbEntity
  8
Z_OM_DIM
100
AcDbLine
 10
849.2642386615155
 20
-49.86493333210853
 30
0.0
 11
849.2642386615155
 21
-52.84693333210849
 31
0.0
  0
INSERT
  5
517F
330
4F80
100
AcDbEntity
  8
Z_OM_DIM
100
AcDbBlockReference
  2
_OPEN30
 10
849.2642386615155
 20
-47.36493333210853
 30
0.0
 41
2.5
 42
2.5
 43
2.5
 50
90.0
  0
INSERT
  5
5180
330
4F80
100
AcDbEntity
  8
Z_OM_DIM
100
AcDbBlockReference
  2
_OPEN30
 10
849.2642386615155
 20
-55.34693333210849
 30
0.0
 41
2.5
 42
2.5
 43
2.5
 50
270.0
  0
MTEXT
  5
5181
330
4F80
100
AcDbEntity
  8
Z_OM_DIM
100
AcDbMText
 10
847.3892386615155
 20
-51.35593333210838
 30
0.0
 40
2.5
 41
0.0
 71
     5
 72
     1
  1
%%c8
  7
CatalogDxf
 11
0.0000000000000001
 21
1.0
 31
0.0
 73
     1
 44
1.0
1001
ACAD
1000
MTEXTBEGIN
1070
    73
1070
     1
1070
    44
1040
1.0
1070
    74
1070
     0
1000
MTEXTEND
  0
POINT
  5
5182
330
4F80
100
AcDbEntity
  8
DEFPOINTS
 62
     0
100
AcDbPoint
 10
860.7101733400572
 20
-47.36493333210853
 30
0.0
  0
POINT
  5
5183
330
4F80
100
AcDbEntity
  8
DEFPOINTS
 62
     0
100
AcDbPoint
 10
860.7101733400572
 20
-55.34693333210849
 30
0.0
  0
POINT
  5
5184
330
4F80
100
AcDbEntity
  8
DEFPOINTS
 62
     0
100
AcDbPoint
 10
849.2642386615155
 20
-55.34693333210849
 30
0.0
  0
ENDBLK
  5
4F8B
330
4F80
100
AcDbEntity
  8
0
100
AcDbBlockEnd
  0
BLOCK
  5
4FC0
330
4FB5
100
AcDbEntity
  8
0
100
AcDbBlockBegin
  2
*D12
 70
     1
 10
0.0
 20
0.0
 30
0.0
  3
*D12
  1

  0
LINE
  5
539C
330
4FB5
100
AcDbEntity
  8
Z_OM_DIM
100
AcDbLine
 10
913.9101733400574
 20
-49.63093333210861
 30
0.0
 11
913.9101733400574
 21
-15.17039087009755
 31
0.0
  0
LINE
  5
539D
330
4FB5
100
AcDbEntity
  8
Z_OM_DIM
100
AcDbLine
 10
919.0101733400574
 20
4.866955373756693
 30
0.0
 11
919.0101733400574
 21
-17.67039087009755
 31
0.0
  0
LINE
  5
539E
330
4FB5
100
AcDbEntity
  8
Z_OM_DIM
100
AcDbLine
 10
911.4101733400573
 20
-16.42039087009755
 30
0.0
 11
908.9101733400573
 21
-16.42039087009755
 31
0.0
  0
LINE
  5
539F
330
4FB5
100
AcDbEntity
  8
Z_OM_DIM
100
AcDbLine
 10
921.5101733400572
 20
-16.42039087009755
 30
0.0
 11
963.2601733400573
 21
-16.42039087009755
 31
0.0
  0
LINE
  5
53A0
330
4FB5
100
AcDbEntity
  8
Z_OM_DIM
100
AcDbLine
 10
913.9101733400574
 20
-16.42039087009755
 30
0.0
 11
919.0101733400574
 21
-16.42039087009755
 31
0.0
  0
INSERT
  5
53A1
330
4FB5
100
AcDbEntity
  8
Z_OM_DIM
100
AcDbBlockReference
  2
_OPEN30
 10
913.9101733400574
 20
-16.42039087009755
 30
0.0
 41
2.5
 42
2.5
 43
2.5
  0
INSERT
  5
53A2
330
4FB5
100
AcDbEntity
  8
Z_OM_DIM
100
AcDbBlockReference
  2
_OPEN30
 10
919.0101733400574
 20
-16.42039087009755
 30
0.0
 41
2.5
 42
2.5
 43
2.5
 50
180.0
  0
MTEXT
  5
53A3
330
4FB5
100
AcDbEntity
  8
Z_OM_DIM
100
AcDbMText
 10
943.6351733400574
 20
-14.12872420343088
 30
0.0
 40
2.5
 41
0.0
 71
     5
 72
     1
  1
(5) Movable length
  7
CatalogDxf
 73
     1
 44
1.0
  0
POINT
  5
53A4
330
4FB5
100
AcDbEntity
  8
DEFPOINTS
 62
     0
100
AcDbPoint
 10
913.9101733400574
 20
-50.25593333210861
 30
0.0
  0
POINT
  5
53A5
330
4FB5
100
AcDbEntity
  8
DEFPOINTS
 62
     0
100
AcDbPoint
 10
919.0101733400574
 20
5.491955373756693
 30
0.0
  0
POINT
  5
53A6
330
4FB5
100
AcDbEntity
  8
DEFPOINTS
 62
     0
100
AcDbPoint
 10
919.0101733400574
 20
-16.42039087009755
 30
0.0
  0
ENDBLK
  5
4FC1
330
4FB5
100
AcDbEntity
  8
0
100
AcDbBlockEnd
  0
BLOCK
  5
5001
330
4FF7
100
AcDbEntity
  8
0
100
AcDbBlockBegin
  2
*D13
 70
     1
 10
0.0
 20
0.0
 30
0.0
  3
*D13
  1

  0
LINE
  5
516A
330
4FF7
100
AcDbEntity
  8
Z_OM_DIM
100
AcDbLine
 10
903.5351733400572
 20
-44.85593333210863
 30
0.0
 11
927.9803919703404
 21
-44.85593333210863
 31
0.0
  0
LINE
  5
516B
330
4FF7
100
AcDbEntity
  8
Z_OM_DIM
100
AcDbLine
 10
903.5351733400572
 20
-57.85593333210863
 30
0.0
 11
927.9803919703404
 21
-57.85593333210864
 31
0.0
  0
LINE
  5
516C
330
4FF7
100
AcDbEntity
  8
Z_OM_DIM
100
AcDbLine
 10
926.7303919703405
 20
-47.35593333210863
 30
0.0
 11
926.7303919703405
 21
-55.35593333210864
 31
0.0
  0
INSERT
  5
516D
330
4FF7
100
AcDbEntity
  8
Z_OM_DIM
100
AcDbBlockReference
  2
_OPEN30
 10
926.7303919703405
 20
-44.85593333210863
 30
0.0
 41
2.5
 42
2.5
 43
2.5
 50
90.0
  0
INSERT
  5
516E
330
4FF7
100
AcDbEntity
  8
Z_OM_DIM
100
AcDbBlockReference
  2
_OPEN30
 10
926.7303919703405
 20
-57.85593333210864
 30
0.0
 41
2.5
 42
2.5
 43
2.5
 50
270.0
  0
MTEXT
  5
516F
330
4FF7
100
AcDbEntity
  8
Z_OM_DIM
100
AcDbMText
 10
924.8553919703404
 20
-51.35593333210849
 30
0.0
 40
2.5
 41
0.0
 71
     5
 72
     1
  1
13
  7
CatalogDxf
 11
0.0000000000000001
 21
1.0
 31
0.0
 73
     1
 44
1.0
1001
ACAD
1000
MTEXTBEGIN
1070
    73
1070
     1
1070
    44
1040
1.0
1070
    74
1070
     0
1000
MTEXTEND
  0
POINT
  5
5170
330
4FF7
100
AcDbEntity
  8
DEFPOINTS
 62
     0
100
AcDbPoint
 10
902.9101733400572
 20
-44.85593333210863
 30
0.0
  0
POINT
  5
5171
330
4FF7
100
AcDbEntity
  8
DEFPOINTS
 62
     0
100
AcDbPoint
 10
902.9101733400572
 20
-57.85593333210863
 30
0.0
  0
POINT
  5
5172
330
4FF7
100
AcDbEntity
  8
DEFPOINTS
 62
     0
100
AcDbPoint
 10
926.7303919703405
 20
-57.85593333210864
 30
0.0
  0
ENDBLK
  5
5002
330
4FF7
100
AcDbEntity
  8
0
100
AcDbBlockEnd
  0
BLOCK
  5
500D
330
5003
100
AcDbEntity
  8
0
100
AcDbBlockBegin
  2
*D14
 70
     1
 10
0.0
 20
0.0
 30
0.0
  3
*D14
  1

  0
LINE
  5
5018
330
5003
100
AcDbEntity
  8
Z_OM_DIM
100
AcDbLine
 10
934.2177757927784
 20
-56.19780634690069
 30
0.0
 11
949.8116844533612
 21
-56.19780634690071
 31
0.0
  0
LINE
  5
5019
330
5003
100
AcDbEntity
  8
Z_OM_DIM
100
AcDbLine
 10
934.2177757927784
 20
-64.19780634690072
 30
0.0
 11
949.8116844533612
 21
-64.19780634690072
 31
0.0
  0
LINE
  5
501A
330
5003
100
AcDbEntity
  8
Z_OM_DIM
100
AcDbLine
 10
948.5616844533611
 20
-58.69780634690071
 30
0.0
 11
948.5616844533611
 21
-61.69780634690072
 31
0.0
  0
INSERT
  5
501B
330
5003
100
AcDbEntity
  8
Z_OM_DIM
100
AcDbBlockReference
  2
_OPEN30
 10
948.5616844533611
 20
-56.19780634690071
 30
0.0
 41
2.5
 42
2.5
 43
2.5
 50
90.0
  0
INSERT
  5
501C
330
5003
100
AcDbEntity
  8
Z_OM_DIM
100
AcDbBlockReference
  2
_OPEN30
 10
948.5616844533611
 20
-64.19780634690072
 30
0.0
 41
2.5
 42
2.5
 43
2.5
 50
270.0
  0
MTEXT
  5
501D
330
5003
100
AcDbEntity
  8
Z_OM_DIM
100
AcDbMText
 10
946.6866844533612
 20
-60.19780634690055
 30
0.0
 40
2.5
 41
0.0
 71
     5
 72
     1
  1
%%c8
  7
CatalogDxf
 11
0.0000000000000001
 21
1.0
 31
0.0
 73
     1
 44
1.0
1001
ACAD
1000
MTEXTBEGIN
1070
    73
1070
     1
1070
    44
1040
1.0
1070
    74
1070
     0
1000
MTEXTEND
  0
POINT
  5
501E
330
5003
100
AcDbEntity
  8
DEFPOINTS
 62
     0
100
AcDbPoint
 10
933.5927757927782
 20
-56.19780634690069
 30
0.0
  0
POINT
  5
501F
330
5003
100
AcDbEntity
  8
DEFPOINTS
 62
     0
100
AcDbPoint
 10
933.5927757927782
 20
-64.19780634690072
 30
0.0
  0
POINT
  5
5020
330
5003
100
AcDbEntity
  8
DEFPOINTS
 62
     0
100
AcDbPoint
 10
948.5616844533611
 20
-64.19780634690072
 30
0.0
  0
ENDBLK
  5
500E
330
5003
100
AcDbEntity
  8
0
100
AcDbBlockEnd
  0
BLOCK
  5
502D
330
5023
100
AcDbEntity
  8
0
100
AcDbBlockBegin
  2
*D15
 70
     1
 10
0.0
 20
0.0
 30
0.0
  3
*D15
  1

  0
LINE
  5
52AF
330
5023
100
AcDbEntity
  8
Z_OM_DIM
100
AcDbLine
 10
890.6652728008145
 20
-46.35593333210863
 30
0.0
 11
927.0078624660994
 21
-46.35593333210864
 31
0.0
  0
LINE
  5
52B0
330
5023
100
AcDbEntity
  8
Z_OM_DIM
100
AcDbLine
 10
890.6652728008145
 20
-56.35593333210863
 30
0.0
 11
927.0078624660994
 21
-56.35593333210864
 31
0.0
  0
LINE
  5
52B1
330
5023
100
AcDbEntity
  8
Z_OM_DIM
100
AcDbLine
 10
925.7578624660991
 20
-48.85593333210864
 30
0.0
 11
925.7578624660991
 21
-53.85593333210864
 31
0.0
  0
INSERT
  5
52B2
330
5023
100
AcDbEntity
  8
Z_OM_DIM
100
AcDbBlockReference
  2
_OPEN30
 10
925.7578624660991
 20
-46.35593333210864
 30
0.0
 41
2.5
 42
2.5
 43
2.5
 50
90.0
  0
INSERT
  5
52B3
330
5023
100
AcDbEntity
  8
Z_OM_DIM
100
AcDbBlockReference
  2
_OPEN30
 10
925.7578624660991
 20
-56.35593333210864
 30
0.0
 41
2.5
 42
2.5
 43
2.5
 50
270.0
  0
MTEXT
  5
52B4
330
5023
100
AcDbEntity
  8
Z_OM_DIM
100
AcDbMText
 10
923.8828624660994
 20
-50.98684611585524
 30
0.0
 40
2.5
 41
0.0
 71
     5
 72
     1
  1
10
  7
CatalogDxf
 11
0.0000000000000001
 21
1.0
 31
0.0
 73
     1
 44
1.0
1001
ACAD
1000
MTEXTBEGIN
1070
    73
1070
     1
1070
    44
1040
1.0
1070
    74
1070
     0
1000
MTEXTEND
  0
POINT
  5
52B5
330
5023
100
AcDbEntity
  8
DEFPOINTS
 62
     0
100
AcDbPoint
 10
890.0402728008144
 20
-46.35593333210863
 30
0.0
  0
POINT
  5
52B6
330
5023
100
AcDbEntity
  8
DEFPOINTS
 62
     0
100
AcDbPoint
 10
890.0402728008144
 20
-56.35593333210863
 30
0.0
  0
POINT
  5
52B7
330
5023
100
AcDbEntity
  8
DEFPOINTS
 62
     0
100
AcDbPoint
 10
925.7578624660991
 20
-56.35593333210864
 30
0.0
  0
ENDBLK
  5
502E
330
5023
100
AcDbEntity
  8
0
100
AcDbBlockEnd
  0
BLOCK
  5
5097
330
508D
100
AcDbEntity
  8
0
100
AcDbBlockBegin
  2
*D16
 70
     1
 10
0.0
 20
0.0
 30
0.0
  3
*D16
  1

  0
LINE
  5
510B
330
508D
100
AcDbEntity
  8
Z_OM_DIM
100
AcDbLine
 10
913.9101733400574
 20
-53.08093333210853
 30
0.0
 11
913.9101733400574
 21
-57.88138571801067
 31
0.0
  0
LINE
  5
510C
330
508D
100
AcDbEntity
  8
Z_OM_DIM
100
AcDbLine
 10
902.9101733400572
 20
-56.27173865443534
 30
0.0
 11
902.9101733400572
 21
-57.88138571801067
 31
0.0
  0
LINE
  5
510D
330
508D
100
AcDbEntity
  8
Z_OM_DIM
100
AcDbLine
 10
911.4101733400572
 20
-56.63138571801067
 30
0.0
 11
905.4101733400571
 21
-56.63138571801067
 31
0.0
  0
INSERT
  5
510E
330
508D
100
AcDbEntity
  8
Z_OM_DIM
100
AcDbBlockReference
  2
_OPEN30
 10
913.9101733400574
 20
-56.63138571801067
 30
0.0
 41
2.5
 42
2.5
 43
2.5
  0
INSERT
  5
510F
330
508D
100
AcDbEntity
  8
Z_OM_DIM
100
AcDbBlockReference
  2
_OPEN30
 10
902.9101733400572
 20
-56.63138571801067
 30
0.0
 41
2.5
 42
2.5
 43
2.5
 50
180.0
  0
MTEXT
  5
5110
330
508D
100
AcDbEntity
  8
Z_OM_DIM
100
AcDbMText
 10
908.4101733400572
 20
-54.75638571801067
 30
0.0
 40
2.5
 41
0.0
 71
     5
 72
     1
  1
11
  7
CatalogDxf
 73
     1
 44
1.0
1001
ACAD
1000
MTEXTBEGIN
1070
    73
1070
     1
1070
    44
1040
1.0
1070
    74
1070
     0
1000
MTEXTEND
  0
POINT
  5
5111
330
508D
100
AcDbEntity
  8
DEFPOINTS
 62
     0
100
AcDbPoint
 10
913.9101733400574
 20
-52.45593333210853
 30
0.0
  0
POINT
  5
5112
330
508D
100
AcDbEntity
  8
DEFPOINTS
 62
     0
100
AcDbPoint
 10
902.9101733400572
 20
-55.64673865443534
 30
0.0
  0
POINT
  5
5113
330
508D
100
AcDbEntity
  8
DEFPOINTS
 62
     0
100
AcDbPoint
 10
902.9101733400572
 20
-56.63138571801067
 30
0.0
  0
ENDBLK
  5
5098
330
508D
100
AcDbEntity
  8
0
100
AcDbBlockEnd
  0
BLOCK
  5
50B8
330
50AE
100
AcDbEntity
  8
0
100
AcDbBlockBegin
  2
*D17
 70
     1
 10
0.0
 20
0.0
 30
0.0
  3
*D17
  1

  0
LINE
  5
527A
330
50AE
100
AcDbEntity
  8
Z_OM_DIM
100
AcDbLine
 10
886.9101733400572
 20
-42.80929450181907
 30
0.0
 11
886.9101733400572
 21
-32.45350564344722
 31
0.0
  0
LINE
  5
527B
330
50AE
100
AcDbEntity
  8
Z_OM_DIM
100
AcDbLine
 10
878.9101733400572
 20
-42.80929450181907
 30
0.0
 11
878.9101733400572
 21
-32.45350564344722
 31
0.0
  0
LINE
  5
527C
330
50AE
100
AcDbEntity
  8
Z_OM_DIM
100
AcDbLine
 10
884.4101733400574
 20
-33.70350564344722
 30
0.0
 11
881.4101733400573
 21
-33.70350564344722
 31
0.0
  0
INSERT
  5
527D
330
50AE
100
AcDbEntity
  8
Z_OM_DIM
100
AcDbBlockReference
  2
_OPEN30
 10
886.9101733400572
 20
-33.70350564344722
 30
0.0
 41
2.5
 42
2.5
 43
2.5
  0
INSERT
  5
527E
330
50AE
100
AcDbEntity
  8
Z_OM_DIM
100
AcDbBlockReference
  2
_OPEN30
 10
878.9101733400572
 20
-33.70350564344722
 30
0.0
 41
2.5
 42
2.5
 43
2.5
 50
180.0
  0
MTEXT
  5
527F
330
50AE
100
AcDbEntity
  8
Z_OM_DIM
100
AcDbMText
 10
882.9101733400571
 20
-31.82850564344722
 30
0.0
 40
2.5
 41
0.0
 71
     5
 72
     1
  1
8
  7
CatalogDxf
 73
     1
 44
1.0
1001
ACAD
1000
MTEXTBEGIN
1070
    73
1070
     1
1070
    44
1040
1.0
1070
    74
1070
     0
1000
MTEXTEND
  0
POINT
  5
5280
330
50AE
100
AcDbEntity
  8
DEFPOINTS
 62
     0
100
AcDbPoint
 10
886.9101733400572
 20
-43.43429450181907
 30
0.0
  0
POINT
  5
5281
330
50AE
100
AcDbEntity
  8
DEFPOINTS
 62
     0
100
AcDbPoint
 10
878.9101733400572
 20
-43.43429450181907
 30
0.0
  0
POINT
  5
5282
330
50AE
100
AcDbEntity
  8
DEFPOINTS
 62
     0
100
AcDbPoint
 10
878.9101733400572
 20
-33.70350564344722
 30
0.0
  0
ENDBLK
  5
50B9
330
50AE
100
AcDbEntity
  8
0
100
AcDbBlockEnd
  0
BLOCK
  5
513A
330
5130
100
AcDbEntity
  8
0
100
AcDbBlockBegin
  2
*D18
 70
     1
 10
0.0
 20
0.0
 30
0.0
  3
*D18
  1

  0
LINE
  5
5146
330
5130
100
AcDbEntity
  8
Z_OM_DIM
100
AcDbLine
 10
878.9101733400572
 20
-42.80929450181907
 30
0.0
 11
878.9101733400572
 21
-31.2376056521739
 31
0.0
  0
LINE
  5
5147
330
5130
100
AcDbEntity
  8
Z_OM_DIM
100
AcDbLine
 10
872.5762294478981
 20
-46.74343333210868
 30
0.0
 11
872.5762294478981
 21
-31.2376056521739
 31
0.0
  0
LINE
  5
5148
330
5130
100
AcDbEntity
  8
Z_OM_DIM
100
AcDbLine
 10
876.4101733400574
 20
-32.4876056521739
 30
0.0
 11
875.0762294478981
 21
-32.4876056521739
 31
0.0
  0
INSERT
  5
5149
330
5130
100
AcDbEntity
  8
Z_OM_DIM
100
AcDbBlockReference
  2
_OPEN30
 10
878.9101733400572
 20
-32.4876056521739
 30
0.0
 41
2.5
 42
2.5
 43
2.5
  0
INSERT
  5
514A
330
5130
100
AcDbEntity
  8
Z_OM_DIM
100
AcDbBlockReference
  2
_OPEN30
 10
872.5762294478981
 20
-32.4876056521739
 30
0.0
 41
2.5
 42
2.5
 43
2.5
 50
180.0
  0
MTEXT
  5
514B
330
5130
100
AcDbEntity
  8
Z_OM_DIM
100
AcDbMText
 10
875.7432013939776
 20
-30.6126056521739
 30
0.0
 40
2.5
 41
0.0
 71
     5
 72
     1
  1
6.5
  7
CatalogDxf
 73
     1
 44
1.0
1001
ACAD
1000
MTEXTBEGIN
1070
    73
1070
     1
1070
    44
1040
1.0
1070
    74
1070
     0
1000
MTEXTEND
  0
POINT
  5
514C
330
5130
100
AcDbEntity
  8
DEFPOINTS
 62
     0
100
AcDbPoint
 10
878.9101733400572
 20
-43.43429450181907
 30
0.0
  0
POINT
  5
514D
330
5130
100
AcDbEntity
  8
DEFPOINTS
 62
     0
100
AcDbPoint
 10
872.5762294478981
 20
-47.36843333210868
 30
0.0
  0
POINT
  5
514E
330
5130
100
AcDbEntity
  8
DEFPOINTS
 62
     0
100
AcDbPoint
 10
872.5762294478981
 20
-32.4876056521739
 30
0.0
  0
ENDBLK
  5
513B
330
5130
100
AcDbEntity
  8
0
100
AcDbBlockEnd
  0
BLOCK
  5
51E6
330
51DC
100
AcDbEntity
  8
0
100
AcDbBlockBegin
  2
*D19
 70
     1
 10
0.0
 20
0.0
 30
0.0
  3
*D19
  1

  0
LINE
  5
5345
330
51DC
100
AcDbEntity
  8
Z_OM_DIM
100
AcDbLine
 10
899.8899565724926
 20
7.054603045594944
 30
0.0
 11
884.1894087589817
 21
24.34049559719165
 31
0.0
  0
LINE
  5
5346
330
51DC
100
AcDbEntity
  8
Z_OM_DIM
100
AcDbLine
 10
925.3709432612499
 20
30.19864658561522
 30
0.0
 11
909.6703954477392
 21
47.48453913721192
 31
0.0
  0
LINE
  5
5347
330
51DC
100
AcDbEntity
  8
Z_OM_DIM
100
AcDbLine
 10
886.8804329814643
 20
25.09606732377466
 30
0.0
 11
908.660238295516
 21
44.878376723276
 31
0.0
  0
INSERT
  5
5348
330
51DC
100
AcDbEntity
  8
Z_OM_DIM
100
AcDbBlockReference
  2
_OPEN30
 10
885.0298422941115
 20
23.4152002535152
 30
0.0
 41
2.5
 42
2.5
 43
2.5
 50
222.2484535405682
  0
INSERT
  5
5349
330
51DC
100
AcDbEntity
  8
Z_OM_DIM
100
AcDbBlockReference
  2
_OPEN30
 10
910.510828982869
 20
46.55924379353547
 30
0.0
 41
2.5
 42
2.5
 43
2.5
 50
42.24845354056823
  0
MTEXT
  5
534A
330
51DC
100
AcDbEntity
  8
Z_OM_DIM
100
AcDbMText
 10
896.5096853357957
 20
36.37516503903987
 30
0.0
 40
2.5
 41
0.0
 71
     5
 72
     1
  1
180 - 200
  7
CatalogDxf
 11
0.7402362749411692
 21
0.6723468281037859
 31
0.0
 73
     1
 44
1.0
  0
POINT
  5
534B
330
51DC
100
AcDbEntity
  8
DEFPOINTS
 62
     0
100
AcDbPoint
 10
900.3101733400574
 20
6.591955373756718
 30
0.0
  0
POINT
  5
534C
330
51DC
100
AcDbEntity
  8
DEFPOINTS
 62
     0
100
AcDbPoint
 10
925.7911600288148
 20
29.735998913777
 30
0.0
  0
POINT
  5
534D
330
51DC
100
AcDbEntity
  8
DEFPOINTS
 62
     0
100
AcDbPoint
 10
910.510828982869
 20
46.55924379353547
 30
0.0
  0
ENDBLK
  5
51E7
330
51DC
100
AcDbEntity
  8
0
100
AcDbBlockEnd
  0
BLOCK
  5
52D3
330
52D2
100
AcDbEntity
  8
0
100
AcDbBlockBegin
  2
*D20
 70
     1
 10
0.0
 20
0.0
 30
0.0
  3
*D20
  1

  0
LINE
  5
52D4
330
52D2
100
AcDbEntity
  8
Z_OM_DIM
100
AcDbLine
 10
635.5352871596076
 20
-19.68535554167693
 30
0.0
 11
623.7510393654559
 21
-19.68535554167692
 31
0.0
  0
LINE
  5
52D5
330
52D2
100
AcDbEntity
  8
Z_OM_DIM
100
AcDbLine
 10
635.5352871596076
 20
-27.6673555416769
 30
0.0
 11
623.7510393654559
 21
-27.6673555416769
 31
0.0
  0
LINE
  5
52D6
330
52D2
100
AcDbEntity
  8
Z_OM_DIM
100
AcDbLine
 10
625.0010393654559
 20
-22.18535554167692
 30
0.0
 11
625.0010393654559
 21
-25.1673555416769
 31
0.0
  0
INSERT
  5
52D7
330
52D2
100
AcDbEntity
  8
Z_OM_DIM
100
AcDbBlockReference
  2
_OPEN30
 10
625.0010393654559
 20
-19.68535554167692
 30
0.0
 41
2.5
 42
2.5
 43
2.5
 50
90.0
  0
INSERT
  5
52D8
330
52D2
100
AcDbEntity
  8
Z_OM_DIM
100
AcDbBlockReference
  2
_OPEN30
 10
625.0010393654559
 20
-27.6673555416769
 30
0.0
 41
2.5
 42
2.5
 43
2.5
 50
270.0
  0
MTEXT
  5
52D9
330
52D2
100
AcDbEntity
  8
Z_OM_DIM
100
AcDbMText
 10
623.1260393654557
 20
-23.67635554167681
 30
0.0
 40
2.5
 41
0.0
 71
     5
 72
     1
  1
%%C8
  7
CatalogDxf
 11
0.0000000000000001
 21
1.0
 31
0.0
 73
     1
 44
1.0
1001
ACAD
1000
MTEXTBEGIN
1070
    73
1070
     1
1070
    44
1040
1.0
1070
    74
1070
     0
1000
MTEXTEND
  0
POINT
  5
52DA
330
52D2
100
AcDbEntity
  8
DEFPOINTS
 62
     0
100
AcDbPoint
 10
636.1602871596077
 20
-19.68535554167693
 30
0.0
  0
POINT
  5
52DB
330
52D2
100
AcDbEntity
  8
DEFPOINTS
 62
     0
100
AcDbPoint
 10
636.1602871596077
 20
-27.6673555416769
 30
0.0
  0
POINT
  5
52DC
330
52D2
100
AcDbEntity
  8
DEFPOINTS
 62
     0
100
AcDbPoint
 10
625.0010393654559
 20
-27.6673555416769
 30
0.0
  0
ENDBLK
  5
52DD
330
52D2
100
AcDbEntity
  8
0
100
AcDbBlockEnd
  0
BLOCK
  5
52F0
330
52E6
100
AcDbEntity
  8
0
100
AcDbBlockBegin
  2
*D21
 70
     1
 10
0.0
 20
0.0
 30
0.0
  3
*D21
  1

  0
LINE
  5
534E
330
52E6
100
AcDbEntity
  8
Z_OM_DIM
100
AcDbLine
 10
865.1851733400574
 20
10.58295537375673
 30
0.0
 11
853.4009255459054
 21
10.58295537375673
 31
0.0
  0
LINE
  5
534F
330
52E6
100
AcDbEntity
  8
Z_OM_DIM
100
AcDbLine
 10
865.1851733400574
 20
2.600955373756763
 30
0.0
 11
853.4009255459054
 21
2.600955373756766
 31
0.0
  0
LINE
  5
5350
330
52E6
100
AcDbEntity
  8
Z_OM_DIM
100
AcDbLine
 10
854.6509255459055
 20
8.082955373756735
 30
0.0
 11
854.6509255459055
 21
5.100955373756766
 31
0.0
  0
INSERT
  5
5351
330
52E6
100
AcDbEntity
  8
Z_OM_DIM
100
AcDbBlockReference
  2
_OPEN30
 10
854.6509255459055
 20
10.58295537375673
 30
0.0
 41
2.5
 42
2.5
 43
2.5
 50
90.0
  0
INSERT
  5
5352
330
52E6
100
AcDbEntity
  8
Z_OM_DIM
100
AcDbBlockReference
  2
_OPEN30
 10
854.6509255459055
 20
2.600955373756766
 30
0.0
 41
2.5
 42
2.5
 43
2.5
 50
270.0
  0
MTEXT
  5
5353
330
52E6
100
AcDbEntity
  8
Z_OM_DIM
100
AcDbMText
 10
852.7759255459054
 20
6.591955373756889
 30
0.0
 40
2.5
 41
0.0
 71
     5
 72
     1
  1
%%C8
  7
CatalogDxf
 11
0.0000000000000001
 21
1.0
 31
0.0
 73
     1
 44
1.0
  0
POINT
  5
5354
330
52E6
100
AcDbEntity
  8
DEFPOINTS
 62
     0
100
AcDbPoint
 10
865.8101733400574
 20
10.58295537375673
 30
0.0
  0
POINT
  5
5355
330
52E6
100
AcDbEntity
  8
DEFPOINTS
 62
     0
100
AcDbPoint
 10
865.8101733400574
 20
2.600955373756763
 30
0.0
  0
POINT
  5
5356
330
52E6
100
AcDbEntity
  8
DEFPOINTS
 62
     0
100
AcDbPoint
 10
854.6509255459055
 20
2.600955373756766
 30
0.0
  0
ENDBLK
  5
52F1
330
52E6
100
AcDbEntity
  8
0
100
AcDbBlockEnd
  0
ENDSEC
  0
SECTION
  2
ENTITIES
  0
MTEXT
  5
42AA
330
17
100
AcDbEntity
  8
Z_OM_DIM
100
AcDbMText
 10
867.0389867472676
 20
60.13891786646578
 30
0.0
 40
3.0
 41
47.03999999999999
 71
     1
 72
     1
  1
Adsorbed position
  7
CatalogDxf
 73
     1
 44
1.0
1001
ACAD
1000
MTEXTBEGIN
1070
    73
1070
     1
1070
    44
1040
1.0
1070
    74
1070
     0
1000
MTEXTEND
  0
MTEXT
  5
44DC
330
17
100
AcDbEntity
  8
Z_OM_DIM
100
AcDbMText
 10
867.6413573787192
 20
-91.09715424858141
 30
0.0
 40
3.0
 41
47.03999999999999
 71
     1
 72
     1
  1
Returned position
  7
CatalogDxf
 73
     1
 44
1.0
1001
ACAD
1000
MTEXTBEGIN
1070
    73
1070
     1
1070
    44
1040
1.0
1070
    74
1070
     0
1000
MTEXTEND
  0
LINE
  5
4E3B
330
17
100
AcDbEntity
  8
0
370
    -3
100
AcDbLine
 10
913.9101733400574
 20
-52.45593333210853
 30
0.0
 11
913.9101733400574
 21
-50.25593333210861
 31
0.0
  0
LINE
  5
4E3C
330
17
100
AcDbEntity
  8
0
370
    -3
100
AcDbLine
 10
913.5101733400572
 20
-49.85593333210863
 30
0.0
 11
913.9101733400574
 21
-50.25593333210861
 31
0.0
  0
LINE
  5
4E3D
330
17
100
AcDbEntity
  8
0
370
    -3
100
AcDbLine
 10
913.5101733400572
 20
-49.85593333210863
 30
0.0
 11
907.9101733400571
 21
-49.85593333210863
 31
0.0
  0
LINE
  5
4E3E
330
17
100
AcDbEntity
  8
0
370
    -3
100
AcDbLine
 10
907.9101733400571
 20
-49.85593333210863
 30
0.0
 11
907.9101733400571
 21
-52.85593333210863
 31
0.0
  0
LINE
  5
4E3F
330
17
100
AcDbEntity
  8
0
370
    -3
100
AcDbLine
 10
907.9101733400571
 20
-52.85593333210863
 30
0.0
 11
913.5101733400572
 21
-52.85593333210863
 31
0.0
  0
LINE
  5
4E40
330
17
100
AcDbEntity
  8
0
370
    -3
100
AcDbLine
 10
913.9101733400574
 20
-52.45593333210853
 30
0.0
 11
913.5101733400572
 21
-52.85593333210863
 31
0.0
  0
LINE
  5
4E41
330
17
100
AcDbEntity
  8
0
370
    -3
100
AcDbLine
 10
907.9101733400571
 20
-52.60593333210863
 30
0.0
 11
913.7601733400574
 21
-52.60593333210863
 31
0.0
  0
LINE
  5
4E42
330
17
100
AcDbEntity
  8
0
370
    -3
100
AcDbLine
 10
907.9101733400571
 20
-52.55593333210857
 30
0.0
 11
906.9101733400572
 21
-52.55593333210857
 31
0.0
  0
LINE
  5
4E43
330
17
100
AcDbEntity
  8
0
370
    -3
100
AcDbLine
 10
907.9101733400571
 20
-50.15593333210857
 30
0.0
 11
906.9101733400572
 21
-50.15593333210857
 31
0.0
  0
LINE
  5
4E44
330
17
100
AcDbEntity
  8
0
370
    -3
100
AcDbLine
 10
906.9101733400572
 20
-53.10593333210864
 30
0.0
 11
906.9101733400572
 21
-49.60593333210863
 31
0.0
  0
LINE
  5
4E45
330
17
100
AcDbEntity
  8
0
370
    -3
100
AcDbLine
 10
906.9101733400572
 20
-49.60593333210863
 30
0.0
 11
904.4101733400571
 21
-49.60593333210863
 31
0.0
  0
LINE
  5
4E46
330
17
100
AcDbEntity
  8
0
370
    -3
100
AcDbLine
 10
904.4101733400571
 20
-53.10593333210864
 30
0.0
 11
906.9101733400572
 21
-53.10593333210864
 31
0.0
  0
LINE
  5
4E47
330
17
100
AcDbEntity
  8
0
370
    -3
100
AcDbLine
 10
913.5101733400572
 20
-52.85593333210863
 30
0.0
 11
913.5101733400572
 21
-49.85593333210863
 31
0.0
  0
LINE
  5
4E48
330
17
100
AcDbEntity
  8
0
370
    -3
100
AcDbLine
 10
907.9101733400577
 20
-50.10593333210749
 30
0.0
 11
913.760173340057
 21
-50.10593333210818
 31
0.0
  0
LINE
  5
4E49
330
17
100
AcDbEntity
  8
0
370
    -3
100
AcDbLine
 10
871.5401733400574
 20
-46.55471945927614
 30
0.0
 11
872.5762294478981
 21
-52.62850918760296
 31
0.0
  0
LINE
  5
4E4A
330
17
100
AcDbEntity
  8
0
370
    -3
100
AcDbLine
 10
873.0399333402933
 20
-55.34693333210849
 30
0.0
 11
873.2101733400572
 21
-56.34495067314901
 31
0.0
  0
LINE
  5
4E4B
330
17
100
AcDbEntity
  8
0
370
    -3
100
AcDbLine
 10
871.5401733400574
 20
-46.55471945927614
 30
0.0
 11
871.5401733400574
 21
-47.36943161877218
 31
0.0
  0
LINE
  5
4E4C
330
17
100
AcDbEntity
  8
0
370
    -3
100
AcDbLine
 10
871.5401733400572
 20
-55.34693333210849
 30
0.0
 11
871.5401733400572
 21
-56.16164549160453
 31
0.0
  0
LINE
  5
4E4D
330
17
100
AcDbEntity
  8
0
370
    -3
100
AcDbLine
 10
871.5401733400572
 20
-56.15714720494088
 30
0.0
 11
869.8701733400572
 21
-46.7425229274843
 31
0.0
  0
LINE
  5
4E4E
330
17
100
AcDbEntity
  8
0
370
    -3
100
AcDbLine
 10
869.8701733400572
 20
-46.7425229274843
 30
0.0
 11
869.8701733400572
 21
-47.36268418877671
 31
0.0
  0
LINE
  5
4E4F
330
17
100
AcDbEntity
  8
0
370
    -3
100
AcDbLine
 10
869.8701733400572
 20
-55.34693333210849
 30
0.0
 11
869.8701733400572
 21
-55.96709459340093
 31
0.0
  0
LINE
  5
4E50
330
17
100
AcDbEntity
  8
0
370
    -3
100
AcDbLine
 10
869.8701733400572
 20
-55.96934373673275
 30
0.0
 11
868.2001733400571
 21
-46.93032639569231
 31
0.0
  0
LINE
  5
4E51
330
17
100
AcDbEntity
  8
0
370
    -3
100
AcDbLine
 10
868.2001733400571
 20
-46.93032639569231
 30
0.0
 11
868.2001733400571
 21
-47.35593675878114
 31
0.0
  0
LINE
  5
4E52
330
17
100
AcDbEntity
  8
0
370
    -3
100
AcDbLine
 10
868.2001733400571
 20
-55.34693333210849
 30
0.0
 11
868.2001733400571
 21
-55.77254369519732
 31
0.0
  0
LINE
  5
4E53
330
17
100
AcDbEntity
  8
0
370
    -3
100
AcDbLine
 10
868.2001733400571
 20
-55.78154026852472
 30
0.0
 11
866.5301733400575
 21
-47.11812986390043
 31
0.0
  0
LINE
  5
4E54
330
17
100
AcDbEntity
  8
0
370
    -3
100
AcDbLine
 10
866.5301733400575
 20
-47.11812986390043
 30
0.0
 11
866.5301733400575
 21
-47.34918932878565
 31
0.0
  0
LINE
  5
4E55
330
17
100
AcDbEntity
  8
0
370
    -3
100
AcDbLine
 10
866.5301733400575
 20
-55.34693333210849
 30
0.0
 11
866.5301733400575
 21
-55.57799279699384
 31
0.0
  0
LINE
  5
4E56
330
17
100
AcDbEntity
  8
0
370
    -3
100
AcDbLine
 10
863.9101733400574
 20
-47.36493333210853
 30
0.0
 11
860.7101733400572
 21
-47.36493333210853
 31
0.0
  0
LINE
  5
4E57
330
17
100
AcDbEntity
  8
0
370
    -3
100
AcDbLine
 10
860.2101733400571
 20
-47.86493333210853
 30
0.0
 11
860.2101733400571
 21
-54.84693333210862
 31
0.0
  0
LINE
  5
4E58
330
17
100
AcDbEntity
  8
0
370
    -3
100
AcDbLine
 10
860.7101733400572
 20
-47.36493333210853
 30
0.0
 11
860.2101733400571
 21
-47.86493333210853
 31
0.0
  0
LINE
  5
4E59
330
17
100
AcDbEntity
  8
0
370
    -3
100
AcDbLine
 10
863.9101733400574
 20
-55.34693333210849
 30
0.0
 11
863.9101733400574
 21
-47.36493333210853
 31
0.0
  0
LINE
  5
4E5A
330
17
100
AcDbEntity
  8
0
370
    -3
100
AcDbLine
 10
860.7101733400572
 20
-47.36493333210853
 30
0.0
 11
860.7101733400572
 21
-55.34693333210849
 31
0.0
  0
LINE
  5
4E5B
330
17
100
AcDbEntity
  8
0
370
    -3
100
AcDbLine
 10
863.9101733400574
 20
-55.34693333210849
 30
0.0
 11
860.7101733400572
 21
-55.34693333210849
 31
0.0
  0
LINE
  5
4E5C
330
17
100
AcDbEntity
  8
0
370
    -3
100
AcDbLine
 10
860.7101733400572
 20
-55.34693333210849
 30
0.0
 11
860.2101733400571
 21
-54.8469333321085
 31
0.0
  0
LINE
  5
4E5D
330
17
100
AcDbEntity
  8
0
370
    -3
100
AcDbLine
 10
873.2101733400572
 20
-47.36493333210853
 30
0.0
 11
864.7101733400571
 21
-47.36493333210853
 31
0.0
  0
LINE
  5
4E5E
330
17
100
AcDbEntity
  8
0
370
    -3
100
AcDbLine
 10
873.2101733400572
 20
-55.34693333210849
 30
0.0
 11
864.7101733400571
 21
-55.34693333210849
 31
0.0
  0
LINE
  5
4E5F
330
17
100
AcDbEntity
  8
0
370
    -3
100
AcDbLine
 10
863.9101733400574
 20
-45.35593333210853
 30
0.0
 11
863.9101733400574
 21
-57.35593333210863
 31
0.0
  0
LINE
  5
4E60
330
17
100
AcDbEntity
  8
0
370
    -3
100
AcDbLine
 10
863.9101733400574
 20
-57.35593333210863
 30
0.0
 11
864.7101733400571
 21
-57.35593333210863
 31
0.0
  0
LINE
  5
4E61
330
17
100
AcDbEntity
  8
0
370
    -3
100
AcDbLine
 10
864.7101733400571
 20
-57.35593333210863
 30
0.0
 11
864.7101733400571
 21
-45.35593333210853
 31
0.0
  0
LINE
  5
4E62
330
17
100
AcDbEntity
  8
0
370
    -3
100
AcDbLine
 10
864.7101733400571
 20
-45.35593333210853
 30
0.0
 11
863.9101733400574
 21
-45.35593333210853
 31
0.0
  0
LINE
  5
4E63
330
17
100
AcDbEntity
  8
0
370
    -3
100
AcDbLine
 10
866.5301733400575
 20
-55.59373680031661
 30
0.0
 11
864.8601733400573
 21
-47.30593333210845
 31
0.0
  0
LWPOLYLINE
  5
4E64
330
17
100
AcDbEntity
  8
0
370
    -3
100
AcDbPolyline
 90
        4
 70
     1
 43
0.0
 10
908.9101733400571
 20
9.841955373756723
 10
909.5101733400577
 20
9.841955373756723
 10
909.5101733400577
 20
3.341955373756713
 10
908.9101733400571
 20
3.341955373756713
  0
LINE
  5
4E65
330
17
100
AcDbEntity
  8
0
370
    -3
100
AcDbLine
 10
908.4101733400572
 20
10.09195537375671
 30
0.0
 11
908.9101733400571
 21
10.09195537375671
 31
0.0
  0
LINE
  5
4E66
330
17
100
AcDbEntity
  8
0
370
    -3
100
AcDbLine
 10
908.9101733400571
 20
10.09195537375671
 30
0.0
 11
908.9101733400571
 21
3.091955373756713
 31
0.0
  0
LINE
  5
4E67
330
17
100
AcDbEntity
  8
0
370
    -3
100
AcDbLine
 10
908.9101733400571
 20
3.091955373756713
 30
0.0
 11
908.4101733400572
 21
3.091955373756713
 31
0.0
  0
LINE
  5
4E68
330
17
100
AcDbEntity
  8
0
370
    -3
100
AcDbLine
 10
908.4101733400572
 20
3.091955373756713
 30
0.0
 11
908.4101733400572
 21
10.09195537375671
 31
0.0
  0
LINE
  5
4E69
330
17
100
AcDbEntity
  8
0
370
    -3
100
AcDbLine
 10
919.0101733400574
 20
5.491955373756693
 30
0.0
 11
919.0101733400574
 21
7.691955373756732
 31
0.0
  0
LINE
  5
4E6A
330
17
100
AcDbEntity
  8
0
370
    -3
100
AcDbLine
 10
918.6101733400574
 20
8.091955373756713
 30
0.0
 11
919.0101733400574
 21
7.691955373756732
 31
0.0
  0
LINE
  5
4E6B
330
17
100
AcDbEntity
  8
0
370
    -3
100
AcDbLine
 10
918.6101733400574
 20
8.091955373756713
 30
0.0
 11
913.0101733400577
 21
8.091955373756713
 31
0.0
  0
LINE
  5
4E6C
330
17
100
AcDbEntity
  8
0
370
    -3
100
AcDbLine
 10
913.0101733400577
 20
8.091955373756713
 30
0.0
 11
913.0101733400577
 21
5.091955373756713
 31
0.0
  0
LINE
  5
4E6D
330
17
100
AcDbEntity
  8
0
370
    -3
100
AcDbLine
 10
913.0101733400577
 20
5.091955373756713
 30
0.0
 11
918.6101733400574
 21
5.091955373756713
 31
0.0
  0
LINE
  5
4E6E
330
17
100
AcDbEntity
  8
0
370
    -3
100
AcDbLine
 10
919.0101733400574
 20
5.491955373756693
 30
0.0
 11
918.6101733400574
 21
5.091955373756713
 31
0.0
  0
LINE
  5
4E6F
330
17
100
AcDbEntity
  8
0
370
    -3
100
AcDbLine
 10
913.0101733400577
 20
5.341955373756713
 30
0.0
 11
918.8601733400574
 21
5.341955373756713
 31
0.0
  0
LINE
  5
4E70
330
17
100
AcDbEntity
  8
0
370
    -3
100
AcDbLine
 10
913.0101733400577
 20
5.391955373756674
 30
0.0
 11
912.0101733400574
 21
5.391955373756674
 31
0.0
  0
LINE
  5
4E71
330
17
100
AcDbEntity
  8
0
370
    -3
100
AcDbLine
 10
913.0101733400577
 20
7.791955373756762
 30
0.0
 11
912.0101733400574
 21
7.791955373756762
 31
0.0
  0
LINE
  5
4E72
330
17
100
AcDbEntity
  8
0
370
    -3
100
AcDbLine
 10
912.0101733400574
 20
4.841955373756713
 30
0.0
 11
912.0101733400574
 21
8.341955373756713
 31
0.0
  0
LINE
  5
4E73
330
17
100
AcDbEntity
  8
0
370
    -3
100
AcDbLine
 10
912.0101733400574
 20
8.341955373756713
 30
0.0
 11
909.5101733400577
 21
8.341955373756713
 31
0.0
  0
LINE
  5
4E74
330
17
100
AcDbEntity
  8
0
370
    -3
100
AcDbLine
 10
909.5101733400577
 20
4.841955373756713
 30
0.0
 11
912.0101733400574
 21
4.841955373756713
 31
0.0
  0
LINE
  5
4E75
330
17
100
AcDbEntity
  8
0
370
    -3
100
AcDbLine
 10
918.6101733400574
 20
5.091955373756713
 30
0.0
 11
918.6101733400574
 21
8.091955373756713
 31
0.0
  0
LINE
  5
4E76
330
17
100
AcDbEntity
  8
0
370
    -3
100
AcDbLine
 10
913.0101733400577
 20
7.841955373757853
 30
0.0
 11
918.8601733400568
 21
7.841955373757061
 31
0.0
  0
LINE
  5
4E77
330
17
100
AcDbEntity
  8
0
370
    -3
100
AcDbLine
 10
908.4101733400572
 20
8.341955373756713
 30
0.0
 11
903.8475711393997
 21
8.341955373756713
 31
0.0
  0
LINE
  5
4E78
330
17
100
AcDbEntity
  8
0
370
    -3
100
AcDbLine
 10
908.4101733400572
 20
4.837959538614315
 30
0.0
 11
903.3101733400572
 21
4.837959538614315
 31
0.0
  0
LINE
  5
4E79
330
17
100
AcDbEntity
  8
0
 48
0.5
100
AcDbLine
 10
873.2101733400572
 20
-4.408044626243279
 30
0.0
 11
873.2101733400572
 21
17.59195537375671
 31
0.0
  0
LINE
  5
4E7A
330
17
100
AcDbEntity
  8
0
100
AcDbLine
 10
900.3101733400571
 20
-61.95593333210855
 30
0.0
 11
902.8101733400571
 21
-61.95593333210855
 31
0.0
  0
LINE
  5
4E7B
330
17
100
AcDbEntity
  8
0
100
AcDbLine
 10
902.8101733400571
 20
-61.95593333210855
 30
0.0
 11
902.8101733400571
 21
-58.45593333210853
 31
0.0
  0
LINE
  5
4E7C
330
17
100
AcDbEntity
  8
0
100
AcDbLine
 10
902.8101733400571
 20
-58.45593333210853
 30
0.0
 11
901.3101733400572
 21
-57.95593333210853
 31
0.0
  0
LINE
  5
4E7D
330
17
100
AcDbEntity
  8
0
100
AcDbLine
 10
901.3101733400572
 20
-57.95593333210853
 30
0.0
 11
901.3101733400572
 21
-57.85593333210863
 31
0.0
  0
LINE
  5
4E7E
330
17
100
AcDbEntity
  8
0
100
AcDbLine
 10
901.3101733400574
 20
-44.85593333210863
 30
0.0
 11
901.3101733400574
 21
-42.35593333210863
 31
0.0
  0
LINE
  5
4E7F
330
17
100
AcDbEntity
  8
0
100
AcDbLine
 10
900.3101733400571
 20
-42.35593333210863
 30
0.0
 11
900.3101733400571
 21
-44.85593333210863
 31
0.0
  0
LINE
  5
4E80
330
17
100
AcDbEntity
  8
0
100
AcDbLine
 10
900.3101733400574
 20
-57.85593333210863
 30
0.0
 11
900.3101733400574
 21
-61.95593333210855
 31
0.0
  0
LINE
  5
4E81
330
17
100
AcDbEntity
  8
0
100
AcDbLine
 10
872.5762294478981
 20
-4.408044626243279
 30
0.0
 11
872.5762294478981
 21
-2.808044626243374
 31
0.0
  0
LINE
  5
4E82
330
17
100
AcDbEntity
  8
0
100
AcDbLine
 10
872.5762294478981
 20
-2.808044626243374
 30
0.0
 11
873.2101733400572
 21
-2.808044626243374
 31
0.0
  0
LINE
  5
4E83
330
17
100
AcDbEntity
  8
0
100
AcDbLine
 10
901.3101733400572
 20
15.99195537375659
 30
0.0
 11
875.8101733400572
 21
15.99195537375659
 31
0.0
  0
LINE
  5
4E84
330
17
100
AcDbEntity
  8
0
100
AcDbLine
 10
872.5762294478981
 20
15.99195537375659
 30
0.0
 11
872.5762294478981
 21
17.59195537375671
 31
0.0
  0
LINE
  5
4E85
330
17
100
AcDbEntity
  8
0
100
AcDbLine
 10
872.5762294478981
 20
17.59195537375671
 30
0.0
 11
901.4101733400574
 21
17.59195537375671
 31
0.0
  0
LINE
  5
4E86
330
17
100
AcDbEntity
  8
0
100
AcDbLine
 10
902.9101733400572
 20
-2.908044626243297
 30
0.0
 11
902.9101733400572
 21
7.527087898730092
 31
0.0
  0
LINE
  5
4E87
330
17
100
AcDbEntity
  8
0
100
AcDbLine
 10
902.9101733400572
 20
10.17711388542764
 30
0.0
 11
902.9101733400572
 21
16.09195537375671
 31
0.0
  0
LINE
  5
4E88
330
17
100
AcDbEntity
  8
0
100
AcDbLine
 10
901.4101733400574
 20
-4.408044626243279
 30
0.0
 11
872.5762294478981
 21
-4.408044626243279
 31
0.0
  0
LINE
  5
4E89
330
17
100
AcDbEntity
  8
additional
  6
CENTER2
 48
0.5
100
AcDbLine
 10
878.9101733400572
 20
-6.078111888716877
 30
0.0
 11
878.9101733400572
 21
-1.076773737115676
 31
0.0
  0
LINE
  5
4E8A
330
17
100
AcDbEntity
  8
additional
  6
CENTER2
 48
0.5
100
AcDbLine
 10
886.9101733400572
 20
-6.078111888716877
 30
0.0
 11
886.9101733400572
 21
-1.076773737115676
 31
0.0
  0
ARC
  5
4E8B
330
17
100
AcDbEntity
  8
0
100
AcDbCircle
 10
901.4101733400574
 20
-2.908044626243285
 30
0.0
 40
1.5
100
AcDbArc
 50
270.0
 51
0.0
  0
ARC
  5
4E8C
330
17
100
AcDbEntity
  8
0
100
AcDbCircle
 10
901.4101733400574
 20
16.09195537375672
 30
0.0
 40
1.5
100
AcDbArc
 50
0.0
 51
90.0
  0
LINE
  5
4E8D
330
17
100
AcDbEntity
  8
0
100
AcDbLine
 10
902.9101733400572
 20
-57.85593333210863
 30
0.0
 11
902.9101733400572
 21
-44.85593333210863
 31
0.0
  0
LINE
  5
4E8E
330
17
100
AcDbEntity
  8
0
100
AcDbLine
 10
902.9101733400572
 20
-44.85593333210863
 30
0.0
 11
899.1101733400574
 21
-44.85593333210863
 31
0.0
  0
LINE
  5
4E8F
330
17
100
AcDbEntity
  8
0
100
AcDbLine
 10
898.9101733400572
 20
-44.65593333210859
 30
0.0
 11
898.9101733400572
 21
-42.35593333210863
 31
0.0
  0
LINE
  5
4E90
330
17
100
AcDbEntity
  8
0
100
AcDbLine
 10
898.9101733400572
 20
-42.35593333210863
 30
0.0
 11
873.2101733400572
 21
-42.35593333210863
 31
0.0
  0
LINE
  5
4E91
330
17
100
AcDbEntity
  8
0
100
AcDbLine
 10
873.2101733400572
 20
-60.35243333210861
 30
0.0
 11
898.9101733400572
 21
-60.35593333210863
 31
0.0
  0
LINE
  5
4E92
330
17
100
AcDbEntity
  8
0
100
AcDbLine
 10
898.9101733400572
 20
-60.35593333210863
 30
0.0
 11
898.9101733400572
 21
-58.05593333210868
 31
0.0
  0
LINE
  5
4E93
330
17
100
AcDbEntity
  8
0
100
AcDbLine
 10
899.1101733400574
 20
-57.85593333210863
 30
0.0
 11
902.9101733400572
 21
-57.85593333210863
 31
0.0
  0
LINE
  5
4E94
330
17
100
AcDbEntity
  8
0
100
AcDbLine
 10
875.8101733400572
 20
-60.35593333210863
 30
0.0
 11
875.8101733400572
 21
-55.34343333210859
 31
0.0
  0
LINE
  5
4E95
330
17
100
AcDbEntity
  8
0
100
AcDbLine
 10
875.8101733400572
 20
-42.35593333210863
 30
0.0
 11
875.8101733400572
 21
-47.36843333210868
 31
0.0
  0
ARC
  5
4E96
330
17
100
AcDbEntity
  8
0
100
AcDbCircle
 10
899.1101733400574
 20
-58.05593333210868
 30
0.0
 40
0.2
100
AcDbArc
 50
90.0
 51
180.0
  0
ARC
  5
4E97
330
17
100
AcDbEntity
  8
0
100
AcDbCircle
 10
899.1101733400574
 20
-44.65593333210859
 30
0.0
 40
0.2
100
AcDbArc
 50
180.0
 51
270.0
  0
LINE
  5
4E98
330
17
100
AcDbEntity
  8
0
100
AcDbLine
 10
873.2101733400572
 20
15.99195537375659
 30
0.0
 11
872.5762294478981
 21
15.99195537375659
 31
0.0
  0
LINE
  5
4E99
330
17
100
AcDbEntity
  8
0
100
AcDbLine
 10
875.8101733400572
 20
-2.808044626243374
 30
0.0
 11
901.3101733400572
 21
-2.808044626243374
 31
0.0
  0
LINE
  5
4E9A
330
17
100
AcDbEntity
  8
0
 48
0.5
100
AcDbLine
 10
875.8101733400572
 20
-4.408044626243279
 30
0.0
 11
875.8101733400572
 21
17.59195537375671
 31
0.0
  0
LINE
  5
4E9B
330
17
100
AcDbEntity
  8
0
100
AcDbLine
 10
876.6101733400573
 20
-1.808044626243374
 30
0.0
 11
900.3101733400571
 21
-1.808044626243374
 31
0.0
  0
LINE
  5
4E9C
330
17
100
AcDbEntity
  8
0
100
AcDbLine
 10
900.3101733400571
 20
14.99195537375659
 30
0.0
 11
876.6101733400573
 21
14.99195537375659
 31
0.0
  0
LINE
  5
4E9D
330
17
100
AcDbEntity
  8
0
 48
0.5
100
AcDbLine
 10
873.2101733400572
 20
-60.35243333210861
 30
0.0
 11
873.2101733400572
 21
-55.34693333210862
 31
0.0
  0
LINE
  5
4E9E
330
17
100
AcDbEntity
  8
0
 48
0.5
100
AcDbLine
 10
873.2101733400572
 20
-47.36493333210865
 30
0.0
 11
873.2101733400572
 21
-42.3524333321086
 31
0.0
  0
LINE
  5
4E9F
330
17
100
AcDbEntity
  8
0
 48
0.5
100
AcDbLine
 10
900.3101733400571
 20
-42.35593333210863
 30
0.0
 11
901.3101733400574
 21
-42.35593333210863
 31
0.0
  0
LINE
  5
4EA0
330
17
100
AcDbEntity
  8
0
100
AcDbLine
 10
898.9101733400572
 20
-59.75593333210861
 30
0.0
 11
900.3101733400574
 21
-59.75593333210861
 31
0.0
  0
LINE
  5
4EA1
330
17
100
AcDbEntity
  8
0
100
AcDbLine
 10
901.3101733400572
 20
15.9919553737568
 30
0.0
 11
901.3101733400572
 21
9.426388470747033
 31
0.0
  0
LINE
  5
4EA2
330
17
100
AcDbEntity
  8
0
100
AcDbLine
 10
901.3101733400572
 20
5.473501489807732
 30
0.0
 11
901.3101733400572
 21
-2.808044626243161
 31
0.0
  0
LINE
  5
4EA3
330
17
100
AcDbEntity
  8
0
 48
0.5
100
AcDbLine
 10
798.4409927686417
 20
-42.35593333210863
 30
0.0
 11
798.4409927686417
 21
-60.35593333210863
 31
0.0
  0
LINE
  5
4EA4
330
17
100
AcDbEntity
  8
0
 48
0.5
100
AcDbLine
 10
798.4409927686417
 20
-60.35593333210863
 30
0.0
 11
820.4409927686418
 21
-60.35593333210863
 31
0.0
  0
LINE
  5
4EA5
330
17
100
AcDbEntity
  8
0
 48
0.5
100
AcDbLine
 10
820.4409927686418
 20
-42.35593333210863
 30
0.0
 11
798.4409927686417
 21
-42.35593333210863
 31
0.0
  0
LINE
  5
4EA6
330
17
100
AcDbEntity
  8
0
 48
0.5
100
AcDbLine
 10
820.4409927686418
 20
-42.35593333210863
 30
0.0
 11
820.4409927686418
 21
-60.35593333210863
 31
0.0
  0
LINE
  5
4EA7
330
17
100
AcDbEntity
  8
additional
  6
CENTER2
 48
0.5
100
AcDbLine
 10
809.4409927686417
 20
-38.42604270599986
 30
0.0
 11
809.4409927686417
 21
-64.61577019170113
 31
0.0
  0
LINE
  5
4EA8
330
17
100
AcDbEntity
  8
additional
  6
CENTER2
 48
0.5
100
AcDbLine
 10
795.6728716951642
 20
-51.35593333210863
 30
0.0
 11
823.26890943015
 21
-51.35593333210863
 31
0.0
  0
LINE
  5
4EA9
330
17
100
AcDbEntity
  8
0
 48
0.5
100
AcDbLine
 10
800.1909927686417
 20
-60.35593333210863
 30
0.0
 11
800.1909927686417
 21
-61.95593333210855
 31
0.0
  0
LINE
  5
4EAA
330
17
100
AcDbEntity
  8
0
 48
0.5
100
AcDbLine
 10
800.1909927686417
 20
-61.95593333210855
 30
0.0
 11
818.6909927686418
 21
-61.95593333210855
 31
0.0
  0
LINE
  5
4EAB
330
17
100
AcDbEntity
  8
0
 48
0.5
100
AcDbLine
 10
818.6909927686418
 20
-61.95593333210855
 30
0.0
 11
818.6909927686418
 21
-60.35593333210863
 31
0.0
  0
LINE
  5
4EAC
330
17
100
AcDbEntity
  8
0
 48
0.5
100
AcDbLine
 10
820.4409927686418
 20
-47.36843333210868
 30
0.0
 11
818.8409927686418
 21
-47.36843333210868
 31
0.0
  0
LINE
  5
4EAD
330
17
100
AcDbEntity
  8
0
 48
0.5
100
AcDbLine
 10
818.8409927686418
 20
-47.36843333210868
 30
0.0
 11
818.8409927686418
 21
-55.34343333210859
 31
0.0
  0
LINE
  5
4EAE
330
17
100
AcDbEntity
  8
0
 48
0.5
100
AcDbLine
 10
818.8409927686418
 20
-55.34343333210859
 30
0.0
 11
820.4409927686418
 21
-55.34343333210859
 31
0.0
  0
LINE
  5
4EAF
330
17
100
AcDbEntity
  8
0
 48
0.5
100
AcDbLine
 10
798.4409927686417
 20
-47.36843333210868
 30
0.0
 11
800.0409927686417
 21
-47.36843333210868
 31
0.0
  0
LINE
  5
4EB0
330
17
100
AcDbEntity
  8
0
 48
0.5
100
AcDbLine
 10
800.0409927686417
 20
-47.36843333210868
 30
0.0
 11
800.0409927686417
 21
-55.34343333210859
 31
0.0
  0
LINE
  5
4EB1
330
17
100
AcDbEntity
  8
0
 48
0.5
100
AcDbLine
 10
800.0409927686417
 20
-55.34343333210859
 30
0.0
 11
798.4409927686417
 21
-55.34343333210859
 31
0.0
  0
LINE
  5
4EB2
330
17
100
AcDbEntity
  8
additional
  6
CENTER2
 48
0.5
100
AcDbLine
 10
886.9101733400572
 20
-59.23562698416436
 30
0.0
 11
886.9101733400572
 21
-43.43429450181907
 31
0.0
  0
CIRCLE
  5
4EB3
330
17
100
AcDbEntity
  8
0
 48
0.5
100
AcDbCircle
 10
886.9101733400572
 20
-46.35593333210863
 30
0.0
 40
1.5
  0
CIRCLE
  5
4EB4
330
17
100
AcDbEntity
  8
0
 48
0.5
100
AcDbCircle
 10
878.9101733400572
 20
-56.35593333210863
 30
0.0
 40
1.5
  0
LINE
  5
4EB5
330
17
100
AcDbEntity
  8
additional
  6
CENTER2
 48
0.5
100
AcDbLine
 10
876.3101733400574
 20
-56.35593333210863
 30
0.0
 11
890.0402728008144
 21
-56.35593333210863
 31
0.0
  0
LINE
  5
4EB6
330
17
100
AcDbEntity
  8
additional
  6
CENTER2
 48
0.5
100
AcDbLine
 10
876.3101733400574
 20
-46.35593333210863
 30
0.0
 11
890.0402728008144
 21
-46.35593333210863
 31
0.0
  0
LINE
  5
4EB7
330
17
100
AcDbEntity
  8
additional
  6
CENTER2
 48
0.5
100
AcDbLine
 10
878.9101733400572
 20
-59.23562698416436
 30
0.0
 11
878.9101733400572
 21
-43.43429450181907
 31
0.0
  0
CIRCLE
  5
4EB8
330
17
100
AcDbEntity
  8
additional
  6
HIDDEN2
 48
0.5
100
AcDbCircle
 10
886.9101733400572
 20
-56.35593333210863
 30
0.0
 40
1.5
  0
CIRCLE
  5
4EB9
330
17
100
AcDbEntity
  8
0
 48
0.5
100
AcDbCircle
 10
886.9101733400572
 20
-56.35593333210863
 30
0.0
 40
1.25
  0
CIRCLE
  5
4EBA
330
17
100
AcDbEntity
  8
additional
  6
HIDDEN2
 48
0.8
100
AcDbCircle
 10
878.9101733400572
 20
-46.35593333210863
 30
0.0
 40
1.5
  0
CIRCLE
  5
4EBB
330
17
100
AcDbEntity
  8
0
 48
0.5
100
AcDbCircle
 10
878.9101733400572
 20
-46.35593333210863
 30
0.0
 40
1.25
  0
LINE
  5
4EBC
330
17
100
AcDbEntity
  8
0
 48
0.5
100
AcDbLine
 10
900.3101733400574
 20
-42.35593333210863
 30
0.0
 11
901.3101733400574
 21
-42.35593333210863
 31
0.0
  0
LINE
  5
4EBD
330
17
100
AcDbEntity
  8
0
 48
0.5
100
AcDbLine
 10
876.6101733400573
 20
-42.35593333210863
 30
0.0
 11
885.9670306162085
 21
-41.05593333210868
 31
0.0
  0
LINE
  5
4EBE
330
17
100
AcDbEntity
  8
0
 48
0.5
100
AcDbLine
 10
885.9670306162085
 20
-41.05593333210868
 30
0.0
 11
900.3101733400574
 21
-41.05593333210868
 31
0.0
  0
LINE
  5
4EBF
330
17
100
AcDbEntity
  8
0
 48
0.5
100
AcDbLine
 10
900.3101733400574
 20
-42.35593333210863
 30
0.0
 11
900.3101733400574
 21
-41.05593333210868
 31
0.0
  0
LINE
  5
4EC0
330
17
100
AcDbEntity
  8
0
100
AcDbLine
 10
875.8101733400572
 20
-55.34343333210859
 30
0.0
 11
872.5762294478981
 21
-55.34343333210859
 31
0.0
  0
LINE
  5
4EC1
330
17
100
AcDbEntity
  8
0
100
AcDbLine
 10
875.8101733400572
 20
-47.36843333210868
 30
0.0
 11
872.5762294478981
 21
-47.36843333210868
 31
0.0
  0
LINE
  5
4EC2
330
17
100
AcDbEntity
  8
0
370
    -3
100
AcDbLine
 10
872.5762294478981
 20
-47.36843333210868
 30
0.0
 11
872.5762294478981
 21
-55.34343333210859
 31
0.0
  0
LINE
  5
4EC3
330
17
100
AcDbEntity
  8
0
 48
0.5
100
AcDbLine
 10
817.8409927686418
 20
-42.35593333210863
 30
0.0
 11
813.4409927686418
 21
-41.05593333210868
 31
0.0
  0
LINE
  5
4EC4
330
17
100
AcDbEntity
  8
0
 48
0.5
100
AcDbLine
 10
813.4409927686418
 20
-41.05593333210868
 30
0.0
 11
805.4409927686418
 21
-41.05593333210868
 31
0.0
  0
LINE
  5
4EC5
330
17
100
AcDbEntity
  8
0
 48
0.5
100
AcDbLine
 10
801.0409927686417
 20
-42.35593333210863
 30
0.0
 11
805.4409927686418
 21
-41.05593333210868
 31
0.0
  0
LINE
  5
4EC6
330
17
100
AcDbEntity
  8
additional
  6
CENTER2
100
AcDbLine
 10
822.4415064885121
 20
-46.35593333210863
 30
0.0
 11
818.2462605285545
 21
-46.35593333210863
 31
0.0
  0
LINE
  5
4EC7
330
17
100
AcDbEntity
  8
additional
  6
CENTER2
100
AcDbLine
 10
822.4415064885121
 20
-56.35593333210863
 30
0.0
 11
818.2462605285545
 21
-56.35593333210863
 31
0.0
  0
LINE
  5
4ECB
330
17
100
AcDbEntity
  8
0
100
AcDbLine
 10
872.5601733400575
 20
11.40624108804252
 30
0.0
 11
873.2101733400572
 21
1.591955373756714
 31
0.0
  0
LINE
  5
4ECC
330
17
100
AcDbEntity
  8
0
100
AcDbLine
 10
871.9101733400574
 20
11.22052680232821
 30
0.0
 11
872.5601733400575
 21
1.777669659471024
 31
0.0
  0
LINE
  5
4ECD
330
17
100
AcDbEntity
  8
0
100
AcDbLine
 10
872.5601733400575
 20
11.40624108804252
 30
0.0
 11
872.5601733400575
 21
10.5829553737567
 31
0.0
  0
LINE
  5
4ECE
330
17
100
AcDbEntity
  8
0
100
AcDbLine
 10
872.5601733400575
 20
2.600955373756724
 30
0.0
 11
872.5601733400575
 21
1.777669659471024
 31
0.0
  0
LINE
  5
4ECF
330
17
100
AcDbEntity
  8
0
100
AcDbLine
 10
871.9101733400574
 20
11.22052680232821
 30
0.0
 11
871.9101733400574
 21
10.5829553737567
 31
0.0
  0
LINE
  5
4ED0
330
17
100
AcDbEntity
  8
0
100
AcDbLine
 10
871.9101733400574
 20
2.600955373756724
 30
0.0
 11
871.9101733400574
 21
1.963383945185332
 31
0.0
  0
LINE
  5
4ED1
330
17
100
AcDbEntity
  8
0
100
AcDbLine
 10
871.9101733400574
 20
1.963383945185332
 30
0.0
 11
871.2601733400575
 21
11.034812516614
 31
0.0
  0
LINE
  5
4ED2
330
17
100
AcDbEntity
  8
0
100
AcDbLine
 10
871.2601733400575
 20
11.034812516614
 30
0.0
 11
871.2601733400575
 21
10.59195537375671
 31
0.0
  0
LINE
  5
4ED3
330
17
100
AcDbEntity
  8
0
100
AcDbLine
 10
871.2601733400575
 20
2.600955373756724
 30
0.0
 11
871.2601733400575
 21
2.149098230899644
 31
0.0
  0
LINE
  5
4ED4
330
17
100
AcDbEntity
  8
0
100
AcDbLine
 10
871.2601733400575
 20
2.149098230899644
 30
0.0
 11
870.6101733400574
 21
10.84909823089969
 31
0.0
  0
LINE
  5
4ED5
330
17
100
AcDbEntity
  8
0
100
AcDbLine
 10
870.6101733400574
 20
10.84909823089969
 30
0.0
 11
870.6101733400574
 21
10.5829553737567
 31
0.0
  0
LINE
  5
4ED6
330
17
100
AcDbEntity
  8
0
100
AcDbLine
 10
870.6101733400574
 20
2.600955373756724
 30
0.0
 11
870.6101733400574
 21
2.334812516613967
 31
0.0
  0
LINE
  5
4ED7
330
17
100
AcDbEntity
  8
0
100
AcDbLine
 10
870.6101733400574
 20
2.334812516613967
 30
0.0
 11
869.9601733400571
 21
10.66338394518538
 31
0.0
  0
LWPOLYLINE
  5
4ED8
330
17
100
AcDbEntity
  8
0
100
AcDbPolyline
 90
        4
 70
     1
 43
0.0
 10
903.3101733400574
 20
-47.85593333210863
 10
903.8101733400576
 20
-47.85593333210863
 10
903.8101733400576
 20
-54.85593333210863
 10
903.3101733400574
 20
-54.85593333210863
  0
LWPOLYLINE
  5
4ED9
330
17
100
AcDbEntity
  8
0
100
AcDbPolyline
 90
        4
 70
     1
 43
0.0
 10
903.8101733400576
 20
-48.10593333210864
 10
904.4101733400571
 20
-48.10593333210864
 10
904.4101733400571
 20
-54.60593333210863
 10
903.8101733400576
 20
-54.60593333210863
  0
LINE
  5
4EDA
330
17
100
AcDbEntity
  8
0
 48
0.5
100
AcDbLine
 10
901.3101733400572
 20
10.54195537375665
 30
0.0
 11
901.3101733400569
 21
8.786255104921542
 31
0.0
  0
LINE
  5
4EDB
330
17
100
AcDbEntity
  8
0
 48
0.5
100
AcDbLine
 10
901.3101733400572
 20
9.426388470747033
 30
0.0
 11
901.3101733400572
 21
10.54195537375676
 31
0.0
  0
LINE
  5
4EDD
330
17
100
AcDbEntity
  8
0
100
AcDbLine
 10
902.9101733400572
 20
3.841955373756709
 30
0.0
 11
903.3101733400574
 21
3.841955373756709
 31
0.0
  0
LINE
  5
4EDE
330
17
100
AcDbEntity
  8
0
100
AcDbLine
 10
903.3101733400574
 20
3.841955373756709
 30
0.0
 11
903.3101733400576
 21
7.87480259385668
 31
0.0
  0
LINE
  5
4EDF
330
17
100
AcDbEntity
  8
0
 48
0.5
100
AcDbLine
 10
903.3101733400574
 20
-49.07843333210871
 30
0.0
 11
903.3101733400574
 21
-53.63343333210867
 31
0.0
  0
LINE
  5
4EE0
330
17
100
AcDbEntity
  8
0
100
AcDbLine
 10
902.9101733400572
 20
-48.60593333210863
 30
0.0
 11
903.3101733400574
 21
-48.60593333210863
 31
0.0
  0
LINE
  5
4EE1
330
17
100
AcDbEntity
  8
0
100
AcDbLine
 10
903.3101733400574
 20
-48.60593333210863
 30
0.0
 11
903.3101733400574
 21
-54.10593333210863
 31
0.0
  0
LINE
  5
4EE2
330
17
100
AcDbEntity
  8
0
100
AcDbLine
 10
903.3101733400574
 20
-54.10593333210863
 30
0.0
 11
902.9101733400572
 21
-54.10593333210863
 31
0.0
  0
LINE
  5
4EE3
330
17
100
AcDbEntity
  8
0
100
AcDbLine
 10
875.8101733400572
 20
-2.658044626243285
 30
0.0
 11
875.8101733400572
 21
15.84195537375671
 31
0.0
  0
LINE
  5
4EE4
330
17
100
AcDbEntity
  8
0
100
AcDbLine
 10
876.6101733400573
 20
15.99195537375659
 30
0.0
 11
876.6101733400573
 21
-2.808044626243374
 31
0.0
  0
LINE
  5
4EE5
330
17
100
AcDbEntity
  8
0
100
AcDbLine
 10
901.3101733400572
 20
15.59195537375671
 30
0.0
 11
901.3101733400572
 21
8.786255104921592
 31
0.0
  0
LINE
  5
4EE6
330
17
100
AcDbEntity
  8
0
100
AcDbLine
 10
901.3101733400572
 20
6.136229118223949
 30
0.0
 11
901.3101733400572
 21
-2.408044626243286
 31
0.0
  0
LINE
  5
4EE7
330
17
100
AcDbEntity
  8
0
100
AcDbLine
 10
900.3101733400571
 20
-2.808044626243161
 30
0.0
 11
900.3101733400571
 21
15.9919553737568
 31
0.0
  0
LINE
  5
4EE8
330
17
100
AcDbEntity
  8
0
100
AcDbLine
 10
875.8101733400572
 20
-60.60905200915136
 30
0.0
 11
875.8101733400572
 21
-60.35593333210863
 31
0.0
  0
LINE
  5
4EE9
330
17
100
AcDbEntity
  8
0
100
AcDbLine
 10
875.8101733400572
 20
-42.35593333210863
 30
0.0
 11
875.8101733400572
 21
-42.10593333210863
 31
0.0
  0
LINE
  5
4EEA
330
17
100
AcDbEntity
  8
0
100
AcDbLine
 10
875.8101733400572
 20
-42.10593333210863
 30
0.0
 11
876.6101733400573
 21
-42.10593333210863
 31
0.0
  0
LINE
  5
4EEB
330
17
100
AcDbEntity
  8
0
100
AcDbLine
 10
876.6101733400573
 20
-42.10593333210863
 30
0.0
 11
876.6101733400573
 21
-42.35593333210863
 31
0.0
  0
LINE
  5
4EEC
330
17
100
AcDbEntity
  8
0
100
AcDbLine
 10
876.6101733400573
 20
-60.35604228152499
 30
0.0
 11
876.6101733400573
 21
-60.60905200915136
 31
0.0
  0
LINE
  5
4EED
330
17
100
AcDbEntity
  8
0
100
AcDbLine
 10
876.6101733400573
 20
-60.60905200915136
 30
0.0
 11
875.8101733400572
 21
-60.60905200915136
 31
0.0
  0
LINE
  5
4EEE
330
17
100
AcDbEntity
  8
0
100
AcDbLine
 10
901.3101733400574
 20
-42.35593333210863
 30
0.0
 11
900.3101733400571
 21
-42.35593333210863
 31
0.0
  0
LINE
  5
4EEF
330
17
100
AcDbEntity
  8
0
100
AcDbLine
 10
818.6909927686418
 20
-60.35593333210863
 30
0.0
 11
818.6909927686418
 21
-60.60593333210864
 31
0.0
  0
LINE
  5
4EF0
330
17
100
AcDbEntity
  8
0
 48
0.5
100
AcDbLine
 10
900.3101733400574
 20
-41.35593333210863
 30
0.0
 11
903.9876696037195
 21
-41.35593333210863
 31
0.0
  0
LINE
  5
4EF1
330
17
100
AcDbEntity
  8
0
 48
0.5
100
AcDbLine
 10
903.5132865094627
 20
-42.35593333210863
 30
0.0
 11
900.3101733400574
 21
-42.35593333210863
 31
0.0
  0
LINE
  5
4EF2
330
17
100
AcDbEntity
  8
0
100
AcDbLine
 10
869.0851733400572
 20
12.59195537375671
 30
0.0
 11
869.0851733400572
 21
0.591955373756715
 31
0.0
  0
LINE
  5
4EF3
330
17
100
AcDbEntity
  8
0
100
AcDbLine
 10
869.0851733400572
 20
0.591955373756715
 30
0.0
 11
869.8851733400575
 21
0.591955373756715
 31
0.0
  0
LINE
  5
4EF4
330
17
100
AcDbEntity
  8
0
100
AcDbLine
 10
869.8851733400575
 20
0.591955373756715
 30
0.0
 11
869.8851733400575
 21
12.59195537375671
 31
0.0
  0
LINE
  5
4EF5
330
17
100
AcDbEntity
  8
0
100
AcDbLine
 10
869.8851733400575
 20
12.59195537375671
 30
0.0
 11
869.0851733400572
 21
12.59195537375671
 31
0.0
  0
ARC
  5
4EF6
330
17
100
AcDbEntity
  8
0
100
AcDbCircle
 10
809.4409927686417
 20
-51.35593333210863
 30
0.0
 40
9.25
100
AcDbArc
 50
256.6488156678484
 51
283.3511843321517
  0
ARC
  5
4EF7
330
17
100
AcDbEntity
  8
0
100
AcDbCircle
 10
809.4409927686417
 20
-51.35593333210863
 30
0.0
 40
9.25
100
AcDbArc
 50
76.64881566784831
 51
103.3511843321517
  0
CIRCLE
  5
4EFA
330
17
100
AcDbEntity
  8
0
 48
0.5
100
AcDbCircle
 10
809.4409927686417
 20
-51.35593333210863
 30
0.0
 40
3.990999999999991
  0
ARC
  5
4EFB
330
17
100
AcDbEntity
  8
0
100
AcDbCircle
 10
809.4409927686417
 20
-51.35593333210863
 30
0.0
 40
4.599999999999998
100
AcDbArc
 50
114.0006299615695
 51
175.9993700384291
  0
ARC
  5
4EFC
330
17
100
AcDbEntity
  8
0
100
AcDbCircle
 10
809.4409927686417
 20
-51.35593333210863
 30
0.0
 40
4.599999999999998
100
AcDbArc
 50
4.000629961570866
 51
65.99937003843047
  0
ARC
  5
4EFD
330
17
100
AcDbEntity
  8
0
100
AcDbCircle
 10
809.4409927686417
 20
-51.35593333210863
 30
0.0
 40
6.0
100
AcDbArc
 50
313.045265473008
 51
226.9547345270012
  0
LINE
  5
4EFE
330
17
100
AcDbEntity
  8
0
100
AcDbLine
 10
805.8322176988157
 20
-55.62418301247443
 30
0.0
 11
806.4281042206721
 21
-53.98699824911705
 31
0.0
  0
ARC
  5
4EFF
330
17
100
AcDbEntity
  8
0
100
AcDbCircle
 10
805.5503099125798
 20
-55.52157696947677
 30
0.0
 40
0.3
100
AcDbArc
 50
226.9547345270012
 51
339.9999999999963
  0
ARC
  5
4F00
330
17
100
AcDbEntity
  8
0
100
AcDbCircle
 10
805.1514706507367
 20
-51.05593333210856
 30
0.0
 40
0.3
100
AcDbArc
 50
175.9993700384291
 51
270.0
  0
LINE
  5
4F01
330
17
100
AcDbEntity
  8
0
100
AcDbLine
 10
805.1514706507367
 20
-51.35593333210863
 30
0.0
 11
805.4409927686418
 21
-51.35593333210863
 31
0.0
  0
LINE
  5
4F02
330
17
100
AcDbEntity
  8
0
100
AcDbLine
 10
812.4538813166118
 20
-53.98699824911682
 30
0.0
 11
813.0497678384681
 21
-55.62418301247419
 31
0.0
  0
ARC
  5
4F03
330
17
100
AcDbEntity
  8
0
100
AcDbCircle
 10
813.3316756247037
 20
-55.52157696947642
 30
0.0
 40
0.3
100
AcDbArc
 50
200.0000000000037
 51
313.0452654729988
  0
LINE
  5
4F04
330
17
100
AcDbEntity
  8
0
100
AcDbLine
 10
813.4409927686418
 20
-51.35593333210863
 30
0.0
 11
813.730514886547
 21
-51.35593333210863
 31
0.0
  0
ARC
  5
4F05
330
17
100
AcDbEntity
  8
0
100
AcDbCircle
 10
813.730514886547
 20
-51.05593333210856
 30
0.0
 40
0.3
100
AcDbArc
 50
270.0
 51
4.000629961570866
  0
ARC
  5
4F06
330
17
100
AcDbEntity
  8
0
100
AcDbCircle
 10
807.6919820128415
 20
-47.42770709421288
 30
0.0
 40
0.3
100
AcDbArc
 50
20.00000000000371
 51
114.0006299615695
  0
LINE
  5
4F07
330
17
100
AcDbEntity
  8
0
100
AcDbLine
 10
807.9738897990772
 20
-47.32510105121514
 30
0.0
 11
808.0729121953392
 21
-47.59716284896501
 31
0.0
  0
ARC
  5
4F08
330
17
100
AcDbEntity
  8
0
100
AcDbCircle
 10
811.1900035244422
 20
-47.42770709421288
 30
0.0
 40
0.3
100
AcDbArc
 50
65.99937003843047
 51
160.0000000000016
  0
LINE
  5
4F09
330
17
100
AcDbEntity
  8
0
100
AcDbLine
 10
810.9080957382062
 20
-47.32510105121526
 30
0.0
 11
810.8090733419444
 21
-47.59716284896501
 31
0.0
  0
ARC
  5
4F0A
330
17
100
AcDbEntity
  8
0
100
AcDbCircle
 10
809.4409927686417
 20
-51.35593333210863
 30
0.0
 40
4.239999999999979
100
AcDbArc
 50
222.903012686563
 51
317.096987313437
  0
ARC
  5
4F0B
330
17
100
AcDbEntity
  8
0
100
AcDbCircle
 10
809.4409927686417
 20
-51.35593333210863
 30
0.0
 40
4.239999999999979
100
AcDbArc
 50
0.0
 51
69.99999999999643
  0
ARC
  5
4F0C
330
17
100
AcDbEntity
  8
0
100
AcDbCircle
 10
809.4409927686417
 20
-51.35593333210863
 30
0.0
 40
4.239999999999979
100
AcDbArc
 50
110.0000000000035
 51
180.0
  0
ARC
  5
4F0D
330
17
100
AcDbEntity
  8
0
100
AcDbCircle
 10
809.4409927686417
 20
-51.35593333210863
 30
0.0
 40
4.61999999999999
100
AcDbArc
 50
225.2895424514918
 51
314.7104575485105
  0
ARC
  5
4F0E
330
17
100
AcDbEntity
  8
0
100
AcDbCircle
 10
809.4409927686417
 20
-51.35593333210863
 30
0.0
 40
4.999999999999984
100
AcDbArc
 50
227.2778668163392
 51
312.7221331836608
  0
CIRCLE
  5
4F0F
330
17
100
AcDbEntity
  8
0
100
AcDbCircle
 10
809.4409927686417
 20
-51.35593333210863
 30
0.0
 40
3.490999999999998
  0
LINE
  5
4F10
330
17
100
AcDbEntity
  8
0
100
AcDbLine
 10
869.0851733400572
 20
10.5829553737567
 30
0.0
 11
865.8101733400574
 21
10.5829553737567
 31
0.0
  0
LINE
  5
4F11
330
17
100
AcDbEntity
  8
0
100
AcDbLine
 10
865.3101733400571
 20
10.0829553737567
 30
0.0
 11
865.3101733400571
 21
3.100955373756734
 31
0.0
  0
LINE
  5
4F12
330
17
100
AcDbEntity
  8
0
100
AcDbLine
 10
865.8101733400574
 20
10.5829553737567
 30
0.0
 11
865.3101733400571
 21
10.0829553737567
 31
0.0
  0
LINE
  5
4F13
330
17
100
AcDbEntity
  8
0
100
AcDbLine
 10
865.8101733400574
 20
10.5829553737567
 30
0.0
 11
865.8101733400574
 21
2.600955373756724
 31
0.0
  0
LINE
  5
4F14
330
17
100
AcDbEntity
  8
0
100
AcDbLine
 10
869.0851733400572
 20
2.600955373756724
 30
0.0
 11
865.8101733400574
 21
2.600955373756724
 31
0.0
  0
LINE
  5
4F15
330
17
100
AcDbEntity
  8
0
100
AcDbLine
 10
865.8101733400574
 20
2.600955373756724
 30
0.0
 11
865.3101733400571
 21
3.100955373756734
 31
0.0
  0
LINE
  5
4F16
330
17
100
AcDbEntity
  8
0
100
AcDbLine
 10
873.2101733400572
 20
10.5829553737567
 30
0.0
 11
869.8851733400575
 21
10.5829553737567
 31
0.0
  0
LINE
  5
4F17
330
17
100
AcDbEntity
  8
0
100
AcDbLine
 10
873.2101733400572
 20
2.600955373756724
 30
0.0
 11
869.8851733400575
 21
2.600955373756724
 31
0.0
  0
LINE
  5
4F18
330
17
100
AcDbEntity
  8
additional
  6
CENTER2
 48
0.5
370
    -3
100
AcDbLine
 10
862.3101733400574
 20
6.591955373756713
 30
0.0
 11
922.0101733400577
 21
6.591955373756713
 31
0.0
  0
LINE
  5
4F19
330
17
100
AcDbEntity
  8
additional
  6
CENTER2
 48
0.5
370
    -3
100
AcDbLine
 10
857.2101733400572
 20
-51.35593333210852
 30
0.0
 11
916.9101733400571
 21
-51.35593333210863
 31
0.0
  0
DIMENSION
  5
4F1C
330
17
100
AcDbEntity
  8
Z_OM_DIM
100
AcDbDimension
  2
*D9
 10
834.3257651793047
 20
-60.35593333210863
 30
0.0
 11
832.4507651793046
 21
-51.3559333321085
 31
0.0
 70
    32
 71
     5
 42
18.0
  3
CatalogDxf
100
AcDbAlignedDimension
 13
820.4409927686418
 23
-42.35593333210863
 33
0.0
 14
820.4409927686418
 24
-60.35593333210863
 34
0.0
 50
90.0
100
AcDbRotatedDimension
  0
DIMENSION
  5
4F1D
330
17
100
AcDbEntity
  8
Z_OM_DIM
100
AcDbDimension
  2
*D10
 10
820.4409927686418
 20
-74.29875181229427
 30
0.0
 11
809.4409927686417
 21
-72.42375181229427
 31
0.0
 70
    32
 71
     5
 42
22.0
  3
CatalogDxf
100
AcDbAlignedDimension
 13
798.4409927686417
 23
-60.35593333210863
 33
0.0
 14
820.4409927686418
 24
-60.35593333210863
 34
0.0
100
AcDbRotatedDimension
  0
MTEXT
  5
4FB1
330
17
100
AcDbEntity
  8
Z_OM_DIM
100
AcDbMText
 10
862.9744657618591
 20
-36.16437195650242
 30
0.0
 40
2.5
 41
13.27355855920996
 71
     9
 72
     1
  1
spring
  7
CatalogDxf
 73
     1
 44
1.0
1001
ACAD
1000
MTEXTBEGIN
1070
    73
1070
     1
1070
    44
1040
1.0
1070
    74
1070
     0
1000
MTEXTEND
  0
LEADER
  5
4FB2
330
17
100
AcDbEntity
  8
Z_OM_DIM
100
AcDbLeader
  3
ISO-25
 76
     3
 10
868.2001733400571
 20
-46.93032639569231
 30
0.0
 10
863.9942437178881
 20
-36.92495462948615
 30
0.0
 10
849.4574170514383
 20
-36.92495462948615
 30
0.0
1001
ACAD
1000
DSTYLE
1002
{
1070
   341
1005
977
1070
   147
1040
0.625
1070
    77
1070
     0
1002
}
  0
DIMENSION
  5
4FB4
330
17
100
AcDbEntity
  8
Z_OM_DIM
100
AcDbDimension
  2
*D12
 10
919.0101733400574
 20
-16.42039087009755
 30
0.0
 11
943.6351733400574
 21
-16.42039087009755
 31
0.0
 70
   160
  1
(5) Movable length
 71
     5
 42
5.100000000000022
  3
CatalogDxf
100
AcDbAlignedDimension
 13
913.9101733400574
 23
-50.25593333210861
 33
0.0
 14
919.0101733400574
 24
5.491955373756693
 34
0.0
100
AcDbRotatedDimension
  0
DIMENSION
  5
5022
330
17
100
AcDbEntity
  8
Z_OM_DIM
100
AcDbDimension
  2
*D15
 10
925.7578624660991
 20
-56.35593333210864
 30
0.0
 11
925.7578624660991
 21
-50.98684611585524
 31
0.0
 70
   160
 71
     5
 42
10.0
  3
CatalogDxf
100
AcDbAlignedDimension
 13
890.0402728008144
 23
-46.35593333210863
 33
0.0
 14
890.0402728008144
 24
-56.35593333210863
 34
0.0
 50
90.0
100
AcDbRotatedDimension
  0
DIMENSION
  5
50AD
330
17
100
AcDbEntity
  8
Z_OM_DIM
100
AcDbDimension
  2
*D17
 10
878.9101733400572
 20
-33.70350564344722
 30
0.0
 11
882.9101733400571
 21
-33.70350564344722
 31
0.0
 70
   160
 71
     5
 42
8.0
  3
CatalogDxf
100
AcDbAlignedDimension
 13
886.9101733400572
 23
-43.43429450181907
 33
0.0
 14
878.9101733400572
 24
-43.43429450181907
 34
0.0
100
AcDbRotatedDimension
  0
MTEXT
  5
51C7
330
17
100
AcDbEntity
  8
Z_OM_DIM
100
AcDbMText
 10
911.5450674518008
 20
-68.32546307173224
 30
0.0
 40
2.5
 41
4.641584523080837
 71
     7
 72
     1
  1
%%c3.5
  7
CatalogDxf
 73
     1
 44
1.0
1001
ACAD
1000
MTEXTBEGIN
1070
    73
1070
     1
1070
    44
1040
1.0
1070
    74
1070
     0
1000
MTEXTEND
  0
LEADER
  5
51C8
330
17
100
AcDbEntity
  8
Z_OM_DIM
100
AcDbLeader
  3
ISO-25
 76
     3
 10
905.5679738789963
 20
-53.10593333210864
 30
0.0
 10
911.0189000540591
 20
-69.02722823283963
 30
0.0
 10
919.5570828341848
 20
-69.02722823284014
 30
0.0
211
-1.0
221
-0.000000000000015
231
0.0
1001
ACAD
1000
DSTYLE
1002
{
1070
   341
1005
977
1070
   147
1040
0.625
1070
    77
1070
     0
1002
}
  0
MTEXT
  5
51CA
330
17
100
AcDbEntity
  8
Z_OM_DIM
100
AcDbMText
 10
916.1215744468675
 20
-61.97611859087202
 30
0.0
 40
2.5
 41
4.317132158195136
 71
     7
 72
     1
  1
M3
  7
CatalogDxf
 73
     1
 44
1.0
1001
ACAD
1000
MTEXTBEGIN
1070
    73
1070
     1
1070
    44
1040
1.0
1070
    74
1070
     0
1000
MTEXTEND
  0
LEADER
  5
51CB
330
17
100
AcDbEntity
  8
Z_OM_DIM
100
AcDbLeader
  3
ISO-25
 76
     3
 10
911.6584595457357
 20
-52.85593333210863
 30
0.0
 10
915.2709546842404
 20
-62.67788375197942
 30
0.0
 10
920.8136843103956
 20
-62.67788375197992
 30
0.0
211
-1.0
221
-0.000000000000015
231
0.0
1001
ACAD
1000
DSTYLE
1002
{
1070
   341
1005
977
1070
   147
1040
0.625
1070
    77
1070
     0
1002
}
  0
SPLINE
  5
51CD
330
17
100
AcDbEntity
  8
additional
 48
0.5
100
AcDbSpline
210
0.0
220
0.0
230
1.0
 70
     8
 71
     3
 72
    18
 73
    14
 74
    12
 42
0.0000000001
 43
0.0000000001
 44
0.0000000001
 40
0.0
 40
0.0
 40
0.0
 40
0.0
 40
0.3913118960629689
 40
0.7826237921254313
 40
1.4826237921255
 40
1.873935688188018
 40
2.265247584250594
 40
2.656559480312886
 40
3.047871376375237
 40
4.097871376375398
 40
4.489183272437277
 40
4.88049516850023
 40
5.271807064562902
 40
5.271807064562902
 40
5.271807064562902
 40
5.271807064562902
 10
905.4463151747032
 20
14.39228757126176
 30
0.0
 10
905.5659724931503
 20
14.3404299160418
 30
0.0
 10
905.8052871300446
 20
14.23671460560194
 30
0.0
 10
906.2792844872101
 20
14.087480080985
 30
0.0
 10
906.6381958537059
 20
13.67471789524345
 30
0.0
 10
906.7198127231742
 20
13.18447517705239
 30
0.0
 10
906.8245162122732
 20
12.80758867402627
 30
0.0
 10
906.9263572412351
 20
12.4295548436069
 30
0.0
 10
907.0406469468245
 20
11.82895477568916
 30
0.0
 10
907.492405108479
 20
11.30866165463194
 30
0.0
 10
908.0716599000616
 20
11.11271103982256
 30
0.0
 10
908.430891011576
 20
10.95710547235565
 30
0.0
 10
908.6723493993897
 20
10.85838246294764
 30
0.0
 10
908.7930785932964
 20
10.80902095824365
 30
0.0
 11
905.4463151747032
 21
14.39228757126176
 31
0.0
 11
905.8080100113896
 21
14.24294954825734
 31
0.0
 11
906.1697048480752
 21
14.09361152525287
 31
0.0
 11
906.6289461683686
 21
13.56531481909684
 31
0.0
 11
906.7264926519763
 21
13.18635613594546
 31
0.0
 11
906.8240391355837
 21
12.80739745279396
 31
0.0
 11
906.9215856191915
 21
12.42843876964287
 31
0.0
 11
907.0191321027991
 21
12.04948008649166
 31
0.0
 11
907.7079940832392
 21
11.25703502725764
 31
0.0
 11
908.0696889199243
 21
11.10769700425277
 31
0.0
 11
908.4313837566105
 21
10.95835898124812
 31
0.0
 11
908.7930785932964
 21
10.80902095824365
 31
0.0
  0
SPLINE
  5
51CE
330
17
100
AcDbEntity
  8
additional
 48
0.5
100
AcDbSpline
210
0.0
220
0.0
230
1.0
 70
     8
 71
     3
 72
    18
 73
    14
 74
    12
 42
0.0000000001
 43
0.0000000001
 44
0.0000000001
 40
0.0
 40
0.0
 40
0.0
 40
0.0
 40
0.3913118960625465
 40
0.7826237921253514
 40
1.482623792125301
 40
1.873935688187767
 40
2.265247584250094
 40
2.656559480312743
 40
3.047871376375211
 40
4.097871376375175
 40
4.48918327243737
 40
4.88049516849996
 40
5.271807064562385
 40
5.271807064562385
 40
5.271807064562385
 40
5.271807064562385
 10
906.1066860573985
 20
14.9663392216288
 30
0.0
 10
906.2263433758456
 20
14.91448156640871
 30
0.0
 10
906.4656580127399
 20
14.81076625596849
 30
0.0
 10
906.9396553699046
 20
14.6615317313519
 30
0.0
 10
907.298566736401
 20
14.24876954561018
 30
0.0
 10
907.3801836058692
 20
13.75852682741924
 30
0.0
 10
907.4848870949686
 20
13.38164032439324
 30
0.0
 10
907.5867281239299
 20
13.00360649397353
 30
0.0
 10
907.7010178295198
 20
12.40300642605612
 30
0.0
 10
908.152775991174
 20
11.8827133049981
 30
0.0
 10
908.7320307827571
 20
11.68676269018974
 30
0.0
 10
909.0912618942713
 20
11.53115712272277
 30
0.0
 10
909.3327202820844
 20
11.43243411331463
 30
0.0
 10
909.4534494759912
 20
11.38307260861057
 30
0.0
 11
906.1066860573985
 21
14.9663392216288
 31
0.0
 11
906.4683808940843
 21
14.81700119862411
 31
0.0
 11
906.8300757307705
 21
14.66766317561957
 31
0.0
 11
907.2893170510637
 21
14.1393664694636
 31
0.0
 11
907.3868635346713
 21
13.76040778631227
 31
0.0
 11
907.4844100182788
 21
13.38144910316106
 31
0.0
 11
907.5819565018862
 21
13.00249042000951
 31
0.0
 11
907.6795029854944
 21
12.6235317368583
 31
0.0
 11
908.3683649659343
 21
11.83108667762434
 31
0.0
 11
908.7300598026198
 21
11.68174865461975
 31
0.0
 11
909.0917546393056
 21
11.53241063161522
 31
0.0
 11
909.4534494759912
 21
11.38307260861057
 31
0.0
  0
LINE
  5
51CF
330
17
100
AcDbEntity
  8
0
100
AcDbLine
 10
900.3101733400574
 20
5.266942380407963
 30
0.0
 11
907.4261855499344
 21
11.45279742059262
 31
0.0
  0
LINE
  5
51D0
330
17
100
AcDbEntity
  8
0
100
AcDbLine
 10
900.3101733400574
 20
6.591955373756766
 30
0.0
 11
906.9383443803353
 21
12.35373655504788
 31
0.0
  0
LINE
  5
51D1
330
17
100
AcDbEntity
  8
0
100
AcDbLine
 10
900.3101733400574
 20
7.916968367105541
 30
0.0
 11
906.6684058403687
 21
13.44409555557832
 31
0.0
  0
LINE
  5
51D2
330
17
100
AcDbEntity
  8
0
100
AcDbLine
 10
907.3287767230638
 20
14.01814720594502
 30
0.0
 11
920.3441782100076
 21
25.33226310589892
 31
0.0
  0
LINE
  5
51D3
330
17
100
AcDbEntity
  8
0
100
AcDbLine
 10
908.0865564326296
 20
12.02684907095932
 30
0.0
 11
921.6562962679887
 21
23.82284394545367
 31
0.0
  0
LINE
  5
51D4
330
17
100
AcDbEntity
  8
0
100
AcDbLine
 10
907.5987152630304
 20
12.92778820541458
 30
0.0
 11
921.0002372389984
 21
24.57755352567644
 31
0.0
  0
LINE
  5
51D5
330
17
100
AcDbEntity
  8
0
100
AcDbLine
 10
921.4922815107414
 20
24.01152134050934
 30
0.0
 11
926.7752485723006
 21
28.60393454344292
 31
0.0
  0
LINE
  5
51D6
330
17
100
AcDbEntity
  8
0
100
AcDbLine
 10
921.1642519962463
 20
24.38887613062077
 30
0.0
 11
926.4472190578054
 21
28.98128933355424
 31
0.0
  0
LINE
  5
51D7
330
17
100
AcDbEntity
  8
0
100
AcDbLine
 10
920.8362224817507
 20
24.7662309207321
 30
0.0
 11
926.1191895433102
 21
29.35864412366567
 31
0.0
  0
LINE
  5
51D8
330
17
100
AcDbEntity
  8
0
100
AcDbLine
 10
920.5081929672555
 20
25.14358571084354
 30
0.0
 11
925.7911600288153
 21
29.73599891377707
 31
0.0
  0
DIMENSION
  5
51D9
330
17
100
AcDbEntity
  8
Z_OM_DIM
100
AcDbDimension
  2
*D19
 10
910.510828982869
 20
46.55924379353547
 30
0.0
 11
896.5096853357957
 21
36.37516503903987
 31
0.0
 70
    33
  1
180 - 200
 71
     5
 42
34.42277493193979
  3
CatalogDxf
100
AcDbAlignedDimension
 13
900.3101733400574
 23
6.591955373756766
 33
0.0
 14
925.7911600288148
 24
29.73599891377694
 34
0.0
1001
ACAD
1000
DSTYLE
1002
{
1070
   340
1005
3DB6
1002
}
  0
LINE
  5
51DB
330
17
100
AcDbEntity
  8
0
100
AcDbLine
 10
920.3441782100076
 20
25.33226310589892
 30
0.0
 11
921.6562962679887
 21
23.82284394545367
 31
0.0
  0
MTEXT
  5
5272
330
17
100
AcDbEntity
  8
Z_OM_DIM
100
AcDbMText
 10
923.8426203798264
 20
14.60137827055249
 30
0.0
 40
2.5
 41
39.87537230858676
 71
     7
 72
     1
  1
UL1007 AWG24 white
  7
CatalogDxf
 73
     1
 44
1.0
1001
ACAD
1000
ACAD_MTEXT_DEFINED_HEIGHT_BEGIN
1070
    46
1040
2.500000000000003
1000
ACAD_MTEXT_DEFINED_HEIGHT_END
1000
MTEXTBEGIN
1070
    73
1070
     1
1070
    44
1040
1.0
1070
    74
1070
     0
1000
MTEXTEND
  0
LEADER
  5
5273
330
17
100
AcDbEntity
  8
Z_OM_DIM
100
AcDbLeader
  3
ISO-25
 76
     3
 10
916.0102163647279
 20
18.9147815648982
 30
0.0
 10
923.1856839511355
 20
13.91392376761761
 30
0.0
 10
964.5439740232539
 20
13.91392376761761
 30
0.0
1001
ACAD
1000
DSTYLE
1002
{
1070
   341
1005
977
1070
   147
1040
0.625
1070
    77
1070
     0
1002
}
  0
MTEXT
  5
52AE
330
17
100
AcDbEntity
  8
Z_OM_DIM
100
AcDbMText
 10
904.2836886550411
 20
-108.8943844920652
 30
0.0
 40
3.0
 41
66.29055782868658
 71
     1
 72
     5
  1
TAKAHA KIKO Co., Ltd\PCAD DRAWING No. CBS0830
  7
CatalogDxf
 73
     1
 44
1.0
1001
ACAD
1000
MTEXTBEGIN
1070
    73
1070
     1
1070
    44
1040
1.0
1070
    74
1070
     0
1000
MTEXTEND
  0
MTEXT
  5
52C4
330
17
100
AcDbEntity
  8
Z_OM_DIM
100
AcDbMText
 10
889.2021071765679
 20
-68.21225705837807
 30
0.0
 40
2.5
 41
2.578350168174779
 71
     7
 72
     1
  1
M3
  7
CatalogDxf
 73
     1
 44
1.0
1001
ACAD
1000
MTEXTBEGIN
1070
    73
1070
     1
1070
    44
1040
1.0
1070
    74
1070
     0
1000
MTEXTEND
  0
LEADER
  5
52C5
330
17
100
AcDbEntity
  8
Z_OM_DIM
100
AcDbLeader
  3
CatalogDxf
 76
     2
 10
879.1976888415382
 20
-47.57241795445627
 30
0.0
 10
888.2654686322847
 20
-68.9096817839505
 30
0.0
1001
ACAD
1000
DSTYLE
1002
{
1070
   147
1040
0.625
1070
    77
1070
     1
1002
}
  0
MTEXT
  5
52C6
330
17
100
AcDbEntity
  8
Z_OM_DIM
100
AcDbMText
 10
877.3681898925666
 20
-74.09144890725241
 30
0.0
 40
2.5
 41
22.24615829813842
 71
     7
 72
     1
  1
%%C3 hole
  7
CatalogDxf
 73
     1
 44
1.0
1001
ACAD
1000
MTEXTBEGIN
1070
    73
1070
     1
1070
    44
1040
1.0
1070
    74
1070
     0
1000
MTEXTEND
  0
LEADER
  5
52C7
330
17
100
AcDbEntity
  8
Z_OM_DIM
100
AcDbLeader
  3
CatalogDxf
 76
     2
 10
886.3066695841771
 20
-47.72917155493754
 30
0.0
 10
874.3116819632977
 20
-75.02307871434618
 30
0.0
1001
ACAD
1000
DSTYLE
1002
{
1070
   147
1040
0.625
1070
    77
1070
     1
1002
}
  0
LEADER
  5
52C8
330
17
100
AcDbEntity
  8
Z_OM_DIM
100
AcDbLeader
  3
ISO-25
 76
     3
 10
878.5513871686648
 20
-57.81239221694453
 30
0.0
 10
874.3116819632977
 20
-75.02307871434618
 30
0.0
 10
892.8584321753168
 20
-75.02307871434618
 30
0.0
1001
ACAD
1000
DSTYLE
1002
{
1070
   341
1005
977
1070
   147
1040
0.625
1070
    77
1070
     0
1002
}
  0
LEADER
  5
52C9
330
17
100
AcDbEntity
  8
Z_OM_DIM
100
AcDbLeader
  3
ISO-25
 76
     3
 10
887.0443429799463
 20
-57.59871187542683
 30
0.0
 10
888.2654686322847
 20
-68.9096817839505
 30
0.0
 10
894.3442630286456
 20
-68.9096817839505
 30
0.0
1001
ACAD
1000
DSTYLE
1002
{
1070
   341
1005
977
1070
   147
1040
0.625
1070
    77
1070
     0
1002
}
  0
SPLINE
  5
52D1
330
17
100
AcDbEntity
  8
additional
 48
0.5
100
AcDbSpline
210
0.0
220
0.0
230
1.0
 70
     8
 71
     3
 72
    18
 73
    14
 74
    12
 42
0.0000000001
 43
0.0000000001
 44
0.0000000001
 40
0.0
 40
0.0
 40
0.0
 40
0.0
 40
0.3913118960624505
 40
0.7826237921251299
 40
1.482623792125082
 40
1.873935688187806
 40
2.265247584250168
 40
2.65655948031265
 40
3.047871376375107
 40
4.097871376375168
 40
4.489183272437587
 40
4.880495168500095
 40
5.271807064562539
 40
5.271807064562539
 40
5.271807064562539
 40
5.271807064562539
 10
903.9083454437616
 20
-39.41980214323834
 30
0.0
 10
903.964630285408
 20
-39.53744187659279
 30
0.0
 10
904.0771999687008
 20
-39.77272134330174
 30
0.0
 10
904.3370236578416
 20
-40.19632031461543
 30
0.0
 10
904.3371011458054
 20
-40.74330293314576
 30
0.0
 10
904.0770700174347
 20
-41.16683929333109
 30
0.0
 10
903.9088309505256
 20
-41.51997081721208
 30
0.0
 10
903.7376788430327
 20
-41.87209029725006
 30
0.0
 10
903.4299052813912
 20
-42.40034971566237
 30
0.0
 10
903.429508494144
 20
-43.08939993952229
 30
0.0
 10
903.7381224646612
 20
-43.61731108187306
 30
0.0
 10
903.9071511885367
 20
-43.97042490857955
 30
0.0
 10
904.0246140253534
 20
-44.20334306501871
 30
0.0
 10
904.0833454437615
 20
-44.31980214323828
 30
0.0
 11
903.9083454437616
 21
-39.41980214323834
 31
0.0
 11
904.0833454437615
 21
-39.76980214323835
 31
0.0
 11
904.258345443762
 21
-40.11980214323833
 31
0.0
 11
904.258345443762
 21
-40.81980214323828
 31
0.0
 11
904.0833454437615
 21
-41.16980214323831
 31
0.0
 11
903.9083454437616
 21
-41.51980214323822
 31
0.0
 11
903.7333454437614
 21
-41.86980214323821
 31
0.0
 11
903.5583454437615
 21
-42.21980214323822
 31
0.0
 11
903.5583454437615
 21
-43.26980214323828
 31
0.0
 11
903.7333454437614
 21
-43.61980214323826
 31
0.0
 11
903.9083454437616
 21
-43.96980214323828
 31
0.0
 11
904.0833454437615
 21
-44.31980214323828
 31
0.0
  0
DIMENSION
  5
52E5
330
17
100
AcDbEntity
  8
Z_OM_DIM
100
AcDbDimension
  2
*D21
 10
854.6509255459055
 20
2.600955373756766
 30
0.0
 11
852.7759255459054
 21
6.591955373756889
 31
0.0
 70
    32
  1
%%C<>
 71
     5
 42
7.98199999999997
  3
CatalogDxf
100
AcDbAlignedDimension
 13
865.8101733400574
 23
10.58295537375673
 33
0.0
 14
865.8101733400574
 24
2.600955373756763
 34
0.0
 50
90.0
100
AcDbRotatedDimension
  0
LINE
  5
5333
330
17
100
AcDbEntity
  8
0
 48
0.5
100
AcDbLine
 10
903.3101733400574
 20
7.874802593856669
 30
0.0
 11
903.3101733400574
 21
5.994430044664346
 31
0.0
  0
ENDSEC
  0
SECTION
  2
OBJECTS
  0
DICTIONARY
  5
C
330
0
100
AcDbDictionary
281
     1
  3
ACAD_2007HEADERVARS_RT
350
4C0A
  3
ACAD_COLOR
350
3D57
  3
ACAD_GROUP
350
D
  3
ACAD_LAYOUT
350
3D5A
  3
ACAD_MATERIAL
350
3D42
  3
ACAD_MLINESTYLE
350
1A
  3
ACAD_PLOTSETTINGS
350
957
  3
ACAD_PLOTSTYLENAME
350
3D40
  3
ACAD_TABLESTYLE
350
3D58
  3
ACAD_VISUALSTYLE
350
3D46
  3
AcadDim
350
4C02
  3
AcDbVariableDictionary
350
4116
1001
ACAD
1000
TREAT_AS_HARD
1070
     0
  0
DICTIONARY
  5
4C0E
330
8
100
AcDbDictionary
280
     1
281
     1
  3
ACAD_XREC_ROUNDTRIP
360
4C0F
  0
DICTIONARY
  5
3DBA
330
2
100
AcDbDictionary
280
     1
281
     1
  3
ACAD_LAYERFILTERS
360
421C
  3
ACAD_LAYERSTATES
360
3DBB
  3
ACLYDICTIONARY
360
421B
  0
DICTIONARY
  5
4C10
330
E
100
AcDbDictionary
280
     1
281
     1
  3
ACAD_XREC_ROUNDTRIP
360
4C11
  0
DICTIONARY
  5
4C12
330
27
100
AcDbDictionary
280
     1
281
     1
  3
ACAD_XREC_ROUNDTRIP
360
4C13
  0
DICTIONARY
  5
4C14
330
2B
100
AcDbDictionary
280
     1
281
     1
  3
ACAD_XREC_ROUNDTRIP
360
4C15
  0
DICTIONARY
  5
4C18
330
3DB5
100
AcDbDictionary
280
     1
281
     1
  3
ACAD_XREC_ROUNDTRIP
360
4C19
  0
DICTIONARY
  5
1808
330
17
100
AcDbDictionary
280
     1
281
     1
  3
ACAD_LAYOUTSELFREF
360
3D3B
  3
ACAD_SORTENTS
360
5334
1001
ACAD
1000
TREAT_AS_HARD
1070
     1
  0
DICTIONARY
  5
1806
330
14
100
AcDbDictionary
280
     1
281
     1
  3
ACAD_LAYOUTSELFREF
360
3D3A
1001
ACAD
1000
TREAT_AS_HARD
1070
     1
  0
DICTIONARY
  5
4C0A
102
{ACAD_REACTORS
330
C
102
}
330
C
100
AcDbDictionary
281
     1
  3
DIMLTEX1
350
4C0C
  3
DIMLTEX2
350
4C0D
  3
DIMLTYPE
350
4C0B
  0
DICTIONARY
  5
3D57
102
{ACAD_REACTORS
330
C
102
}
330
C
100
AcDbDictionary
281
     1
  0
DICTIONARY
  5
D
102
{ACAD_REACTORS
330
C
102
}
330
C
100
AcDbDictionary
281
     1
1001
ACAD
1000
TREAT_AS_HARD
1070
     0
  0
DICTIONARY
  5
3D5A
102
{ACAD_REACTORS
330
C
102
}
330
C
100
AcDbDictionary
281
     1
  3
Model
350
3D5B
  3
レイアウト1
350
3D5C
  0
DICTIONARY
  5
3D42
102
{ACAD_REACTORS
330
C
102
}
330
C
100
AcDbDictionary
281
     1
  3
ByBlock
350
3D44
  3
ByLayer
350
3D43
  3
Global
350
3D45
  0
DICTIONARY
  5
1A
102
{ACAD_REACTORS
330
C
102
}
330
C
100
AcDbDictionary
281
     1
  3
STANDARD
350
1B
1001
ACAD
1000
TREAT_AS_HARD
1070
     0
  0
DICTIONARY
  5
957
102
{ACAD_REACTORS
330
C
102
}
330
C
100
AcDbDictionary
281
     1
1001
ACAD
1000
TREAT_AS_HARD
1070
     0
  0
ACDBDICTIONARYWDFLT
  5
3D40
102
{ACAD_REACTORS
330
C
102
}
330
C
100
AcDbDictionary
281
     1
  3
Normal
350
3D41
100
AcDbDictionaryWithDefault
340
3D41
  0
DICTIONARY
  5
3D58
102
{ACAD_REACTORS
330
C
102
}
330
C
100
AcDbDictionary
281
     1
  3
Standard
350
3D59
  0
DICTIONARY
  5
3D46
102
{ACAD_REACTORS
330
C
102
}
330
C
100
AcDbDictionary
281
     1
  3
2dWireframe
350
3D4C
  3
3D Hidden
350
3D4E
  3
3dWireframe
350
3D4D
  3
Basic
350
3D4B
  3
Brighten
350
3D52
  3
ColorChange
350
3D56
  3
Conceptual
350
3D4F
  3
Dim
350
3D51
  3
Facepattern
350
3D55
  3
Flat
350
3D47
  3
FlatWithEdges
350
3D48
  3
Gouraud
350
3D49
  3
GouraudWithEdges
350
3D4A
  3
Linepattern
350
3D54
  3
Realistic
350
3D50
  3
Thicken
350
3D53
  0
XRECORD
  5
4C02
102
{ACAD_REACTORS
330
C
102
}
330
C
100
AcDbXrecord
280
     1
 90
   990106
  3

 60
     0
 61
     0
 62
     4
 63
     4
 64
     1
 65
     0
 66
     0
 67
     2
 68
     1
 69
     0
 70
     0
 71
     0
 72
     0
 40
34.0262805360818
170
     2
  0
DICTIONARY
  5
4116
102
{ACAD_REACTORS
330
C
102
}
330
C
100
AcDbDictionary
281
     1
  3
CTABLESTYLE
350
4117
  3
DIMASSOC
350
4927
  3
INDEXCTL
350
4926
  3
PROJECTNAME
350
4D4A
  3
SORTENTS
350
4925
  0
XRECORD
  5
4C0F
102
{ACAD_REACTORS
330
4C0E
102
}
330
4C0E
100
AcDbXrecord
280
     1
102
VTR_0.000_0.000_1.000_1.000_VISUALSTYLE
340
3D4C
102
VTR_0.000_0.000_1.000_1.000_GRIDDISPLAY
 70
     3
102
VTR_0.000_0.000_1.000_1.000_GRIDMAJOR
 70
     5
102
VTR_0.000_0.000_1.000_1.000_DEFAULTLIGHTING
280
     1
102
VTR_0.000_0.000_1.000_1.000_DEFAULTLIGHTINGTYPE
 70
     1
102
VTR_0.000_0.000_1.000_1.000_BRIGHTNESS
141
0.0
102
VTR_0.000_0.000_1.000_1.000_CONTRAST
142
0.0
  0
DICTIONARY
  5
421C
102
{ACAD_REACTORS
330
3DBA
102
}
330
3DBA
100
AcDbDictionary
281
     1
  0
DICTIONARY
  5
3DBB
102
{ACAD_REACTORS
330
3DBA
102
}
330
3DBA
100
AcDbDictionary
281
     1
  0
DICTIONARY
  5
421B
102
{ACAD_REACTORS
330
3DBA
102
}
330
3DBA
100
AcDbDictionary
281
     1
1001
ACAD
1000
<All
  0
XRECORD
  5
4C11
102
{ACAD_REACTORS
330
4C10
102
}
330
4C10
100
AcDbXrecord
280
     1
102
MATERIAL
340
3D45
  0
XRECORD
  5
4C13
102
{ACAD_REACTORS
330
4C12
102
}
330
4C12
100
AcDbXrecord
280
     1
102
MATERIAL
340
3D45
  0
XRECORD
  5
4C15
102
{ACAD_REACTORS
330
4C14
102
}
330
4C14
100
AcDbXrecord
280
     1
102
MATERIAL
340
3D45
  0
XRECORD
  5
4C19
102
{ACAD_REACTORS
330
4C18
102
}
330
4C18
100
AcDbXrecord
280
     1
102
MATERIAL
340
3D45
  0
XRECORD
  5
3D3B
102
{ACAD_REACTORS
330
1808
102
}
330
1808
100
AcDbXrecord
280
     1
340
17
  0
SORTENTSTABLE
  5
5334
102
{ACAD_REACTORS
330
1808
102
}
330
1808
100
AcDbSortentsTable
330
17
331
4EAC
  5
4EAC
331
4ECE
  5
4ECE
331
4EF0
  5
4EF1
331
51C8
  5
51CA
331
4F12
  5
4F13
331
4E99
  5
4E99
331
4E77
  5
4E77
331
4E55
  5
4E55
331
4EBD
  5
4EBD
331
4EDF
  5
4EE0
331
4F01
  5
4F02
331
4E88
  5
4E88
331
4E66
  5
4E66
331
4E44
  5
4E44
331
4EAA
  5
4EAA
331
4ECC
  5
4ECC
331
4EEE
  5
4EEF
331
52C8
  5
52C9
331
4F10
  5
4F11
331
4E97
  5
4E97
331
4E75
  5
4E75
331
4E53
  5
4E53
331
4EBB
  5
4EBB
331
4EDD
  5
4EDE
331
51D7
  5
51D8
331
4F1C
  5
4F1D
331
4EFF
  5
4F00
331
4E86
  5
4E86
331
4E64
  5
4E64
331
4E42
  5
4E42
331
4EA8
  5
4EA8
331
4EEC
  5
4EED
331
4E73
  5
4E73
331
4E51
  5
4E51
331
52C6
  5
52C7
331
4F0E
  5
4F0F
331
4E95
  5
4E95
331
4EB9
  5
4EB9
331
4EDB
  5
4EDB
331
4EFD
  5
4EFE
331
51D5
  5
51D6
331
51C7
  5
51C8
331
4EA6
  5
4EA6
331
4E84
  5
4E84
331
4E62
  5
4E62
331
4E40
  5
4E40
331
44DC
  5
44DC
331
4EEA
  5
4EEB
331
5333
  5
4EDD
331
52C4
  5
52C5
331
4F0C
  5
4F0D
331
4E93
  5
4E93
331
4E71
  5
4E71
331
4EB7
  5
4EB7
331
4ED9
  5
4ED9
331
4EFB
  5
4EFC
331
51D3
  5
51D4
331
4F18
  5
4F19
331
4EA4
  5
4EA4
331
4E82
  5
4E82
331
4E60
  5
4E60
331
4E4F
  5
4E4F
331
4E3E
  5
4E3E
331
4EE8
  5
4EE9
331
4F0A
  5
4F0B
331
4E91
  5
4E91
331
4EB5
  5
4EB5
331
4ED7
  5
4ED7
331
51D8
  5
51D9
331
51D1
  5
51D2
331
4EA2
  5
4EA2
331
4E80
  5
4E80
331
4E5E
  5
4E5E
331
4EC6
  5
4EC6
331
4E6F
  5
4E6F
331
4E4D
  5
4E4D
331
4E3C
  5
4E3C
331
4F08
  5
4F09
331
4EB3
  5
4EB3
331
4ED5
  5
4ED5
331
4EF7
  5
4EFA
331
51CF
  5
51D0
331
4EA0
  5
4EA0
331
4E7E
  5
4E7E
331
4E5C
  5
4E5C
331
4EC4
  5
4EC4
331
4EE6
  5
4EE7
331
4E8F
  5
4E8F
331
4E6D
  5
4E6D
331
4E4B
  5
4E4B
331
52E5
  5
5333
331
4EB1
  5
4EB1
331
4ED3
  5
4ED3
331
4EF5
  5
4EF6
331
51CD
  5
51CE
331
4F17
  5
4F18
331
4E9E
  5
4E9E
331
4E7C
  5
4E7C
331
4E5A
  5
4E5A
331
4EC2
  5
4EC2
331
4EE4
  5
4EE5
331
4F06
  5
4F07
331
4E8D
  5
4E8D
331
4E6B
  5
4E6B
331
4E49
  5
4E49
331
4FB1
  5
4FB2
331
4EAF
  5
4EAF
331
4ED1
  5
4ED1
331
4EF3
  5
4EF4
331
51CB
  5
51CD
331
4F15
  5
4F16
331
4E9C
  5
4E9C
331
4E7A
  5
4E7A
331
4E58
  5
4E58
331
4EC0
  5
4EC0
331
4EE2
  5
4EE3
331
4F04
  5
4F05
331
4E8B
  5
4E8B
331
4E69
  5
4E69
331
4E47
  5
4E47
331
5272
  5
5273
331
4EAD
  5
4EAD
331
4ECF
  5
4ECF
331
4EF1
  5
4EF2
331
4F13
  5
4F14
331
4E9A
  5
4E9A
331
4E78
  5
4E78
331
4E56
  5
4E56
331
4EBE
  5
4EBE
331
4EE0
  5
4EE1
331
4F02
  5
4F03
331
4E89
  5
4E89
331
4E67
  5
4E67
331
4E45
  5
4E45
331
4EAB
  5
4EAB
331
4ECD
  5
4ECD
331
4EEF
  5
4EF0
331
52C9
  5
52D1
331
4F11
  5
4F12
331
4E98
  5
4E98
331
4E76
  5
4E76
331
4E54
  5
4E54
331
4EBC
  5
4EBC
331
4EDE
  5
4EDF
331
52AE
  5
52C4
331
4F1D
  5
4FB1
331
4F00
  5
4F01
331
4E87
  5
4E87
331
4E65
  5
4E65
331
4E43
  5
4E43
331
42AA
  5
42AA
331
4EA9
  5
4EA9
331
4ECB
  5
4ECB
331
4EED
  5
4EEE
331
52C7
  5
52C8
331
4F0F
  5
4F10
331
4E96
  5
4E96
331
4E74
  5
4E74
331
4E52
  5
4E52
331
4EBA
  5
4EBA
331
4EFE
  5
4EFF
331
51D6
  5
51D7
331
4EA7
  5
4EA7
331
4E85
  5
4E85
331
4E63
  5
4E63
331
4E41
  5
4E41
331
4EEB
  5
4EEC
331
52C5
  5
52C6
331
5022
  5
50AD
331
4F0D
  5
4F0E
331
4E94
  5
4E94
331
4E72
  5
4E72
331
4E50
  5
4E50
331
4EB8
  5
4EB8
331
4EDA
  5
4EDA
331
4EFC
  5
4EFD
331
51DB
  5
5272
331
4F19
  5
4F1C
331
51D4
  5
51D5
331
4EA5
  5
4EA5
331
4E83
  5
4E83
331
4E61
  5
4E61
331
4E3F
  5
4E3F
331
4EE9
  5
4EEA
331
4F0B
  5
4F0C
331
4E92
  5
4E92
331
4E70
  5
4E70
331
4EB6
  5
4EB6
331
4ED8
  5
4ED8
331
4EFA
  5
4EFB
331
51D9
  5
51DB
331
51D2
  5
51D3
331
4EA3
  5
4EA3
331
4E81
  5
4E81
331
4E5F
  5
4E5F
331
4EC7
  5
4EC7
331
4E4E
  5
4E4E
331
4E3D
  5
4E3D
331
4F09
  5
4F0A
331
4E90
  5
4E90
331
4EB4
  5
4EB4
331
4ED6
  5
4ED6
331
51D0
  5
51D1
331
4EA1
  5
4EA1
331
4E7F
  5
4E7F
331
4E5D
  5
4E5D
331
4EC5
  5
4EC5
331
4EE7
  5
4EE8
331
4E6E
  5
4E6E
331
4E4C
  5
4E4C
331
4E3B
  5
4E3B
331
4FB4
  5
5022
331
4EB2
  5
4EB2
331
4ED4
  5
4ED4
331
4EF6
  5
4EF7
331
51CE
  5
51CF
331
50AD
  5
51C7
331
4E9F
  5
4E9F
331
4E7D
  5
4E7D
331
4E5B
  5
4E5B
331
4EC3
  5
4EC3
331
4EE5
  5
4EE6
331
4F07
  5
4F08
331
4E8E
  5
4E8E
331
4E6C
  5
4E6C
331
4E4A
  5
4E4A
331
52D1
  5
52E5
331
4FB2
  5
4FB4
331
4EB0
  5
4EB0
331
4ED2
  5
4ED2
331
4EF4
  5
4EF5
331
4F16
  5
4F17
331
4E9D
  5
4E9D
331
4E7B
  5
4E7B
331
4E59
  5
4E59
331
4EC1
  5
4EC1
331
4EE3
  5
4EE4
331
4F05
  5
4F06
331
4E8C
  5
4E8C
331
4E6A
  5
4E6A
331
4E48
  5
4E48
331
5273
  5
52AE
331
4EAE
  5
4EAE
331
4ED0
  5
4ED0
331
4EF2
  5
4EF3
331
51CA
  5
51CB
331
4F14
  5
4F15
331
4E9B
  5
4E9B
331
4E79
  5
4E79
331
4E57
  5
4E57
331
4EBF
  5
4EBF
331
4EE1
  5
4EE2
331
4F03
  5
4F04
331
4E8A
  5
4E8A
331
4E68
  5
4E68
331
4E46
  5
4E46
  0
XRECORD
  5
3D3A
102
{ACAD_REACTORS
330
1806
102
}
330
1806
100
AcDbXrecord
280
     1
340
14
  0
XRECORD
  5
4C0C
102
{ACAD_REACTORS
330
4C0A
102
}
330
4C0A
100
AcDbXrecord
280
     1
340
12
  0
XRECORD
  5
4C0D
102
{ACAD_REACTORS
330
4C0A
102
}
330
4C0A
100
AcDbXrecord
280
     1
340
12
  0
XRECORD
  5
4C0B
102
{ACAD_REACTORS
330
4C0A
102
}
330
4C0A
100
AcDbXrecord
280
     1
340
12
  0
LAYOUT
  5
3D5B
102
{ACAD_REACTORS
330
3D5A
102
}
330
3D5A
100
AcDbPlotSettings
  1

  2
none_device
  4
Letter_(8.50_x_11.00_Inches)
  6

 40
6.349999904632567
 41
6.349999904632567
 42
6.350006103515625
 43
6.350006103515625
 44
215.8999938964844
 45
279.3999938964844
 46
5.363066855214816
 47
-79.44573561417278
 48
0.0
 49
0.0
140
0.0
141
0.0
142
1.0
143
26.39060000000001
 70
 11940
 72
     0
 73
     1
 74
     0
  7
monochrome.ctb
 75
     0
147
0.0378922798269081
 76
     0
 77
     2
 78
   300
148
-13527.49038308012
149
3381.590061257359
100
AcDbLayout
  1
Model
 70
     1
 71
     0
 10
0.0
 20
0.0
 11
12.0
 21
9.0
 12
0.0
 22
0.0
 32
0.0
 14
0.0
 24
0.0
 34
0.0
 15
0.0
 25
0.0
 35
0.0
146
0.0
 13
0.0
 23
0.0
 33
0.0
 16
1.0
 26
0.0
 36
0.0
 17
0.0
 27
1.0
 37
0.0
 76
     0
330
17
1001
ACAD_PSEXT
1000
なし
1000
なし
1000
適切ではありません
1000
新しいプロッタ環境設定名を選択しない限り、レイアウトは印刷されません。
1070
     0
  0
LAYOUT
  5
3D5C
102
{ACAD_REACTORS
330
3D5A
102
}
330
3D5A
100
AcDbPlotSettings
  1

  2
Microsoft XPS Document Writer
  4

  6

 40
0.0
 41
0.0
 42
0.0
 43
0.0
 44
0.0
 45
0.0
 46
0.0
 47
0.0
 48
0.0
 49
0.0
140
0.0
141
0.0
142
1.0
143
1.0
 70
   688
 72
     0
 73
     0
 74
     5
  7
monochrome.ctb
 75
    16
147
1.0
 76
     0
 77
     2
 78
   300
148
0.0
149
0.0
100
AcDbLayout
  1
レイアウト1
 70
     1
 71
     1
 10
0.0
 20
0.0
 11
12.0
 21
9.0
 12
0.0
 22
0.0
 32
0.0
 14
1.000000000000000E+20
 24
1.000000000000000E+20
 34
1.000000000000000E+20
 15
-1.000000000000000E+20
 25
-1.000000000000000E+20
 35
-1.000000000000000E+20
146
0.0
 13
0.0
 23
0.0
 33
0.0
 16
1.0
 26
0.0
 36
0.0
 17
0.0
 27
1.0
 37
0.0
 76
     0
330
14
  0
MATERIAL
  5
3D44
102
{ACAD_XDICTIONARY
360
419D
102
}
102
{ACAD_REACTORS
330
3D42
102
}
330
3D42
100
AcDbMaterial
  1
ByBlock
  0
MATERIAL
  5
3D43
102
{ACAD_XDICTIONARY
360
419B
102
}
102
{ACAD_REACTORS
330
3D42
102
}
330
3D42
100
AcDbMaterial
  1
ByLayer
  0
MATERIAL
  5
3D45
102
{ACAD_XDICTIONARY
360
419F
102
}
102
{ACAD_REACTORS
330
3D42
102
}
330
3D42
100
AcDbMaterial
  1
Global
  0
MLINESTYLE
  5
1B
102
{ACAD_REACTORS
330
1A
102
}
330
1A
100
AcDbMlineStyle
  2
STANDARD
 70
     0
  3

 62
   256
 51
90.0
 52
90.0
 71
     2
 49
0.5
 62
   256
  6
BYLAYER
 49
-0.5
 62
   256
  6
BYLAYER
  0
ACDBPLACEHOLDER
  5
3D41
102
{ACAD_REACTORS
330
3D40
102
}
330
3D40
  0
TABLESTYLE
  5
3D59
102
{ACAD_XDICTIONARY
360
4C16
102
}
102
{ACAD_REACTORS
330
3D58
102
}
330
3D58
100
AcDbTableStyle
  3
Standard
 70
     0
 71
     0
 40
0.06
 41
0.06
280
     0
281
     0
  7
STANDARD
140
0.18
170
     2
 62
     0
 63
     7
283
     0
274
    -2
284
     1
 64
     0
275
    -2
285
     1
 65
     0
276
    -2
286
     1
 66
     0
277
    -2
287
     1
 67
     0
278
    -2
288
     1
 68
     0
279
    -2
289
     1
 69
     0
  7
STANDARD
140
0.25
170
     5
 62
     0
 63
     7
283
     0
274
    -2
284
     1
 64
     0
275
    -2
285
     1
 65
     0
276
    -2
286
     1
 66
     0
277
    -2
287
     1
 67
     0
278
    -2
288
     1
 68
     0
279
    -2
289
     1
 69
     0
  7
STANDARD
140
0.18
170
     5
 62
     0
 63
     7
283
     0
274
    -2
284
     1
 64
     0
275
    -2
285
     1
 65
     0
276
    -2
286
     1
 66
     0
277
    -2
287
     1
 67
     0
278
    -2
288
     1
 68
     0
279
    -2
289
     1
 69
     0
  0
ACAD_PROXY_OBJECT
  5
3D4C
102
{ACAD_REACTORS
330
3D46
102
}
330
3D46
100
AcDbProxyObject
 90
      499
 91
      503
 95
  2555929
 70
     0
 93
      598
310
430C9915DA5C99599C985B59401049028333333333333E3BF0000000000000FB0201C00030C02405048070000C3008000000C800405A000000320014050640A01C00030C010500920280D3
 94
        0
1001
ACAD
1000
AcDbSavedByObjectVersion
1070
     0
1000
AcDbSavedByObjectVersion
1070
     0
1000
AcDbSavedByObjectVersion
1070
     0
1000
AcDbSavedByObjectVersion
1070
     0
1000
AcDbSavedByObjectVersion
1070
     0
1000
AcDbSavedByObjectVersion
1070
     0
1000
AcDbSavedByObjectVersion
1070
     0
1000
AcDbSavedByObjectVersion
1070
     0
1000
AcDbSavedByObjectVersion
1070
     0
1000
AcDbSavedByObjectVersion
1070
     0
1000
AcDbSavedByObjectVersion
1070
     0
1000
AcDbSavedByObjectVersion
1070
     0
1000
AcRTDxfName
1000
VISUALSTYLE
1000
AcRTDxfName
1000
VISUALSTYLE
  0
ACAD_PROXY_OBJECT
  5
3D4E
102
{ACAD_REACTORS
330
3D46
102
}
330
3D46
100
AcDbProxyObject
 90
      499
 91
      503
 95
  2555929
 70
     0
 93
      662
310
428CD108121A5919195B8010640502408333333333333E3BF0000000000000FB0201C00030C02409028070000C3008000000C8004080000000000004440A000000320014050640A01C00030C010300920280D1
 94
        0
1001
ACAD
1000
AcDbSavedByObjectVersion
1070
     0
1000
AcDbSavedByObjectVersion
1070
     0
1000
AcDbSavedByObjectVersion
1070
     0
1000
AcDbSavedByObjectVersion
1070
     0
1000
AcDbSavedByObjectVersion
1070
     0
1000
AcDbSavedByObjectVersion
1070
     0
1000
AcDbSavedByObjectVersion
1070
     0
1000
AcDbSavedByObjectVersion
1070
     0
1000
AcDbSavedByObjectVersion
1070
     0
1000
AcDbSavedByObjectVersion
1070
     0
1000
AcDbSavedByObjectVersion
1070
     0
1000
AcDbSavedByObjectVersion
1070
     0
1000
AcRTDxfName
1000
VISUALSTYLE
1000
AcRTDxfName
1000
VISUALSTYLE
  0
ACAD_PROXY_OBJECT
  5
3D4D
102
{ACAD_REACTORS
330
3D46
102
}
330
3D46
100
AcDbProxyObject
 90
      499
 91
      503
 95
  2555929
 70
     0
 93
      598
310
430CD915DA5C99599C985B59401059028333333333333E3BF0000000000000FB0201C00030C02405048070000C3008000000C800405A000000320014050640A01C00030C010500920280D1
 94
        0
1001
ACAD
1000
AcDbSavedByObjectVersion
1070
     0
1000
AcDbSavedByObjectVersion
1070
     0
1000
AcDbSavedByObjectVersion
1070
     0
1000
AcDbSavedByObjectVersion
1070
     0
1000
AcDbSavedByObjectVersion
1070
     0
1000
AcDbSavedByObjectVersion
1070
     0
1000
AcDbSavedByObjectVersion
1070
     0
1000
AcDbSavedByObjectVersion
1070
     0
1000
AcDbSavedByObjectVersion
1070
     0
1000
AcDbSavedByObjectVersion
1070
     0
1000
AcDbSavedByObjectVersion
1070
     0
1000
AcDbSavedByObjectVersion
1070
     0
1000
AcRTDxfName
1000
VISUALSTYLE
1000
AcRTDxfName
1000
VISUALSTYLE
  0
ACAD_PROXY_OBJECT
  5
3D4B
102
{ACAD_REACTORS
330
3D46
102
}
330
3D46
100
AcDbProxyObject
 90
      499
 91
      503
 95
  2555929
 70
     0
 93
      558
310
4190985CDA58C0107406404333333333333E3BF0000000000000FB0201C00030C029048070000C3008000000C80040542201C00030C014050640A01C00030C010500920280D5
 94
        0
1001
ACAD
1000
AcDbSavedByObjectVersion
1070
     0
1000
AcDbSavedByObjectVersion
1070
     0
1000
AcDbSavedByObjectVersion
1070
     0
1000
AcDbSavedByObjectVersion
1070
     0
1000
AcDbSavedByObjectVersion
1070
     0
1000
AcDbSavedByObjectVersion
1070
     0
1000
AcDbSavedByObjectVersion
1070
     0
1000
AcDbSavedByObjectVersion
1070
     0
1000
AcDbSavedByObjectVersion
1070
     0
1000
AcDbSavedByObjectVersion
1070
     0
1000
AcDbSavedByObjectVersion
1070
     0
1000
AcDbSavedByObjectVersion
1070
     0
1000
AcRTDxfName
1000
VISUALSTYLE
1000
AcRTDxfName
1000
VISUALSTYLE
  0
ACAD_PROXY_OBJECT
  5
3D52
102
{ACAD_REACTORS
330
3D46
102
}
330
3D46
100
AcDbProxyObject
 90
      499
 91
      503
 95
  2555929
 70
     0
 93
      598
310
42509C9A59DA1D195B8010C409028333333333333E3BF0000000000000FB0201C00030C02405048070000C3008000000C80040542201C00030C014050640A01C00030C010500920280A655
 94
        0
1001
ACAD
1000
AcDbSavedByObjectVersion
1070
     0
1000
AcDbSavedByObjectVersion
1070
     0
1000
AcDbSavedByObjectVersion
1070
     0
1000
AcDbSavedByObjectVersion
1070
     0
1000
AcDbSavedByObjectVersion
1070
     0
1000
AcDbSavedByObjectVersion
1070
     0
1000
AcDbSavedByObjectVersion
1070
     0
1000
AcDbSavedByObjectVersion
1070
     0
1000
AcDbSavedByObjectVersion
1070
     0
1000
AcDbSavedByObjectVersion
1070
     0
1000
AcDbSavedByObjectVersion
1070
     0
1000
AcDbSavedByObjectVersion
1070
     0
1000
AcRTDxfName
1000
VISUALSTYLE
1000
AcRTDxfName
1000
VISUALSTYLE
  0
ACAD_PROXY_OBJECT
  5
3D56
102
{ACAD_REACTORS
330
3D46
102
}
330
3D46
100
AcDbProxyObject
 90
      499
 91
      503
 95
  2555929
 70
     0
 93
      622
310
4310DBDB1BDC90DA185B99D9401104090240C333333333333E3BF0000000000000FB0202000030C02405048070000C3008000000C80040542202000030C014050640A01C00030C010500920280D4
 94
        0
1001
ACAD
1000
AcDbSavedByObjectVersion
1070
     0
1000
AcDbSavedByObjectVersion
1070
     0
1000
AcDbSavedByObjectVersion
1070
     0
1000
AcDbSavedByObjectVersion
1070
     0
1000
AcDbSavedByObjectVersion
1070
     0
1000
AcDbSavedByObjectVersion
1070
     0
1000
AcDbSavedByObjectVersion
1070
     0
1000
AcDbSavedByObjectVersion
1070
     0
1000
AcDbSavedByObjectVersion
1070
     0
1000
AcDbSavedByObjectVersion
1070
     0
1000
AcDbSavedByObjectVersion
1070
     0
1000
AcDbSavedByObjectVersion
1070
     0
1000
AcRTDxfName
1000
VISUALSTYLE
1000
AcRTDxfName
1000
VISUALSTYLE
  0
ACAD_PROXY_OBJECT
  5
3D4F
102
{ACAD_REACTORS
330
3D46
102
}
330
3D46
100
AcDbProxyObject
 90
      499
 91
      503
 95
  2555929
 70
     0
 93
      670
310
42D0DBDB98D95C1D1D585B0010940D028333333333333E3BF0000000000000FB0201C00030C02409028070000C3008000000C800404000000000000444042201C00030C014050640A01C00030C010300920280D1
 94
        0
1001
ACAD
1000
AcDbSavedByObjectVersion
1070
     0
1000
AcDbSavedByObjectVersion
1070
     0
1000
AcDbSavedByObjectVersion
1070
     0
1000
AcDbSavedByObjectVersion
1070
     0
1000
AcDbSavedByObjectVersion
1070
     0
1000
AcDbSavedByObjectVersion
1070
     0
1000
AcDbSavedByObjectVersion
1070
     0
1000
AcDbSavedByObjectVersion
1070
     0
1000
AcDbSavedByObjectVersion
1070
     0
1000
AcDbSavedByObjectVersion
1070
     0
1000
AcDbSavedByObjectVersion
1070
     0
1000
AcDbSavedByObjectVersion
1070
     0
1000
AcRTDxfName
1000
VISUALSTYLE
1000
AcRTDxfName
1000
VISUALSTYLE
  0
ACAD_PROXY_OBJECT
  5
3D51
102
{ACAD_REACTORS
330
3D46
102
}
330
3D46
100
AcDbProxyObject
 90
      499
 91
      503
 95
  2555929
 70
     0
 93
      582
310
41111A5B4010B409028333333333333E3BF0000000000000FB0201C00030C02405048070000C3008000000C80040542201C00030C014050640A01C00030C01050092028099DFFFFFF5
 94
        0
1001
ACAD
1000
AcDbSavedByObjectVersion
1070
     0
1000
AcDbSavedByObjectVersion
1070
     0
1000
AcDbSavedByObjectVersion
1070
     0
1000
AcDbSavedByObjectVersion
1070
     0
1000
AcDbSavedByObjectVersion
1070
     0
1000
AcDbSavedByObjectVersion
1070
     0
1000
AcDbSavedByObjectVersion
1070
     0
1000
AcDbSavedByObjectVersion
1070
     0
1000
AcDbSavedByObjectVersion
1070
     0
1000
AcDbSavedByObjectVersion
1070
     0
1000
AcDbSavedByObjectVersion
1070
     0
1000
AcDbSavedByObjectVersion
1070
     0
1000
AcRTDxfName
1000
VISUALSTYLE
1000
AcRTDxfName
1000
VISUALSTYLE
  0
ACAD_PROXY_OBJECT
  5
3D55
102
{ACAD_REACTORS
330
3D46
102
}
330
3D46
100
AcDbProxyObject
 90
      499
 91
      503
 95
  2555929
 70
     0
 93
      614
310
43119858D95C185D1D195C9B8010F409028333333333333E3BF0000000000000FB0201C00030C02405048070000C3008000000C80040542201C00030C014050640A01C00030C010500920280D4
 94
        0
1001
ACAD
1000
AcDbSavedByObjectVersion
1070
     0
1000
AcDbSavedByObjectVersion
1070
     0
1000
AcDbSavedByObjectVersion
1070
     0
1000
AcDbSavedByObjectVersion
1070
     0
1000
AcDbSavedByObjectVersion
1070
     0
1000
AcDbSavedByObjectVersion
1070
     0
1000
AcDbSavedByObjectVersion
1070
     0
1000
AcDbSavedByObjectVersion
1070
     0
1000
AcDbSavedByObjectVersion
1070
     0
1000
AcDbSavedByObjectVersion
1070
     0
1000
AcDbSavedByObjectVersion
1070
     0
1000
AcDbSavedByObjectVersion
1070
     0
1000
AcRTDxfName
1000
VISUALSTYLE
1000
AcRTDxfName
1000
VISUALSTYLE
  0
ACAD_PROXY_OBJECT
  5
3D47
102
{ACAD_REACTORS
330
3D46
102
}
330
3D46
100
AcDbProxyObject
 90
      499
 91
      503
 95
  2555929
 70
     0
 93
      558
310
41519B185D00240901404333333333333E3BF0000000000000F90201C00030C01029048070000C3008000000C80040542201C00030C014050640A01C00030C010500920286D5
 94
        0
1001
ACAD
1000
AcDbSavedByObjectVersion
1070
     0
1000
AcDbSavedByObjectVersion
1070
     0
1000
AcDbSavedByObjectVersion
1070
     0
1000
AcDbSavedByObjectVersion
1070
     0
1000
AcDbSavedByObjectVersion
1070
     0
1000
AcDbSavedByObjectVersion
1070
     0
1000
AcDbSavedByObjectVersion
1070
     0
1000
AcDbSavedByObjectVersion
1070
     0
1000
AcDbSavedByObjectVersion
1070
     0
1000
AcDbSavedByObjectVersion
1070
     0
1000
AcDbSavedByObjectVersion
1070
     0
1000
AcDbSavedByObjectVersion
1070
     0
1000
AcRTDxfName
1000
VISUALSTYLE
1000
AcRTDxfName
1000
VISUALSTYLE
  0
ACAD_PROXY_OBJECT
  5
3D48
102
{ACAD_REACTORS
330
3D46
102
}
330
3D46
100
AcDbProxyObject
 90
      499
 91
      503
 95
  2555929
 70
     0
 93
      638
310
43919B185D15DA5D1A115919D95CC010140901404333333333333E3BF0000000000000F90201C00030C0102405048070000C3008000000C800405A000000320014050640A01C00030C010500920286D4
 94
        0
1001
ACAD
1000
AcDbSavedByObjectVersion
1070
     0
1000
AcDbSavedByObjectVersion
1070
     0
1000
AcDbSavedByObjectVersion
1070
     0
1000
AcDbSavedByObjectVersion
1070
     0
1000
AcDbSavedByObjectVersion
1070
     0
1000
AcDbSavedByObjectVersion
1070
     0
1000
AcDbSavedByObjectVersion
1070
     0
1000
AcDbSavedByObjectVersion
1070
     0
1000
AcDbSavedByObjectVersion
1070
     0
1000
AcDbSavedByObjectVersion
1070
     0
1000
AcDbSavedByObjectVersion
1070
     0
1000
AcDbSavedByObjectVersion
1070
     0
1000
AcRTDxfName
1000
VISUALSTYLE
1000
AcRTDxfName
1000
VISUALSTYLE
  0
ACAD_PROXY_OBJECT
  5
3D49
102
{ACAD_REACTORS
330
3D46
102
}
330
3D46
100
AcDbProxyObject
 90
      499
 91
      503
 95
  2555929
 70
     0
 93
      582
310
4211DBDD5C985D590010240902404333333333333E3BF0000000000000F90201C00030C01029048070000C3008000000C800405A01C00030C014050640A01C00030C010500920286D5
 94
        0
1001
ACAD
1000
AcDbSavedByObjectVersion
1070
     0
1000
AcDbSavedByObjectVersion
1070
     0
1000
AcDbSavedByObjectVersion
1070
     0
1000
AcDbSavedByObjectVersion
1070
     0
1000
AcDbSavedByObjectVersion
1070
     0
1000
AcDbSavedByObjectVersion
1070
     0
1000
AcDbSavedByObjectVersion
1070
     0
1000
AcDbSavedByObjectVersion
1070
     0
1000
AcDbSavedByObjectVersion
1070
     0
1000
AcDbSavedByObjectVersion
1070
     0
1000
AcDbSavedByObjectVersion
1070
     0
1000
AcDbSavedByObjectVersion
1070
     0
1000
AcRTDxfName
1000
VISUALSTYLE
1000
AcRTDxfName
1000
VISUALSTYLE
  0
ACAD_PROXY_OBJECT
  5
3D4A
102
{ACAD_REACTORS
330
3D46
102
}
330
3D46
100
AcDbProxyObject
 90
      499
 91
      503
 95
  2555929
 70
     0
 93
      662
310
4451DBDD5C985D5915DA5D1A115919D95CC010340902404333333333333E3BF0000000000000F90201C00030C0102405048070000C3008000000C800405A000000320014050640A01C00030C010500920286D5
 94
        0
1001
ACAD
1000
AcDbSavedByObjectVersion
1070
     0
1000
AcDbSavedByObjectVersion
1070
     0
1000
AcDbSavedByObjectVersion
1070
     0
1000
AcDbSavedByObjectVersion
1070
     0
1000
AcDbSavedByObjectVersion
1070
     0
1000
AcDbSavedByObjectVersion
1070
     0
1000
AcDbSavedByObjectVersion
1070
     0
1000
AcDbSavedByObjectVersion
1070
     0
1000
AcDbSavedByObjectVersion
1070
     0
1000
AcDbSavedByObjectVersion
1070
     0
1000
AcDbSavedByObjectVersion
1070
     0
1000
AcDbSavedByObjectVersion
1070
     0
1000
AcRTDxfName
1000
VISUALSTYLE
1000
AcRTDxfName
1000
VISUALSTYLE
  0
ACAD_PROXY_OBJECT
  5
3D54
102
{ACAD_REACTORS
330
3D46
102
}
330
3D46
100
AcDbProxyObject
 90
      499
 91
      503
 95
  2555929
 70
     0
 93
      614
310
43131A5B995C185D1D195C9B8010E409028333333333333E3BF0000000000000FB0201C00030C02405048070000C3008000000C80041D42201C00030C014050640A01C00030C010500920E80D4
 94
        0
1001
ACAD
1000
AcDbSavedByObjectVersion
1070
     0
1000
AcDbSavedByObjectVersion
1070
     0
1000
AcDbSavedByObjectVersion
1070
     0
1000
AcDbSavedByObjectVersion
1070
     0
1000
AcDbSavedByObjectVersion
1070
     0
1000
AcDbSavedByObjectVersion
1070
     0
1000
AcDbSavedByObjectVersion
1070
     0
1000
AcDbSavedByObjectVersion
1070
     0
1000
AcDbSavedByObjectVersion
1070
     0
1000
AcDbSavedByObjectVersion
1070
     0
1000
AcDbSavedByObjectVersion
1070
     0
1000
AcDbSavedByObjectVersion
1070
     0
1000
AcRTDxfName
1000
VISUALSTYLE
1000
AcRTDxfName
1000
VISUALSTYLE
  0
ACAD_PROXY_OBJECT
  5
3D50
102
{ACAD_REACTORS
330
3D46
102
}
330
3D46
100
AcDbProxyObject
 90
      499
 91
      503
 95
  2555929
 70
     0
 93
      590
310
429499585B1A5CDD1A58C0108409028333333333333E3BF0000000000000FB0201C00030C024068070000C3008000000C80040542202000030C014050640A01C00030C010500920286D1
 94
        0
1001
ACAD
1000
AcDbSavedByObjectVersion
1070
     0
1000
AcDbSavedByObjectVersion
1070
     0
1000
AcDbSavedByObjectVersion
1070
     0
1000
AcDbSavedByObjectVersion
1070
     0
1000
AcDbSavedByObjectVersion
1070
     0
1000
AcDbSavedByObjectVersion
1070
     0
1000
AcDbSavedByObjectVersion
1070
     0
1000
AcDbSavedByObjectVersion
1070
     0
1000
AcDbSavedByObjectVersion
1070
     0
1000
AcDbSavedByObjectVersion
1070
     0
1000
AcDbSavedByObjectVersion
1070
     0
1000
AcDbSavedByObjectVersion
1070
     0
1000
AcRTDxfName
1000
VISUALSTYLE
1000
AcRTDxfName
1000
VISUALSTYLE
  0
ACAD_PROXY_OBJECT
  5
3D53
102
{ACAD_REACTORS
330
3D46
102
}
330
3D46
100
AcDbProxyObject
 90
      499
 91
      503
 95
  2555929
 70
     0
 93
      582
310
42151A1A58DAD95B8010D409028333333333333E3BF0000000000000FB0201C00030C02405048070000C3008000000C80040543201C00030C014050640A01C00030C010500920280D5
 94
        0
1001
ACAD
1000
AcDbSavedByObjectVersion
1070
     0
1000
AcDbSavedByObjectVersion
1070
     0
1000
AcDbSavedByObjectVersion
1070
     0
1000
AcDbSavedByObjectVersion
1070
     0
1000
AcDbSavedByObjectVersion
1070
     0
1000
AcDbSavedByObjectVersion
1070
     0
1000
AcDbSavedByObjectVersion
1070
     0
1000
AcDbSavedByObjectVersion
1070
     0
1000
AcDbSavedByObjectVersion
1070
     0
1000
AcDbSavedByObjectVersion
1070
     0
1000
AcDbSavedByObjectVersion
1070
     0
1000
AcDbSavedByObjectVersion
1070
     0
1000
AcRTDxfName
1000
VISUALSTYLE
1000
AcRTDxfName
1000
VISUALSTYLE
  0
DICTIONARYVAR
  5
4117
102
{ACAD_REACTORS
330
4116
102
}
330
4116
100
DictionaryVariables
280
     0
  1
STANDARD
  0
DICTIONARYVAR
  5
4927
102
{ACAD_REACTORS
330
4116
102
}
330
4116
100
DictionaryVariables
280
     0
  1
1
  0
DICTIONARYVAR
  5
4926
102
{ACAD_REACTORS
330
4116
102
}
330
4116
100
DictionaryVariables
280
     0
  1
0
  0
DICTIONARYVAR
  5
4D4A
102
{ACAD_REACTORS
330
4116
102
}
330
4116
100
DictionaryVariables
280
     0
  1

  0
DICTIONARYVAR
  5
4925
102
{ACAD_REACTORS
330
4116
102
}
330
4116
100
DictionaryVariables
280
     0
  1
127
  0
DICTIONARY
  5
419D
330
3D44
100
AcDbDictionary
280
     1
281
     1
  3
ACAD_XREC_ROUNDTRIP
360
419E
  0
DICTIONARY
  5
419B
330
3D43
100
AcDbDictionary
280
     1
281
     1
  3
ACAD_XREC_ROUNDTRIP
360
419C
  0
DICTIONARY
  5
419F
330
3D45
100
AcDbDictionary
280
     1
281
     1
  3
ACAD_XREC_ROUNDTRIP
360
41A0
  0
DICTIONARY
  5
4C16
330
3D59
100
AcDbDictionary
280
     1
281
     1
  3
ACAD_XREC_ROUNDTRIP
360
4C17
  0
XRECORD
  5
419E
102
{ACAD_REACTORS
330
419D
102
}
330
419D
100
AcDbXrecord
280
     1
102
MATERIAL
148
0.0
149
0.0
149
0.0
 93
        0
 94
       63
282
     0
 72
     1
 77
     1
171
     1
175
     1
179
     1
273
     0
  0
XRECORD
  5
419C
102
{ACAD_REACTORS
330
419B
102
}
330
419B
100
AcDbXrecord
280
     1
102
MATERIAL
148
0.0
149
0.0
149
0.0
 93
        0
 94
       63
282
     0
 72
     1
 77
     1
171
     1
175
     1
179
     1
273
     0
  0
XRECORD
  5
41A0
102
{ACAD_REACTORS
330
419F
102
}
330
419F
100
AcDbXrecord
280
     1
102
MATERIAL
148
0.0
149
0.0
149
0.0
 93
        0
 94
       63
282
     0
 72
     1
 77
     1
171
     1
175
     1
179
     1
273
     0
  0
XRECORD
  5
4C17
102
{ACAD_REACTORS
330
4C16
102
}
330
4C16
100
AcDbXrecord
280
     1
102
ACAD_ROUNDTRIP_PRE2007_TABLESTYLE
 90
      512
 91
        0
  1

 92
      512
 93
        0
  2

 94
      512
 95
        0
  3

  0
ENDSEC
  0
EOF
