  0
SECTION
  2
HEADER
  9
$ACADVER
  1
AC1015
  9
$ACADMAINTVER
 70
    20
  9
$DWGCODEPAGE
  3
ANSI_932
  9
$INSBASE
 10
0.0
 20
0.0
 30
0.0
  9
$EXTMIN
 10
494.5046559861975
 20
-140.1470985360602
 30
-0.0000000349181948
  9
$EXTMAX
 10
763.5851863731895
 20
45.71824273846124
 30
0.0000000814935746
  9
$LIMMIN
 10
0.0
 20
0.0
  9
$LIMMAX
 10
12.0
 20
9.0
  9
$ORTHOMODE
 70
     1
  9
$REGENMODE
 70
     1
  9
$FILLMODE
 70
     1
  9
$QTEXTMODE
 70
     0
  9
$MIRRTEXT
 70
     1
  9
$LTSCALE
 40
0.5
  9
$ATTMODE
 70
     1
  9
$TEXTSIZE
 40
2.5
  9
$TRACEWID
 40
0.05
  9
$TEXTSTYLE
  7
CatalogDxf
  9
$CLAYER
  8
Z_OM_DIM
  9
$CELTYPE
  6
BYLAYER
  9
$CECOLOR
 62
   256
  9
$CELTSCALE
 40
1.0
  9
$DISPSILH
 70
     0
  9
$DIMSCALE
 40
1.0
  9
$DIMASZ
 40
2.5
  9
$DIMEXO
 40
0.625
  9
$DIMDLI
 40
3.75
  9
$DIMRND
 40
0.0
  9
$DIMDLE
 40
0.0
  9
$DIMEXE
 40
1.25
  9
$DIMTP
 40
0.0
  9
$DIMTM
 40
0.0
  9
$DIMTXT
 40
2.5
  9
$DIMCEN
 40
2.5
  9
$DIMTSZ
 40
0.0
  9
$DIMTOL
 70
     0
  9
$DIMLIM
 70
     0
  9
$DIMTIH
 70
     0
  9
$DIMTOH
 70
     0
  9
$DIMSE1
 70
     0
  9
$DIMSE2
 70
     0
  9
$DIMTAD
 70
     1
  9
$DIMZIN
 70
     8
  9
$DIMBLK
  1
OPEN30
  9
$DIMASO
 70
     1
  9
$DIMSHO
 70
     1
  9
$DIMPOST
  1

  9
$DIMAPOST
  1

  9
$DIMALT
 70
     0
  9
$DIMALTD
 70
     3
  9
$DIMALTF
 40
0.03937007874016
  9
$DIMLFAC
 40
1.0
  9
$DIMTOFL
 70
     1
  9
$DIMTVP
 40
0.0
  9
$DIMTIX
 70
     0
  9
$DIMSOXD
 70
     0
  9
$DIMSAH
 70
     0
  9
$DIMBLK1
  1

  9
$DIMBLK2
  1

  9
$DIMSTYLE
  2
CatalogDxf
  9
$DIMCLRD
 70
   256
  9
$DIMCLRE
 70
   256
  9
$DIMCLRT
 70
   256
  9
$DIMTFAC
 40
1.0
  9
$DIMGAP
 40
0.625
  9
$DIMJUST
 70
     0
  9
$DIMSD1
 70
     0
  9
$DIMSD2
 70
     0
  9
$DIMTOLJ
 70
     0
  9
$DIMTZIN
 70
     8
  9
$DIMALTZ
 70
     0
  9
$DIMALTTZ
 70
     0
  9
$DIMUPT
 70
     0
  9
$DIMDEC
 70
     1
  9
$DIMTDEC
 70
     1
  9
$DIMALTU
 70
     2
  9
$DIMALTTD
 70
     3
  9
$DIMTXSTY
  7
CatalogDxf
  9
$DIMAUNIT
 70
     0
  9
$DIMADEC
 70
     0
  9
$DIMALTRND
 40
0.0
  9
$DIMAZIN
 70
     0
  9
$DIMDSEP
 70
    46
  9
$DIMATFIT
 70
     3
  9
$DIMFRAC
 70
     0
  9
$DIMLDRBLK
  1
OPEN30
  9
$DIMLUNIT
 70
     2
  9
$DIMLWD
 70
    -1
  9
$DIMLWE
 70
    -1
  9
$DIMTMOVE
 70
     0
  9
$LUNITS
 70
     2
  9
$LUPREC
 70
     2
  9
$SKETCHINC
 40
0.1
  9
$FILLETRAD
 40
0.0
  9
$AUNITS
 70
     0
  9
$AUPREC
 70
     2
  9
$MENU
  1
acad
  9
$ELEVATION
 40
0.0
  9
$PELEVATION
 40
0.0
  9
$THICKNESS
 40
0.0
  9
$LIMCHECK
 70
     0
  9
$CHAMFERA
 40
0.0
  9
$CHAMFERB
 40
0.0
  9
$CHAMFERC
 40
0.0
  9
$CHAMFERD
 40
0.0
  9
$SKPOLY
 70
     0
  9
$TDCREATE
 40
2455090.761732894
  9
$TDUCREATE
 40
2455090.386732893
  9
$TDUPDATE
 40
2455678.583566389
  9
$TDUUPDATE
 40
2455678.208566389
  9
$TDINDWG
 40
0.5483898380
  9
$TDUSRTIMER
 40
0.5483829630
  9
$USRTIMER
 70
     1
  9
$ANGBASE
 50
0.0
  9
$ANGDIR
 70
     0
  9
$PDMODE
 70
     0
  9
$PDSIZE
 40
0.0
  9
$PLINEWID
 40
0.0
  9
$SPLFRAME
 70
     0
  9
$SPLINETYPE
 70
     6
  9
$SPLINESEGS
 70
     8
  9
$HANDSEED
  5
47B7
  9
$SURFTAB1
 70
     6
  9
$SURFTAB2
 70
     6
  9
$SURFTYPE
 70
     6
  9
$SURFU
 70
     6
  9
$SURFV
 70
     6
  9
$UCSBASE
  2

  9
$UCSNAME
  2

  9
$UCSORG
 10
0.0
 20
0.0
 30
0.0
  9
$UCSXDIR
 10
1.0
 20
0.0
 30
0.0
  9
$UCSYDIR
 10
0.0
 20
1.0
 30
0.0
  9
$UCSORTHOREF
  2

  9
$UCSORTHOVIEW
 70
     1
  9
$UCSORGTOP
 10
0.0
 20
0.0
 30
0.0
  9
$UCSORGBOTTOM
 10
0.0
 20
0.0
 30
0.0
  9
$UCSORGLEFT
 10
0.0
 20
0.0
 30
0.0
  9
$UCSORGRIGHT
 10
0.0
 20
0.0
 30
0.0
  9
$UCSORGFRONT
 10
0.0
 20
0.0
 30
0.0
  9
$UCSORGBACK
 10
0.0
 20
0.0
 30
0.0
  9
$PUCSBASE
  2

  9
$PUCSNAME
  2

  9
$PUCSORG
 10
0.0
 20
0.0
 30
0.0
  9
$PUCSXDIR
 10
1.0
 20
0.0
 30
0.0
  9
$PUCSYDIR
 10
0.0
 20
1.0
 30
0.0
  9
$PUCSORTHOREF
  2

  9
$PUCSORTHOVIEW
 70
     0
  9
$PUCSORGTOP
 10
0.0
 20
0.0
 30
0.0
  9
$PUCSORGBOTTOM
 10
0.0
 20
0.0
 30
0.0
  9
$PUCSORGLEFT
 10
0.0
 20
0.0
 30
0.0
  9
$PUCSORGRIGHT
 10
0.0
 20
0.0
 30
0.0
  9
$PUCSORGFRONT
 10
0.0
 20
0.0
 30
0.0
  9
$PUCSORGBACK
 10
0.0
 20
0.0
 30
0.0
  9
$USERI1
 70
     0
  9
$USERI2
 70
     0
  9
$USERI3
 70
     0
  9
$USERI4
 70
     0
  9
$USERI5
 70
     0
  9
$USERR1
 40
0.0
  9
$USERR2
 40
0.0
  9
$USERR3
 40
0.0
  9
$USERR4
 40
0.0
  9
$USERR5
 40
0.0
  9
$WORLDVIEW
 70
     1
  9
$SHADEDGE
 70
     3
  9
$SHADEDIF
 70
    70
  9
$TILEMODE
 70
     1
  9
$MAXACTVP
 70
    16
  9
$PINSBASE
 10
0.0
 20
0.0
 30
0.0
  9
$PLIMCHECK
 70
     0
  9
$PEXTMIN
 10
1.000000000000000E+20
 20
1.000000000000000E+20
 30
1.000000000000000E+20
  9
$PEXTMAX
 10
-1.000000000000000E+20
 20
-1.000000000000000E+20
 30
-1.000000000000000E+20
  9
$PLIMMIN
 10
0.0
 20
0.0
  9
$PLIMMAX
 10
12.0
 20
9.0
  9
$UNITMODE
 70
     0
  9
$VISRETAIN
 70
     0
  9
$PLINEGEN
 70
     0
  9
$PSLTSCALE
 70
     1
  9
$TREEDEPTH
 70
  3020
  9
$CMLSTYLE
  2
STANDARD
  9
$CMLJUST
 70
     0
  9
$CMLSCALE
 40
1.0
  9
$PROXYGRAPHICS
 70
     1
  9
$MEASUREMENT
 70
     0
  9
$CELWEIGHT
370
    -1
  9
$ENDCAPS
280
     0
  9
$JOINSTYLE
280
     0
  9
$LWDISPLAY
290
     0
  9
$INSUNITS
 70
     0
  9
$HYPERLINKBASE
  1

  9
$STYLESHEET
  1
monochrome.ctb
  9
$XEDIT
290
     1
  9
$CEPSNTYPE
380
     0
  9
$PSTYLEMODE
290
     1
  9
$FINGERPRINTGUID
  2
{AFC0AA2D-B3CD-48CF-B830-EF9C44F122D3}
  9
$VERSIONGUID
  2
{846949FC-6E37-44EC-BE72-AD8A42301311}
  9
$EXTNAMES
290
     1
  9
$PSVPSCALE
 40
0.0
  9
$OLESTARTUP
290
     0
  0
ENDSEC
  0
SECTION
  2
CLASSES
  0
CLASS
  1
ACDBDICTIONARYWDFLT
  2
AcDbDictionaryWithDefault
  3
ObjectDBX Classes
 90
        0
280
     0
281
     0
  0
CLASS
  1
DICTIONARYVAR
  2
AcDbDictionaryVar
  3
ObjectDBX Classes
 90
        0
280
     0
281
     0
  0
CLASS
  1
MATERIAL
  2
AcDbMaterial
  3
ObjectDBX Classes
 90
        0
280
     0
281
     0
  0
CLASS
  1
VISUALSTYLE
  2
AcDbVisualStyle
  3
ObjectDBX Classes
 90
     4095
280
     0
281
     0
  0
CLASS
  1
TABLESTYLE
  2
AcDbTableStyle
  3
ObjectDBX Classes
 90
     2047
280
     0
281
     0
  0
CLASS
  1
DIMASSOC
  2
AcDbDimAssoc
  3
"AcDbDimAssoc|Product Desc:     AcDim ARX App For Dimension|Company:          Autodesk, Inc.|WEB Address:      www.autodesk.com"
 90
    32768
280
     0
281
     0
  0
CLASS
  1
SORTENTSTABLE
  2
AcDbSortentsTable
  3
ObjectDBX Classes
 90
        0
280
     0
281
     0
  0
CLASS
  1
ACDBPLACEHOLDER
  2
AcDbPlaceHolder
  3
ObjectDBX Classes
 90
        0
280
     0
281
     0
  0
CLASS
  1
LAYOUT
  2
AcDbLayout
  3
ObjectDBX Classes
 90
        0
280
     0
281
     0
  0
ENDSEC
  0
SECTION
  2
TABLES
  0
TABLE
  2
VPORT
  5
8
102
{ACAD_XDICTIONARY
360
45B4
102
}
330
0
100
AcDbSymbolTable
 70
     2
  0
VPORT
  5
47B0
330
8
100
AcDbSymbolTableRecord
100
AcDbViewportTableRecord
  2
*Active
 70
     0
 10
0.0
 20
0.0
 11
1.0
 21
1.0
 12
765.8921687256419
 22
-46.02363162130532
 13
0.0
 23
0.0
 14
1.0
 24
1.0
 15
0.0
 25
0.0
 16
0.0
 26
0.0
 36
1.0
 17
0.0
 27
0.0
 37
0.0
 40
246.957717231406
 41
2.288973384030418
 42
50.0
 43
0.0
 44
0.0
 50
0.0
 51
0.0
 71
     0
 72
   100
 73
     1
 74
     1
 75
     0
 76
     0
 77
     0
 78
     0
281
     0
 65
     1
110
0.0
120
0.0
130
0.0
111
1.0
121
0.0
131
0.0
112
0.0
122
1.0
132
0.0
 79
     0
146
0.0
  0
ENDTAB
  0
TABLE
  2
LTYPE
  5
5
330
0
100
AcDbSymbolTable
 70
     3
  0
LTYPE
  5
11
330
5
100
AcDbSymbolTableRecord
100
AcDbLinetypeTableRecord
  2
BYBLOCK
 70
     0
  3

 72
    65
 73
     0
 40
0.0
  0
LTYPE
  5
12
330
5
100
AcDbSymbolTableRecord
100
AcDbLinetypeTableRecord
  2
BYLAYER
 70
     0
  3

 72
    65
 73
     0
 40
0.0
  0
LTYPE
  5
13
330
5
100
AcDbSymbolTableRecord
100
AcDbLinetypeTableRecord
  2
CONTINUOUS
 70
     0
  3
Solid line
 72
    65
 73
     0
 40
0.0
  0
LTYPE
  5
3DB3
330
5
100
AcDbSymbolTableRecord
100
AcDbLinetypeTableRecord
  2
CENTER2
 70
     0
  3
Center (.5x) ___ _ ___ _ ___ _ ___ _ ___ _ ___
 72
    65
 73
     4
 40
28.575
 49
19.05
 74
     0
 49
-3.174999999999998
 74
     0
 49
3.174999999999998
 74
     0
 49
-3.174999999999998
 74
     0
  0
LTYPE
  5
3DB4
330
5
100
AcDbSymbolTableRecord
100
AcDbLinetypeTableRecord
  2
HIDDEN2
 70
     0
  3
Hidden (.5x) _ _ _ _ _ _ _ _ _ _ _ _ _ _ _ _ _
 72
    65
 73
     2
 40
4.762499999999998
 49
3.174999999999998
 74
     0
 49
-1.587499999999999
 74
     0
  0
ENDTAB
  0
TABLE
  2
LAYER
  5
2
102
{ACAD_XDICTIONARY
360
3DBA
102
}
330
0
100
AcDbSymbolTable
 70
     4
  0
LAYER
  5
E
102
{ACAD_XDICTIONARY
360
45B6
102
}
330
2
100
AcDbSymbolTableRecord
100
AcDbLayerTableRecord
  2
0
 70
     0
 62
     7
  6
CONTINUOUS
370
    -3
390
3D41
  0
LAYER
  5
27
102
{ACAD_XDICTIONARY
360
45B8
102
}
330
2
100
AcDbSymbolTableRecord
100
AcDbLayerTableRecord
  2
Z_OM_DIM
 70
     0
 62
     4
  6
CONTINUOUS
370
    -3
390
3D41
  0
LAYER
  5
2B
102
{ACAD_XDICTIONARY
360
45BA
102
}
330
2
100
AcDbSymbolTableRecord
100
AcDbLayerTableRecord
  2
DEFPOINTS
 70
     0
 62
     7
  6
CONTINUOUS
290
     0
370
    -3
390
3D41
  0
LAYER
  5
3DB5
102
{ACAD_XDICTIONARY
360
45BE
102
}
330
2
100
AcDbSymbolTableRecord
100
AcDbLayerTableRecord
  2
additional
 70
     0
 62
    50
  6
CONTINUOUS
370
    -3
390
3D41
1001
AcAecLayerStandard
1000

1000

  0
ENDTAB
  0
TABLE
  2
STYLE
  5
3
330
0
100
AcDbSymbolTable
 70
     4
  0
STYLE
  5
F
330
3
100
AcDbSymbolTableRecord
100
AcDbTextStyleTableRecord
  2
STANDARD
 70
     0
 40
0.0
 41
1.08
 50
0.0
 71
     0
 42
3.0
  3
txt.shx
  4
bigfont.shx
  0
STYLE
  5
3DB6
330
3
100
AcDbSymbolTableRecord
100
AcDbTextStyleTableRecord
  2
CatalogDxf
 70
     0
 40
0.0
 41
1.0
 50
0.0
 71
     0
 42
2.5
  3
txt.shx
  4
bigfont.shx
  0
STYLE
  5
4196
330
3
100
AcDbSymbolTableRecord
100
AcDbTextStyleTableRecord
  2

 70
     1
 40
0.0
 41
1.0
 50
0.0
 71
     0
 42
3.0
  3
ltypeshp.shx
  4

  0
ENDTAB
  0
TABLE
  2
VIEW
  5
6
330
0
100
AcDbSymbolTable
 70
     0
  0
ENDTAB
  0
TABLE
  2
UCS
  5
7
330
0
100
AcDbSymbolTable
 70
     0
  0
ENDTAB
  0
TABLE
  2
APPID
  5
9
330
0
100
AcDbSymbolTable
 70
     7
  0
APPID
  5
10
330
9
100
AcDbSymbolTableRecord
100
AcDbRegAppTableRecord
  2
ACAD
 70
     0
  0
APPID
  5
3D5E
330
9
100
AcDbSymbolTableRecord
100
AcDbRegAppTableRecord
  2
ACAD_PSEXT
 70
     0
  0
APPID
  5
3DB9
330
9
100
AcDbSymbolTableRecord
100
AcDbRegAppTableRecord
  2
AcAecLayerStandard
 70
     0
  0
APPID
  5
41A3
330
9
100
AcDbSymbolTableRecord
100
AcDbRegAppTableRecord
  2
ACAD_DSTYLE_DIM_LINETYPE
 70
     0
  0
APPID
  5
41A4
330
9
100
AcDbSymbolTableRecord
100
AcDbRegAppTableRecord
  2
ACAD_DSTYLE_DIM_EXT1_LINETYPE
 70
     0
  0
APPID
  5
41A5
330
9
100
AcDbSymbolTableRecord
100
AcDbRegAppTableRecord
  2
ACAD_DSTYLE_DIM_EXT2_LINETYPE
 70
     0
  0
APPID
  5
4689
330
9
100
AcDbSymbolTableRecord
100
AcDbRegAppTableRecord
  2
ACAD_DSTYLE_DIMTEXT_FILL
 70
     0
  0
ENDTAB
  0
TABLE
  2
DIMSTYLE
  5
A
330
0
100
AcDbSymbolTable
 70
     4
100
AcDbDimStyleTable
 71
     2
340
3DB8
340
30
  0
DIMSTYLE
105
30
330
A
100
AcDbSymbolTableRecord
100
AcDbDimStyleTableRecord
  2
STANDARD
 70
     0
 41
6.0
 42
1.0
 43
16.0
 44
3.0
 73
     0
 74
     0
 77
     1
 78
     8
140
4.4
141
10.0
147
1.6
172
     1
176
   256
177
   256
178
   256
340
F
341
977
342
977
  0
DIMSTYLE
105
3DB8
102
{ACAD_REACTORS
330
4313
330
4524
330
4531
330
4540
330
454D
330
455A
330
4569
330
4576
330
4583
330
4590
330
4750
330
4766
102
}
330
A
100
AcDbSymbolTableRecord
100
AcDbDimStyleTableRecord
  2
CatalogDxf
 70
     0
 41
2.5
 42
0.625
 43
3.75
 44
1.25
 73
     0
 74
     0
 77
     1
 78
     8
140
2.5
141
2.5
143
0.03937007874016
147
0.625
171
     3
172
     1
176
   256
177
   256
178
   256
271
     1
272
     1
274
     3
283
     0
284
     8
340
3DB6
341
977
342
977
371
    -1
372
    -1
1001
ACAD_DSTYLE_DIM_LINETYPE
1070
   380
1005
12
1001
ACAD_DSTYLE_DIM_EXT1_LINETYPE
1070
   381
1005
12
1001
ACAD_DSTYLE_DIM_EXT2_LINETYPE
1070
   382
1005
12
  0
DIMSTYLE
105
4353
330
A
100
AcDbSymbolTableRecord
100
AcDbDimStyleTableRecord
  2
ISO-25
 70
     0
 41
2.5
 42
0.625
 43
3.75
 44
1.25
 73
     0
 74
     0
 77
     1
 78
     8
140
2.5
141
2.5
143
0.03937007874016
147
0.625
171
     3
172
     1
271
     2
272
     2
274
     3
278
    44
283
     0
284
     8
340
F
  0
ENDTAB
  0
TABLE
  2
BLOCK_RECORD
  5
1
330
0
100
AcDbSymbolTable
 70
    14
  0
BLOCK_RECORD
  5
17
102
{ACAD_XDICTIONARY
360
1808
102
}
330
1
100
AcDbSymbolTableRecord
100
AcDbBlockTableRecord
  2
*MODEL_SPACE
340
3D5B
  0
BLOCK_RECORD
  5
14
102
{ACAD_XDICTIONARY
360
1806
102
}
330
1
100
AcDbSymbolTableRecord
100
AcDbBlockTableRecord
  2
*PAPER_SPACE
340
3D5C
  0
BLOCK_RECORD
  5
977
330
1
100
AcDbSymbolTableRecord
100
AcDbBlockTableRecord
  2
_OPEN30
340
0
102
{BLKREFS
331
4701
331
4702
331
470A
331
470B
331
4713
331
4714
331
471E
331
471F
331
4727
331
4728
331
4730
331
4731
331
4739
331
473A
331
4742
331
4743
331
4755
331
4756
331
4760
331
4761
331
477F
331
4780
331
4791
331
4792
102
}
  0
BLOCK_RECORD
  5
4314
330
1
100
AcDbSymbolTableRecord
100
AcDbBlockTableRecord
  2
*D1
340
0
  0
BLOCK_RECORD
  5
4525
330
1
100
AcDbSymbolTableRecord
100
AcDbBlockTableRecord
  2
*D2
340
0
  0
BLOCK_RECORD
  5
4532
330
1
100
AcDbSymbolTableRecord
100
AcDbBlockTableRecord
  2
*D3
340
0
  0
BLOCK_RECORD
  5
4541
330
1
100
AcDbSymbolTableRecord
100
AcDbBlockTableRecord
  2
*D4
340
0
  0
BLOCK_RECORD
  5
454E
330
1
100
AcDbSymbolTableRecord
100
AcDbBlockTableRecord
  2
*D5
340
0
  0
BLOCK_RECORD
  5
455B
330
1
100
AcDbSymbolTableRecord
100
AcDbBlockTableRecord
  2
*D6
340
0
  0
BLOCK_RECORD
  5
456A
330
1
100
AcDbSymbolTableRecord
100
AcDbBlockTableRecord
  2
*D7
340
0
  0
BLOCK_RECORD
  5
4577
330
1
100
AcDbSymbolTableRecord
100
AcDbBlockTableRecord
  2
*D8
340
0
  0
BLOCK_RECORD
  5
4584
330
1
100
AcDbSymbolTableRecord
100
AcDbBlockTableRecord
  2
*D9
340
0
  0
BLOCK_RECORD
  5
4591
330
1
100
AcDbSymbolTableRecord
100
AcDbBlockTableRecord
  2
*D10
340
0
  0
BLOCK_RECORD
  5
4751
330
1
100
AcDbSymbolTableRecord
100
AcDbBlockTableRecord
  2
*D11
340
0
  0
BLOCK_RECORD
  5
4767
330
1
100
AcDbSymbolTableRecord
100
AcDbBlockTableRecord
  2
*D12
340
0
  0
ENDTAB
  0
ENDSEC
  0
SECTION
  2
BLOCKS
  0
BLOCK
  5
2E
330
17
100
AcDbEntity
  8
0
100
AcDbBlockBegin
  2
*MODEL_SPACE
 70
     0
 10
0.0
 20
0.0
 30
0.0
  3
*MODEL_SPACE
  1

  0
ENDBLK
  5
2F
330
17
100
AcDbEntity
  8
0
100
AcDbBlockEnd
  0
BLOCK
  5
2C
330
14
100
AcDbEntity
 67
     1
  8
0
100
AcDbBlockBegin
  2
*PAPER_SPACE
 70
     0
 10
0.0
 20
0.0
 30
0.0
  3
*PAPER_SPACE
  1

  0
ENDBLK
  5
2D
330
14
100
AcDbEntity
 67
     1
  8
0
100
AcDbBlockEnd
  0
BLOCK
  5
97B
330
977
100
AcDbEntity
  8
0
100
AcDbBlockBegin
  2
_OPEN30
 70
     0
 10
0.0
 20
0.0
 30
0.0
  3
_OPEN30
  1

  0
LINE
  5
978
330
977
100
AcDbEntity
  8
0
  6
ByBlock
 62
     0
100
AcDbLine
 10
-1.0
 20
0.26794919
 30
0.0
 11
0.0
 21
0.0
 31
0.0
  0
LINE
  5
979
330
977
100
AcDbEntity
  8
0
  6
ByBlock
 62
     0
100
AcDbLine
 10
0.0
 20
0.0
 30
0.0
 11
-1.0
 21
-0.26794919
 31
0.0
  0
LINE
  5
97A
330
977
100
AcDbEntity
  8
0
  6
ByBlock
 62
     0
100
AcDbLine
 10
0.0
 20
0.0
 30
0.0
 11
-1.0
 21
0.0
 31
0.0
  0
ENDBLK
  5
97C
330
977
100
AcDbEntity
  8
0
100
AcDbBlockEnd
  0
BLOCK
  5
431E
330
4314
100
AcDbEntity
  8
0
100
AcDbBlockBegin
  2
*D1
 70
     1
 10
0.0
 20
0.0
 30
0.0
  3
*D1
  1

  0
LINE
  5
475D
330
4314
100
AcDbEntity
  8
Z_OM_DIM
100
AcDbLine
 10
686.4862896558415
 20
-5.834312417010153
 30
0.0
 11
686.4862896558415
 21
-26.19824211516328
 31
0.0
  0
LINE
  5
475E
330
4314
100
AcDbEntity
  8
Z_OM_DIM
100
AcDbLine
 10
750.3154966544691
 20
10.66568758298982
 30
0.0
 11
750.3154966544691
 21
-26.19824211516328
 31
0.0
  0
LINE
  5
475F
330
4314
100
AcDbEntity
  8
Z_OM_DIM
100
AcDbLine
 10
688.9862896558415
 20
-24.94824211516328
 30
0.0
 11
747.8154966544691
 21
-24.94824211516328
 31
0.0
  0
INSERT
  5
4760
330
4314
100
AcDbEntity
  8
Z_OM_DIM
100
AcDbBlockReference
  2
_OPEN30
 10
686.4862896558415
 20
-24.94824211516328
 30
0.0
 41
2.5
 42
2.5
 43
2.5
 50
180.0
  0
INSERT
  5
4761
330
4314
100
AcDbEntity
  8
Z_OM_DIM
100
AcDbBlockReference
  2
_OPEN30
 10
750.3154966544691
 20
-24.94824211516328
 30
0.0
 41
2.5
 42
2.5
 43
2.5
  0
MTEXT
  5
4762
330
4314
100
AcDbEntity
  8
Z_OM_DIM
100
AcDbMText
 10
718.4008931551553
 20
-23.07324211516328
 30
0.0
 40
2.5
 41
0.0
 71
     5
 72
     1
  1
180 - 200
  7
CatalogDxf
 73
     1
 44
1.0
1001
ACAD
1000
MTEXTBEGIN
1070
    73
1070
     1
1070
    44
1040
1.0
1070
    74
1070
     0
1000
MTEXTEND
  0
POINT
  5
4763
330
4314
100
AcDbEntity
  8
DEFPOINTS
 62
     0
100
AcDbPoint
 10
686.4862896558415
 20
-5.209312417010153
 30
0.0
  0
POINT
  5
4764
330
4314
100
AcDbEntity
  8
DEFPOINTS
 62
     0
100
AcDbPoint
 10
750.3154966544691
 20
11.29068758298982
 30
0.0
  0
POINT
  5
4765
330
4314
100
AcDbEntity
  8
DEFPOINTS
 62
     0
100
AcDbPoint
 10
750.3154966544691
 20
-24.94824211516328
 30
0.0
  0
ENDBLK
  5
431F
330
4314
100
AcDbEntity
  8
0
100
AcDbBlockEnd
  0
BLOCK
  5
452F
330
4525
100
AcDbEntity
  8
0
100
AcDbBlockBegin
  2
*D2
 70
     1
 10
0.0
 20
0.0
 30
0.0
  3
*D2
  1

  0
LINE
  5
478E
330
4525
100
AcDbEntity
  8
Z_OM_DIM
100
AcDbLine
 10
620.0362896558417
 20
10.16568758298982
 30
0.0
 11
620.0362896558417
 21
-9.877360904288423
 31
0.0
  0
LINE
  5
478F
330
4525
100
AcDbEntity
  8
Z_OM_DIM
100
AcDbLine
 10
609.0362896558417
 20
4.665687582989875
 30
0.0
 11
609.0362896558417
 21
-9.877360904288423
 31
0.0
  0
LINE
  5
4790
330
4525
100
AcDbEntity
  8
Z_OM_DIM
100
AcDbLine
 10
617.5362896558417
 20
-8.627360904288423
 30
0.0
 11
611.5362896558417
 21
-8.627360904288423
 31
0.0
  0
INSERT
  5
4791
330
4525
100
AcDbEntity
  8
Z_OM_DIM
100
AcDbBlockReference
  2
_OPEN30
 10
620.0362896558417
 20
-8.627360904288423
 30
0.0
 41
2.5
 42
2.5
 43
2.5
  0
INSERT
  5
4792
330
4525
100
AcDbEntity
  8
Z_OM_DIM
100
AcDbBlockReference
  2
_OPEN30
 10
609.0362896558417
 20
-8.627360904288423
 30
0.0
 41
2.5
 42
2.5
 43
2.5
 50
180.0
  0
MTEXT
  5
4793
330
4525
100
AcDbEntity
  8
Z_OM_DIM
100
AcDbMText
 10
614.5362896558417
 20
-6.752360904288423
 30
0.0
 40
2.5
 41
0.0
 71
     5
 72
     1
  1
11
  7
CatalogDxf
 73
     1
 44
1.0
1001
ACAD
1000
MTEXTBEGIN
1070
    73
1070
     1
1070
    44
1040
1.0
1070
    74
1070
     0
1000
MTEXTEND
  0
POINT
  5
4794
330
4525
100
AcDbEntity
  8
DEFPOINTS
 62
     0
100
AcDbPoint
 10
620.0362896558417
 20
10.79068758298982
 30
0.0
  0
POINT
  5
4795
330
4525
100
AcDbEntity
  8
DEFPOINTS
 62
     0
100
AcDbPoint
 10
609.0362896558417
 20
5.290687582989875
 30
0.0
  0
POINT
  5
4796
330
4525
100
AcDbEntity
  8
DEFPOINTS
 62
     0
100
AcDbPoint
 10
609.0362896558417
 20
-8.627360904288423
 30
0.0
  0
ENDBLK
  5
4530
330
4525
100
AcDbEntity
  8
0
100
AcDbBlockEnd
  0
BLOCK
  5
453E
330
4532
100
AcDbEntity
  8
0
100
AcDbBlockBegin
  2
*D3
 70
     1
 10
0.0
 20
0.0
 30
0.0
  3
*D3
  1

  0
LINE
  5
46FC
330
4532
100
AcDbEntity
  8
Z_OM_DIM
100
AcDbLine
 10
608.4112896558417
 20
14.79068758298982
 30
0.0
 11
591.8356339274944
 21
14.79068758298982
 31
0.0
  0
LINE
  5
46FD
330
4532
100
AcDbEntity
  8
Z_OM_DIM
100
AcDbLine
 10
608.4112896558417
 20
10.79068758298982
 30
0.0
 11
591.8356339274944
 21
10.79068758298982
 31
0.0
  0
LINE
  5
46FE
330
4532
100
AcDbEntity
  8
Z_OM_DIM
100
AcDbLine
 10
593.0856339274944
 20
17.29068758298982
 30
0.0
 11
593.0856339274944
 21
19.79068758298982
 31
0.0
  0
LINE
  5
46FF
330
4532
100
AcDbEntity
  8
Z_OM_DIM
100
AcDbLine
 10
593.0856339274944
 20
8.290687582989823
 30
0.0
 11
593.0856339274944
 21
5.790687582989823
 31
0.0
  0
LINE
  5
4700
330
4532
100
AcDbEntity
  8
Z_OM_DIM
100
AcDbLine
 10
593.0856339274944
 20
14.79068758298982
 30
0.0
 11
593.0856339274944
 21
10.79068758298982
 31
0.0
  0
INSERT
  5
4701
330
4532
100
AcDbEntity
  8
Z_OM_DIM
100
AcDbBlockReference
  2
_OPEN30
 10
593.0856339274944
 20
14.79068758298982
 30
0.0
 41
2.5
 42
2.5
 43
2.5
 50
270.0
  0
INSERT
  5
4702
330
4532
100
AcDbEntity
  8
Z_OM_DIM
100
AcDbBlockReference
  2
_OPEN30
 10
593.0856339274944
 20
10.79068758298982
 30
0.0
 41
2.5
 42
2.5
 43
2.5
 50
90.0
  0
MTEXT
  5
4703
330
4532
100
AcDbEntity
  8
Z_OM_DIM
100
AcDbMText
 10
591.2106339274944
 20
12.79068758298992
 30
0.0
 40
2.5
 41
0.0
 71
     5
 72
     1
  1
4
  7
CatalogDxf
 11
0.0000000000000001
 21
1.0
 31
0.0
 73
     1
 44
1.0
1001
ACAD
1000
MTEXTBEGIN
1070
    73
1070
     1
1070
    44
1040
1.0
1070
    74
1070
     0
1000
MTEXTEND
  0
POINT
  5
4704
330
4532
100
AcDbEntity
  8
DEFPOINTS
 62
     0
100
AcDbPoint
 10
609.0362896558417
 20
14.79068758298982
 30
0.0
  0
POINT
  5
4705
330
4532
100
AcDbEntity
  8
DEFPOINTS
 62
     0
100
AcDbPoint
 10
609.0362896558417
 20
10.79068758298982
 30
0.0
  0
POINT
  5
4706
330
4532
100
AcDbEntity
  8
DEFPOINTS
 62
     0
100
AcDbPoint
 10
593.0856339274944
 20
10.79068758298982
 30
0.0
  0
ENDBLK
  5
453F
330
4532
100
AcDbEntity
  8
0
100
AcDbBlockEnd
  0
BLOCK
  5
454B
330
4541
100
AcDbEntity
  8
0
100
AcDbBlockBegin
  2
*D4
 70
     1
 10
0.0
 20
0.0
 30
0.0
  3
*D4
  1

  0
LINE
  5
4707
330
4541
100
AcDbEntity
  8
Z_OM_DIM
100
AcDbLine
 10
667.5362896558421
 20
-66.18961693917291
 30
0.0
 11
667.5362896558421
 21
-45.95917036914966
 31
0.0
  0
LINE
  5
4708
330
4541
100
AcDbEntity
  8
Z_OM_DIM
100
AcDbLine
 10
637.5362896558422
 20
-66.18961693917291
 30
0.0
 11
637.5362896558422
 21
-45.95917036914966
 31
0.0
  0
LINE
  5
4709
330
4541
100
AcDbEntity
  8
Z_OM_DIM
100
AcDbLine
 10
665.0362896558422
 20
-47.20917036914966
 30
0.0
 11
640.0362896558422
 21
-47.20917036914966
 31
0.0
  0
INSERT
  5
470A
330
4541
100
AcDbEntity
  8
Z_OM_DIM
100
AcDbBlockReference
  2
_OPEN30
 10
667.5362896558421
 20
-47.20917036914966
 30
0.0
 41
2.5
 42
2.5
 43
2.5
  0
INSERT
  5
470B
330
4541
100
AcDbEntity
  8
Z_OM_DIM
100
AcDbBlockReference
  2
_OPEN30
 10
637.5362896558422
 20
-47.20917036914966
 30
0.0
 41
2.5
 42
2.5
 43
2.5
 50
180.0
  0
MTEXT
  5
470C
330
4541
100
AcDbEntity
  8
Z_OM_DIM
100
AcDbMText
 10
652.5362896558422
 20
-45.33417036914966
 30
0.0
 40
2.5
 41
0.0
 71
     5
 72
     1
  1
30
  7
CatalogDxf
 73
     1
 44
1.0
1001
ACAD
1000
MTEXTBEGIN
1070
    73
1070
     1
1070
    44
1040
1.0
1070
    74
1070
     0
1000
MTEXTEND
  0
POINT
  5
470D
330
4541
100
AcDbEntity
  8
DEFPOINTS
 62
     0
100
AcDbPoint
 10
667.5362896558421
 20
-66.81461693917291
 30
0.0
  0
POINT
  5
470E
330
4541
100
AcDbEntity
  8
DEFPOINTS
 62
     0
100
AcDbPoint
 10
637.5362896558422
 20
-66.81461693917291
 30
0.0
  0
POINT
  5
470F
330
4541
100
AcDbEntity
  8
DEFPOINTS
 62
     0
100
AcDbPoint
 10
637.5362896558422
 20
-47.20917036914966
 30
0.0
  0
ENDBLK
  5
454C
330
4541
100
AcDbEntity
  8
0
100
AcDbBlockEnd
  0
BLOCK
  5
4558
330
454E
100
AcDbEntity
  8
0
100
AcDbBlockBegin
  2
*D5
 70
     1
 10
0.0
 20
0.0
 30
0.0
  3
*D5
  1

  0
LINE
  5
4710
330
454E
100
AcDbEntity
  8
Z_OM_DIM
100
AcDbLine
 10
637.5362896558422
 20
-66.18961693917291
 30
0.0
 11
637.5362896558422
 21
-45.95917036914966
 31
0.0
  0
LINE
  5
4711
330
454E
100
AcDbEntity
  8
Z_OM_DIM
100
AcDbLine
 10
613.0362896558422
 20
-69.52387233816958
 30
0.0
 11
613.0362896558422
 21
-45.95917036914966
 31
0.0
  0
LINE
  5
4712
330
454E
100
AcDbEntity
  8
Z_OM_DIM
100
AcDbLine
 10
635.0362896558422
 20
-47.20917036914966
 30
0.0
 11
615.5362896558422
 21
-47.20917036914966
 31
0.0
  0
INSERT
  5
4713
330
454E
100
AcDbEntity
  8
Z_OM_DIM
100
AcDbBlockReference
  2
_OPEN30
 10
637.5362896558422
 20
-47.20917036914966
 30
0.0
 41
2.5
 42
2.5
 43
2.5
  0
INSERT
  5
4714
330
454E
100
AcDbEntity
  8
Z_OM_DIM
100
AcDbBlockReference
  2
_OPEN30
 10
613.0362896558422
 20
-47.20917036914966
 30
0.0
 41
2.5
 42
2.5
 43
2.5
 50
180.0
  0
MTEXT
  5
4715
330
454E
100
AcDbEntity
  8
Z_OM_DIM
100
AcDbMText
 10
625.2862896558422
 20
-45.33417036914966
 30
0.0
 40
2.5
 41
0.0
 71
     5
 72
     1
  1
24.5
  7
CatalogDxf
 73
     1
 44
1.0
1001
ACAD
1000
MTEXTBEGIN
1070
    73
1070
     1
1070
    44
1040
1.0
1070
    74
1070
     0
1000
MTEXTEND
  0
POINT
  5
4716
330
454E
100
AcDbEntity
  8
DEFPOINTS
 62
     0
100
AcDbPoint
 10
637.5362896558422
 20
-66.81461693917291
 30
0.0
  0
POINT
  5
4717
330
454E
100
AcDbEntity
  8
DEFPOINTS
 62
     0
100
AcDbPoint
 10
613.0362896558422
 20
-70.14887233816958
 30
0.0
  0
POINT
  5
4718
330
454E
100
AcDbEntity
  8
DEFPOINTS
 62
     0
100
AcDbPoint
 10
613.0362896558422
 20
-47.20917036914966
 30
0.0
  0
ENDBLK
  5
4559
330
454E
100
AcDbEntity
  8
0
100
AcDbBlockEnd
  0
BLOCK
  5
4567
330
455B
100
AcDbEntity
  8
0
100
AcDbBlockBegin
  2
*D6
 70
     1
 10
0.0
 20
0.0
 30
0.0
  3
*D6
  1

  0
LINE
  5
4719
330
455B
100
AcDbEntity
  8
Z_OM_DIM
100
AcDbLine
 10
613.0362896558422
 20
-69.52387233816958
 30
0.0
 11
613.0362896558422
 21
-45.95917036914966
 31
0.0
  0
LINE
  5
471A
330
455B
100
AcDbEntity
  8
Z_OM_DIM
100
AcDbLine
 10
609.0362896558422
 20
-74.00959410818609
 30
0.0
 11
609.0362896558422
 21
-45.95917036914966
 31
0.0
  0
LINE
  5
471B
330
455B
100
AcDbEntity
  8
Z_OM_DIM
100
AcDbLine
 10
615.5362896558422
 20
-47.20917036914966
 30
0.0
 11
618.0362896558421
 21
-47.20917036914966
 31
0.0
  0
LINE
  5
471C
330
455B
100
AcDbEntity
  8
Z_OM_DIM
100
AcDbLine
 10
606.5362896558422
 20
-47.20917036914966
 30
0.0
 11
604.0362896558422
 21
-47.20917036914966
 31
0.0
  0
LINE
  5
471D
330
455B
100
AcDbEntity
  8
Z_OM_DIM
100
AcDbLine
 10
613.0362896558422
 20
-47.20917036914966
 30
0.0
 11
609.0362896558422
 21
-47.20917036914966
 31
0.0
  0
INSERT
  5
471E
330
455B
100
AcDbEntity
  8
Z_OM_DIM
100
AcDbBlockReference
  2
_OPEN30
 10
613.0362896558422
 20
-47.20917036914966
 30
0.0
 41
2.5
 42
2.5
 43
2.5
 50
180.0
  0
INSERT
  5
471F
330
455B
100
AcDbEntity
  8
Z_OM_DIM
100
AcDbBlockReference
  2
_OPEN30
 10
609.0362896558422
 20
-47.20917036914966
 30
0.0
 41
2.5
 42
2.5
 43
2.5
  0
MTEXT
  5
4720
330
455B
100
AcDbEntity
  8
Z_OM_DIM
100
AcDbMText
 10
611.0362896558422
 20
-45.33417036914966
 30
0.0
 40
2.5
 41
0.0
 71
     5
 72
     1
  1
4
  7
CatalogDxf
 73
     1
 44
1.0
1001
ACAD
1000
MTEXTBEGIN
1070
    73
1070
     1
1070
    44
1040
1.0
1070
    74
1070
     0
1000
MTEXTEND
  0
POINT
  5
4721
330
455B
100
AcDbEntity
  8
DEFPOINTS
 62
     0
100
AcDbPoint
 10
613.0362896558422
 20
-70.14887233816958
 30
0.0
  0
POINT
  5
4722
330
455B
100
AcDbEntity
  8
DEFPOINTS
 62
     0
100
AcDbPoint
 10
609.0362896558422
 20
-74.63459410818609
 30
0.0
  0
POINT
  5
4723
330
455B
100
AcDbEntity
  8
DEFPOINTS
 62
     0
100
AcDbPoint
 10
609.0362896558422
 20
-47.20917036914966
 30
0.0
  0
ENDBLK
  5
4568
330
455B
100
AcDbEntity
  8
0
100
AcDbBlockEnd
  0
BLOCK
  5
4574
330
456A
100
AcDbEntity
  8
0
100
AcDbBlockBegin
  2
*D7
 70
     1
 10
0.0
 20
0.0
 30
0.0
  3
*D7
  1

  0
LINE
  5
4724
330
456A
100
AcDbEntity
  8
Z_OM_DIM
100
AcDbLine
 10
674.465199549842
 20
-72.13459410818609
 30
0.0
 11
704.8856221287798
 21
-72.13459410818609
 31
0.0
  0
LINE
  5
4725
330
456A
100
AcDbEntity
  8
Z_OM_DIM
100
AcDbLine
 10
674.465199549842
 20
-92.11630255114135
 30
0.0
 11
704.8856221287798
 21
-92.11630255114135
 31
0.0
  0
LINE
  5
4726
330
456A
100
AcDbEntity
  8
Z_OM_DIM
100
AcDbLine
 10
703.6356221287798
 20
-74.63459410818609
 30
0.0
 11
703.6356221287798
 21
-89.61630255114135
 31
0.0
  0
INSERT
  5
4727
330
456A
100
AcDbEntity
  8
Z_OM_DIM
100
AcDbBlockReference
  2
_OPEN30
 10
703.6356221287798
 20
-72.13459410818609
 30
0.0
 41
2.5
 42
2.5
 43
2.5
 50
90.0
  0
INSERT
  5
4728
330
456A
100
AcDbEntity
  8
Z_OM_DIM
100
AcDbBlockReference
  2
_OPEN30
 10
703.6356221287798
 20
-92.11630255114135
 30
0.0
 41
2.5
 42
2.5
 43
2.5
 50
270.0
  0
MTEXT
  5
4729
330
456A
100
AcDbEntity
  8
Z_OM_DIM
100
AcDbMText
 10
701.7606221287798
 20
-82.12544832966361
 30
0.0
 40
2.5
 41
0.0
 71
     5
 72
     1
  1
20
  7
CatalogDxf
 11
0.0000000000000001
 21
1.0
 31
0.0
 73
     1
 44
1.0
1001
ACAD
1000
MTEXTBEGIN
1070
    73
1070
     1
1070
    44
1040
1.0
1070
    74
1070
     0
1000
MTEXTEND
  0
POINT
  5
472A
330
456A
100
AcDbEntity
  8
DEFPOINTS
 62
     0
100
AcDbPoint
 10
673.8401995498421
 20
-72.13459410818609
 30
0.0
  0
POINT
  5
472B
330
456A
100
AcDbEntity
  8
DEFPOINTS
 62
     0
100
AcDbPoint
 10
673.8401995498421
 20
-92.11630255114135
 30
0.0
  0
POINT
  5
472C
330
456A
100
AcDbEntity
  8
DEFPOINTS
 62
     0
100
AcDbPoint
 10
703.6356221287798
 20
-92.11630255114135
 30
0.0
  0
ENDBLK
  5
4575
330
456A
100
AcDbEntity
  8
0
100
AcDbBlockEnd
  0
BLOCK
  5
4581
330
4577
100
AcDbEntity
  8
0
100
AcDbBlockBegin
  2
*D8
 70
     1
 10
0.0
 20
0.0
 30
0.0
  3
*D8
  1

  0
LINE
  5
472D
330
4577
100
AcDbEntity
  8
Z_OM_DIM
100
AcDbLine
 10
539.916061181425
 20
-64.13459410818615
 30
0.0
 11
559.6001780111018
 21
-64.13459410818616
 31
0.0
  0
LINE
  5
472E
330
4577
100
AcDbEntity
  8
Z_OM_DIM
100
AcDbLine
 10
539.916061181425
 20
-100.1345941081861
 30
0.0
 11
559.6001780111018
 21
-100.1345941081861
 31
0.0
  0
LINE
  5
472F
330
4577
100
AcDbEntity
  8
Z_OM_DIM
100
AcDbLine
 10
558.3501780111019
 20
-66.63459410818616
 30
0.0
 11
558.3501780111019
 21
-97.63459410818617
 31
0.0
  0
INSERT
  5
4730
330
4577
100
AcDbEntity
  8
Z_OM_DIM
100
AcDbBlockReference
  2
_OPEN30
 10
558.3501780111019
 20
-64.13459410818616
 30
0.0
 41
2.5
 42
2.5
 43
2.5
 50
90.0
  0
INSERT
  5
4731
330
4577
100
AcDbEntity
  8
Z_OM_DIM
100
AcDbBlockReference
  2
_OPEN30
 10
558.3501780111019
 20
-100.1345941081861
 30
0.0
 41
2.5
 42
2.5
 43
2.5
 50
270.0
  0
MTEXT
  5
4732
330
4577
100
AcDbEntity
  8
Z_OM_DIM
100
AcDbMText
 10
556.4751780111018
 20
-82.13459410818606
 30
0.0
 40
2.5
 41
0.0
 71
     5
 72
     1
  1
36
  7
CatalogDxf
 11
0.0000000000000001
 21
1.0
 31
0.0
 73
     1
 44
1.0
1001
ACAD
1000
MTEXTBEGIN
1070
    73
1070
     1
1070
    44
1040
1.0
1070
    74
1070
     0
1000
MTEXTEND
  0
POINT
  5
4733
330
4577
100
AcDbEntity
  8
DEFPOINTS
 62
     0
100
AcDbPoint
 10
539.291061181425
 20
-64.13459410818615
 30
0.0
  0
POINT
  5
4734
330
4577
100
AcDbEntity
  8
DEFPOINTS
 62
     0
100
AcDbPoint
 10
539.291061181425
 20
-100.1345941081861
 30
0.0
  0
POINT
  5
4735
330
4577
100
AcDbEntity
  8
DEFPOINTS
 62
     0
100
AcDbPoint
 10
558.3501780111019
 20
-100.1345941081861
 30
0.0
  0
ENDBLK
  5
4582
330
4577
100
AcDbEntity
  8
0
100
AcDbBlockEnd
  0
BLOCK
  5
458E
330
4584
100
AcDbEntity
  8
0
100
AcDbBlockBegin
  2
*D9
 70
     1
 10
0.0
 20
0.0
 30
0.0
  3
*D9
  1

  0
LINE
  5
4736
330
4584
100
AcDbEntity
  8
Z_OM_DIM
100
AcDbLine
 10
499.291061181425
 20
-100.7595941081861
 30
0.0
 11
499.291061181425
 21
-119.6273683462812
 31
0.0
  0
LINE
  5
4737
330
4584
100
AcDbEntity
  8
Z_OM_DIM
100
AcDbLine
 10
539.291061181425
 20
-100.759594108186
 30
0.0
 11
539.291061181425
 21
-119.6273683462812
 31
0.0
  0
LINE
  5
4738
330
4584
100
AcDbEntity
  8
Z_OM_DIM
100
AcDbLine
 10
501.791061181425
 20
-118.3773683462812
 30
0.0
 11
536.791061181425
 21
-118.3773683462812
 31
0.0
  0
INSERT
  5
4739
330
4584
100
AcDbEntity
  8
Z_OM_DIM
100
AcDbBlockReference
  2
_OPEN30
 10
499.291061181425
 20
-118.3773683462812
 30
0.0
 41
2.5
 42
2.5
 43
2.5
 50
180.0
  0
INSERT
  5
473A
330
4584
100
AcDbEntity
  8
Z_OM_DIM
100
AcDbBlockReference
  2
_OPEN30
 10
539.291061181425
 20
-118.3773683462812
 30
0.0
 41
2.5
 42
2.5
 43
2.5
  0
MTEXT
  5
473B
330
4584
100
AcDbEntity
  8
Z_OM_DIM
100
AcDbMText
 10
519.291061181425
 20
-116.5023683462812
 30
0.0
 40
2.5
 41
0.0
 71
     5
 72
     1
  1
40
  7
CatalogDxf
 73
     1
 44
1.0
1001
ACAD
1000
MTEXTBEGIN
1070
    73
1070
     1
1070
    44
1040
1.0
1070
    74
1070
     0
1000
MTEXTEND
  0
POINT
  5
473C
330
4584
100
AcDbEntity
  8
DEFPOINTS
 62
     0
100
AcDbPoint
 10
499.291061181425
 20
-100.1345941081861
 30
0.0
  0
POINT
  5
473D
330
4584
100
AcDbEntity
  8
DEFPOINTS
 62
     0
100
AcDbPoint
 10
539.291061181425
 20
-100.134594108186
 30
0.0
  0
POINT
  5
473E
330
4584
100
AcDbEntity
  8
DEFPOINTS
 62
     0
100
AcDbPoint
 10
539.291061181425
 20
-118.3773683462812
 30
0.0
  0
ENDBLK
  5
458F
330
4584
100
AcDbEntity
  8
0
100
AcDbBlockEnd
  0
BLOCK
  5
459B
330
4591
100
AcDbEntity
  8
0
100
AcDbBlockBegin
  2
*D10
 70
     1
 10
0.0
 20
0.0
 30
0.0
  3
*D10
  1

  0
LINE
  5
473F
330
4591
100
AcDbEntity
  8
Z_OM_DIM
100
AcDbLine
 10
608.9112896558422
 20
-74.13459410818609
 30
0.0
 11
591.8356339274944
 21
-74.13459410818608
 31
0.0
  0
LINE
  5
4740
330
4591
100
AcDbEntity
  8
Z_OM_DIM
100
AcDbLine
 10
608.9112896558422
 20
-90.13459410818603
 30
0.0
 11
591.8356339274944
 21
-90.13459410818603
 31
0.0
  0
LINE
  5
4741
330
4591
100
AcDbEntity
  8
Z_OM_DIM
100
AcDbLine
 10
593.0856339274944
 20
-76.63459410818608
 30
0.0
 11
593.0856339274944
 21
-87.63459410818603
 31
0.0
  0
INSERT
  5
4742
330
4591
100
AcDbEntity
  8
Z_OM_DIM
100
AcDbBlockReference
  2
_OPEN30
 10
593.0856339274944
 20
-74.13459410818608
 30
0.0
 41
2.5
 42
2.5
 43
2.5
 50
90.0
  0
INSERT
  5
4743
330
4591
100
AcDbEntity
  8
Z_OM_DIM
100
AcDbBlockReference
  2
_OPEN30
 10
593.0856339274944
 20
-90.13459410818603
 30
0.0
 41
2.5
 42
2.5
 43
2.5
 50
270.0
  0
MTEXT
  5
4744
330
4591
100
AcDbEntity
  8
Z_OM_DIM
100
AcDbMText
 10
591.2106339274944
 20
-82.13459410818597
 30
0.0
 40
2.5
 41
0.0
 71
     5
 72
     1
  1
%%C16
  7
CatalogDxf
 11
0.0000000000000001
 21
1.0
 31
0.0
 73
     1
 44
1.0
1001
ACAD
1000
MTEXTBEGIN
1070
    73
1070
     1
1070
    44
1040
1.0
1070
    74
1070
     0
1000
MTEXTEND
  0
POINT
  5
4745
330
4591
100
AcDbEntity
  8
DEFPOINTS
 62
     0
100
AcDbPoint
 10
609.5362896558421
 20
-74.13459410818609
 30
0.0
  0
POINT
  5
4746
330
4591
100
AcDbEntity
  8
DEFPOINTS
 62
     0
100
AcDbPoint
 10
609.5362896558421
 20
-90.13459410818603
 30
0.0
  0
POINT
  5
4747
330
4591
100
AcDbEntity
  8
DEFPOINTS
 62
     0
100
AcDbPoint
 10
593.0856339274944
 20
-90.13459410818603
 30
0.0
  0
ENDBLK
  5
459C
330
4591
100
AcDbEntity
  8
0
100
AcDbBlockEnd
  0
BLOCK
  5
475B
330
4751
100
AcDbEntity
  8
0
100
AcDbBlockBegin
  2
*D11
 70
     1
 10
0.0
 20
0.0
 30
0.0
  3
*D11
  1

  0
LINE
  5
4752
330
4751
100
AcDbEntity
  8
Z_OM_DIM
100
AcDbLine
 10
622.8862896558421
 20
-7.83431241701021
 30
0.0
 11
622.8862896558421
 21
-26.19824211516328
 31
0.0
  0
LINE
  5
4753
330
4751
100
AcDbEntity
  8
Z_OM_DIM
100
AcDbLine
 10
686.4862896558415
 20
-5.834312417010153
 30
0.0
 11
686.4862896558415
 21
-26.19824211516328
 31
0.0
  0
LINE
  5
4754
330
4751
100
AcDbEntity
  8
Z_OM_DIM
100
AcDbLine
 10
625.3862896558421
 20
-24.94824211516328
 30
0.0
 11
683.9862896558416
 21
-24.94824211516328
 31
0.0
  0
INSERT
  5
4755
330
4751
100
AcDbEntity
  8
Z_OM_DIM
100
AcDbBlockReference
  2
_OPEN30
 10
622.8862896558421
 20
-24.94824211516328
 30
0.0
 41
2.5
 42
2.5
 43
2.5
 50
180.0
  0
INSERT
  5
4756
330
4751
100
AcDbEntity
  8
Z_OM_DIM
100
AcDbBlockReference
  2
_OPEN30
 10
686.4862896558415
 20
-24.94824211516328
 30
0.0
 41
2.5
 42
2.5
 43
2.5
  0
MTEXT
  5
4757
330
4751
100
AcDbEntity
  8
Z_OM_DIM
100
AcDbMText
 10
654.6862896558418
 20
-23.07324211516328
 30
0.0
 40
2.5
 41
0.0
 71
     5
 72
     1
  1
63.6
  7
CatalogDxf
 73
     1
 44
1.0
1001
ACAD
1000
MTEXTBEGIN
1070
    73
1070
     1
1070
    44
1040
1.0
1070
    74
1070
     0
1000
MTEXTEND
  0
POINT
  5
4758
330
4751
100
AcDbEntity
  8
DEFPOINTS
 62
     0
100
AcDbPoint
 10
622.8862896558421
 20
-7.20931241701021
 30
0.0
  0
POINT
  5
4759
330
4751
100
AcDbEntity
  8
DEFPOINTS
 62
     0
100
AcDbPoint
 10
686.4862896558415
 20
-5.209312417010153
 30
0.0
  0
POINT
  5
475A
330
4751
100
AcDbEntity
  8
DEFPOINTS
 62
     0
100
AcDbPoint
 10
686.4862896558415
 20
-24.94824211516328
 30
0.0
  0
ENDBLK
  5
475C
330
4751
100
AcDbEntity
  8
0
100
AcDbBlockEnd
  0
BLOCK
  5
4771
330
4767
100
AcDbEntity
  8
0
100
AcDbBlockBegin
  2
*D12
 70
     1
 10
0.0
 20
0.0
 30
0.0
  3
*D12
  1

  0
LINE
  5
477C
330
4767
100
AcDbEntity
  8
Z_OM_DIM
100
AcDbLine
 10
622.8862896558426
 20
-63.50959410818607
 30
0.0
 11
622.8862896558426
 21
-52.37871015293791
 31
0.0
  0
LINE
  5
477D
330
4767
100
AcDbEntity
  8
Z_OM_DIM
100
AcDbLine
 10
637.5362896558422
 20
-66.1861490481493
 30
0.0
 11
637.5362896558422
 21
-52.37871015293791
 31
0.0
  0
LINE
  5
477E
330
4767
100
AcDbEntity
  8
Z_OM_DIM
100
AcDbLine
 10
625.3862896558425
 20
-53.62871015293791
 30
0.0
 11
635.0362896558422
 21
-53.62871015293791
 31
0.0
  0
INSERT
  5
477F
330
4767
100
AcDbEntity
  8
Z_OM_DIM
100
AcDbBlockReference
  2
_OPEN30
 10
622.8862896558426
 20
-53.62871015293791
 30
0.0
 41
2.5
 42
2.5
 43
2.5
 50
180.0
  0
INSERT
  5
4780
330
4767
100
AcDbEntity
  8
Z_OM_DIM
100
AcDbBlockReference
  2
_OPEN30
 10
637.5362896558422
 20
-53.62871015293791
 30
0.0
 41
2.5
 42
2.5
 43
2.5
  0
MTEXT
  5
4781
330
4767
100
AcDbEntity
  8
Z_OM_DIM
100
AcDbMText
 10
630.2112896558424
 20
-51.75371015293791
 30
0.0
 40
2.5
 41
0.0
 71
     5
 72
     1
  1
14.65
  7
CatalogDxf
 73
     1
 44
1.0
1001
ACAD
1000
MTEXTBEGIN
1070
    73
1070
     1
1070
    44
1040
1.0
1070
    74
1070
     0
1000
MTEXTEND
  0
POINT
  5
4782
330
4767
100
AcDbEntity
  8
DEFPOINTS
 62
     0
100
AcDbPoint
 10
622.8862896558426
 20
-64.13459410818607
 30
0.0
  0
POINT
  5
4783
330
4767
100
AcDbEntity
  8
DEFPOINTS
 62
     0
100
AcDbPoint
 10
637.5362896558422
 20
-66.8111490481493
 30
0.0
  0
POINT
  5
4784
330
4767
100
AcDbEntity
  8
DEFPOINTS
 62
     0
100
AcDbPoint
 10
637.5362896558422
 20
-53.62871015293791
 30
0.0
  0
ENDBLK
  5
4772
330
4767
100
AcDbEntity
  8
0
100
AcDbBlockEnd
  0
ENDSEC
  0
SECTION
  2
ENTITIES
  0
MTEXT
  5
4130
330
17
100
AcDbEntity
  8
Z_OM_DIM
100
AcDbMText
 10
690.0533766603176
 20
-132.1443938638609
 30
0.0
 40
3.0
 41
93.92693936784551
 71
     1
 72
     5
  1
TAKAHA KIKO Co., Ltd\PCAD DRAWING No. CA1662
  7
CatalogDxf
 73
     1
 44
1.0
1001
ACAD
1000
MTEXTBEGIN
1070
    73
1070
     1
1070
    44
1040
1.0
1070
    74
1070
     0
1000
MTEXTEND
  0
MTEXT
  5
42AA
330
17
100
AcDbEntity
  8
Z_OM_DIM
100
AcDbMText
 10
496.5671756568651
 20
45.7068794924645
 30
0.0
 40
3.0
 41
47.03999999999999
 71
     1
 72
     1
  1
Adsorbed position
  7
CatalogDxf
 73
     1
 44
1.0
1001
ACAD
1000
MTEXTBEGIN
1070
    73
1070
     1
1070
    44
1040
1.0
1070
    74
1070
     0
1000
MTEXTEND
  0
LINE
  5
4301
330
17
100
AcDbEntity
  8
0
 48
0.5
100
AcDbLine
 10
736.3154966544691
 20
12.79068758298982
 30
0.0
 11
736.3154966544682
 21
10.79068758298982
 31
0.0
  0
SPLINE
  5
4302
330
17
100
AcDbEntity
  8
additional
 48
0.5
100
AcDbSpline
210
0.0
220
0.0
230
1.0
 70
     8
 71
     3
 72
    18
 73
    14
 74
    12
 42
0.0000000001
 43
0.0000000001
 44
0.0000000001
 40
0.0
 40
0.0
 40
0.0
 40
0.0
 40
0.7826237921252314
 40
1.565247584250183
 40
2.965247584250103
 40
3.747871376375131
 40
4.530495168500185
 40
5.313118960624959
 40
6.095742752749885
 40
8.195742752749964
 40
8.978366544874814
 40
9.760990336999613
 40
10.54361412912479
 40
10.54361412912479
 40
10.54361412912479
 40
10.54361412912479
 10
699.4738372864194
 20
17.82543401015345
 30
0.0
 10
699.5864069697122
 20
17.59015454344464
 30
0.0
 10
699.8115463362978
 20
17.11959561002707
 30
0.0
 10
700.3311937145792
 20
16.27239766739874
 30
0.0
 10
700.3313486905069
 20
15.17843243033908
 30
0.0
 10
699.8112864337659
 20
14.33135970996746
 30
0.0
 10
699.4748082999474
 20
13.62509666220627
 30
0.0
 10
699.1325040849613
 20
12.92085770212981
 30
0.0
 10
698.5169569616799
 20
11.86433886530537
 30
0.0
 10
698.5161633871849
 20
10.48623841758541
 30
0.0
 10
699.133391328219
 20
9.430416132884104
 30
0.0
 10
699.4714487759694
 20
8.72418847947071
 30
0.0
 10
699.7063744496031
 20
8.258352166592647
 30
0.0
 10
699.82383728642
 20
8.02543401015356
 30
0.0
 11
699.4738372864194
 21
17.82543401015345
 31
0.0
 11
699.82383728642
 21
17.12543401015341
 31
0.0
 11
700.1738372864202
 21
16.42543401015345
 31
0.0
 11
700.1738372864202
 21
15.02543401015353
 31
0.0
 11
699.82383728642
 21
14.32543401015349
 31
0.0
 11
699.4738372864194
 21
13.62543401015364
 31
0.0
 11
699.1238372864197
 21
12.92543401015365
 31
0.0
 11
698.7738372864198
 21
12.2254340101536
 31
0.0
 11
698.7738372864198
 21
10.12543401015352
 31
0.0
 11
699.1238372864197
 21
9.425434010153566
 31
0.0
 11
699.4738372864194
 21
8.725434010153549
 31
0.0
 11
699.82383728642
 21
8.02543401015356
 31
0.0
  0
SPLINE
  5
4303
330
17
100
AcDbEntity
  8
additional
 48
0.5
100
AcDbSpline
210
0.0
220
0.0
230
1.0
 70
     8
 71
     3
 72
    18
 73
    14
 74
    12
 42
0.0000000001
 43
0.0000000001
 44
0.0000000001
 40
0.0
 40
0.0
 40
0.0
 40
0.0
 40
0.7826237921249265
 40
1.565247584249878
 40
2.965247584249798
 40
3.747871376374826
 40
4.530495168499574
 40
5.313118960624652
 40
6.095742752749579
 40
8.195742752749659
 40
8.978366544874509
 40
9.760990336999613
 40
10.54361412912449
 40
10.54361412912449
 40
10.54361412912449
 40
10.54361412912449
 10
701.2238372864201
 20
17.82543401015345
 30
0.0
 10
701.3364069697127
 20
17.59015454344461
 30
0.0
 10
701.5615463362979
 20
17.11959561002691
 30
0.0
 10
702.0811937145793
 20
16.27239766739879
 30
0.0
 10
702.081348690507
 20
15.17843243033901
 30
0.0
 10
701.5612864337657
 20
14.33135970996767
 30
0.0
 10
701.2248082999483
 20
13.62509666220589
 30
0.0
 10
700.882504084961
 20
12.92085770213002
 30
0.0
 10
700.2669569616799
 20
11.86433886530526
 30
0.0
 10
700.266163387185
 20
10.48623841758551
 30
0.0
 10
700.8833913282188
 20
9.430416132883898
 30
0.0
 10
701.2214487759706
 20
8.72418847947106
 30
0.0
 10
701.4563744496036
 20
8.258352166592704
 30
0.0
 10
701.57383728642
 20
8.02543401015356
 30
0.0
 11
701.2238372864201
 21
17.82543401015345
 31
0.0
 11
701.57383728642
 21
17.12543401015341
 31
0.0
 11
701.9238372864201
 21
16.42543401015345
 31
0.0
 11
701.9238372864201
 21
15.02543401015353
 31
0.0
 11
701.57383728642
 21
14.32543401015349
 31
0.0
 11
701.2238372864201
 21
13.62543401015364
 31
0.0
 11
700.8738372864197
 21
12.92543401015365
 31
0.0
 11
700.5238372864198
 21
12.2254340101536
 31
0.0
 11
700.5238372864198
 21
10.12543401015352
 31
0.0
 11
700.8738372864197
 21
9.425434010153566
 31
0.0
 11
701.2238372864201
 21
8.725434010153549
 31
0.0
 11
701.57383728642
 21
8.02543401015356
 31
0.0
  0
LINE
  5
4304
330
17
100
AcDbEntity
  8
0
100
AcDbLine
 10
681.4862896558415
 20
10.79068758298982
 30
0.0
 11
698.6053334580414
 21
10.79068758298982
 31
0.0
  0
LINE
  5
4305
330
17
100
AcDbEntity
  8
0
100
AcDbLine
 10
681.4862896558415
 20
12.79068758298982
 30
0.0
 11
699.0511151568544
 21
12.79068758298982
 31
0.0
  0
LINE
  5
4306
330
17
100
AcDbEntity
  8
0
100
AcDbLine
 10
681.4862896558415
 20
14.79068758298982
 30
0.0
 11
700.0743444867642
 21
14.79068758298982
 31
0.0
  0
LINE
  5
4307
330
17
100
AcDbEntity
  8
0
100
AcDbLine
 10
736.3154966544691
 20
14.79068758298982
 30
0.0
 11
736.3154966544691
 21
10.79068758298982
 31
0.0
  0
LINE
  5
4308
330
17
100
AcDbEntity
  8
0
100
AcDbLine
 10
701.8243444867642
 20
14.79068758298982
 30
0.0
 11
736.3154966544682
 21
14.79068758298982
 31
0.0
  0
LINE
  5
4309
330
17
100
AcDbEntity
  8
0
100
AcDbLine
 10
700.3553334580415
 20
10.79068758298982
 30
0.0
 11
736.3154966544691
 21
10.79068758298982
 31
0.0
  0
LINE
  5
430A
330
17
100
AcDbEntity
  8
0
100
AcDbLine
 10
700.8011151568544
 20
12.79068758298982
 30
0.0
 11
736.3154966544691
 21
12.79068758298982
 31
0.0
  0
POINT
  5
430B
330
17
100
AcDbEntity
  8
0
100
AcDbPoint
 10
736.3154966544682
 20
14.79068758298982
 30
0.0
  0
POINT
  5
430C
330
17
100
AcDbEntity
  8
0
100
AcDbPoint
 10
736.3154966544691
 20
13.79068758298982
 30
0.0
  0
POINT
  5
430D
330
17
100
AcDbEntity
  8
0
100
AcDbPoint
 10
736.3154966544682
 20
10.79068758298982
 30
0.0
  0
POINT
  5
430E
330
17
100
AcDbEntity
  8
0
100
AcDbPoint
 10
736.3154966544691
 20
11.79068758298982
 30
0.0
  0
LINE
  5
430F
330
17
100
AcDbEntity
  8
0
100
AcDbLine
 10
736.3154966544691
 20
11.29068758298982
 30
0.0
 11
750.3154966544691
 21
11.29068758298982
 31
0.0
  0
LINE
  5
4310
330
17
100
AcDbEntity
  8
0
100
AcDbLine
 10
736.3154966544691
 20
12.29068758298982
 30
0.0
 11
750.3154966544691
 21
12.29068758298982
 31
0.0
  0
LINE
  5
4311
330
17
100
AcDbEntity
  8
0
100
AcDbLine
 10
736.3154966544691
 20
13.29068758298982
 30
0.0
 11
750.3154966544691
 21
13.29068758298982
 31
0.0
  0
LINE
  5
4312
330
17
100
AcDbEntity
  8
0
100
AcDbLine
 10
736.3154966544691
 20
14.29068758298982
 30
0.0
 11
750.3154966544691
 21
14.29068758298982
 31
0.0
  0
DIMENSION
  5
4313
330
17
100
AcDbEntity
  8
Z_OM_DIM
100
AcDbDimension
  2
*D1
 10
750.3154966544691
 20
-24.94824211516328
 30
0.0
 11
718.4008931551553
 21
-23.07324211516328
 31
0.0
 70
    32
  1
180 - 200
 71
     5
 42
63.82920699862757
  3
CatalogDxf
100
AcDbAlignedDimension
 13
686.4862896558415
 23
-5.209312417010153
 33
0.0
 14
750.3154966544691
 24
11.29068758298982
 34
0.0
100
AcDbRotatedDimension
  0
LINE
  5
442A
330
17
100
AcDbEntity
  8
0
 48
0.5
100
AcDbLine
 10
629.3362896558419
 20
-3.209312417010153
 30
0.0
 11
681.4862896558406
 21
-3.209312417010153
 31
0.0
  0
LINE
  5
442B
330
17
100
AcDbEntity
  8
0
 48
0.5
100
AcDbLine
 10
629.3362896558419
 20
28.79068758298982
 30
0.0
 11
681.4862896558406
 21
28.79068758298982
 31
0.0
  0
LINE
  5
442C
330
17
100
AcDbEntity
  8
0
 48
0.5
100
AcDbLine
 10
622.8862896558421
 20
-7.20931241701021
 30
0.0
 11
684.4862896558415
 21
-7.209312417010153
 31
0.0
  0
LINE
  5
442D
330
17
100
AcDbEntity
  8
0
 48
0.5
100
AcDbLine
 10
684.4862896558415
 20
-5.20931241701021
 30
0.0
 11
622.8862896558421
 21
-5.20931241701021
 31
0.0
  0
LINE
  5
442E
330
17
100
AcDbEntity
  8
0
 48
0.5
100
AcDbLine
 10
627.3362896558419
 20
30.79068758298982
 30
0.0
 11
684.4862896558415
 21
30.79068758298982
 31
0.0
  0
LINE
  5
442F
330
17
100
AcDbEntity
  8
0
 48
0.5
100
AcDbLine
 10
684.4862896558415
 20
32.79068758298982
 30
0.0
 11
622.8862896558421
 21
32.79068758298982
 31
0.0
  0
LINE
  5
4430
330
17
100
AcDbEntity
  8
0
 48
0.5
100
AcDbLine
 10
620.0362896558417
 20
14.79068758298982
 30
0.0
 11
620.0362896558417
 21
10.79068758298982
 31
0.0
  0
LINE
  5
4431
330
17
100
AcDbEntity
  8
0
 48
0.5
100
AcDbLine
 10
609.5362896558417
 20
4.790687582989875
 30
0.0
 11
621.2862896558418
 21
4.790687582989818
 31
0.0
  0
LINE
  5
4432
330
17
100
AcDbEntity
  8
0
 48
0.5
100
AcDbLine
 10
620.0362896558417
 20
10.79068758298982
 30
0.0
 11
609.0362896558417
 21
10.79068758298982
 31
0.0
  0
LINE
  5
4433
330
17
100
AcDbEntity
  8
0
 48
0.5
100
AcDbLine
 10
609.0362896558417
 20
5.290687582989875
 30
0.0
 11
609.5362896558417
 21
4.790687582989875
 31
0.0
  0
LINE
  5
4434
330
17
100
AcDbEntity
  8
0
 48
0.5
100
AcDbLine
 10
609.0362896558417
 20
10.79068758298982
 30
0.0
 11
609.0362896558417
 21
5.290687582989875
 31
0.0
  0
LINE
  5
4435
330
17
100
AcDbEntity
  8
0
 48
0.5
100
AcDbLine
 10
629.3362896558419
 20
-4.709312417010153
 30
0.0
 11
629.3362896558419
 21
-3.209312417010153
 31
0.0
  0
LINE
  5
4436
330
17
100
AcDbEntity
  8
0
 48
0.5
100
AcDbLine
 10
620.0362896558417
 20
4.790687582989818
 30
0.0
 11
621.3862896558421
 21
4.790687582989818
 31
0.0
  0
LINE
  5
4437
330
17
100
AcDbEntity
  8
0
 48
0.5
100
AcDbLine
 10
624.136289655842
 20
-5.209312417010153
 30
0.0
 11
627.3362896558419
 21
-5.209312417010153
 31
0.0
  0
LINE
  5
4438
330
17
100
AcDbEntity
  8
0
 48
0.5
100
AcDbLine
 10
627.3362896558419
 20
-5.209312417010153
 30
0.0
 11
624.136289655842
 21
-5.209312417010153
 31
0.0
  0
LINE
  5
4439
330
17
100
AcDbEntity
  8
0
 48
0.5
100
AcDbLine
 10
627.3362896558419
 20
-2.209312417010153
 30
0.0
 11
627.3362896558419
 21
-0.2093124170101532
 31
0.0
  0
LINE
  5
443A
330
17
100
AcDbEntity
  8
0
 48
0.5
100
AcDbLine
 10
624.136289655842
 20
-5.209312417010153
 30
0.0
 11
624.136289655842
 21
32.79068758298982
 31
0.0
  0
LINE
  5
443B
330
17
100
AcDbEntity
  8
0
 48
0.5
100
AcDbLine
 10
622.8862896558421
 20
-5.20931241701021
 30
0.0
 11
622.8862896558421
 21
-7.20931241701021
 31
0.0
  0
LINE
  5
443C
330
17
100
AcDbEntity
  8
0
 48
0.5
100
AcDbLine
 10
621.2862896558418
 20
4.790687582989818
 30
0.0
 11
621.3862896558421
 21
4.790687582989818
 31
0.0
  0
LINE
  5
443D
330
17
100
AcDbEntity
  8
0
 48
0.5
100
AcDbLine
 10
628.3362896558419
 20
-4.709312417010153
 30
0.0
 11
628.3362896558419
 21
-1.209312417010153
 31
0.0
  0
LINE
  5
443E
330
17
100
AcDbEntity
  8
0
 48
0.5
100
AcDbLine
 10
629.3362896558419
 20
-4.709312417010153
 30
0.0
 11
628.3362896558419
 21
-4.709312417010153
 31
0.0
  0
LINE
  5
443F
330
17
100
AcDbEntity
  8
0
 48
0.5
100
AcDbLine
 10
627.3362896558419
 20
-1.209312417010153
 30
0.0
 11
628.3362896558419
 21
-1.209312417010153
 31
0.0
  0
LINE
  5
4440
330
17
100
AcDbEntity
  8
0
 48
0.5
100
AcDbLine
 10
623.4862896558415
 20
0.7906875829898468
 30
0.0
 11
623.3862896558421
 21
0.7906875829898468
 31
0.0
  0
LINE
  5
4441
330
17
100
AcDbEntity
  8
0
 48
0.5
100
AcDbLine
 10
623.3862896558421
 20
0.7906875829898468
 30
0.0
 11
622.3862896558421
 21
0.7906875829898468
 31
0.0
  0
LINE
  5
4442
330
17
100
AcDbEntity
  8
0
 48
0.5
100
AcDbLine
 10
622.3862896558421
 20
0.7906875829898468
 30
0.0
 11
622.3862896558439
 21
24.79068758298982
 31
0.0
  0
LINE
  5
4443
330
17
100
AcDbEntity
  8
0
 48
0.5
100
AcDbLine
 10
621.3862896558425
 20
24.29172545200825
 30
0.0
 11
621.3862896558425
 21
1.291725452005181
 31
0.0
  0
LINE
  5
4444
330
17
100
AcDbEntity
  8
0
 48
0.5
100
AcDbLine
 10
621.2862896558418
 20
20.79068758298982
 30
0.0
 11
609.5362896558421
 21
20.79068758298987
 31
0.0
  0
LINE
  5
4445
330
17
100
AcDbEntity
  8
additional
  6
HIDDEN2
100
AcDbLine
 10
614.5862896558432
 20
20.29068758298985
 30
0.0
 11
615.0862896558432
 21
20.79068758298985
 31
0.0
  0
LINE
  5
4446
330
17
100
AcDbEntity
  8
0
 48
0.5
100
AcDbLine
 10
609.0362896558417
 20
14.79068758298982
 30
0.0
 11
620.0362896558417
 21
14.79068758298982
 31
0.0
  0
LINE
  5
4447
330
17
100
AcDbEntity
  8
0
 48
0.5
100
AcDbLine
 10
609.0362896558417
 20
20.29068758298988
 30
0.0
 11
609.5362896558417
 21
20.79068758298987
 31
0.0
  0
LINE
  5
4448
330
17
100
AcDbEntity
  8
additional
  6
HIDDEN2
100
AcDbLine
 10
614.5862896558432
 20
20.29068758298985
 30
0.0
 11
614.5862896558432
 21
14.79068758298982
 31
0.0
  0
LINE
  5
4449
330
17
100
AcDbEntity
  8
0
 48
0.5
100
AcDbLine
 10
609.0362896558417
 20
14.79068758298982
 30
0.0
 11
611.0362896558418
 21
14.79068758298982
 31
0.0
  0
LINE
  5
444A
330
17
100
AcDbEntity
  8
0
100
AcDbLine
 10
612.8362896558419
 20
14.79068758298982
 30
0.0
 11
614.3862896558421
 21
14.79068758298982
 31
0.0
  0
LINE
  5
444B
330
17
100
AcDbEntity
  8
0
100
AcDbLine
 10
612.8362896558419
 20
14.79068758298982
 30
0.0
 11
611.2862896558417
 21
14.79068758298982
 31
0.0
  0
LINE
  5
444C
330
17
100
AcDbEntity
  8
0
 48
0.5
100
AcDbLine
 10
609.0362896558417
 20
20.29068758298988
 30
0.0
 11
609.0362896558417
 21
14.79068758298982
 31
0.0
  0
LINE
  5
444D
330
17
100
AcDbEntity
  8
0
 48
0.5
100
AcDbLine
 10
629.3362896558419
 20
28.79068758298982
 30
0.0
 11
629.3362896558419
 21
28.29068758298982
 31
0.0
  0
LINE
  5
444E
330
17
100
AcDbEntity
  8
0
 48
0.5
100
AcDbLine
 10
629.3362896558419
 20
30.29068758298982
 30
0.0
 11
629.3362896558419
 21
28.79068758298982
 31
0.0
  0
LINE
  5
444F
330
17
100
AcDbEntity
  8
0
 48
0.5
100
AcDbLine
 10
622.8862896558421
 20
30.79068758298982
 30
0.0
 11
624.136289655842
 21
30.79068758298982
 31
0.0
  0
LINE
  5
4450
330
17
100
AcDbEntity
  8
0
 48
0.5
100
AcDbLine
 10
627.3362896558419
 20
30.79068758298982
 30
0.0
 11
627.3362896558419
 21
26.79068758298982
 31
0.0
  0
LINE
  5
4451
330
17
100
AcDbEntity
  8
0
 48
0.5
100
AcDbLine
 10
624.136289655842
 20
32.79068758298982
 30
0.0
 11
627.3362896558419
 21
32.79068758298982
 31
0.0
  0
LINE
  5
4452
330
17
100
AcDbEntity
  8
0
 48
0.5
100
AcDbLine
 10
624.136289655842
 20
32.79068758298982
 30
0.0
 11
627.3362896558419
 21
32.79068758298982
 31
0.0
  0
LINE
  5
4453
330
17
100
AcDbEntity
  8
0
 48
0.5
100
AcDbLine
 10
627.3362896558419
 20
32.79068758298982
 30
0.0
 11
627.3362896558419
 21
30.79068758298982
 31
0.0
  0
LINE
  5
4454
330
17
100
AcDbEntity
  8
0
 48
0.5
100
AcDbLine
 10
622.8862896558421
 20
32.79068758298982
 30
0.0
 11
622.8862896558421
 21
30.79068758298982
 31
0.0
  0
LINE
  5
4455
330
17
100
AcDbEntity
  8
0
 48
0.5
100
AcDbLine
 10
622.8862896558421
 20
32.79068758298982
 30
0.0
 11
622.8862896558421
 21
30.79068758298982
 31
0.0
  0
LINE
  5
4456
330
17
100
AcDbEntity
  8
0
 48
0.5
100
AcDbLine
 10
627.3362896558419
 20
26.79068758298982
 30
0.0
 11
627.3362896558419
 21
21.29068758298982
 31
0.0
  0
LINE
  5
4457
330
17
100
AcDbEntity
  8
0
 48
0.5
100
AcDbLine
 10
628.3362896558419
 20
30.29068758298982
 30
0.0
 11
628.3362896558419
 21
26.79068758298982
 31
0.0
  0
LINE
  5
4458
330
17
100
AcDbEntity
  8
0
 48
0.5
100
AcDbLine
 10
629.3362896558419
 20
30.29068758298982
 30
0.0
 11
628.3362896558419
 21
30.29068758298982
 31
0.0
  0
LINE
  5
4459
330
17
100
AcDbEntity
  8
0
 48
0.5
100
AcDbLine
 10
628.3362896558419
 20
26.79068758298982
 30
0.0
 11
627.3362896558419
 21
26.79068758298982
 31
0.0
  0
LINE
  5
445A
330
17
100
AcDbEntity
  8
0
 48
0.5
100
AcDbLine
 10
628.3362896558419
 20
21.29068758298982
 30
0.0
 11
628.3362896558419
 21
26.79068758298982
 31
0.0
  0
LINE
  5
445B
330
17
100
AcDbEntity
  8
0
 48
0.5
100
AcDbLine
 10
629.3362896558419
 20
22.04068758298982
 30
0.0
 11
629.3362896558419
 21
30.29068758298982
 31
0.0
  0
LINE
  5
445C
330
17
100
AcDbEntity
  8
0
 48
0.5
100
AcDbLine
 10
622.3862896558421
 20
24.79068758298982
 30
0.0
 11
624.136289655842
 21
24.79068758298982
 31
0.0
  0
LINE
  5
445D
330
17
100
AcDbEntity
  8
0
 48
0.5
100
AcDbLine
 10
684.4862896558415
 20
4.790687582989818
 30
0.0
 11
684.4862896558415
 21
10.29068758298982
 31
0.0
  0
LINE
  5
445E
330
17
100
AcDbEntity
  8
0
 48
0.5
100
AcDbLine
 10
684.4862896558415
 20
10.79172545200669
 30
0.0
 11
684.4862896558415
 21
-5.20931241701021
 31
0.0
  0
LINE
  5
445F
330
17
100
AcDbEntity
  8
0
 48
0.5
100
AcDbLine
 10
686.4862896558415
 20
-5.209312417010153
 30
0.0
 11
686.4862896558415
 21
10.79172545200669
 31
0.0
  0
ARC
  5
4460
330
17
100
AcDbEntity
  8
0
 48
0.5
100
AcDbCircle
 10
684.4862896558415
 20
-5.209312417010153
 30
0.0
 40
2.0
100
AcDbArc
 50
270.0
 51
0.0
  0
LINE
  5
4461
330
17
100
AcDbEntity
  8
0
 48
0.5
100
AcDbLine
 10
681.4862896558415
 20
-4.70931241701021
 30
0.0
 11
681.4862896558415
 21
30.29068758298982
 31
0.0
  0
LINE
  5
4462
330
17
100
AcDbEntity
  8
0
 48
0.5
100
AcDbLine
 10
682.4862896558415
 20
-4.70931241701021
 30
0.0
 11
681.4862896558415
 21
-4.70931241701021
 31
0.0
  0
LINE
  5
4463
330
17
100
AcDbEntity
  8
0
 48
0.5
100
AcDbLine
 10
682.4862896558415
 20
-1.20931241701021
 30
0.0
 11
683.4862896558416
 21
-1.20931241701021
 31
0.0
  0
LINE
  5
4464
330
17
100
AcDbEntity
  8
0
 48
0.5
100
AcDbLine
 10
682.4862896558415
 20
30.29068758298982
 30
0.0
 11
682.4862896558415
 21
14.79172545200668
 31
0.0
  0
LINE
  5
4465
330
17
100
AcDbEntity
  8
0
 48
0.5
100
AcDbLine
 10
682.4862896558415
 20
10.79172545200669
 30
0.0
 11
682.4862896558415
 21
-4.70931241701021
 31
0.0
  0
LINE
  5
4466
330
17
100
AcDbEntity
  8
0
 48
0.5
100
AcDbLine
 10
684.4862896558415
 20
-1.20931241701021
 30
0.0
 11
683.4862896558416
 21
-1.20931241701021
 31
0.0
  0
LINE
  5
4467
330
17
100
AcDbEntity
  8
0
 48
0.5
100
AcDbLine
 10
683.4862896558416
 20
-1.20931241701021
 30
0.0
 11
683.4862896558416
 21
10.79172545200669
 31
0.0
  0
LINE
  5
4468
330
17
100
AcDbEntity
  8
0
 48
0.5
100
AcDbLine
 10
683.4862896558416
 20
14.79172545200668
 30
0.0
 11
683.4862896558416
 21
26.79068758298982
 31
0.0
  0
LINE
  5
4469
330
17
100
AcDbEntity
  8
0
 48
0.5
100
AcDbLine
 10
686.4862896558415
 20
30.79068758298982
 30
0.0
 11
686.4862896558415
 21
14.79172545200668
 31
0.0
  0
LINE
  5
446A
330
17
100
AcDbEntity
  8
0
 48
0.5
100
AcDbLine
 10
684.4862896558415
 20
30.79068758298982
 30
0.0
 11
684.4862896558415
 21
15.29068758298982
 31
0.0
  0
ARC
  5
446B
330
17
100
AcDbEntity
  8
0
 48
0.5
100
AcDbCircle
 10
684.4862896558415
 20
30.79068758298982
 30
0.0
 40
2.0
100
AcDbArc
 50
0.0
 51
90.0
  0
LINE
  5
446C
330
17
100
AcDbEntity
  8
0
 48
0.5
100
AcDbLine
 10
682.4862896558415
 20
30.29068758298982
 30
0.0
 11
681.4862896558415
 21
30.29068758298982
 31
0.0
  0
LINE
  5
446D
330
17
100
AcDbEntity
  8
0
 48
0.5
100
AcDbLine
 10
683.4862896558416
 20
26.79068758298982
 30
0.0
 11
682.4862896558415
 21
26.79068758298982
 31
0.0
  0
LINE
  5
446E
330
17
100
AcDbEntity
  8
0
 48
0.5
100
AcDbLine
 10
683.4862896558416
 20
26.79068758298982
 30
0.0
 11
684.4862896558415
 21
26.79068758298982
 31
0.0
  0
LINE
  5
446F
330
17
100
AcDbEntity
  8
0
 48
0.5
100
AcDbLine
 10
539.291061181425
 20
-100.1345941081861
 30
0.0
 11
539.291061181425
 21
-64.13459410818615
 31
0.0
  0
LINE
  5
4470
330
17
100
AcDbEntity
  8
0
 48
0.5
100
AcDbLine
 10
537.291061181425
 20
-73.13459410818615
 30
0.0
 11
537.291061181425
 21
-64.13459410818615
 31
0.0
  0
LINE
  5
4471
330
17
100
AcDbEntity
  8
0
 48
0.5
100
AcDbLine
 10
499.291061181425
 20
-64.13459410818612
 30
0.0
 11
499.291061181425
 21
-100.1345941081861
 31
0.0
  0
CIRCLE
  5
4472
330
17
100
AcDbEntity
  8
0
 48
0.5
100
AcDbCircle
 10
519.291061181425
 20
-82.13459410818529
 30
0.0
 40
12.0
  0
ARC
  5
4473
330
17
100
AcDbEntity
  8
0
 48
0.5
100
AcDbCircle
 10
519.291061181425
 20
-82.13459410818529
 30
0.0
 40
8.000000000000284
100
AcDbArc
 50
180.0
 51
222.9262397132973
  0
ARC
  5
4474
330
17
100
AcDbEntity
  8
0
 48
0.5
100
AcDbCircle
 10
519.2910611814245
 20
-82.13459410818529
 30
0.0
 40
8.000000000000019
100
AcDbArc
 50
317.0737602866641
 51
0.0
  0
CIRCLE
  5
4475
330
17
100
AcDbEntity
  8
0
 48
0.5
100
AcDbCircle
 10
519.291061181425
 20
-82.13459410818529
 30
0.0
 40
8.0
  0
ARC
  5
4476
330
17
100
AcDbEntity
  8
0
 48
0.5
100
AcDbCircle
 10
519.2910611814245
 20
-82.13459410818439
 30
0.0
 40
7.999999999999283
100
AcDbArc
 50
65.00000000001816
 51
114.9999999999818
  0
LINE
  5
4477
330
17
100
AcDbEntity
  8
0
 48
0.5
100
AcDbLine
 10
539.291061181425
 20
-73.13459410818615
 30
0.0
 11
537.291061181425
 21
-73.13459410818615
 31
0.0
  0
LINE
  5
4478
330
17
100
AcDbEntity
  8
0
 48
0.5
100
AcDbLine
 10
499.291061181425
 20
-100.1345941081861
 30
0.0
 11
539.291061181425
 21
-100.134594108186
 31
0.0
  0
LINE
  5
4479
330
17
100
AcDbEntity
  8
0
 48
0.5
100
AcDbLine
 10
539.291061181425
 20
-64.13459410818615
 30
0.0
 11
499.291061181425
 21
-64.13459410818612
 31
0.0
  0
LINE
  5
447A
330
17
100
AcDbEntity
  8
0
 48
0.5
100
AcDbLine
 10
609.5362896558421
 20
-74.13459410818609
 30
0.0
 11
609.5362896558421
 21
-90.13459410818603
 31
0.0
  0
LINE
  5
447B
330
17
100
AcDbEntity
  8
0
 48
0.5
100
AcDbLine
 10
621.3862896558425
 20
-70.63459410818456
 30
0.0
 11
621.3862896558425
 21
-93.63459410818762
 31
0.0
  0
LINE
  5
447C
330
17
100
AcDbEntity
  8
0
 48
0.5
100
AcDbLine
 10
622.3862896558426
 20
-70.13459410818604
 30
0.0
 11
622.3862896558426
 21
-94.13459410818608
 31
0.0
  0
LINE
  5
447D
330
17
100
AcDbEntity
  8
0
 48
0.5
100
AcDbLine
 10
623.4862896558429
 20
-73.13459410818609
 30
0.0
 11
623.4862896558429
 21
-91.13459410818609
 31
0.0
  0
LINE
  5
447E
330
17
100
AcDbEntity
  8
0
 48
0.5
100
AcDbLine
 10
609.0362896558422
 20
-74.63459410818609
 30
0.0
 11
609.0362896558422
 21
-89.63459410818604
 31
0.0
  0
LINE
  5
447F
330
17
100
AcDbEntity
  8
0
 48
0.5
100
AcDbLine
 10
624.1362896558426
 20
-73.13459410818609
 30
0.0
 11
624.1362896558426
 21
-91.13459410818609
 31
0.0
  0
LINE
  5
4480
330
17
100
AcDbEntity
  8
0
 48
0.5
100
AcDbLine
 10
627.0862896558424
 20
-73.13459410818609
 30
0.0
 11
627.0862896558424
 21
-91.13459410818609
 31
0.0
  0
LINE
  5
4481
330
17
100
AcDbEntity
  8
0
 48
0.5
100
AcDbLine
 10
686.4862896558429
 20
-100.1345941081861
 30
0.0
 11
686.4862896558429
 21
-64.13459410818607
 31
0.0
  0
LINE
  5
4482
330
17
100
AcDbEntity
  8
0
 48
0.5
100
AcDbLine
 10
622.8862896558426
 20
-100.1345941081861
 30
0.0
 11
686.4862896558429
 21
-100.1345941081861
 31
0.0
  0
LINE
  5
4483
330
17
100
AcDbEntity
  8
0
 48
0.5
100
AcDbLine
 10
609.5362896558421
 20
-90.13459410818603
 30
0.0
 11
621.2862896558422
 21
-90.1345941081861
 31
0.0
  0
LINE
  5
4484
330
17
100
AcDbEntity
  8
0
 48
0.5
100
AcDbLine
 10
609.0362896558422
 20
-89.63459410818604
 30
0.0
 11
609.5362896558421
 21
-90.13459410818603
 31
0.0
  0
CIRCLE
  5
4485
330
17
100
AcDbEntity
  8
0
 48
0.5
100
AcDbCircle
 10
613.0362896558422
 20
-82.13459410818609
 30
0.0
 40
1.55
  0
LINE
  5
4486
330
17
100
AcDbEntity
  8
0
 48
0.5
100
AcDbLine
 10
623.3862896558425
 20
-82.13459410818609
 30
0.0
 11
623.3862896558425
 21
-82.13459410818609
 31
0.0
  0
LINE
  5
4487
330
17
100
AcDbEntity
  8
0
 48
0.5
100
AcDbLine
 10
621.2862896558422
 20
-90.1345941081861
 30
0.0
 11
621.3862896558425
 21
-90.1345941081861
 31
0.0
  0
LINE
  5
4488
330
17
100
AcDbEntity
  8
0
 48
0.5
100
AcDbLine
 10
622.3862896558426
 20
-82.13459410818609
 30
0.0
 11
622.3862896558426
 21
-82.13459410818609
 31
0.0
  0
LINE
  5
4489
330
17
100
AcDbEntity
  8
0
 48
0.5
100
AcDbLine
 10
622.8862896558434
 20
-94.13459410818608
 30
0.0
 11
622.3862896558426
 21
-94.13459410818608
 31
0.0
  0
LINE
  5
448A
330
17
100
AcDbEntity
  8
0
 48
0.5
100
AcDbLine
 10
622.8862896558426
 20
-91.13459410818609
 30
0.0
 11
622.8862896558426
 21
-100.1345941081861
 31
0.0
  0
LINE
  5
448B
330
17
100
AcDbEntity
  8
0
 48
0.5
100
AcDbLine
 10
627.0862896558424
 20
-91.13459410818609
 30
0.0
 11
622.8862896558426
 21
-91.13459410818609
 31
0.0
  0
CIRCLE
  5
448C
330
17
100
AcDbEntity
  8
0
 48
0.5
100
AcDbCircle
 10
637.5362896558422
 20
-72.13459410818609
 30
0.0
 40
1.25
  0
CIRCLE
  5
448D
330
17
100
AcDbEntity
  8
additional
  6
HIDDEN2
100
AcDbCircle
 10
637.5362896558422
 20
-72.13459410818609
 30
0.0
 40
1.5
  0
LINE
  5
448E
330
17
100
AcDbEntity
  8
0
 48
0.5
100
AcDbLine
 10
686.4862896558429
 20
-64.13459410818607
 30
0.0
 11
637.0862896558423
 21
-64.13459410818607
 31
0.0
  0
LINE
  5
448F
330
17
100
AcDbEntity
  8
0
 48
0.5
100
AcDbLine
 10
609.5362896558421
 20
-74.13459410818609
 30
0.0
 11
621.3862896558425
 21
-74.13459410818609
 31
0.0
  0
LINE
  5
4490
330
17
100
AcDbEntity
  8
0
 48
0.5
100
AcDbLine
 10
609.5362896558421
 20
-74.13459410818609
 30
0.0
 11
609.0362896558422
 21
-74.63459410818609
 31
0.0
  0
LINE
  5
4491
330
17
100
AcDbEntity
  8
0
 48
0.5
100
AcDbLine
 10
622.3862896558426
 20
-70.63459410818456
 30
0.0
 11
621.3862896558425
 21
-70.63459410818456
 31
0.0
  0
LINE
  5
4492
330
17
100
AcDbEntity
  8
0
 48
0.5
100
AcDbLine
 10
622.3862896558426
 20
-70.13459410818604
 30
0.0
 11
622.8862896558426
 21
-70.13459410818604
 31
0.0
  0
LINE
  5
4493
330
17
100
AcDbEntity
  8
0
 48
0.5
100
AcDbLine
 10
622.8862896558426
 20
-73.13459410818609
 30
0.0
 11
627.0862896558424
 21
-73.13459410818609
 31
0.0
  0
LINE
  5
4494
330
17
100
AcDbEntity
  8
0
 48
0.5
100
AcDbLine
 10
622.8862896558426
 20
-64.13459410818607
 30
0.0
 11
622.8862896558426
 21
-73.13459410818609
 31
0.0
  0
LINE
  5
4495
330
17
100
AcDbEntity
  8
0
 48
0.5
100
AcDbLine
 10
637.0862896558423
 20
-64.13459410818607
 30
0.0
 11
622.8862896558426
 21
-64.13459410818607
 31
0.0
  0
CIRCLE
  5
4496
330
17
100
AcDbEntity
  8
additional
  6
HIDDEN2
100
AcDbCircle
 10
667.5362896558421
 20
-72.1380619992097
 30
0.0
 40
1.5
  0
CIRCLE
  5
4497
330
17
100
AcDbEntity
  8
0
 48
0.5
100
AcDbCircle
 10
667.5362896558421
 20
-72.1380619992097
 30
0.0
 40
1.25
  0
CIRCLE
  5
4498
330
17
100
AcDbEntity
  8
additional
  6
HIDDEN2
100
AcDbCircle
 10
667.5362896558421
 20
-92.13173412001783
 30
0.0
 40
1.5
  0
CIRCLE
  5
4499
330
17
100
AcDbEntity
  8
0
 48
0.5
100
AcDbCircle
 10
667.5362896558421
 20
-92.13173412001783
 30
0.0
 40
1.25
  0
CIRCLE
  5
449A
330
17
100
AcDbEntity
  8
additional
  6
HIDDEN2
100
AcDbCircle
 10
637.5362896558422
 20
-92.11630255114135
 30
0.0
 40
1.5
  0
CIRCLE
  5
449B
330
17
100
AcDbEntity
  8
0
 48
0.5
100
AcDbCircle
 10
637.5362896558422
 20
-92.11630255114135
 30
0.0
 40
1.25
  0
LINE
  5
449C
330
17
100
AcDbEntity
  8
0
 48
0.5
100
AcDbLine
 10
627.3362896558419
 20
-1.209312417010153
 30
0.0
 11
627.3362896558419
 21
4.290687582989818
 31
0.0
  0
LINE
  5
449D
330
17
100
AcDbEntity
  8
0
 48
0.5
100
AcDbLine
 10
628.3362896558419
 20
4.290687582989818
 30
0.0
 11
628.3362896558419
 21
-1.209312417010153
 31
0.0
  0
LINE
  5
449E
330
17
100
AcDbEntity
  8
0
 48
0.5
100
AcDbLine
 10
629.3362896558419
 20
3.540687582989818
 30
0.0
 11
629.3362896558419
 21
-4.709312417010153
 31
0.0
  0
LINE
  5
449F
330
17
100
AcDbEntity
  8
0
 48
0.5
100
AcDbLine
 10
628.3362896558419
 20
-4.709312417010153
 30
0.0
 11
628.3362896558419
 21
-1.209312417010153
 31
0.0
  0
LINE
  5
44A0
330
17
100
AcDbEntity
  8
0
 48
0.5
100
AcDbLine
 10
627.3362896558419
 20
-5.209312417010153
 30
0.0
 11
627.3362896558419
 21
-1.209312417010153
 31
0.0
  0
LINE
  5
44A1
330
17
100
AcDbEntity
  8
0
 48
0.5
100
AcDbLine
 10
629.3362896558419
 20
22.04068758298982
 30
0.0
 11
629.3362896558419
 21
3.540687582989818
 31
0.0
  0
LINE
  5
44A2
330
17
100
AcDbEntity
  8
0
 48
0.5
100
AcDbLine
 10
628.3362896558419
 20
21.44068758298985
 30
0.0
 11
628.3362896558419
 21
4.140687582989841
 31
0.0
  0
LINE
  5
44A3
330
17
100
AcDbEntity
  8
0
 48
0.5
100
AcDbLine
 10
627.3362896558419
 20
21.29068758298982
 30
0.0
 11
627.3362896558419
 21
4.290687582989818
 31
0.0
  0
LINE
  5
44A4
330
17
100
AcDbEntity
  8
0
 48
0.5
100
AcDbLine
 10
684.4862896558415
 20
16.28314096216437
 30
0.0
 11
684.486289655842
 21
14.79172545200668
 31
0.0
  0
LINE
  5
44A5
330
17
100
AcDbEntity
  8
0
 48
0.5
100
AcDbLine
 10
684.4862896558415
 20
10.79172545200669
 30
0.0
 11
684.4862896558415
 21
8.04645191093337
 31
0.0
  0
LINE
  5
44A6
330
17
100
AcDbEntity
  8
0
 48
0.5
100
AcDbLine
 10
623.4862896558415
 20
24.79068758298982
 30
0.0
 11
623.4862896558415
 21
0.7906875829898468
 31
0.0
  0
LINE
  5
44A7
330
17
100
AcDbEntity
  8
0
 48
0.5
100
AcDbLine
 10
623.3862896558421
 20
0.7906875829898468
 30
0.0
 11
624.136289655842
 21
0.7906875829898468
 31
0.0
  0
LINE
  5
44A8
330
17
100
AcDbEntity
  8
0
100
AcDbLine
 10
609.5362896558417
 20
20.79068758298987
 30
0.0
 11
609.5362896558417
 21
14.79068758298982
 31
0.0
  0
LINE
  5
44A9
330
17
100
AcDbEntity
  8
0
100
AcDbLine
 10
609.5362896558417
 20
4.790687582989875
 30
0.0
 11
609.5362896558417
 21
10.79068758298982
 31
0.0
  0
LINE
  5
44AA
330
17
100
AcDbEntity
  8
0
 48
0.5
100
AcDbLine
 10
537.291061181425
 20
-91.13459410818615
 30
0.0
 11
537.291061181425
 21
-100.1345941081861
 31
0.0
  0
LINE
  5
44AB
330
17
100
AcDbEntity
  8
0
 48
0.5
100
AcDbLine
 10
539.291061181425
 20
-91.13459410818615
 30
0.0
 11
537.291061181425
 21
-91.13459410818615
 31
0.0
  0
LINE
  5
44AC
330
17
100
AcDbEntity
  8
0
 48
0.5
100
AcDbLine
 10
501.2910611814259
 20
-73.13459410818615
 30
0.0
 11
501.2910611814259
 21
-64.13459410818615
 31
0.0
  0
LINE
  5
44AD
330
17
100
AcDbEntity
  8
0
 48
0.5
100
AcDbLine
 10
499.2910611814259
 20
-73.13459410818615
 30
0.0
 11
501.2910611814259
 21
-73.13459410818615
 31
0.0
  0
LINE
  5
44AE
330
17
100
AcDbEntity
  8
0
 48
0.5
100
AcDbLine
 10
501.2910611814259
 20
-91.13459410818615
 30
0.0
 11
501.2910611814259
 21
-100.1345941081861
 31
0.0
  0
LINE
  5
44AF
330
17
100
AcDbEntity
  8
0
 48
0.5
100
AcDbLine
 10
499.2910611814259
 20
-91.13459410818615
 30
0.0
 11
501.2910611814259
 21
-91.13459410818615
 31
0.0
  0
LINE
  5
44B0
330
17
100
AcDbEntity
  8
0
 48
0.5
100
AcDbLine
 10
542.0475798958773
 20
-72.15988614912442
 30
0.0
 11
534.7409706770954
 21
-72.15988614912442
 31
0.0
  0
LINE
  5
44B1
330
17
100
AcDbEntity
  8
0
 48
0.5
100
AcDbLine
 10
542.0475798958769
 20
-92.10930206724805
 30
0.0
 11
534.740970677095
 21
-92.109302067248
 31
0.0
  0
LINE
  5
44B2
330
17
100
AcDbEntity
  8
0
 48
0.5
100
AcDbLine
 10
496.5345424669727
 20
-72.15988614912442
 30
0.0
 11
503.8411516857546
 21
-72.15988614912442
 31
0.0
  0
LINE
  5
44B3
330
17
100
AcDbEntity
  8
0
 48
0.5
100
AcDbLine
 10
496.5345424669731
 20
-92.10930206724805
 30
0.0
 11
503.841151685755
 21
-92.109302067248
 31
0.0
  0
LINE
  5
44B4
330
17
100
AcDbEntity
  8
additional
100
AcDbLine
 10
667.5362896558417
 20
-9.714199933962476
 30
0.0
 11
667.5362896558417
 21
-0.8371772535561774
 31
0.0
  0
LINE
  5
44B5
330
17
100
AcDbEntity
  8
additional
100
AcDbLine
 10
637.5362896558422
 20
-9.714199933962504
 30
0.0
 11
637.5362896558422
 21
-0.8371772535562058
 31
0.0
  0
LINE
  5
44B6
330
17
100
AcDbEntity
  8
additional
100
AcDbLine
 10
667.5362896558417
 20
35.29557509994214
 30
0.0
 11
667.5362896558417
 21
26.41855241953584
 31
0.0
  0
LINE
  5
44B7
330
17
100
AcDbEntity
  8
additional
100
AcDbLine
 10
637.5362896558422
 20
35.29557509994217
 30
0.0
 11
637.5362896558422
 21
26.41855241953587
 31
0.0
  0
LINE
  5
44B8
330
17
100
AcDbEntity
  8
additional
  6
CENTER2
100
AcDbLine
 10
544.1622160815827
 20
-82.13459410818609
 30
0.0
 11
494.5462294739414
 21
-82.13459410818614
 31
0.0
  0
LINE
  5
44B9
330
17
100
AcDbEntity
  8
additional
  6
CENTER2
100
AcDbLine
 10
519.2910611814245
 20
-104.720456514028
 30
0.0
 11
519.2910611814245
 21
-57.35966668622819
 31
0.0
  0
LINE
  5
44BA
330
17
100
AcDbEntity
  8
0
100
AcDbLine
 10
517.2910611814245
 20
-89.88056080059999
 30
0.0
 11
517.2910611814245
 21
-74.3886274157706
 31
0.0
  0
LINE
  5
44BB
330
17
100
AcDbEntity
  8
0
100
AcDbLine
 10
521.2910611814249
 20
-89.8805608006001
 30
0.0
 11
521.2910611814245
 21
-74.38862741577032
 31
0.0
  0
LINE
  5
44BC
330
17
100
AcDbEntity
  8
additional
  6
CENTER2
100
AcDbLine
 10
613.0362896558422
 20
-70.14887233816958
 30
0.0
 11
613.0362896558422
 21
-94.00783531612139
 31
0.0
  0
LINE
  5
44BD
330
17
100
AcDbEntity
  8
additional
  6
CENTER2
100
AcDbLine
 10
604.4615700889508
 20
-82.13459410818609
 30
0.0
 11
691.9661914840026
 21
-82.13459410818609
 31
0.0
  0
LINE
  5
44BE
330
17
100
AcDbEntity
  8
additional
  6
CENTER2
100
AcDbLine
 10
637.5362896558422
 20
-66.8111490481493
 30
0.0
 11
637.5362896558422
 21
-96.80113406596015
 31
0.0
  0
LINE
  5
44BF
330
17
100
AcDbEntity
  8
additional
  6
CENTER2
100
AcDbLine
 10
631.129768249471
 20
-72.13459410818609
 30
0.0
 11
673.8401995498421
 21
-72.13459410818609
 31
0.0
  0
LINE
  5
44C0
330
17
100
AcDbEntity
  8
additional
  6
CENTER2
100
AcDbLine
 10
667.5362896558421
 20
-66.81461693917291
 30
0.0
 11
667.5362896558421
 21
-96.80460195698376
 31
0.0
  0
LINE
  5
44C1
330
17
100
AcDbEntity
  8
additional
  6
CENTER2
100
AcDbLine
 10
631.129768249471
 20
-92.11630255114135
 30
0.0
 11
673.8401995498421
 21
-92.11630255114135
 31
0.0
  0
LINE
  5
44C2
330
17
100
AcDbEntity
  8
0
 48
0.5
100
AcDbLine
 10
702.8602631819182
 20
-62.13459410818606
 30
0.0
 11
681.4862896558415
 21
-62.13459410818606
 31
0.0
  0
LINE
  5
44C3
330
17
100
AcDbEntity
  8
0
 48
0.5
100
AcDbLine
 10
681.4862896558415
 20
-62.13459410818606
 30
0.0
 11
681.4862896558415
 21
-64.13459410818607
 31
0.0
  0
LINE
  5
44C4
330
17
100
AcDbEntity
  8
0
 48
0.5
100
AcDbLine
 10
701.9114970379288
 20
-64.13459410818609
 30
0.0
 11
681.4862896558415
 21
-64.13459410818607
 31
0.0
  0
LINE
  5
44C6
330
17
100
AcDbEntity
  8
0
 48
0.5
100
AcDbLine
 10
681.4862896558415
 20
-61.53459410818604
 30
0.0
 11
681.4862896558415
 21
-64.13459410818607
 31
0.0
  0
LINE
  5
44C7
330
17
100
AcDbEntity
  8
0
 48
0.5
100
AcDbLine
 10
681.4862896558415
 20
-61.53459410818604
 30
0.0
 11
650.7429208038047
 21
-61.53459410818604
 31
0.0
  0
LINE
  5
44C8
330
17
100
AcDbEntity
  8
0
 48
0.5
100
AcDbLine
 10
629.3362896558419
 20
-64.13459410818607
 30
0.0
 11
650.7429208038047
 21
-61.53459410818604
 31
0.0
  0
LINE
  5
44CD
330
17
100
AcDbEntity
  8
0
 48
0.5
100
AcDbLine
 10
686.4862896558429
 20
-84.63563197720299
 30
0.0
 11
686.9862896558429
 21
-84.63563197720299
 31
0.0
  0
LINE
  5
44CE
330
17
100
AcDbEntity
  8
0
 48
0.5
100
AcDbLine
 10
686.4862896558429
 20
-79.63563197720299
 30
0.0
 11
686.9862896558429
 21
-79.63563197720299
 31
0.0
  0
LINE
  5
44CF
330
17
100
AcDbEntity
  8
0
 48
0.5
100
AcDbLine
 10
686.9862896558429
 20
-79.63563197720299
 30
0.0
 11
686.9862896558429
 21
-84.63563197720299
 31
0.0
  0
LINE
  5
44D0
330
17
100
AcDbEntity
  8
0
 48
0.5
100
AcDbLine
 10
686.4862896558429
 20
10.29068758298982
 30
0.0
 11
686.9862896558429
 21
10.29068758298982
 31
0.0
  0
LINE
  5
44D1
330
17
100
AcDbEntity
  8
0
 48
0.5
100
AcDbLine
 10
686.4862896558429
 20
15.29068758298982
 30
0.0
 11
686.9862896558429
 21
15.29068758298982
 31
0.0
  0
LINE
  5
44D2
330
17
100
AcDbEntity
  8
0
 48
0.5
100
AcDbLine
 10
686.9862896558429
 20
15.29068758298982
 30
0.0
 11
686.9862896558429
 21
14.79172545200668
 31
0.0
  0
LINE
  5
44D3
330
17
100
AcDbEntity
  8
0
 48
0.5
100
AcDbLine
 10
686.9862896558429
 20
10.79172545200669
 30
0.0
 11
686.9862896558429
 21
10.29068758298982
 31
0.0
  0
LINE
  5
44D4
330
17
100
AcDbEntity
  8
additional
  6
HIDDEN2
100
AcDbLine
 10
611.486289655842
 20
20.29068758298985
 30
0.0
 11
610.986289655842
 21
20.79068758298985
 31
0.0
  0
LINE
  5
44D5
330
17
100
AcDbEntity
  8
additional
  6
HIDDEN2
100
AcDbLine
 10
611.486289655842
 20
20.29068758298985
 30
0.0
 11
611.486289655842
 21
14.79068758298982
 31
0.0
  0
LINE
  5
44D6
330
17
100
AcDbEntity
  8
additional
  6
HIDDEN2
100
AcDbLine
 10
611.486289655842
 20
20.29068758298985
 30
0.0
 11
614.5862896558432
 21
20.29068758298985
 31
0.0
  0
LINE
  5
44D7
330
17
100
AcDbEntity
  8
additional
  6
HIDDEN2
100
AcDbLine
 10
614.5862896558432
 20
5.290687582989818
 30
0.0
 11
615.0862896558432
 21
4.790687582989818
 31
0.0
  0
LINE
  5
44D8
330
17
100
AcDbEntity
  8
additional
  6
HIDDEN2
100
AcDbLine
 10
614.5862896558432
 20
5.290687582989818
 30
0.0
 11
614.5862896558432
 21
10.79068758298984
 31
0.0
  0
LINE
  5
44D9
330
17
100
AcDbEntity
  8
0
100
AcDbLine
 10
612.8362896558419
 20
10.79068758298984
 30
0.0
 11
614.3862896558421
 21
10.79068758298984
 31
0.0
  0
LINE
  5
44DA
330
17
100
AcDbEntity
  8
0
100
AcDbLine
 10
612.8362896558419
 20
10.79068758298984
 30
0.0
 11
611.2862896558417
 21
10.79068758298984
 31
0.0
  0
LINE
  5
44DB
330
17
100
AcDbEntity
  8
additional
  6
HIDDEN2
100
AcDbLine
 10
611.486289655842
 20
5.290687582989818
 30
0.0
 11
610.986289655842
 21
4.790687582989818
 31
0.0
  0
LINE
  5
44DC
330
17
100
AcDbEntity
  8
additional
  6
HIDDEN2
100
AcDbLine
 10
611.486289655842
 20
5.290687582989818
 30
0.0
 11
611.486289655842
 21
10.79068758298984
 31
0.0
  0
LINE
  5
44DD
330
17
100
AcDbEntity
  8
additional
  6
HIDDEN2
100
AcDbLine
 10
611.486289655842
 20
5.290687582989818
 30
0.0
 11
614.5862896558432
 21
5.290687582989818
 31
0.0
  0
LINE
  5
44DE
330
17
100
AcDbEntity
  8
additional
  6
CENTER2
100
AcDbLine
 10
613.0362896558422
 20
24.7774472220232
 30
0.0
 11
613.0362896558422
 21
0.9184842440714078
 31
0.0
  0
LINE
  5
44DF
330
17
100
AcDbEntity
  8
additional
  6
HIDDEN2
100
AcDbLine
 10
527.1394686632011
 20
-80.58459410818599
 30
0.0
 11
521.291061181424
 21
-80.58459410818599
 31
0.0
  0
LINE
  5
44E0
330
17
100
AcDbEntity
  8
additional
  6
HIDDEN2
100
AcDbLine
 10
517.291061181424
 20
-80.58459410818603
 30
0.0
 11
511.4426536996488
 21
-80.58459410818599
 31
0.0
  0
ARC
  5
44E1
330
17
100
AcDbEntity
  8
0
100
AcDbCircle
 10
519.2910611814245
 20
-82.13459410818614
 30
0.0
 40
7.500000000000156
100
AcDbArc
 50
285.4660099534062
 51
74.53399004659378
  0
ARC
  5
44E2
330
17
100
AcDbEntity
  8
0
100
AcDbCircle
 10
519.2910611814245
 20
-82.13459410818614
 30
0.0
 40
7.500000000000156
100
AcDbArc
 50
105.4660099534062
 51
254.5339900465938
  0
LINE
  5
44E3
330
17
100
AcDbEntity
  8
additional
  6
HIDDEN2
100
AcDbLine
 10
527.1394686632011
 20
-83.68459410818621
 30
0.0
 11
521.291061181424
 21
-83.68459410818621
 31
0.0
  0
LINE
  5
44E4
330
17
100
AcDbEntity
  8
additional
  6
HIDDEN2
100
AcDbLine
 10
517.291061181424
 20
-83.68459410818621
 30
0.0
 11
511.4426536996488
 21
-83.68459410818621
 31
0.0
  0
LINE
  5
44E5
330
17
100
AcDbEntity
  8
0
 48
0.5
100
AcDbLine
 10
524.2910611814245
 20
-61.53459410818595
 30
0.0
 11
514.2910611814245
 21
-61.53459410818595
 31
0.0
  0
LINE
  5
44E6
330
17
100
AcDbEntity
  8
0
 48
0.5
100
AcDbLine
 10
524.2910611814245
 20
-61.53459410818595
 30
0.0
 11
535.9387231693367
 21
-64.13459410818615
 31
0.0
  0
LINE
  5
44E7
330
17
100
AcDbEntity
  8
0
 48
0.5
100
AcDbLine
 10
514.2910611814245
 20
-61.53459410818595
 30
0.0
 11
502.6433991935124
 21
-64.13459410818615
 31
0.0
  0
CIRCLE
  5
44E8
330
17
100
AcDbEntity
  8
0
100
AcDbCircle
 10
519.291061181425
 20
-82.13459410818444
 30
0.0
 40
11.49999999999998
  0
ARC
  5
44E9
330
17
100
AcDbEntity
  8
0
100
AcDbCircle
 10
519.291061181425
 20
-82.13459410818444
 30
0.0
 40
11.5
100
AcDbArc
 50
306.2108270376425
 51
233.789172962357
  0
ARC
  5
44EA
330
17
100
AcDbEntity
  8
0
100
AcDbCircle
 10
519.291061181425
 20
-82.13459410818444
 30
0.0
 40
9.099999999999999
100
AcDbArc
 50
117.0916460844218
 51
172.9083539156105
  0
ARC
  5
44EB
330
17
100
AcDbEntity
  8
0
100
AcDbCircle
 10
519.291061181425
 20
-82.13459410818444
 30
0.0
 40
9.099999999999999
100
AcDbArc
 50
7.091646084389489
 51
62.90835391557816
  0
ARC
  5
44EC
330
17
100
AcDbEntity
  8
0
100
AcDbCircle
 10
525.4940217176863
 20
-90.6065053792957
 30
0.0
 40
1.0
100
AcDbArc
 50
200.0000000000213
 51
306.2108270376425
  0
ARC
  5
44ED
330
17
100
AcDbEntity
  8
0
100
AcDbCircle
 10
513.0881006451637
 20
-90.6065053792958
 30
0.0
 40
1.0
100
AcDbArc
 50
233.789172962357
 51
339.9999999999788
  0
LINE
  5
44EE
330
17
100
AcDbEntity
  8
0
100
AcDbLine
 10
514.0277932659492
 20
-90.94852552262143
 30
0.0
 11
514.8209900336155
 21
-88.76923531427337
 31
0.0
  0
LINE
  5
44EF
330
17
100
AcDbEntity
  8
0
100
AcDbLine
 10
511.2530265957812
 20
-82.13459410818456
 30
0.0
 11
511.291061181425
 21
-82.13459410818456
 31
0.0
  0
ARC
  5
44F0
330
17
100
AcDbEntity
  8
0
100
AcDbCircle
 10
511.2530265957812
 20
-81.13459410818444
 30
0.0
 40
1.0
100
AcDbArc
 50
172.9083539156105
 51
270.0
  0
LINE
  5
44F1
330
17
100
AcDbEntity
  8
0
100
AcDbLine
 10
523.7611323292344
 20
-88.76923531427342
 30
0.0
 11
524.5543290969008
 21
-90.9485255226213
 31
0.0
  0
ARC
  5
44F2
330
17
100
AcDbEntity
  8
0
100
AcDbCircle
 10
527.3290957670687
 20
-81.13459410818455
 30
0.0
 40
1.0
100
AcDbArc
 50
270.0
 51
7.091646084389489
  0
LINE
  5
44F3
330
17
100
AcDbEntity
  8
0
100
AcDbLine
 10
527.291061181425
 20
-82.13459410818456
 30
0.0
 11
527.3290957670679
 21
-82.13459410818456
 31
0.0
  0
LINE
  5
44F4
330
17
100
AcDbEntity
  8
0
100
AcDbLine
 10
516.5418914403862
 20
-74.58131232243335
 30
0.0
 11
516.55490003482
 21
-74.61705314189789
 31
0.0
  0
ARC
  5
44F5
330
17
100
AcDbEntity
  8
0
100
AcDbCircle
 10
515.6021988196007
 20
-74.92333246575896
 30
0.0
 40
1.0
100
AcDbArc
 50
20.00000000001401
 51
117.0916460844218
  0
LINE
  5
44F6
330
17
100
AcDbEntity
  8
0
100
AcDbLine
 10
522.0402309224636
 20
-74.58131232243335
 30
0.0
 11
522.0272223280298
 21
-74.61705314189782
 31
0.0
  0
ARC
  5
44F7
330
17
100
AcDbEntity
  8
0
100
AcDbCircle
 10
522.9799235432492
 20
-74.92333246575907
 30
0.0
 40
1.0
100
AcDbArc
 50
62.90835391557816
 51
159.9999999999787
  0
LINE
  5
44F8
330
17
100
AcDbEntity
  8
0
 48
0.5
100
AcDbLine
 10
622.3862896558426
 20
-93.63459410818762
 30
0.0
 11
621.3862896558425
 21
-93.63459410818762
 31
0.0
  0
LINE
  5
44F9
330
17
100
AcDbEntity
  8
0
 48
0.5
100
AcDbLine
 10
622.3862896558426
 20
24.29172545200825
 30
0.0
 11
621.3862896558425
 21
24.29172545200825
 31
0.0
  0
LINE
  5
44FA
330
17
100
AcDbEntity
  8
0
 48
0.5
100
AcDbLine
 10
622.3862896558426
 20
1.291725452005181
 30
0.0
 11
621.3862896558425
 21
1.291725452005181
 31
0.0
  0
LINE
  5
44FB
330
17
100
AcDbEntity
  8
additional
  6
CENTER2
100
AcDbLine
 10
604.7115700889503
 20
12.79068758298982
 30
0.0
 11
681.4862896558415
 21
12.79068758298982
 31
0.0
  0
SPLINE
  5
4523
330
17
100
AcDbEntity
  8
additional
 48
0.5
100
AcDbSpline
210
0.0
220
0.0
230
1.0
 70
     8
 71
     3
 72
    18
 73
    14
 74
    12
 42
0.0000000001
 43
0.0000000001
 44
0.0000000001
 40
0.0
 40
0.0
 40
0.0
 40
0.0
 40
0.7826237921249265
 40
1.565247584249878
 40
2.965247584249798
 40
3.747871376374826
 40
4.530495168499574
 40
5.313118960624652
 40
6.095742752749579
 40
8.195742752749666
 40
8.978366544874516
 40
9.76099033699962
 40
10.54361412912449
 40
10.54361412912449
 40
10.54361412912449
 40
10.54361412912449
 10
702.7016149621767
 20
-58.26233152684952
 30
0.0
 10
702.8141846454691
 20
-58.49761099355835
 30
0.0
 10
703.0393240120545
 20
-58.96816992697606
 30
0.0
 10
703.5589713903357
 20
-59.81536786960418
 30
0.0
 10
703.5591263662636
 20
-60.90933310666395
 30
0.0
 10
703.0390641095223
 20
-61.75640582703529
 30
0.0
 10
702.7025859757051
 20
-62.46266887479708
 30
0.0
 10
702.3602817607176
 20
-63.16690783487295
 30
0.0
 10
701.7447346374366
 20
-64.22342667169772
 30
0.0
 10
701.7439410629418
 20
-65.60152711941746
 30
0.0
 10
702.3611690039752
 20
-66.65734940411907
 30
0.0
 10
702.6992264517271
 20
-67.36357705753192
 30
0.0
 10
702.9341521253601
 20
-67.82941337041028
 30
0.0
 10
703.0516149621766
 20
-68.06233152684942
 30
0.0
 11
702.7016149621767
 21
-58.26233152684952
 31
0.0
 11
703.0516149621766
 21
-58.96233152684956
 31
0.0
 11
703.4016149621767
 21
-59.66233152684952
 31
0.0
 11
703.4016149621767
 21
-61.06233152684944
 31
0.0
 11
703.0516149621766
 21
-61.76233152684948
 31
0.0
 11
702.7016149621767
 21
-62.46233152684933
 31
0.0
 11
702.3516149621762
 21
-63.16233152684932
 31
0.0
 11
702.0016149621763
 21
-63.86233152684937
 31
0.0
 11
702.0016149621763
 21
-65.96233152684945
 31
0.0
 11
702.3516149621762
 21
-66.66233152684942
 31
0.0
 11
702.7016149621767
 21
-67.36233152684943
 31
0.0
 11
703.0516149621766
 21
-68.06233152684942
 31
0.0
  0
DIMENSION
  5
4524
330
17
100
AcDbEntity
  8
Z_OM_DIM
100
AcDbDimension
  2
*D2
 10
609.0362896558417
 20
-8.627360904288423
 30
0.0
 11
614.5362896558417
 21
-6.752360904288423
 31
0.0
 70
    32
 71
     5
 42
11.0
  3
CatalogDxf
100
AcDbAlignedDimension
 13
620.0362896558417
 23
10.79068758298982
 33
0.0
 14
609.0362896558417
 24
5.290687582989875
 34
0.0
100
AcDbRotatedDimension
  0
DIMENSION
  5
4531
330
17
100
AcDbEntity
  8
Z_OM_DIM
100
AcDbDimension
  2
*D3
 10
593.0856339274944
 20
10.79068758298982
 30
0.0
 11
591.2106339274944
 21
12.79068758298992
 31
0.0
 70
    32
 71
     5
 42
4.0
  3
CatalogDxf
100
AcDbAlignedDimension
 13
609.0362896558417
 23
14.79068758298982
 33
0.0
 14
609.0362896558417
 24
10.79068758298982
 34
0.0
 50
90.0
100
AcDbRotatedDimension
  0
DIMENSION
  5
4540
330
17
100
AcDbEntity
  8
Z_OM_DIM
100
AcDbDimension
  2
*D4
 10
637.5362896558422
 20
-47.20917036914966
 30
0.0
 11
652.5362896558422
 21
-45.33417036914966
 31
0.0
 70
    32
 71
     5
 42
30.0
  3
CatalogDxf
100
AcDbAlignedDimension
 13
667.5362896558421
 23
-66.81461693917291
 33
0.0
 14
637.5362896558422
 24
-66.81461693917291
 34
0.0
100
AcDbRotatedDimension
  0
DIMENSION
  5
454D
330
17
100
AcDbEntity
  8
Z_OM_DIM
100
AcDbDimension
  2
*D5
 10
613.0362896558422
 20
-47.20917036914966
 30
0.0
 11
625.2862896558422
 21
-45.33417036914966
 31
0.0
 70
    32
 71
     5
 42
24.5
  3
CatalogDxf
100
AcDbAlignedDimension
 13
637.5362896558422
 23
-66.81461693917291
 33
0.0
 14
613.0362896558422
 24
-70.14887233816958
 34
0.0
100
AcDbRotatedDimension
1001
ACAD
1000
DSTYLE
1002
{
1070
   279
1070
     1
1002
}
  0
DIMENSION
  5
455A
330
17
100
AcDbEntity
  8
Z_OM_DIM
100
AcDbDimension
  2
*D6
 10
609.0362896558422
 20
-47.20917036914966
 30
0.0
 11
611.0362896558422
 21
-45.33417036914966
 31
0.0
 70
    32
 71
     5
 42
4.0
  3
CatalogDxf
100
AcDbAlignedDimension
 13
613.0362896558422
 23
-70.14887233816958
 33
0.0
 14
609.0362896558422
 24
-74.63459410818609
 34
0.0
100
AcDbRotatedDimension
1001
ACAD
1000
DSTYLE
1002
{
1070
   279
1070
     1
1002
}
  0
DIMENSION
  5
4569
330
17
100
AcDbEntity
  8
Z_OM_DIM
100
AcDbDimension
  2
*D7
 10
703.6356221287798
 20
-92.11630255114135
 30
0.0
 11
701.7606221287798
 21
-82.12544832966361
 31
0.0
 70
    32
 71
     5
 42
19.98170844295527
  3
CatalogDxf
100
AcDbAlignedDimension
 13
673.8401995498421
 23
-72.13459410818609
 33
0.0
 14
673.8401995498421
 24
-92.11630255114135
 34
0.0
 50
90.0
100
AcDbRotatedDimension
  0
DIMENSION
  5
4576
330
17
100
AcDbEntity
  8
Z_OM_DIM
100
AcDbDimension
  2
*D8
 10
558.3501780111019
 20
-100.1345941081861
 30
0.0
 11
556.4751780111018
 21
-82.13459410818606
 31
0.0
 70
    32
 71
     5
 42
36.0
  3
CatalogDxf
100
AcDbAlignedDimension
 13
539.291061181425
 23
-64.13459410818615
 33
0.0
 14
539.291061181425
 24
-100.1345941081861
 34
0.0
 50
90.0
100
AcDbRotatedDimension
  0
DIMENSION
  5
4583
330
17
100
AcDbEntity
  8
Z_OM_DIM
100
AcDbDimension
  2
*D9
 10
539.291061181425
 20
-118.3773683462812
 30
0.0
 11
519.291061181425
 21
-116.5023683462812
 31
0.0
 70
    32
 71
     5
 42
39.99999999999995
  3
CatalogDxf
100
AcDbAlignedDimension
 13
499.291061181425
 23
-100.1345941081861
 33
0.0
 14
539.291061181425
 24
-100.134594108186
 34
0.0
100
AcDbRotatedDimension
  0
DIMENSION
  5
4590
330
17
100
AcDbEntity
  8
Z_OM_DIM
100
AcDbDimension
  2
*D10
 10
593.0856339274944
 20
-90.13459410818603
 30
0.0
 11
591.2106339274944
 21
-82.13459410818597
 31
0.0
 70
    32
  1
%%C<>
 71
     5
 42
15.99999999999994
  3
CatalogDxf
100
AcDbAlignedDimension
 13
609.5362896558421
 23
-74.13459410818609
 33
0.0
 14
609.5362896558421
 24
-90.13459410818603
 34
0.0
 50
90.0
100
AcDbRotatedDimension
  0
MTEXT
  5
45CE
330
17
100
AcDbEntity
  8
Z_OM_DIM
100
AcDbMText
 10
722.7595551238104
 20
26.62805080953005
 30
0.0
 40
2.5
 41
42.8494883882687
 71
     7
 72
     1
  1
UL1007 AWG20 white
  7
CatalogDxf
 73
     1
 44
1.0
1001
ACAD
1000
ACAD_MTEXT_DEFINED_HEIGHT_BEGIN
1070
    46
1040
2.500000000000005
1000
ACAD_MTEXT_DEFINED_HEIGHT_END
1000
MTEXTBEGIN
1070
    73
1070
     1
1070
    44
1040
1.0
1070
    74
1070
     0
1000
MTEXTEND
  0
LEADER
  5
45CF
330
17
100
AcDbEntity
  8
Z_OM_DIM
100
AcDbLeader
  3
ISO-25
 76
     3
 10
715.6519413117057
 20
14.79068758298982
 30
0.0
 10
722.1954456300509
 20
26.00305080953005
 30
0.0
 10
763.553735702169
 20
26.00305080953005
 30
0.0
1001
ACAD
1000
DSTYLE
1002
{
1070
   341
1005
977
1070
   147
1040
0.625
1070
    77
1070
     0
1002
}
  0
MTEXT
  5
45D8
330
17
100
AcDbEntity
  8
Z_OM_DIM
100
AcDbMText
 10
599.9189626787223
 20
-102.8099172059151
 30
0.0
 40
2.5
 41
4.689704236643137
 71
     7
 72
     1
  1
%%C3
  7
CatalogDxf
 73
     1
 44
1.0
1001
ACAD
1000
MTEXTBEGIN
1070
    73
1070
     1
1070
    44
1040
1.0
1070
    74
1070
     0
1000
MTEXTEND
  0
LEADER
  5
45D9
330
17
100
AcDbEntity
  8
Z_OM_DIM
100
AcDbLeader
  3
ISO-25
 76
     3
 10
612.499418909628
 20
-83.58864699644689
 30
0.0
 10
605.4162795856619
 20
-103.5145174478225
 30
0.0
 10
598.9020472381699
 20
-103.5145174478225
 30
0.0
211
-1.0
221
0.0
231
0.0
1001
ACAD
1000
DSTYLE
1002
{
1070
   341
1005
977
1070
   147
1040
0.625
1070
    77
1070
     0
1002
}
  0
LEADER
  5
45E2
330
17
100
AcDbEntity
  8
Z_OM_DIM
100
AcDbLeader
  3
ISO-25
 76
     3
 10
668.3863226984985
 20
-93.36763210383059
 30
0.0
 10
680.4360032413709
 20
-111.1059088614526
 30
0.0
 10
705.6057769584595
 20
-111.1059088614526
 30
0.0
1001
ACAD
1000
DSTYLE
1002
{
1070
   341
1005
977
1070
   147
1040
0.625
1070
    77
1070
     0
1002
}
  0
MTEXT
  5
45E3
330
17
100
AcDbEntity
  8
Z_OM_DIM
100
AcDbMText
 10
681.6100012453406
 20
-111.1464057761387
 30
0.0
 40
2.5
 41
24.05930144544266
 71
     4
 72
     1
  1
4-M3\Pboth faces
  7
CatalogDxf
 73
     1
 44
1.0
1001
ACAD
1000
MTEXTBEGIN
1070
    73
1070
     1
1070
    44
1040
1.0
1070
    74
1070
     0
1000
MTEXTEND
  0
DIMENSION
  5
4750
330
17
100
AcDbEntity
  8
Z_OM_DIM
100
AcDbDimension
  2
*D11
 10
686.4862896558415
 20
-24.94824211516328
 30
0.0
 11
654.6862896558418
 21
-23.07324211516328
 31
0.0
 70
    32
 71
     5
 42
63.59999999999946
  3
CatalogDxf
100
AcDbAlignedDimension
 13
622.8862896558421
 23
-7.20931241701021
 33
0.0
 14
686.4862896558415
 24
-5.209312417010153
 34
0.0
100
AcDbRotatedDimension
  0
DIMENSION
  5
4766
330
17
100
AcDbEntity
  8
Z_OM_DIM
100
AcDbDimension
  2
*D12
 10
637.5362896558422
 20
-53.62871015293791
 30
0.0
 11
630.2112896558424
 21
-51.75371015293791
 31
0.0
 70
    32
 71
     5
 42
14.64999999999963
  3
CatalogDxf
100
AcDbAlignedDimension
 13
622.8862896558426
 23
-64.13459410818607
 33
0.0
 14
637.5362896558422
 24
-66.8111490481493
 34
0.0
100
AcDbRotatedDimension
1001
ACAD
1000
DSTYLE
1002
{
1070
   271
1070
     2
1002
}
  0
ENDSEC
  0
SECTION
  2
OBJECTS
  0
DICTIONARY
  5
C
330
0
100
AcDbDictionary
281
     1
  3
ACAD_2007HEADERVARS_RT
350
45B0
  3
ACAD_COLOR
350
3D57
  3
ACAD_GROUP
350
D
  3
ACAD_LAYOUT
350
3D5A
  3
ACAD_MATERIAL
350
3D42
  3
ACAD_MLINESTYLE
350
1A
  3
ACAD_PLOTSETTINGS
350
957
  3
ACAD_PLOTSTYLENAME
350
3D40
  3
ACAD_TABLESTYLE
350
3D58
  3
ACAD_VISUALSTYLE
350
3D46
  3
ACADDIM
350
1BB8
  3
ACDBHEADERROUNDTRIPXREC
350
47B2
  3
AcDbVariableDictionary
350
4116
  3
DWGPROPS
350
47B1
1001
ACAD
1000
TREAT_AS_HARD
1070
     0
  0
DICTIONARY
  5
45B4
330
8
100
AcDbDictionary
280
     1
281
     1
  3
ACAD_XREC_ROUNDTRIP
360
45B5
  0
DICTIONARY
  5
3DBA
330
2
100
AcDbDictionary
280
     1
281
     1
  3
ACAD_LAYERFILTERS
360
421C
  3
ACAD_LAYERSTATES
360
3DBB
  3
ACLYDICTIONARY
360
421B
  0
DICTIONARY
  5
45B6
330
E
100
AcDbDictionary
280
     1
281
     1
  3
ACAD_XREC_ROUNDTRIP
360
45B7
  0
DICTIONARY
  5
45B8
330
27
100
AcDbDictionary
280
     1
281
     1
  3
ACAD_XREC_ROUNDTRIP
360
45B9
  0
DICTIONARY
  5
45BA
330
2B
100
AcDbDictionary
280
     1
281
     1
  3
ACAD_XREC_ROUNDTRIP
360
45BB
  0
DICTIONARY
  5
45BE
330
3DB5
100
AcDbDictionary
280
     1
281
     1
  3
ACAD_XREC_ROUNDTRIP
360
45BF
  0
DICTIONARY
  5
1808
330
17
100
AcDbDictionary
280
     1
281
     1
  3
ACAD_LAYOUTSELFREF
360
3D3B
  3
ACAD_SORTENTS
360
45E8
1001
ACAD
1000
TREAT_AS_HARD
1070
     1
  0
DICTIONARY
  5
1806
330
14
100
AcDbDictionary
280
     1
281
     1
  3
ACAD_LAYOUTSELFREF
360
3D3A
1001
ACAD
1000
TREAT_AS_HARD
1070
     1
  0
DICTIONARY
  5
45B0
102
{ACAD_REACTORS
330
C
102
}
330
C
100
AcDbDictionary
281
     1
  3
DIMLTEX1
350
45B2
  3
DIMLTEX2
350
45B3
  3
DIMLTYPE
350
45B1
  0
DICTIONARY
  5
3D57
102
{ACAD_REACTORS
330
C
102
}
330
C
100
AcDbDictionary
281
     1
  0
DICTIONARY
  5
D
102
{ACAD_REACTORS
330
C
102
}
330
C
100
AcDbDictionary
281
     1
1001
ACAD
1000
TREAT_AS_HARD
1070
     0
  0
DICTIONARY
  5
3D5A
102
{ACAD_REACTORS
330
C
102
}
330
C
100
AcDbDictionary
281
     1
  3
Model
350
3D5B
  3
レイアウト1
350
3D5C
  0
DICTIONARY
  5
3D42
102
{ACAD_REACTORS
330
C
102
}
330
C
100
AcDbDictionary
281
     1
  3
ByBlock
350
3D44
  3
ByLayer
350
3D43
  3
Global
350
3D45
  0
DICTIONARY
  5
1A
102
{ACAD_REACTORS
330
C
102
}
330
C
100
AcDbDictionary
281
     1
  3
STANDARD
350
1B
1001
ACAD
1000
TREAT_AS_HARD
1070
     0
  0
DICTIONARY
  5
957
102
{ACAD_REACTORS
330
C
102
}
330
C
100
AcDbDictionary
281
     1
1001
ACAD
1000
TREAT_AS_HARD
1070
     0
  0
ACDBDICTIONARYWDFLT
  5
3D40
102
{ACAD_REACTORS
330
C
102
}
330
C
100
AcDbDictionary
281
     1
  3
Normal
350
3D41
100
AcDbDictionaryWithDefault
340
3D41
  0
DICTIONARY
  5
3D58
102
{ACAD_REACTORS
330
C
102
}
330
C
100
AcDbDictionary
281
     1
  3
Standard
350
3D59
  0
DICTIONARY
  5
3D46
102
{ACAD_REACTORS
330
C
102
}
330
C
100
AcDbDictionary
281
     1
  3
2dWireframe
350
3D4C
  3
3D Hidden
350
3D4E
  3
3dWireframe
350
3D4D
  3
Basic
350
3D4B
  3
Brighten
350
3D52
  3
ColorChange
350
3D56
  3
Conceptual
350
3D4F
  3
Dim
350
3D51
  3
Facepattern
350
3D55
  3
Flat
350
3D47
  3
FlatWithEdges
350
3D48
  3
Gouraud
350
3D49
  3
GouraudWithEdges
350
3D4A
  3
Linepattern
350
3D54
  3
Realistic
350
3D50
  3
Thicken
350
3D53
  0
XRECORD
  5
1BB8
102
{ACAD_REACTORS
330
C
102
}
330
C
100
AcDbXrecord
280
     1
 90
   990106
  3

 60
     0
 61
     0
 62
     4
 63
     4
 64
     1
 65
     0
 66
     0
 67
     2
 68
     1
 69
     0
 70
     0
 71
     0
 72
     0
 40
41.83251511005141
170
     2
340
0
  0
DICTIONARY
  5
47B2
102
{ACAD_REACTORS
330
C
102
}
330
C
100
AcDbDictionary
281
     1
  0
DICTIONARY
  5
4116
102
{ACAD_REACTORS
330
C
102
}
330
C
100
AcDbDictionary
281
     1
  3
CTABLESTYLE
350
4117
  3
DIMASSOC
350
47AE
  3
PROJECTNAME
350
47AF
  0
XRECORD
  5
47B1
102
{ACAD_REACTORS
330
C
102
}
330
C
100
AcDbXrecord
280
     1
  1
DWGPROPS COOKIE
  2

  3

  4

  6

  7

  8
yakata
  9

300
=
301
=
302
=
303
=
304
=
305
=
306
=
307
=
308
=
309
=
 40
0.5483894791666667
 41
2455090.761732894
 42
2455678.583566389
  1

 90
        0
  0
XRECORD
  5
45B5
102
{ACAD_REACTORS
330
45B4
102
}
330
45B4
100
AcDbXrecord
280
     1
102
VTR_0.000_0.000_1.000_1.000_VISUALSTYLE
340
3D4C
102
VTR_0.000_0.000_1.000_1.000_GRIDDISPLAY
 70
     3
102
VTR_0.000_0.000_1.000_1.000_GRIDMAJOR
 70
     5
102
VTR_0.000_0.000_1.000_1.000_DEFAULTLIGHTING
280
     1
102
VTR_0.000_0.000_1.000_1.000_DEFAULTLIGHTINGTYPE
 70
     1
102
VTR_0.000_0.000_1.000_1.000_BRIGHTNESS
141
0.0
102
VTR_0.000_0.000_1.000_1.000_CONTRAST
142
0.0
  0
DICTIONARY
  5
421C
102
{ACAD_REACTORS
330
3DBA
102
}
330
3DBA
100
AcDbDictionary
281
     1
  0
DICTIONARY
  5
3DBB
102
{ACAD_REACTORS
330
3DBA
102
}
330
3DBA
100
AcDbDictionary
281
     1
  0
DICTIONARY
  5
421B
102
{ACAD_REACTORS
330
3DBA
102
}
330
3DBA
100
AcDbDictionary
281
     1
1001
ACAD
1000
<All
  0
XRECORD
  5
45B7
102
{ACAD_REACTORS
330
45B6
102
}
330
45B6
100
AcDbXrecord
280
     1
102
MATERIAL
340
3D45
  0
XRECORD
  5
45B9
102
{ACAD_REACTORS
330
45B8
102
}
330
45B8
100
AcDbXrecord
280
     1
102
MATERIAL
340
3D45
  0
XRECORD
  5
45BB
102
{ACAD_REACTORS
330
45BA
102
}
330
45BA
100
AcDbXrecord
280
     1
102
MATERIAL
340
3D45
  0
XRECORD
  5
45BF
102
{ACAD_REACTORS
330
45BE
102
}
330
45BE
100
AcDbXrecord
280
     1
102
MATERIAL
340
3D45
  0
XRECORD
  5
3D3B
102
{ACAD_REACTORS
330
1808
102
}
330
1808
100
AcDbXrecord
280
     1
340
17
  0
SORTENTSTABLE
  5
45E8
102
{ACAD_REACTORS
330
1808
102
}
330
1808
100
AcDbSortentsTable
330
17
331
4301
  5
4301
331
4438
  5
4438
331
44F5
  5
44F6
331
4440
  5
4440
331
447F
  5
447F
331
4309
  5
4309
331
44B6
  5
44B6
331
44BE
  5
44BE
331
4311
  5
4311
331
4448
  5
4448
331
4487
  5
4487
331
44C6
  5
44C7
331
4450
  5
4450
331
448F
  5
448F
331
44CE
  5
44CF
331
4458
  5
4458
331
4460
  5
4460
331
4497
  5
4497
331
44D6
  5
44D7
331
44DE
  5
44DF
331
4468
  5
4468
331
449F
  5
449F
331
44E6
  5
44E7
331
4431
  5
4431
331
4470
  5
4470
331
42AA
  5
42AA
331
44A7
  5
44A7
331
44AF
  5
44AF
331
44EE
  5
44EF
331
45D9
  5
45E2
331
4302
  5
4302
331
4439
  5
4439
331
4478
  5
4478
331
454D
  5
455A
331
4480
  5
4480
331
44B7
  5
44B7
331
430A
  5
430A
331
4441
  5
4441
331
44F6
  5
44F7
331
4488
  5
4488
331
44BF
  5
44BF
331
4312
  5
4312
331
4449
  5
4449
331
4451
  5
4451
331
44C7
  5
44C8
331
44CF
  5
44D0
331
4459
  5
4459
331
4490
  5
4490
331
44D7
  5
44D8
331
4461
  5
4461
331
4498
  5
4498
331
44A0
  5
44A0
331
44DF
  5
44E0
331
442A
  5
442A
331
4469
  5
4469
331
4471
  5
4471
331
44A8
  5
44A8
331
4432
  5
4432
331
44E7
  5
44E8
331
44EF
  5
44F0
331
45E2
  5
45E3
331
4479
  5
4479
331
44B0
  5
44B0
331
4303
  5
4303
331
443A
  5
443A
331
44F7
  5
44F8
331
4442
  5
4442
331
4481
  5
4481
331
430B
  5
430B
331
44B8
  5
44B8
331
44C0
  5
44C0
331
4313
  5
4313
331
444A
  5
444A
331
4489
  5
4489
331
44C8
  5
44CD
331
4452
  5
4452
331
4491
  5
4491
331
44D0
  5
44D1
331
445A
  5
445A
331
4576
  5
4583
331
4462
  5
4462
331
4499
  5
4499
331
44D8
  5
44D9
331
44E0
  5
44E1
331
442B
  5
442B
331
446A
  5
446A
331
44A1
  5
44A1
331
44E8
  5
44E9
331
4433
  5
4433
331
4472
  5
4472
331
44A9
  5
44A9
331
45E3
  5
45E7
331
44B1
  5
44B1
331
44F0
  5
44F1
331
4304
  5
4304
331
443B
  5
443B
331
447A
  5
447A
331
4482
  5
4482
331
44B9
  5
44B9
331
430C
  5
430C
331
4443
  5
4443
331
44F8
  5
44F9
331
448A
  5
448A
331
44C1
  5
44C1
331
444B
  5
444B
331
4453
  5
4453
331
44D1
  5
44D2
331
445B
  5
445B
331
4492
  5
4492
331
449A
  5
449A
331
44D9
  5
44DA
331
4463
  5
4463
331
44A2
  5
44A2
331
44E1
  5
44E2
331
442C
  5
442C
331
446B
  5
446B
331
4540
  5
454D
331
4473
  5
4473
331
44AA
  5
44AA
331
4434
  5
4434
331
44E9
  5
44EA
331
44F1
  5
44F2
331
443C
  5
443C
331
447B
  5
447B
331
4305
  5
4305
331
44B2
  5
44B2
331
44F9
  5
44FA
331
4444
  5
4444
331
4483
  5
4483
331
430D
  5
430D
331
44BA
  5
44BA
331
44C2
  5
44C2
331
444C
  5
444C
331
448B
  5
448B
331
4454
  5
4454
331
4493
  5
4493
331
44D2
  5
44D3
331
445C
  5
445C
331
4531
  5
4540
331
4464
  5
4464
331
449B
  5
449B
331
44DA
  5
44DB
331
44E2
  5
44E3
331
442D
  5
442D
331
446C
  5
446C
331
44A3
  5
44A3
331
4590
  5
45A8
331
44AB
  5
44AB
331
44EA
  5
44EB
331
4435
  5
4435
331
4474
  5
4474
331
44B3
  5
44B3
331
44F2
  5
44F3
331
4306
  5
4306
331
443D
  5
443D
331
447C
  5
447C
331
4484
  5
4484
331
44BB
  5
44BB
331
430E
  5
430E
331
4445
  5
4445
331
44FA
  5
44FB
331
444D
  5
444D
331
448C
  5
448C
331
44C3
  5
44C4
331
4455
  5
4455
331
4569
  5
4576
331
44D3
  5
44D4
331
445D
  5
445D
331
4494
  5
4494
331
449C
  5
449C
331
44DB
  5
44DC
331
4465
  5
4465
331
44A4
  5
44A4
331
44E3
  5
44E4
331
442E
  5
442E
331
446D
  5
446D
331
4475
  5
4475
331
44AC
  5
44AC
331
4436
  5
4436
331
44EB
  5
44EC
331
45CE
  5
45CF
331
44F3
  5
44F4
331
443E
  5
443E
331
447D
  5
447D
331
4307
  5
4307
331
44B4
  5
44B4
331
44BC
  5
44BC
331
44FB
  5
4523
331
455A
  5
4569
331
4446
  5
4446
331
4485
  5
4485
331
4130
  5
4130
331
430F
  5
430F
331
44C4
  5
44C6
331
4523
  5
4524
331
444E
  5
444E
331
448D
  5
448D
331
4456
  5
4456
331
445E
  5
445E
331
4495
  5
4495
331
44D4
  5
44D5
331
4466
  5
4466
331
449D
  5
449D
331
44DC
  5
44DD
331
44E4
  5
44E5
331
442F
  5
442F
331
446E
  5
446E
331
44A5
  5
44A5
331
44AD
  5
44AD
331
44EC
  5
44ED
331
45CF
  5
45D8
331
4437
  5
4437
331
4476
  5
4476
331
44B5
  5
44B5
331
44F4
  5
44F5
331
4308
  5
4308
331
443F
  5
443F
331
447E
  5
447E
331
4486
  5
4486
331
44BD
  5
44BD
331
4310
  5
4310
331
4447
  5
4447
331
444F
  5
444F
331
448E
  5
448E
331
4524
  5
4531
331
44CD
  5
44CE
331
4457
  5
4457
331
44D5
  5
44D6
331
445F
  5
445F
331
4496
  5
4496
331
4583
  5
4590
331
449E
  5
449E
331
44DD
  5
44DE
331
4467
  5
4467
331
446F
  5
446F
331
44A6
  5
44A6
331
4430
  5
4430
331
44E5
  5
44E6
331
45D8
  5
45D9
331
4477
  5
4477
331
44AE
  5
44AE
331
44ED
  5
44EE
  0
XRECORD
  5
3D3A
102
{ACAD_REACTORS
330
1806
102
}
330
1806
100
AcDbXrecord
280
     1
340
14
  0
XRECORD
  5
45B2
102
{ACAD_REACTORS
330
45B0
102
}
330
45B0
100
AcDbXrecord
280
     1
340
12
  0
XRECORD
  5
45B3
102
{ACAD_REACTORS
330
45B0
102
}
330
45B0
100
AcDbXrecord
280
     1
340
12
  0
XRECORD
  5
45B1
102
{ACAD_REACTORS
330
45B0
102
}
330
45B0
100
AcDbXrecord
280
     1
340
12
  0
LAYOUT
  5
3D5B
102
{ACAD_XDICTIONARY
360
47B3
102
}
102
{ACAD_REACTORS
330
3D5A
102
}
330
3D5A
100
AcDbPlotSettings
  1

  2
none_device
  4
Letter_(8.50_x_11.00_Inches)
  6

 40
6.349999904632568
 41
6.349999904632568
 42
6.350006103515625
 43
6.350006103515625
 44
215.8999938964844
 45
279.3999938964844
 46
2.49978638742409
 47
-93.487743505109
 48
0.0
 49
0.0
140
0.0
141
0.0
142
1.0
143
31.6484
 70
 11940
 72
     0
 73
     1
 74
     0
  7
monochrome.ctb
 75
     0
147
0.031597173948762
148
-12274.6096357416
149
4305.36325202001
100
AcDbLayout
  1
Model
 70
     1
 71
     0
 10
0.0
 20
0.0
 11
12.0
 21
9.0
 12
0.0
 22
0.0
 32
0.0
 14
0.0
 24
0.0
 34
0.0
 15
0.0
 25
0.0
 35
0.0
146
0.0
 13
0.0
 23
0.0
 33
0.0
 16
1.0
 26
0.0
 36
0.0
 17
0.0
 27
1.0
 37
0.0
 76
     0
330
17
1001
ACAD_PSEXT
1000
なし
1000
なし
1000
適切ではありません
1000
新しいプロッタ環境設定名を選択しない限り、レイアウトは印刷されません。
1070
     0
  0
LAYOUT
  5
3D5C
102
{ACAD_XDICTIONARY
360
47B5
102
}
102
{ACAD_REACTORS
330
3D5A
102
}
330
3D5A
100
AcDbPlotSettings
  1

  2
Microsoft XPS Document Writer
  4

  6

 40
0.0
 41
0.0
 42
0.0
 43
0.0
 44
0.0
 45
0.0
 46
0.0
 47
0.0
 48
0.0
 49
0.0
140
0.0
141
0.0
142
1.0
143
1.0
 70
   688
 72
     0
 73
     0
 74
     5
  7
monochrome.ctb
 75
    16
147
1.0
148
0.0
149
0.0
100
AcDbLayout
  1
レイアウト1
 70
     1
 71
     1
 10
0.0
 20
0.0
 11
12.0
 21
9.0
 12
0.0
 22
0.0
 32
0.0
 14
1.000000000000000E+20
 24
1.000000000000000E+20
 34
1.000000000000000E+20
 15
-1.000000000000000E+20
 25
-1.000000000000000E+20
 35
-1.000000000000000E+20
146
0.0
 13
0.0
 23
0.0
 33
0.0
 16
1.0
 26
0.0
 36
0.0
 17
0.0
 27
1.0
 37
0.0
 76
     0
330
14
  0
MATERIAL
  5
3D44
102
{ACAD_XDICTIONARY
360
419D
102
}
102
{ACAD_REACTORS
330
3D42
102
}
330
3D42
100
AcDbMaterial
  1
ByBlock
  0
MATERIAL
  5
3D43
102
{ACAD_XDICTIONARY
360
419B
102
}
102
{ACAD_REACTORS
330
3D42
102
}
330
3D42
100
AcDbMaterial
  1
ByLayer
  0
MATERIAL
  5
3D45
102
{ACAD_XDICTIONARY
360
419F
102
}
102
{ACAD_REACTORS
330
3D42
102
}
330
3D42
100
AcDbMaterial
  1
Global
  0
MLINESTYLE
  5
1B
102
{ACAD_REACTORS
330
1A
102
}
330
1A
100
AcDbMlineStyle
  2
STANDARD
 70
     0
  3

 62
   256
 51
90.0
 52
90.0
 71
     2
 49
0.5
 62
   256
  6
BYLAYER
 49
-0.5
 62
   256
  6
BYLAYER
  0
ACDBPLACEHOLDER
  5
3D41
102
{ACAD_REACTORS
330
3D40
102
}
330
3D40
  0
TABLESTYLE
  5
3D59
102
{ACAD_XDICTIONARY
360
45BC
102
}
102
{ACAD_REACTORS
330
3D58
102
}
330
3D58
100
AcDbTableStyle
  3
Standard
 70
     0
 71
     0
 40
0.06
 41
0.06
280
     0
281
     0
  7
STANDARD
140
0.18
170
     2
 62
     0
 63
     7
283
     0
274
    -2
284
     1
 64
     0
275
    -2
285
     1
 65
     0
276
    -2
286
     1
 66
     0
277
    -2
287
     1
 67
     0
278
    -2
288
     1
 68
     0
279
    -2
289
     1
 69
     0
  7
STANDARD
140
0.25
170
     5
 62
     0
 63
     7
283
     0
274
    -2
284
     1
 64
     0
275
    -2
285
     1
 65
     0
276
    -2
286
     1
 66
     0
277
    -2
287
     1
 67
     0
278
    -2
288
     1
 68
     0
279
    -2
289
     1
 69
     0
  7
STANDARD
140
0.18
170
     5
 62
     0
 63
     7
283
     0
274
    -2
284
     1
 64
     0
275
    -2
285
     1
 65
     0
276
    -2
286
     1
 66
     0
277
    -2
287
     1
 67
     0
278
    -2
288
     1
 68
     0
279
    -2
289
     1
 69
     0
  0
ACAD_PROXY_OBJECT
  5
3D4C
102
{ACAD_REACTORS
330
3D46
102
}
330
3D46
100
AcDbProxyObject
 90
      499
 91
      503
 95
  2555929
 70
     0
 93
      598
310
430C9915DA5C99599C985B59401049028333333333333E3BF0000000000000FB023FFFFFF0802405048070000C3008000000C800405A000000320014050640A01C00030C010500920280D3
 94
        0
1001
ACAD
1000
AcDbSavedByObjectVersion
1070
     0
1000
AcDbSavedByObjectVersion
1070
     0
1000
AcDbSavedByObjectVersion
1070
     0
1000
AcDbSavedByObjectVersion
1070
     0
1000
AcDbSavedByObjectVersion
1070
     0
1000
AcDbSavedByObjectVersion
1070
     0
1000
AcDbSavedByObjectVersion
1070
     0
1000
AcDbSavedByObjectVersion
1070
     0
1000
AcDbSavedByObjectVersion
1070
     0
1000
AcRTDxfName
1000
VISUALSTYLE
  0
ACAD_PROXY_OBJECT
  5
3D4E
102
{ACAD_REACTORS
330
3D46
102
}
330
3D46
100
AcDbProxyObject
 90
      499
 91
      503
 95
  2555929
 70
     0
 93
      662
310
428CD108121A5919195B8010640502408333333333333E3BF0000000000000FB023FFFFFF0802409028070000C3008000000C8004080000000000004440A000000320014050640A01C00030C010300920280D0
 94
        0
1001
ACAD
1000
AcDbSavedByObjectVersion
1070
     0
1000
AcDbSavedByObjectVersion
1070
     0
1000
AcDbSavedByObjectVersion
1070
     0
1000
AcDbSavedByObjectVersion
1070
     0
1000
AcDbSavedByObjectVersion
1070
     0
1000
AcDbSavedByObjectVersion
1070
     0
1000
AcDbSavedByObjectVersion
1070
     0
1000
AcDbSavedByObjectVersion
1070
     0
1000
AcDbSavedByObjectVersion
1070
     0
1000
AcRTDxfName
1000
VISUALSTYLE
  0
ACAD_PROXY_OBJECT
  5
3D4D
102
{ACAD_REACTORS
330
3D46
102
}
330
3D46
100
AcDbProxyObject
 90
      499
 91
      503
 95
  2555929
 70
     0
 93
      598
310
430CD915DA5C99599C985B59401059028333333333333E3BF0000000000000FB023FFFFFF0802405048070000C3008000000C800405A000000320014050640A01C00030C010500920280D0
 94
        0
1001
ACAD
1000
AcDbSavedByObjectVersion
1070
     0
1000
AcDbSavedByObjectVersion
1070
     0
1000
AcDbSavedByObjectVersion
1070
     0
1000
AcDbSavedByObjectVersion
1070
     0
1000
AcDbSavedByObjectVersion
1070
     0
1000
AcDbSavedByObjectVersion
1070
     0
1000
AcDbSavedByObjectVersion
1070
     0
1000
AcDbSavedByObjectVersion
1070
     0
1000
AcDbSavedByObjectVersion
1070
     0
1000
AcRTDxfName
1000
VISUALSTYLE
  0
ACAD_PROXY_OBJECT
  5
3D4B
102
{ACAD_REACTORS
330
3D46
102
}
330
3D46
100
AcDbProxyObject
 90
      499
 91
      503
 95
  2555929
 70
     0
 93
      558
310
4190985CDA58C0107406404333333333333E3BF0000000000000FB023FFFFFF08029048070000C3008000000C80040542201C00030C014050640A01C00030C010500920280D6
 94
        0
1001
ACAD
1000
AcDbSavedByObjectVersion
1070
     0
1000
AcDbSavedByObjectVersion
1070
     0
1000
AcDbSavedByObjectVersion
1070
     0
1000
AcDbSavedByObjectVersion
1070
     0
1000
AcDbSavedByObjectVersion
1070
     0
1000
AcDbSavedByObjectVersion
1070
     0
1000
AcDbSavedByObjectVersion
1070
     0
1000
AcDbSavedByObjectVersion
1070
     0
1000
AcDbSavedByObjectVersion
1070
     0
1000
AcRTDxfName
1000
VISUALSTYLE
  0
ACAD_PROXY_OBJECT
  5
3D52
102
{ACAD_REACTORS
330
3D46
102
}
330
3D46
100
AcDbProxyObject
 90
      499
 91
      503
 95
  2555929
 70
     0
 93
      598
310
42509C9A59DA1D195B8010C409028333333333333E3BF0000000000000FB023FFFFFF0802405048070000C3008000000C80040542201C00030C014050640A01C00030C010500920280A657
 94
        0
1001
ACAD
1000
AcDbSavedByObjectVersion
1070
     0
1000
AcDbSavedByObjectVersion
1070
     0
1000
AcDbSavedByObjectVersion
1070
     0
1000
AcDbSavedByObjectVersion
1070
     0
1000
AcDbSavedByObjectVersion
1070
     0
1000
AcDbSavedByObjectVersion
1070
     0
1000
AcDbSavedByObjectVersion
1070
     0
1000
AcDbSavedByObjectVersion
1070
     0
1000
AcDbSavedByObjectVersion
1070
     0
1000
AcRTDxfName
1000
VISUALSTYLE
  0
ACAD_PROXY_OBJECT
  5
3D56
102
{ACAD_REACTORS
330
3D46
102
}
330
3D46
100
AcDbProxyObject
 90
      499
 91
      503
 95
  2555929
 70
     0
 93
      622
310
4310DBDB1BDC90DA185B99D9401104090240C333333333333E3BF0000000000000FB0220202030802405048070000C3008000000C800405422202020308014050640A01C00030C010500920280D7
 94
        0
1001
ACAD
1000
AcDbSavedByObjectVersion
1070
     0
1000
AcDbSavedByObjectVersion
1070
     0
1000
AcDbSavedByObjectVersion
1070
     0
1000
AcDbSavedByObjectVersion
1070
     0
1000
AcDbSavedByObjectVersion
1070
     0
1000
AcDbSavedByObjectVersion
1070
     0
1000
AcDbSavedByObjectVersion
1070
     0
1000
AcDbSavedByObjectVersion
1070
     0
1000
AcDbSavedByObjectVersion
1070
     0
1000
AcRTDxfName
1000
VISUALSTYLE
  0
ACAD_PROXY_OBJECT
  5
3D4F
102
{ACAD_REACTORS
330
3D46
102
}
330
3D46
100
AcDbProxyObject
 90
      499
 91
      503
 95
  2555929
 70
     0
 93
      670
310
42D0DBDB98D95C1D1D585B0010940D028333333333333E3BF0000000000000FB023FFFFFF0802409028070000C3008000000C800404000000000000444042201C00030C014050640A01C00030C010300920280D0
 94
        0
1001
ACAD
1000
AcDbSavedByObjectVersion
1070
     0
1000
AcDbSavedByObjectVersion
1070
     0
1000
AcDbSavedByObjectVersion
1070
     0
1000
AcDbSavedByObjectVersion
1070
     0
1000
AcDbSavedByObjectVersion
1070
     0
1000
AcDbSavedByObjectVersion
1070
     0
1000
AcDbSavedByObjectVersion
1070
     0
1000
AcDbSavedByObjectVersion
1070
     0
1000
AcDbSavedByObjectVersion
1070
     0
1000
AcRTDxfName
1000
VISUALSTYLE
  0
ACAD_PROXY_OBJECT
  5
3D51
102
{ACAD_REACTORS
330
3D46
102
}
330
3D46
100
AcDbProxyObject
 90
      499
 91
      503
 95
  2555929
 70
     0
 93
      582
310
41111A5B4010B409028333333333333E3BF0000000000000FB023FFFFFF0802405048070000C3008000000C80040542201C00030C014050640A01C00030C01050092028099DFFFFFF4
 94
        0
1001
ACAD
1000
AcDbSavedByObjectVersion
1070
     0
1000
AcDbSavedByObjectVersion
1070
     0
1000
AcDbSavedByObjectVersion
1070
     0
1000
AcDbSavedByObjectVersion
1070
     0
1000
AcDbSavedByObjectVersion
1070
     0
1000
AcDbSavedByObjectVersion
1070
     0
1000
AcDbSavedByObjectVersion
1070
     0
1000
AcDbSavedByObjectVersion
1070
     0
1000
AcDbSavedByObjectVersion
1070
     0
1000
AcRTDxfName
1000
VISUALSTYLE
  0
ACAD_PROXY_OBJECT
  5
3D55
102
{ACAD_REACTORS
330
3D46
102
}
330
3D46
100
AcDbProxyObject
 90
      499
 91
      503
 95
  2555929
 70
     0
 93
      614
310
43119858D95C185D1D195C9B8010F409028333333333333E3BF0000000000000FB023FFFFFF0802405048070000C3008000000C80040542201C00030C014050640A01C00030C010500920280D4
 94
        0
1001
ACAD
1000
AcDbSavedByObjectVersion
1070
     0
1000
AcDbSavedByObjectVersion
1070
     0
1000
AcDbSavedByObjectVersion
1070
     0
1000
AcDbSavedByObjectVersion
1070
     0
1000
AcDbSavedByObjectVersion
1070
     0
1000
AcDbSavedByObjectVersion
1070
     0
1000
AcDbSavedByObjectVersion
1070
     0
1000
AcDbSavedByObjectVersion
1070
     0
1000
AcDbSavedByObjectVersion
1070
     0
1000
AcRTDxfName
1000
VISUALSTYLE
  0
ACAD_PROXY_OBJECT
  5
3D47
102
{ACAD_REACTORS
330
3D46
102
}
330
3D46
100
AcDbProxyObject
 90
      499
 91
      503
 95
  2555929
 70
     0
 93
      558
310
41519B185D00240901404333333333333E3BF0000000000000F9023FFFFFF0801029048070000C3008000000C80040542201C00030C014050640A01C00030C010500920286D4
 94
        0
1001
ACAD
1000
AcDbSavedByObjectVersion
1070
     0
1000
AcDbSavedByObjectVersion
1070
     0
1000
AcDbSavedByObjectVersion
1070
     0
1000
AcDbSavedByObjectVersion
1070
     0
1000
AcDbSavedByObjectVersion
1070
     0
1000
AcDbSavedByObjectVersion
1070
     0
1000
AcDbSavedByObjectVersion
1070
     0
1000
AcDbSavedByObjectVersion
1070
     0
1000
AcDbSavedByObjectVersion
1070
     0
1000
AcRTDxfName
1000
VISUALSTYLE
  0
ACAD_PROXY_OBJECT
  5
3D48
102
{ACAD_REACTORS
330
3D46
102
}
330
3D46
100
AcDbProxyObject
 90
      499
 91
      503
 95
  2555929
 70
     0
 93
      638
310
43919B185D15DA5D1A115919D95CC010140901404333333333333E3BF0000000000000F9023FFFFFF080102405048070000C3008000000C800405A000000320014050640A01C00030C010500920286D4
 94
        0
1001
ACAD
1000
AcDbSavedByObjectVersion
1070
     0
1000
AcDbSavedByObjectVersion
1070
     0
1000
AcDbSavedByObjectVersion
1070
     0
1000
AcDbSavedByObjectVersion
1070
     0
1000
AcDbSavedByObjectVersion
1070
     0
1000
AcDbSavedByObjectVersion
1070
     0
1000
AcDbSavedByObjectVersion
1070
     0
1000
AcDbSavedByObjectVersion
1070
     0
1000
AcDbSavedByObjectVersion
1070
     0
1000
AcRTDxfName
1000
VISUALSTYLE
  0
ACAD_PROXY_OBJECT
  5
3D49
102
{ACAD_REACTORS
330
3D46
102
}
330
3D46
100
AcDbProxyObject
 90
      499
 91
      503
 95
  2555929
 70
     0
 93
      582
310
4211DBDD5C985D590010240902404333333333333E3BF0000000000000F9023FFFFFF0801029048070000C3008000000C800405A01C00030C014050640A01C00030C010500920286D4
 94
        0
1001
ACAD
1000
AcDbSavedByObjectVersion
1070
     0
1000
AcDbSavedByObjectVersion
1070
     0
1000
AcDbSavedByObjectVersion
1070
     0
1000
AcDbSavedByObjectVersion
1070
     0
1000
AcDbSavedByObjectVersion
1070
     0
1000
AcDbSavedByObjectVersion
1070
     0
1000
AcDbSavedByObjectVersion
1070
     0
1000
AcDbSavedByObjectVersion
1070
     0
1000
AcDbSavedByObjectVersion
1070
     0
1000
AcRTDxfName
1000
VISUALSTYLE
  0
ACAD_PROXY_OBJECT
  5
3D4A
102
{ACAD_REACTORS
330
3D46
102
}
330
3D46
100
AcDbProxyObject
 90
      499
 91
      503
 95
  2555929
 70
     0
 93
      662
310
4451DBDD5C985D5915DA5D1A115919D95CC010340902404333333333333E3BF0000000000000F9023FFFFFF080102405048070000C3008000000C800405A000000320014050640A01C00030C010500920286D4
 94
        0
1001
ACAD
1000
AcDbSavedByObjectVersion
1070
     0
1000
AcDbSavedByObjectVersion
1070
     0
1000
AcDbSavedByObjectVersion
1070
     0
1000
AcDbSavedByObjectVersion
1070
     0
1000
AcDbSavedByObjectVersion
1070
     0
1000
AcDbSavedByObjectVersion
1070
     0
1000
AcDbSavedByObjectVersion
1070
     0
1000
AcDbSavedByObjectVersion
1070
     0
1000
AcDbSavedByObjectVersion
1070
     0
1000
AcRTDxfName
1000
VISUALSTYLE
  0
ACAD_PROXY_OBJECT
  5
3D54
102
{ACAD_REACTORS
330
3D46
102
}
330
3D46
100
AcDbProxyObject
 90
      499
 91
      503
 95
  2555929
 70
     0
 93
      614
310
43131A5B995C185D1D195C9B8010E409028333333333333E3BF0000000000000FB023FFFFFF0802405048070000C3008000000C80041D42201C00030C014050640A01C00030C010500920E80D5
 94
        0
1001
ACAD
1000
AcDbSavedByObjectVersion
1070
     0
1000
AcDbSavedByObjectVersion
1070
     0
1000
AcDbSavedByObjectVersion
1070
     0
1000
AcDbSavedByObjectVersion
1070
     0
1000
AcDbSavedByObjectVersion
1070
     0
1000
AcDbSavedByObjectVersion
1070
     0
1000
AcDbSavedByObjectVersion
1070
     0
1000
AcDbSavedByObjectVersion
1070
     0
1000
AcDbSavedByObjectVersion
1070
     0
1000
AcRTDxfName
1000
VISUALSTYLE
  0
ACAD_PROXY_OBJECT
  5
3D50
102
{ACAD_REACTORS
330
3D46
102
}
330
3D46
100
AcDbProxyObject
 90
      499
 91
      503
 95
  2555929
 70
     0
 93
      590
310
429499585B1A5CDD1A58C0108409028333333333333E3BF0000000000000FB023FFFFFF08024068070000C3008000000C8004054221E1E1E308014050640A01C00030C010500920286D0
 94
        0
1001
ACAD
1000
AcDbSavedByObjectVersion
1070
     0
1000
AcDbSavedByObjectVersion
1070
     0
1000
AcDbSavedByObjectVersion
1070
     0
1000
AcDbSavedByObjectVersion
1070
     0
1000
AcDbSavedByObjectVersion
1070
     0
1000
AcDbSavedByObjectVersion
1070
     0
1000
AcDbSavedByObjectVersion
1070
     0
1000
AcDbSavedByObjectVersion
1070
     0
1000
AcDbSavedByObjectVersion
1070
     0
1000
AcRTDxfName
1000
VISUALSTYLE
  0
ACAD_PROXY_OBJECT
  5
3D53
102
{ACAD_REACTORS
330
3D46
102
}
330
3D46
100
AcDbProxyObject
 90
      499
 91
      503
 95
  2555929
 70
     0
 93
      582
310
42151A1A58DAD95B8010D409028333333333333E3BF0000000000000FB023FFFFFF0802405048070000C3008000000C80040543201C00030C014050640A01C00030C010500920280D4
 94
        0
1001
ACAD
1000
AcDbSavedByObjectVersion
1070
     0
1000
AcDbSavedByObjectVersion
1070
     0
1000
AcDbSavedByObjectVersion
1070
     0
1000
AcDbSavedByObjectVersion
1070
     0
1000
AcDbSavedByObjectVersion
1070
     0
1000
AcDbSavedByObjectVersion
1070
     0
1000
AcDbSavedByObjectVersion
1070
     0
1000
AcDbSavedByObjectVersion
1070
     0
1000
AcDbSavedByObjectVersion
1070
     0
1000
AcRTDxfName
1000
VISUALSTYLE
  0
DICTIONARYVAR
  5
4117
102
{ACAD_REACTORS
330
4116
102
}
330
4116
100
DictionaryVariables
280
     0
  1
STANDARD
  0
DICTIONARYVAR
  5
47AE
102
{ACAD_REACTORS
330
4116
102
}
330
4116
100
DictionaryVariables
280
     0
  1
1
  0
DICTIONARYVAR
  5
47AF
102
{ACAD_REACTORS
330
4116
102
}
330
4116
100
DictionaryVariables
280
     0
  1

  0
DICTIONARY
  5
47B3
330
3D5B
100
AcDbDictionary
280
     1
281
     1
  3
ACAD_XREC_ROUNDTRIP
360
47B4
  0
DICTIONARY
  5
47B5
330
3D5C
100
AcDbDictionary
280
     1
281
     1
  3
ACAD_XREC_ROUNDTRIP
360
47B6
  0
DICTIONARY
  5
419D
330
3D44
100
AcDbDictionary
280
     1
281
     1
  3
ACAD_XREC_ROUNDTRIP
360
419E
  0
DICTIONARY
  5
419B
330
3D43
100
AcDbDictionary
280
     1
281
     1
  3
ACAD_XREC_ROUNDTRIP
360
419C
  0
DICTIONARY
  5
419F
330
3D45
100
AcDbDictionary
280
     1
281
     1
  3
ACAD_XREC_ROUNDTRIP
360
41A0
  0
DICTIONARY
  5
45BC
330
3D59
100
AcDbDictionary
280
     1
281
     1
  3
ACAD_XREC_ROUNDTRIP
360
45BD
  0
XRECORD
  5
47B4
102
{ACAD_REACTORS
330
47B3
102
}
330
47B3
100
AcDbXrecord
280
     1
102
SHADEPLOT
 70
     0
102
SHADEPLOTRESLEVEL
 70
     2
102
SHADEPLOTCUSTOMDPI
 70
   300
  0
XRECORD
  5
47B6
102
{ACAD_REACTORS
330
47B5
102
}
330
47B5
100
AcDbXrecord
280
     1
102
SHADEPLOT
 70
     0
102
SHADEPLOTRESLEVEL
 70
     2
102
SHADEPLOTCUSTOMDPI
 70
   300
  0
XRECORD
  5
419E
102
{ACAD_REACTORS
330
419D
102
}
330
419D
100
AcDbXrecord
280
     1
102
MATERIAL
148
0.0
149
0.0
149
0.0
 93
        0
 94
       63
282
     0
 72
     1
 77
     1
171
     1
175
     1
179
     1
273
     0
  0
XRECORD
  5
419C
102
{ACAD_REACTORS
330
419B
102
}
330
419B
100
AcDbXrecord
280
     1
102
MATERIAL
148
0.0
149
0.0
149
0.0
 93
        0
 94
       63
282
     0
 72
     1
 77
     1
171
     1
175
     1
179
     1
273
     0
  0
XRECORD
  5
41A0
102
{ACAD_REACTORS
330
419F
102
}
330
419F
100
AcDbXrecord
280
     1
102
MATERIAL
148
0.0
149
0.0
149
0.0
 93
        0
 94
       63
282
     0
 72
     1
 77
     1
171
     1
175
     1
179
     1
273
     0
  0
XRECORD
  5
45BD
102
{ACAD_REACTORS
330
45BC
102
}
330
45BC
100
AcDbXrecord
280
     1
102
ACAD_ROUNDTRIP_PRE2007_TABLESTYLE
 90
      512
 91
        0
  1

 92
      512
 93
        0
  2

 94
      512
 95
        0
  3

  0
ENDSEC
  0
EOF
