  0
SECTION
  2
HEADER
  9
$ACADVER
  1
AC1018
  9
$ACADMAINTVER
 70
    39
  9
$DWGCODEPAGE
  3
ANSI_932
  9
$LASTSAVEDBY
  1
yakata
  9
$INSBASE
 10
0.0
 20
0.0
 30
0.0
  9
$EXTMIN
 10
468.201385743402
 20
-138.0405919429706
 30
0.0
  9
$EXTMAX
 10
766.0455685424136
 20
78.45324839774469
 30
0.0
  9
$LIMMIN
 10
0.0
 20
0.0
  9
$LIMMAX
 10
12.0
 20
9.0
  9
$ORTHOMODE
 70
     1
  9
$REGENMODE
 70
     1
  9
$FILLMODE
 70
     1
  9
$QTEXTMODE
 70
     0
  9
$MIRRTEXT
 70
     1
  9
$LTSCALE
 40
0.5
  9
$ATTMODE
 70
     1
  9
$TEXTSIZE
 40
2.5
  9
$TRACEWID
 40
0.05
  9
$TEXTSTYLE
  7
CatalogDxf
  9
$CLAYER
  8
Z_OM_DIM
  9
$CELTYPE
  6
BYLAYER
  9
$CECOLOR
 62
   256
  9
$CELTSCALE
 40
1.0
  9
$DISPSILH
 70
     0
  9
$DIMSCALE
 40
1.0
  9
$DIMASZ
 40
2.5
  9
$DIMEXO
 40
0.625
  9
$DIMDLI
 40
3.75
  9
$DIMRND
 40
0.0
  9
$DIMDLE
 40
0.0
  9
$DIMEXE
 40
1.25
  9
$DIMTP
 40
0.0
  9
$DIMTM
 40
0.0
  9
$DIMTXT
 40
2.5
  9
$DIMCEN
 40
2.5
  9
$DIMTSZ
 40
0.0
  9
$DIMTOL
 70
     0
  9
$DIMLIM
 70
     0
  9
$DIMTIH
 70
     0
  9
$DIMTOH
 70
     0
  9
$DIMSE1
 70
     0
  9
$DIMSE2
 70
     0
  9
$DIMTAD
 70
     1
  9
$DIMZIN
 70
     8
  9
$DIMBLK
  1
OPEN30
  9
$DIMASO
 70
     1
  9
$DIMSHO
 70
     1
  9
$DIMPOST
  1

  9
$DIMAPOST
  1

  9
$DIMALT
 70
     0
  9
$DIMALTD
 70
     3
  9
$DIMALTF
 40
0.03937007874016
  9
$DIMLFAC
 40
1.0
  9
$DIMTOFL
 70
     1
  9
$DIMTVP
 40
0.0
  9
$DIMTIX
 70
     0
  9
$DIMSOXD
 70
     0
  9
$DIMSAH
 70
     0
  9
$DIMBLK1
  1

  9
$DIMBLK2
  1

  9
$DIMSTYLE
  2
CatalogDxf
  9
$DIMCLRD
 70
   256
  9
$DIMCLRE
 70
   256
  9
$DIMCLRT
 70
   256
  9
$DIMTFAC
 40
1.0
  9
$DIMGAP
 40
0.625
  9
$DIMJUST
 70
     0
  9
$DIMSD1
 70
     0
  9
$DIMSD2
 70
     0
  9
$DIMTOLJ
 70
     0
  9
$DIMTZIN
 70
     8
  9
$DIMALTZ
 70
     0
  9
$DIMALTTZ
 70
     0
  9
$DIMUPT
 70
     0
  9
$DIMDEC
 70
     1
  9
$DIMTDEC
 70
     1
  9
$DIMALTU
 70
     2
  9
$DIMALTTD
 70
     3
  9
$DIMTXSTY
  7
CatalogDxf
  9
$DIMAUNIT
 70
     0
  9
$DIMADEC
 70
     0
  9
$DIMALTRND
 40
0.0
  9
$DIMAZIN
 70
     0
  9
$DIMDSEP
 70
    46
  9
$DIMATFIT
 70
     3
  9
$DIMFRAC
 70
     0
  9
$DIMLDRBLK
  1
OPEN30
  9
$DIMLUNIT
 70
     2
  9
$DIMLWD
 70
    -1
  9
$DIMLWE
 70
    -1
  9
$DIMTMOVE
 70
     0
  9
$LUNITS
 70
     2
  9
$LUPREC
 70
     2
  9
$SKETCHINC
 40
0.1
  9
$FILLETRAD
 40
0.0
  9
$AUNITS
 70
     0
  9
$AUPREC
 70
     2
  9
$MENU
  1
acad
  9
$ELEVATION
 40
0.0
  9
$PELEVATION
 40
0.0
  9
$THICKNESS
 40
0.0
  9
$LIMCHECK
 70
     0
  9
$CHAMFERA
 40
0.0
  9
$CHAMFERB
 40
0.0
  9
$CHAMFERC
 40
0.0
  9
$CHAMFERD
 40
0.0
  9
$SKPOLY
 70
     0
  9
$TDCREATE
 40
2455090.761732894
  9
$TDUCREATE
 40
2455090.386732893
  9
$TDUPDATE
 40
2456574.596676238
  9
$TDUUPDATE
 40
2456574.221676238
  9
$TDINDWG
 40
0.5939593056
  9
$TDUSRTIMER
 40
0.5939522454
  9
$USRTIMER
 70
     1
  9
$ANGBASE
 50
0.0
  9
$ANGDIR
 70
     0
  9
$PDMODE
 70
     0
  9
$PDSIZE
 40
0.0
  9
$PLINEWID
 40
0.0
  9
$SPLFRAME
 70
     0
  9
$SPLINETYPE
 70
     6
  9
$SPLINESEGS
 70
     8
  9
$HANDSEED
  5
47A1
  9
$SURFTAB1
 70
     6
  9
$SURFTAB2
 70
     6
  9
$SURFTYPE
 70
     6
  9
$SURFU
 70
     6
  9
$SURFV
 70
     6
  9
$UCSBASE
  2

  9
$UCSNAME
  2

  9
$UCSORG
 10
0.0
 20
0.0
 30
0.0
  9
$UCSXDIR
 10
1.0
 20
0.0
 30
0.0
  9
$UCSYDIR
 10
0.0
 20
1.0
 30
0.0
  9
$UCSORTHOREF
  2

  9
$UCSORTHOVIEW
 70
     1
  9
$UCSORGTOP
 10
0.0
 20
0.0
 30
0.0
  9
$UCSORGBOTTOM
 10
0.0
 20
0.0
 30
0.0
  9
$UCSORGLEFT
 10
0.0
 20
0.0
 30
0.0
  9
$UCSORGRIGHT
 10
0.0
 20
0.0
 30
0.0
  9
$UCSORGFRONT
 10
0.0
 20
0.0
 30
0.0
  9
$UCSORGBACK
 10
0.0
 20
0.0
 30
0.0
  9
$PUCSBASE
  2

  9
$PUCSNAME
  2

  9
$PUCSORG
 10
0.0
 20
0.0
 30
0.0
  9
$PUCSXDIR
 10
1.0
 20
0.0
 30
0.0
  9
$PUCSYDIR
 10
0.0
 20
1.0
 30
0.0
  9
$PUCSORTHOREF
  2

  9
$PUCSORTHOVIEW
 70
     0
  9
$PUCSORGTOP
 10
0.0
 20
0.0
 30
0.0
  9
$PUCSORGBOTTOM
 10
0.0
 20
0.0
 30
0.0
  9
$PUCSORGLEFT
 10
0.0
 20
0.0
 30
0.0
  9
$PUCSORGRIGHT
 10
0.0
 20
0.0
 30
0.0
  9
$PUCSORGFRONT
 10
0.0
 20
0.0
 30
0.0
  9
$PUCSORGBACK
 10
0.0
 20
0.0
 30
0.0
  9
$USERI1
 70
     0
  9
$USERI2
 70
     0
  9
$USERI3
 70
     0
  9
$USERI4
 70
     0
  9
$USERI5
 70
     0
  9
$USERR1
 40
0.0
  9
$USERR2
 40
0.0
  9
$USERR3
 40
0.0
  9
$USERR4
 40
0.0
  9
$USERR5
 40
0.0
  9
$WORLDVIEW
 70
     1
  9
$SHADEDGE
 70
     3
  9
$SHADEDIF
 70
    70
  9
$TILEMODE
 70
     1
  9
$MAXACTVP
 70
    16
  9
$PINSBASE
 10
0.0
 20
0.0
 30
0.0
  9
$PLIMCHECK
 70
     0
  9
$PEXTMIN
 10
1.000000000000000E+20
 20
1.000000000000000E+20
 30
1.000000000000000E+20
  9
$PEXTMAX
 10
-1.000000000000000E+20
 20
-1.000000000000000E+20
 30
-1.000000000000000E+20
  9
$PLIMMIN
 10
0.0
 20
0.0
  9
$PLIMMAX
 10
12.0
 20
9.0
  9
$UNITMODE
 70
     0
  9
$VISRETAIN
 70
     0
  9
$PLINEGEN
 70
     0
  9
$PSLTSCALE
 70
     1
  9
$TREEDEPTH
 70
  3020
  9
$CMLSTYLE
  2
STANDARD
  9
$CMLJUST
 70
     0
  9
$CMLSCALE
 40
1.0
  9
$PROXYGRAPHICS
 70
     1
  9
$MEASUREMENT
 70
     0
  9
$CELWEIGHT
370
    -1
  9
$ENDCAPS
280
     0
  9
$JOINSTYLE
280
     0
  9
$LWDISPLAY
290
     0
  9
$INSUNITS
 70
     0
  9
$HYPERLINKBASE
  1

  9
$STYLESHEET
  1
MONOCHROME.CTB
  9
$XEDIT
290
     1
  9
$CEPSNTYPE
380
     0
  9
$PSTYLEMODE
290
     1
  9
$FINGERPRINTGUID
  2
{AFC0AA2D-B3CD-48CF-B830-EF9C44F122D3}
  9
$VERSIONGUID
  2
{A6E5D9D7-AE59-465D-AC74-53468527C5F2}
  9
$EXTNAMES
290
     1
  9
$PSVPSCALE
 40
0.0
  9
$OLESTARTUP
290
     0
  9
$SORTENTS
280
   127
  9
$INDEXCTL
280
     0
  9
$HIDETEXT
280
     0
  9
$XCLIPFRAME
290
     0
  9
$HALOGAP
280
     0
  9
$OBSCOLOR
 70
   257
  9
$OBSLTYPE
280
     0
  9
$INTERSECTIONDISPLAY
280
     0
  9
$INTERSECTIONCOLOR
 70
   257
  9
$DIMASSOC
280
     1
  9
$PROJECTNAME
  1

  0
ENDSEC
  0
SECTION
  2
CLASSES
  0
CLASS
  1
ACDBDICTIONARYWDFLT
  2
AcDbDictionaryWithDefault
  3
ObjectDBX Classes
 90
        0
 91
        1
280
     0
281
     0
  0
CLASS
  1
DICTIONARYVAR
  2
AcDbDictionaryVar
  3
ObjectDBX Classes
 90
        0
 91
        3
280
     0
281
     0
  0
CLASS
  1
MATERIAL
  2
AcDbMaterial
  3
ObjectDBX Classes
 90
        0
 91
        3
280
     0
281
     0
  0
CLASS
  1
VISUALSTYLE
  2
AcDbVisualStyle
  3
ObjectDBX Classes
 90
     4095
 91
       32
280
     0
281
     0
  0
CLASS
  1
TABLESTYLE
  2
AcDbTableStyle
  3
ObjectDBX Classes
 90
     2047
 91
        1
280
     0
281
     0
  0
CLASS
  1
DIMASSOC
  2
AcDbDimAssoc
  3
"AcDbDimAssoc|Product Desc:     AcDim ARX App For Dimension|Company:          Autodesk, Inc.|WEB Address:      www.autodesk.com"
 90
        0
 91
        0
280
     0
281
     0
  0
CLASS
  1
SORTENTSTABLE
  2
AcDbSortentsTable
  3
ObjectDBX Classes
 90
        0
 91
        1
280
     0
281
     0
  0
CLASS
  1
ACDBPLACEHOLDER
  2
AcDbPlaceHolder
  3
ObjectDBX Classes
 90
        0
 91
        1
280
     0
281
     0
  0
CLASS
  1
LAYOUT
  2
AcDbLayout
  3
ObjectDBX Classes
 90
        0
 91
        2
280
     0
281
     0
  0
ENDSEC
  0
SECTION
  2
TABLES
  0
TABLE
  2
VPORT
  5
8
102
{ACAD_XDICTIONARY
360
459C
102
}
330
0
100
AcDbSymbolTable
 70
     2
  0
VPORT
  5
47A0
330
8
100
AcDbSymbolTableRecord
100
AcDbViewportTableRecord
  2
*Active
 70
     0
 10
0.0
 20
0.0
 11
1.0
 21
1.0
 12
659.8709089093281
 22
-42.50814394551281
 13
0.0
 23
0.0
 14
1.0
 24
1.0
 15
0.0
 25
0.0
 16
0.0
 26
0.0
 36
1.0
 17
0.0
 27
0.0
 37
0.0
 40
339.8047768555297
 41
1.838028169014084
 42
50.0
 43
0.0
 44
0.0
 50
0.0
 51
0.0
 71
     0
 72
   100
 73
     1
 74
     1
 75
     0
 76
     0
 77
     0
 78
     0
281
     0
 65
     1
110
0.0
120
0.0
130
0.0
111
1.0
121
0.0
131
0.0
112
0.0
122
1.0
132
0.0
 79
     0
146
0.0
  0
ENDTAB
  0
TABLE
  2
LTYPE
  5
5
330
0
100
AcDbSymbolTable
 70
     3
  0
LTYPE
  5
11
330
5
100
AcDbSymbolTableRecord
100
AcDbLinetypeTableRecord
  2
BYBLOCK
 70
     0
  3

 72
    65
 73
     0
 40
0.0
  0
LTYPE
  5
12
330
5
100
AcDbSymbolTableRecord
100
AcDbLinetypeTableRecord
  2
BYLAYER
 70
     0
  3

 72
    65
 73
     0
 40
0.0
  0
LTYPE
  5
13
330
5
100
AcDbSymbolTableRecord
100
AcDbLinetypeTableRecord
  2
CONTINUOUS
 70
     0
  3
Solid line
 72
    65
 73
     0
 40
0.0
  0
LTYPE
  5
3DB3
330
5
100
AcDbSymbolTableRecord
100
AcDbLinetypeTableRecord
  2
CENTER2
 70
     0
  3
Center (.5x) ___ _ ___ _ ___ _ ___ _ ___ _ ___
 72
    65
 73
     4
 40
28.575
 49
19.05
 74
     0
 49
-3.174999999999998
 74
     0
 49
3.174999999999998
 74
     0
 49
-3.174999999999998
 74
     0
  0
LTYPE
  5
3DB4
330
5
100
AcDbSymbolTableRecord
100
AcDbLinetypeTableRecord
  2
HIDDEN2
 70
     0
  3
Hidden (.5x) _ _ _ _ _ _ _ _ _ _ _ _ _ _ _ _ _
 72
    65
 73
     2
 40
4.762499999999998
 49
3.174999999999998
 74
     0
 49
-1.587499999999999
 74
     0
  0
ENDTAB
  0
TABLE
  2
LAYER
  5
2
102
{ACAD_XDICTIONARY
360
3DBA
102
}
330
0
100
AcDbSymbolTable
 70
     4
  0
LAYER
  5
E
102
{ACAD_XDICTIONARY
360
459E
102
}
330
2
100
AcDbSymbolTableRecord
100
AcDbLayerTableRecord
  2
0
 70
     0
 62
     7
  6
CONTINUOUS
370
    -3
390
3D41
  0
LAYER
  5
27
102
{ACAD_XDICTIONARY
360
45A0
102
}
330
2
100
AcDbSymbolTableRecord
100
AcDbLayerTableRecord
  2
Z_OM_DIM
 70
     0
 62
     4
  6
CONTINUOUS
370
    -3
390
3D41
  0
LAYER
  5
2B
102
{ACAD_XDICTIONARY
360
45A2
102
}
330
2
100
AcDbSymbolTableRecord
100
AcDbLayerTableRecord
  2
DEFPOINTS
 70
     0
 62
     7
  6
CONTINUOUS
290
     0
370
    -3
390
3D41
  0
LAYER
  5
3DB5
102
{ACAD_XDICTIONARY
360
45A6
102
}
330
2
100
AcDbSymbolTableRecord
100
AcDbLayerTableRecord
  2
additional
 70
     0
 62
    50
  6
CONTINUOUS
370
    -3
390
3D41
1001
AcAecLayerStandard
1000

1000

  0
ENDTAB
  0
TABLE
  2
STYLE
  5
3
330
0
100
AcDbSymbolTable
 70
     3
  0
STYLE
  5
F
330
3
100
AcDbSymbolTableRecord
100
AcDbTextStyleTableRecord
  2
STANDARD
 70
     0
 40
0.0
 41
1.08
 50
0.0
 71
     0
 42
3.0
  3
txt.shx
  4
bigfont.shx
  0
STYLE
  5
3DB6
330
3
100
AcDbSymbolTableRecord
100
AcDbTextStyleTableRecord
  2
CatalogDxf
 70
     0
 40
0.0
 41
1.0
 50
0.0
 71
     0
 42
2.5
  3
txt.shx
  4
bigfont.shx
  0
STYLE
  5
4196
330
3
100
AcDbSymbolTableRecord
100
AcDbTextStyleTableRecord
  2

 70
     1
 40
0.0
 41
1.0
 50
0.0
 71
     0
 42
3.0
  3
ltypeshp.shx
  4

  0
ENDTAB
  0
TABLE
  2
VIEW
  5
6
330
0
100
AcDbSymbolTable
 70
     0
  0
ENDTAB
  0
TABLE
  2
UCS
  5
7
330
0
100
AcDbSymbolTable
 70
     0
  0
ENDTAB
  0
TABLE
  2
APPID
  5
9
330
0
100
AcDbSymbolTable
 70
     7
  0
APPID
  5
10
330
9
100
AcDbSymbolTableRecord
100
AcDbRegAppTableRecord
  2
ACAD
 70
     0
  0
APPID
  5
3D5E
330
9
100
AcDbSymbolTableRecord
100
AcDbRegAppTableRecord
  2
ACAD_PSEXT
 70
     0
  0
APPID
  5
3DB9
330
9
100
AcDbSymbolTableRecord
100
AcDbRegAppTableRecord
  2
AcAecLayerStandard
 70
     0
  0
APPID
  5
41A3
330
9
100
AcDbSymbolTableRecord
100
AcDbRegAppTableRecord
  2
ACAD_DSTYLE_DIM_LINETYPE
 70
     0
  0
APPID
  5
41A4
330
9
100
AcDbSymbolTableRecord
100
AcDbRegAppTableRecord
  2
ACAD_DSTYLE_DIM_EXT1_LINETYPE
 70
     0
  0
APPID
  5
41A5
330
9
100
AcDbSymbolTableRecord
100
AcDbRegAppTableRecord
  2
ACAD_DSTYLE_DIM_EXT2_LINETYPE
 70
     0
  0
APPID
  5
460D
330
9
100
AcDbSymbolTableRecord
100
AcDbRegAppTableRecord
  2
ACAD_DSTYLE_DIMTEXT_FILL
 70
     0
  0
ENDTAB
  0
TABLE
  2
DIMSTYLE
  5
A
330
0
100
AcDbSymbolTable
 70
     3
100
AcDbDimStyleTable
 71
     2
340
3DB8
340
30
  0
DIMSTYLE
105
30
330
A
100
AcDbSymbolTableRecord
100
AcDbDimStyleTableRecord
  2
STANDARD
 70
     0
 41
6.0
 42
1.0
 43
16.0
 44
3.0
 73
     0
 74
     0
 77
     1
 78
     8
140
4.4
141
10.0
147
1.6
172
     1
176
   256
177
   256
178
   256
340
F
341
977
342
977
  0
DIMSTYLE
105
3DB8
102
{ACAD_REACTORS
330
4313
330
450E
330
4528
330
4535
330
4542
330
4551
330
4567
330
4574
330
4581
330
45B7
330
46B4
330
4722
102
}
330
A
100
AcDbSymbolTableRecord
100
AcDbDimStyleTableRecord
  2
CatalogDxf
 70
     0
 41
2.5
 42
0.625
 43
3.75
 44
1.25
 73
     0
 74
     0
 77
     1
 78
     8
140
2.5
141
2.5
143
0.03937007874016
147
0.625
171
     3
172
     1
176
   256
177
   256
178
   256
271
     1
272
     1
274
     3
283
     0
284
     8
340
3DB6
341
977
342
977
371
    -1
372
    -1
1001
ACAD_DSTYLE_DIM_LINETYPE
1070
   380
1005
12
1001
ACAD_DSTYLE_DIM_EXT1_LINETYPE
1070
   381
1005
12
1001
ACAD_DSTYLE_DIM_EXT2_LINETYPE
1070
   382
1005
12
  0
DIMSTYLE
105
4353
330
A
100
AcDbSymbolTableRecord
100
AcDbDimStyleTableRecord
  2
ISO-25
 70
     0
 41
2.5
 42
0.625
 43
3.75
 44
1.25
 73
     0
 74
     0
 77
     1
 78
     8
140
2.5
141
2.5
143
0.03937007874016
147
0.625
171
     3
172
     1
271
     2
272
     2
274
     3
278
    44
283
     0
284
     8
340
F
  0
ENDTAB
  0
TABLE
  2
BLOCK_RECORD
  5
1
330
0
100
AcDbSymbolTable
 70
    13
  0
BLOCK_RECORD
  5
17
102
{ACAD_XDICTIONARY
360
1808
102
}
330
1
100
AcDbSymbolTableRecord
100
AcDbBlockTableRecord
  2
*MODEL_SPACE
340
3D5B
  0
BLOCK_RECORD
  5
14
102
{ACAD_XDICTIONARY
360
1806
102
}
330
1
100
AcDbSymbolTableRecord
100
AcDbBlockTableRecord
  2
*PAPER_SPACE
340
3D5C
  0
BLOCK_RECORD
  5
977
330
1
100
AcDbSymbolTableRecord
100
AcDbBlockTableRecord
  2
_OPEN30
340
0
102
{BLKREFS
331
4651
331
4652
331
4665
331
4666
331
466E
331
466F
331
4679
331
467A
331
469D
331
469E
331
46A6
331
46A7
331
46B9
331
46BA
331
46CD
331
46CE
331
46DF
331
46E0
331
46F1
331
46F2
331
4727
331
4728
331
479A
331
479B
102
}
  0
BLOCK_RECORD
  5
4314
330
1
100
AcDbSymbolTableRecord
100
AcDbBlockTableRecord
  2
*D1
340
0
  0
BLOCK_RECORD
  5
450F
330
1
100
AcDbSymbolTableRecord
100
AcDbBlockTableRecord
  2
*D2
340
0
  0
BLOCK_RECORD
  5
4529
330
1
100
AcDbSymbolTableRecord
100
AcDbBlockTableRecord
  2
*D3
340
0
  0
BLOCK_RECORD
  5
4536
330
1
100
AcDbSymbolTableRecord
100
AcDbBlockTableRecord
  2
*D4
340
0
  0
BLOCK_RECORD
  5
4543
330
1
100
AcDbSymbolTableRecord
100
AcDbBlockTableRecord
  2
*D5
340
0
  0
BLOCK_RECORD
  5
4552
330
1
100
AcDbSymbolTableRecord
100
AcDbBlockTableRecord
  2
*D6
340
0
  0
BLOCK_RECORD
  5
4568
330
1
100
AcDbSymbolTableRecord
100
AcDbBlockTableRecord
  2
*D7
340
0
  0
BLOCK_RECORD
  5
4575
330
1
100
AcDbSymbolTableRecord
100
AcDbBlockTableRecord
  2
*D8
340
0
  0
BLOCK_RECORD
  5
4582
330
1
100
AcDbSymbolTableRecord
100
AcDbBlockTableRecord
  2
*D9
340
0
  0
BLOCK_RECORD
  5
45B8
330
1
100
AcDbSymbolTableRecord
100
AcDbBlockTableRecord
  2
*D10
340
0
  0
BLOCK_RECORD
  5
46B5
330
1
100
AcDbSymbolTableRecord
100
AcDbBlockTableRecord
  2
*D11
340
0
  0
BLOCK_RECORD
  5
4723
330
1
100
AcDbSymbolTableRecord
100
AcDbBlockTableRecord
  2
*D12
340
0
  0
ENDTAB
  0
ENDSEC
  0
SECTION
  2
BLOCKS
  0
BLOCK
  5
2E
330
17
100
AcDbEntity
  8
0
100
AcDbBlockBegin
  2
*MODEL_SPACE
 70
     0
 10
0.0
 20
0.0
 30
0.0
  3
*MODEL_SPACE
  1

  0
ENDBLK
  5
2F
330
17
100
AcDbEntity
  8
0
100
AcDbBlockEnd
  0
BLOCK
  5
2C
330
14
100
AcDbEntity
 67
     1
  8
0
100
AcDbBlockBegin
  2
*PAPER_SPACE
 70
     0
 10
0.0
 20
0.0
 30
0.0
  3
*PAPER_SPACE
  1

  0
ENDBLK
  5
2D
330
14
100
AcDbEntity
 67
     1
  8
0
100
AcDbBlockEnd
  0
BLOCK
  5
97B
330
977
100
AcDbEntity
  8
0
100
AcDbBlockBegin
  2
_OPEN30
 70
     0
 10
0.0
 20
0.0
 30
0.0
  3
_OPEN30
  1

  0
LINE
  5
978
330
977
100
AcDbEntity
  8
0
  6
ByBlock
 62
     0
100
AcDbLine
 10
-1.0
 20
0.26794919
 30
0.0
 11
0.0
 21
0.0
 31
0.0
  0
LINE
  5
979
330
977
100
AcDbEntity
  8
0
  6
ByBlock
 62
     0
100
AcDbLine
 10
0.0
 20
0.0
 30
0.0
 11
-1.0
 21
-0.26794919
 31
0.0
  0
LINE
  5
97A
330
977
100
AcDbEntity
  8
0
  6
ByBlock
 62
     0
100
AcDbLine
 10
0.0
 20
0.0
 30
0.0
 11
-1.0
 21
0.0
 31
0.0
  0
ENDBLK
  5
97C
330
977
100
AcDbEntity
  8
0
100
AcDbBlockEnd
  0
BLOCK
  5
431E
330
4314
100
AcDbEntity
  8
0
100
AcDbBlockBegin
  2
*D1
 70
     1
 10
0.0
 20
0.0
 30
0.0
  3
*D1
  1

  0
LINE
  5
464E
330
4314
100
AcDbEntity
  8
Z_OM_DIM
100
AcDbLine
 10
689.5404675128031
 20
16.49420311506804
 30
0.0
 11
689.5404675128031
 21
-4.574513022559699
 31
0.0
  0
LINE
  5
464F
330
4314
100
AcDbEntity
  8
Z_OM_DIM
100
AcDbLine
 10
753.7696745114303
 20
38.74420311506793
 30
0.0
 11
753.7696745114303
 21
-4.574513022559699
 31
0.0
  0
LINE
  5
4650
330
4314
100
AcDbEntity
  8
Z_OM_DIM
100
AcDbLine
 10
692.0404675128032
 20
-3.324513022559698
 30
0.0
 11
751.2696745114302
 21
-3.324513022559698
 31
0.0
  0
INSERT
  5
4651
330
4314
100
AcDbEntity
  8
Z_OM_DIM
100
AcDbBlockReference
  2
_OPEN30
 10
689.5404675128031
 20
-3.324513022559698
 30
0.0
 41
2.5
 42
2.5
 43
2.5
 50
180.0
  0
INSERT
  5
4652
330
4314
100
AcDbEntity
  8
Z_OM_DIM
100
AcDbBlockReference
  2
_OPEN30
 10
753.7696745114303
 20
-3.324513022559698
 30
0.0
 41
2.5
 42
2.5
 43
2.5
  0
MTEXT
  5
4653
330
4314
100
AcDbEntity
  8
Z_OM_DIM
100
AcDbMText
 10
721.6550710121167
 20
-1.449513022559699
 30
0.0
 40
2.5
 41
0.0
 71
     5
 72
     1
  1
180 - 200
  7
CatalogDxf
 73
     1
 44
1.0
1001
ACAD
1000
MTEXTBEGIN
1070
    73
1070
     1
1070
    44
1040
1.0
1070
    74
1070
     0
1000
MTEXTEND
  0
POINT
  5
4654
330
4314
100
AcDbEntity
  8
DEFPOINTS
 62
     0
100
AcDbPoint
 10
689.5404675128031
 20
17.11920311506804
 30
0.0
  0
POINT
  5
4655
330
4314
100
AcDbEntity
  8
DEFPOINTS
 62
     0
100
AcDbPoint
 10
753.7696745114303
 20
39.36920311506793
 30
0.0
  0
POINT
  5
4656
330
4314
100
AcDbEntity
  8
DEFPOINTS
 62
     0
100
AcDbPoint
 10
753.7696745114303
 20
-3.324513022559698
 30
0.0
  0
ENDBLK
  5
431F
330
4314
100
AcDbEntity
  8
0
100
AcDbBlockEnd
  0
BLOCK
  5
451B
330
450F
100
AcDbEntity
  8
0
100
AcDbBlockBegin
  2
*D2
 70
     1
 10
0.0
 20
0.0
 30
0.0
  3
*D2
  1

  0
LINE
  5
4795
330
450F
100
AcDbEntity
  8
Z_OM_DIM
100
AcDbLine
 10
595.9154675128032
 20
42.86920311506793
 30
0.0
 11
578.0863597712356
 21
42.86920311506793
 31
0.0
  0
LINE
  5
4796
330
450F
100
AcDbEntity
  8
Z_OM_DIM
100
AcDbLine
 10
595.9154675128032
 20
38.86920311506793
 30
0.0
 11
578.0863597712356
 21
38.86920311506794
 31
0.0
  0
LINE
  5
4797
330
450F
100
AcDbEntity
  8
Z_OM_DIM
100
AcDbLine
 10
579.3363597712356
 20
45.36920311506793
 30
0.0
 11
579.3363597712356
 21
47.86920311506793
 31
0.0
  0
LINE
  5
4798
330
450F
100
AcDbEntity
  8
Z_OM_DIM
100
AcDbLine
 10
579.3363597712356
 20
36.36920311506794
 30
0.0
 11
579.3363597712356
 21
33.86920311506794
 31
0.0
  0
LINE
  5
4799
330
450F
100
AcDbEntity
  8
Z_OM_DIM
100
AcDbLine
 10
579.3363597712356
 20
42.86920311506793
 30
0.0
 11
579.3363597712356
 21
38.86920311506794
 31
0.0
  0
INSERT
  5
479A
330
450F
100
AcDbEntity
  8
Z_OM_DIM
100
AcDbBlockReference
  2
_OPEN30
 10
579.3363597712356
 20
42.86920311506793
 30
0.0
 41
2.5
 42
2.5
 43
2.5
 50
270.0
  0
INSERT
  5
479B
330
450F
100
AcDbEntity
  8
Z_OM_DIM
100
AcDbBlockReference
  2
_OPEN30
 10
579.3363597712356
 20
38.86920311506794
 30
0.0
 41
2.5
 42
2.5
 43
2.5
 50
90.0
  0
MTEXT
  5
479C
330
450F
100
AcDbEntity
  8
Z_OM_DIM
100
AcDbMText
 10
577.4613597712356
 20
40.86920311506803
 30
0.0
 40
2.5
 41
0.0
 71
     5
 72
     1
  1
4
  7
CatalogDxf
 11
0.0000000000000001
 21
1.0
 31
0.0
 73
     1
 44
1.0
  0
POINT
  5
479D
330
450F
100
AcDbEntity
  8
DEFPOINTS
 62
     0
100
AcDbPoint
 10
596.5404675128032
 20
42.86920311506793
 30
0.0
  0
POINT
  5
479E
330
450F
100
AcDbEntity
  8
DEFPOINTS
 62
     0
100
AcDbPoint
 10
596.5404675128032
 20
38.86920311506793
 30
0.0
  0
POINT
  5
479F
330
450F
100
AcDbEntity
  8
DEFPOINTS
 62
     0
100
AcDbPoint
 10
579.3363597712356
 20
38.86920311506794
 30
0.0
  0
ENDBLK
  5
451C
330
450F
100
AcDbEntity
  8
0
100
AcDbBlockEnd
  0
BLOCK
  5
4533
330
4529
100
AcDbEntity
  8
0
100
AcDbBlockBegin
  2
*D3
 70
     1
 10
0.0
 20
0.0
 30
0.0
  3
*D3
  1

  0
LINE
  5
4662
330
4529
100
AcDbEntity
  8
Z_OM_DIM
100
AcDbLine
 10
671.5404675128032
 20
-49.33559106762382
 30
0.0
 11
671.5404675128032
 21
-24.34206366650597
 31
0.0
  0
LINE
  5
4663
330
4529
100
AcDbEntity
  8
Z_OM_DIM
100
AcDbLine
 10
631.5404675128031
 20
-49.3355910676238
 30
0.0
 11
631.5404675128031
 21
-24.34206366650597
 31
0.0
  0
LINE
  5
4664
330
4529
100
AcDbEntity
  8
Z_OM_DIM
100
AcDbLine
 10
669.0404675128031
 20
-25.59206366650597
 30
0.0
 11
634.0404675128032
 21
-25.59206366650597
 31
0.0
  0
INSERT
  5
4665
330
4529
100
AcDbEntity
  8
Z_OM_DIM
100
AcDbBlockReference
  2
_OPEN30
 10
671.5404675128032
 20
-25.59206366650597
 30
0.0
 41
2.5
 42
2.5
 43
2.5
  0
INSERT
  5
4666
330
4529
100
AcDbEntity
  8
Z_OM_DIM
100
AcDbBlockReference
  2
_OPEN30
 10
631.5404675128031
 20
-25.59206366650597
 30
0.0
 41
2.5
 42
2.5
 43
2.5
 50
180.0
  0
MTEXT
  5
4667
330
4529
100
AcDbEntity
  8
Z_OM_DIM
100
AcDbMText
 10
651.5404675128031
 20
-23.71706366650597
 30
0.0
 40
2.5
 41
0.0
 71
     5
 72
     1
  1
40
  7
CatalogDxf
 73
     1
 44
1.0
1001
ACAD
1000
MTEXTBEGIN
1070
    73
1070
     1
1070
    44
1040
1.0
1070
    74
1070
     0
1000
MTEXTEND
  0
POINT
  5
4668
330
4529
100
AcDbEntity
  8
DEFPOINTS
 62
     0
100
AcDbPoint
 10
671.5404675128032
 20
-49.96059106762382
 30
0.0
  0
POINT
  5
4669
330
4529
100
AcDbEntity
  8
DEFPOINTS
 62
     0
100
AcDbPoint
 10
631.5404675128031
 20
-49.9605910676238
 30
0.0
  0
POINT
  5
466A
330
4529
100
AcDbEntity
  8
DEFPOINTS
 62
     0
100
AcDbPoint
 10
631.5404675128031
 20
-25.59206366650597
 30
0.0
  0
ENDBLK
  5
4534
330
4529
100
AcDbEntity
  8
0
100
AcDbBlockEnd
  0
BLOCK
  5
4540
330
4536
100
AcDbEntity
  8
0
100
AcDbBlockBegin
  2
*D4
 70
     1
 10
0.0
 20
0.0
 30
0.0
  3
*D4
  1

  0
LINE
  5
466B
330
4536
100
AcDbEntity
  8
Z_OM_DIM
100
AcDbLine
 10
631.5404675128031
 20
-49.3355910676238
 30
0.0
 11
631.5404675128031
 21
-24.34206366650597
 31
0.0
  0
LINE
  5
466C
330
4536
100
AcDbEntity
  8
Z_OM_DIM
100
AcDbLine
 10
601.5404675128031
 20
-58.06001136128887
 30
0.0
 11
601.5404675128031
 21
-24.34206366650597
 31
0.0
  0
LINE
  5
466D
330
4536
100
AcDbEntity
  8
Z_OM_DIM
100
AcDbLine
 10
629.0404675128031
 20
-25.59206366650597
 30
0.0
 11
604.0404675128031
 21
-25.59206366650597
 31
0.0
  0
INSERT
  5
466E
330
4536
100
AcDbEntity
  8
Z_OM_DIM
100
AcDbBlockReference
  2
_OPEN30
 10
631.5404675128031
 20
-25.59206366650597
 30
0.0
 41
2.5
 42
2.5
 43
2.5
  0
INSERT
  5
466F
330
4536
100
AcDbEntity
  8
Z_OM_DIM
100
AcDbBlockReference
  2
_OPEN30
 10
601.5404675128031
 20
-25.59206366650597
 30
0.0
 41
2.5
 42
2.5
 43
2.5
 50
180.0
  0
MTEXT
  5
4670
330
4536
100
AcDbEntity
  8
Z_OM_DIM
100
AcDbMText
 10
616.5404675128031
 20
-23.71706366650597
 30
0.0
 40
2.5
 41
0.0
 71
     5
 72
     1
  1
30
  7
CatalogDxf
 73
     1
 44
1.0
1001
ACAD
1000
MTEXTBEGIN
1070
    73
1070
     1
1070
    44
1040
1.0
1070
    74
1070
     0
1000
MTEXTEND
  0
POINT
  5
4671
330
4536
100
AcDbEntity
  8
DEFPOINTS
 62
     0
100
AcDbPoint
 10
631.5404675128031
 20
-49.9605910676238
 30
0.0
  0
POINT
  5
4672
330
4536
100
AcDbEntity
  8
DEFPOINTS
 62
     0
100
AcDbPoint
 10
601.5404675128031
 20
-58.68501136128887
 30
0.0
  0
POINT
  5
4673
330
4536
100
AcDbEntity
  8
DEFPOINTS
 62
     0
100
AcDbPoint
 10
601.5404675128031
 20
-25.59206366650597
 30
0.0
  0
ENDBLK
  5
4541
330
4536
100
AcDbEntity
  8
0
100
AcDbBlockEnd
  0
BLOCK
  5
454F
330
4543
100
AcDbEntity
  8
0
100
AcDbBlockBegin
  2
*D5
 70
     1
 10
0.0
 20
0.0
 30
0.0
  3
*D5
  1

  0
LINE
  5
4674
330
4543
100
AcDbEntity
  8
Z_OM_DIM
100
AcDbLine
 10
601.5404675128031
 20
-58.06001136128887
 30
0.0
 11
601.5404675128031
 21
-24.34206366650597
 31
0.0
  0
LINE
  5
4675
330
4543
100
AcDbEntity
  8
Z_OM_DIM
100
AcDbLine
 10
596.5404675128032
 20
-62.68857857610786
 30
0.0
 11
596.5404675128032
 21
-24.34206366650597
 31
0.0
  0
LINE
  5
4676
330
4543
100
AcDbEntity
  8
Z_OM_DIM
100
AcDbLine
 10
604.0404675128031
 20
-25.59206366650597
 30
0.0
 11
606.5404675128031
 21
-25.59206366650597
 31
0.0
  0
LINE
  5
4677
330
4543
100
AcDbEntity
  8
Z_OM_DIM
100
AcDbLine
 10
594.0404675128031
 20
-25.59206366650597
 30
0.0
 11
591.5404675128031
 21
-25.59206366650597
 31
0.0
  0
LINE
  5
4678
330
4543
100
AcDbEntity
  8
Z_OM_DIM
100
AcDbLine
 10
601.5404675128031
 20
-25.59206366650597
 30
0.0
 11
596.5404675128032
 21
-25.59206366650597
 31
0.0
  0
INSERT
  5
4679
330
4543
100
AcDbEntity
  8
Z_OM_DIM
100
AcDbBlockReference
  2
_OPEN30
 10
601.5404675128031
 20
-25.59206366650597
 30
0.0
 41
2.5
 42
2.5
 43
2.5
 50
180.0
  0
INSERT
  5
467A
330
4543
100
AcDbEntity
  8
Z_OM_DIM
100
AcDbBlockReference
  2
_OPEN30
 10
596.5404675128032
 20
-25.59206366650597
 30
0.0
 41
2.5
 42
2.5
 43
2.5
  0
MTEXT
  5
467B
330
4543
100
AcDbEntity
  8
Z_OM_DIM
100
AcDbMText
 10
599.0404675128031
 20
-23.71706366650597
 30
0.0
 40
2.5
 41
0.0
 71
     5
 72
     1
  1
5
  7
CatalogDxf
 73
     1
 44
1.0
1001
ACAD
1000
MTEXTBEGIN
1070
    73
1070
     1
1070
    44
1040
1.0
1070
    74
1070
     0
1000
MTEXTEND
  0
POINT
  5
467C
330
4543
100
AcDbEntity
  8
DEFPOINTS
 62
     0
100
AcDbPoint
 10
601.5404675128031
 20
-58.68501136128887
 30
0.0
  0
POINT
  5
467D
330
4543
100
AcDbEntity
  8
DEFPOINTS
 62
     0
100
AcDbPoint
 10
596.5404675128032
 20
-63.31357857610786
 30
0.0
  0
POINT
  5
467E
330
4543
100
AcDbEntity
  8
DEFPOINTS
 62
     0
100
AcDbPoint
 10
596.5404675128032
 20
-25.59206366650597
 30
0.0
  0
ENDBLK
  5
4550
330
4543
100
AcDbEntity
  8
0
100
AcDbBlockEnd
  0
BLOCK
  5
455C
330
4552
100
AcDbEntity
  8
0
100
AcDbBlockBegin
  2
*D6
 70
     1
 10
0.0
 20
0.0
 30
0.0
  3
*D6
  1

  0
LINE
  5
46EE
330
4552
100
AcDbEntity
  8
Z_OM_DIM
100
AcDbLine
 10
596.4154675128031
 20
-62.81357857610792
 30
0.0
 11
578.0863597712356
 21
-62.8135785761079
 31
0.0
  0
LINE
  5
46EF
330
4552
100
AcDbEntity
  8
Z_OM_DIM
100
AcDbLine
 10
596.4154675128031
 20
-77.79857857610775
 30
0.0
 11
578.0863597712356
 21
-77.79857857610775
 31
0.0
  0
LINE
  5
46F0
330
4552
100
AcDbEntity
  8
Z_OM_DIM
100
AcDbLine
 10
579.3363597712356
 20
-65.3135785761079
 30
0.0
 11
579.3363597712356
 21
-75.29857857610775
 31
0.0
  0
INSERT
  5
46F1
330
4552
100
AcDbEntity
  8
Z_OM_DIM
100
AcDbBlockReference
  2
_OPEN30
 10
579.3363597712356
 20
-62.8135785761079
 30
0.0
 41
2.5
 42
2.5
 43
2.5
 50
90.0
  0
INSERT
  5
46F2
330
4552
100
AcDbEntity
  8
Z_OM_DIM
100
AcDbBlockReference
  2
_OPEN30
 10
579.3363597712356
 20
-77.79857857610775
 30
0.0
 41
2.5
 42
2.5
 43
2.5
 50
270.0
  0
MTEXT
  5
46F3
330
4552
100
AcDbEntity
  8
Z_OM_DIM
100
AcDbMText
 10
577.4613597712356
 20
-70.30607857610772
 30
0.0
 40
2.5
 41
0.0
 71
     5
 72
     1
  1
%%c15
  7
CatalogDxf
 11
0.0000000000000001
 21
1.0
 31
0.0
 73
     1
 44
1.0
1001
ACAD
1000
MTEXTBEGIN
1070
    73
1070
     1
1070
    44
1040
1.0
1070
    74
1070
     0
1000
MTEXTEND
  0
POINT
  5
46F4
330
4552
100
AcDbEntity
  8
DEFPOINTS
 62
     0
100
AcDbPoint
 10
597.0404675128031
 20
-62.81357857610792
 30
0.0
  0
POINT
  5
46F5
330
4552
100
AcDbEntity
  8
DEFPOINTS
 62
     0
100
AcDbPoint
 10
597.0404675128031
 20
-77.79857857610775
 30
0.0
  0
POINT
  5
46F6
330
4552
100
AcDbEntity
  8
DEFPOINTS
 62
     0
100
AcDbPoint
 10
579.3363597712356
 20
-77.79857857610775
 30
0.0
  0
ENDBLK
  5
455D
330
4552
100
AcDbEntity
  8
0
100
AcDbBlockEnd
  0
BLOCK
  5
4572
330
4568
100
AcDbEntity
  8
0
100
AcDbBlockBegin
  2
*D7
 70
     1
 10
0.0
 20
0.0
 30
0.0
  3
*D7
  1

  0
LINE
  5
46CA
330
4568
100
AcDbEntity
  8
Z_OM_DIM
100
AcDbLine
 10
678.5741939100432
 20
-55.30607857610789
 30
0.0
 11
710.1176014176171
 21
-55.3060785761079
 31
0.0
  0
LINE
  5
46CB
330
4568
100
AcDbEntity
  8
Z_OM_DIM
100
AcDbLine
 10
678.5741939100432
 20
-85.30607857610789
 30
0.0
 11
710.1176014176171
 21
-85.30607857610789
 31
0.0
  0
LINE
  5
46CC
330
4568
100
AcDbEntity
  8
Z_OM_DIM
100
AcDbLine
 10
708.8676014176171
 20
-57.8060785761079
 30
0.0
 11
708.8676014176171
 21
-82.80607857610789
 31
0.0
  0
INSERT
  5
46CD
330
4568
100
AcDbEntity
  8
Z_OM_DIM
100
AcDbBlockReference
  2
_OPEN30
 10
708.8676014176171
 20
-55.3060785761079
 30
0.0
 41
2.5
 42
2.5
 43
2.5
 50
90.0
  0
INSERT
  5
46CE
330
4568
100
AcDbEntity
  8
Z_OM_DIM
100
AcDbBlockReference
  2
_OPEN30
 10
708.8676014176171
 20
-85.30607857610789
 30
0.0
 41
2.5
 42
2.5
 43
2.5
 50
270.0
  0
MTEXT
  5
46CF
330
4568
100
AcDbEntity
  8
Z_OM_DIM
100
AcDbMText
 10
706.9926014176171
 20
-70.30607857610778
 30
0.0
 40
2.5
 41
0.0
 71
     5
 72
     1
  1
30
  7
CatalogDxf
 11
0.0000000000000001
 21
1.0
 31
0.0
 73
     1
 44
1.0
1001
ACAD
1000
MTEXTBEGIN
1070
    73
1070
     1
1070
    44
1040
1.0
1070
    74
1070
     0
1000
MTEXTEND
  0
POINT
  5
46D0
330
4568
100
AcDbEntity
  8
DEFPOINTS
 62
     0
100
AcDbPoint
 10
677.9491939100433
 20
-55.30607857610789
 30
0.0
  0
POINT
  5
46D1
330
4568
100
AcDbEntity
  8
DEFPOINTS
 62
     0
100
AcDbPoint
 10
677.9491939100433
 20
-85.30607857610789
 30
0.0
  0
POINT
  5
46D2
330
4568
100
AcDbEntity
  8
DEFPOINTS
 62
     0
100
AcDbPoint
 10
708.8676014176171
 20
-85.30607857610789
 30
0.0
  0
ENDBLK
  5
4573
330
4568
100
AcDbEntity
  8
0
100
AcDbBlockEnd
  0
BLOCK
  5
457F
330
4575
100
AcDbEntity
  8
0
100
AcDbBlockBegin
  2
*D8
 70
     1
 10
0.0
 20
0.0
 30
0.0
  3
*D8
  1

  0
LINE
  5
46DC
330
4575
100
AcDbEntity
  8
Z_OM_DIM
100
AcDbLine
 10
472.9462174508856
 20
-92.93107857610792
 30
0.0
 11
472.9462174508856
 21
-112.6750252395522
 31
0.0
  0
LINE
  5
46DD
330
4575
100
AcDbEntity
  8
Z_OM_DIM
100
AcDbLine
 10
524.4462174508854
 20
-92.93107857610792
 30
0.0
 11
524.4462174508854
 21
-112.6750252395522
 31
0.0
  0
LINE
  5
46DE
330
4575
100
AcDbEntity
  8
Z_OM_DIM
100
AcDbLine
 10
475.4462174508856
 20
-111.4250252395522
 30
0.0
 11
521.9462174508854
 21
-111.4250252395522
 31
0.0
  0
INSERT
  5
46DF
330
4575
100
AcDbEntity
  8
Z_OM_DIM
100
AcDbBlockReference
  2
_OPEN30
 10
472.9462174508856
 20
-111.4250252395522
 30
0.0
 41
2.5
 42
2.5
 43
2.5
 50
180.0
  0
INSERT
  5
46E0
330
4575
100
AcDbEntity
  8
Z_OM_DIM
100
AcDbBlockReference
  2
_OPEN30
 10
524.4462174508854
 20
-111.4250252395522
 30
0.0
 41
2.5
 42
2.5
 43
2.5
  0
MTEXT
  5
46E1
330
4575
100
AcDbEntity
  8
Z_OM_DIM
100
AcDbMText
 10
498.6962174508854
 20
-109.5500252395522
 30
0.0
 40
2.5
 41
0.0
 71
     5
 72
     1
  1
51.5
  7
CatalogDxf
 73
     1
 44
1.0
1001
ACAD
1000
MTEXTBEGIN
1070
    73
1070
     1
1070
    44
1040
1.0
1070
    74
1070
     0
1000
MTEXTEND
  0
POINT
  5
46E2
330
4575
100
AcDbEntity
  8
DEFPOINTS
 62
     0
100
AcDbPoint
 10
472.9462174508856
 20
-92.30607857610792
 30
0.0
  0
POINT
  5
46E3
330
4575
100
AcDbEntity
  8
DEFPOINTS
 62
     0
100
AcDbPoint
 10
524.4462174508854
 20
-92.30607857610792
 30
0.0
  0
POINT
  5
46E4
330
4575
100
AcDbEntity
  8
DEFPOINTS
 62
     0
100
AcDbPoint
 10
524.4462174508854
 20
-111.4250252395522
 30
0.0
  0
ENDBLK
  5
4580
330
4575
100
AcDbEntity
  8
0
100
AcDbBlockEnd
  0
BLOCK
  5
458C
330
4582
100
AcDbEntity
  8
0
100
AcDbBlockBegin
  2
*D9
 70
     1
 10
0.0
 20
0.0
 30
0.0
  3
*D9
  1

  0
LINE
  5
469A
330
4582
100
AcDbEntity
  8
Z_OM_DIM
100
AcDbLine
 10
525.0712174508854
 20
-48.30607857610795
 30
0.0
 11
546.9286782061498
 21
-48.30607857610796
 31
0.0
  0
LINE
  5
469B
330
4582
100
AcDbEntity
  8
Z_OM_DIM
100
AcDbLine
 10
525.0712174508854
 20
-92.30607857610792
 30
0.0
 11
546.9286782061498
 21
-92.30607857610792
 31
0.0
  0
LINE
  5
469C
330
4582
100
AcDbEntity
  8
Z_OM_DIM
100
AcDbLine
 10
545.6786782061498
 20
-50.80607857610796
 30
0.0
 11
545.6786782061498
 21
-89.80607857610793
 31
0.0
  0
INSERT
  5
469D
330
4582
100
AcDbEntity
  8
Z_OM_DIM
100
AcDbBlockReference
  2
_OPEN30
 10
545.6786782061498
 20
-48.30607857610796
 30
0.0
 41
2.5
 42
2.5
 43
2.5
 50
90.0
  0
INSERT
  5
469E
330
4582
100
AcDbEntity
  8
Z_OM_DIM
100
AcDbBlockReference
  2
_OPEN30
 10
545.6786782061498
 20
-92.30607857610792
 30
0.0
 41
2.5
 42
2.5
 43
2.5
 50
270.0
  0
MTEXT
  5
469F
330
4582
100
AcDbEntity
  8
Z_OM_DIM
100
AcDbMText
 10
543.8036782061498
 20
-70.30607857610785
 30
0.0
 40
2.5
 41
0.0
 71
     5
 72
     1
  1
44
  7
CatalogDxf
 11
0.0000000000000001
 21
1.0
 31
0.0
 73
     1
 44
1.0
1001
ACAD
1000
MTEXTBEGIN
1070
    73
1070
     1
1070
    44
1040
1.0
1070
    74
1070
     0
1000
MTEXTEND
  0
POINT
  5
46A0
330
4582
100
AcDbEntity
  8
DEFPOINTS
 62
     0
100
AcDbPoint
 10
524.4462174508854
 20
-48.30607857610795
 30
0.0
  0
POINT
  5
46A1
330
4582
100
AcDbEntity
  8
DEFPOINTS
 62
     0
100
AcDbPoint
 10
524.4462174508854
 20
-92.30607857610792
 30
0.0
  0
POINT
  5
46A2
330
4582
100
AcDbEntity
  8
DEFPOINTS
 62
     0
100
AcDbPoint
 10
545.6786782061498
 20
-92.30607857610792
 30
0.0
  0
ENDBLK
  5
458D
330
4582
100
AcDbEntity
  8
0
100
AcDbBlockEnd
  0
BLOCK
  5
45C2
330
45B8
100
AcDbEntity
  8
0
100
AcDbBlockBegin
  2
*D10
 70
     1
 10
0.0
 20
0.0
 30
0.0
  3
*D10
  1

  0
LINE
  5
46A3
330
45B8
100
AcDbEntity
  8
Z_OM_DIM
100
AcDbLine
 10
612.0404675128031
 20
14.49420311506799
 30
0.0
 11
612.0404675128031
 21
-4.574513022559699
 31
0.0
  0
LINE
  5
46A4
330
45B8
100
AcDbEntity
  8
Z_OM_DIM
100
AcDbLine
 10
689.5404675128031
 20
16.49420311506804
 30
0.0
 11
689.5404675128031
 21
-4.574513022559699
 31
0.0
  0
LINE
  5
46A5
330
45B8
100
AcDbEntity
  8
Z_OM_DIM
100
AcDbLine
 10
614.5404675128031
 20
-3.324513022559698
 30
0.0
 11
687.0404675128031
 21
-3.324513022559698
 31
0.0
  0
INSERT
  5
46A6
330
45B8
100
AcDbEntity
  8
Z_OM_DIM
100
AcDbBlockReference
  2
_OPEN30
 10
612.0404675128031
 20
-3.324513022559698
 30
0.0
 41
2.5
 42
2.5
 43
2.5
 50
180.0
  0
INSERT
  5
46A7
330
45B8
100
AcDbEntity
  8
Z_OM_DIM
100
AcDbBlockReference
  2
_OPEN30
 10
689.5404675128031
 20
-3.324513022559698
 30
0.0
 41
2.5
 42
2.5
 43
2.5
  0
MTEXT
  5
46A8
330
45B8
100
AcDbEntity
  8
Z_OM_DIM
100
AcDbMText
 10
650.7904675128031
 20
-1.449513022559699
 30
0.0
 40
2.5
 41
0.0
 71
     5
 72
     1
  1
77.5
  7
CatalogDxf
 73
     1
 44
1.0
1001
ACAD
1000
MTEXTBEGIN
1070
    73
1070
     1
1070
    44
1040
1.0
1070
    74
1070
     0
1000
MTEXTEND
  0
POINT
  5
46A9
330
45B8
100
AcDbEntity
  8
DEFPOINTS
 62
     0
100
AcDbPoint
 10
612.0404675128031
 20
15.11920311506799
 30
0.0
  0
POINT
  5
46AA
330
45B8
100
AcDbEntity
  8
DEFPOINTS
 62
     0
100
AcDbPoint
 10
689.5404675128031
 20
17.11920311506804
 30
0.0
  0
POINT
  5
46AB
330
45B8
100
AcDbEntity
  8
DEFPOINTS
 62
     0
100
AcDbPoint
 10
689.5404675128031
 20
-3.324513022559698
 30
0.0
  0
ENDBLK
  5
45C3
330
45B8
100
AcDbEntity
  8
0
100
AcDbBlockEnd
  0
BLOCK
  5
46BF
330
46B5
100
AcDbEntity
  8
0
100
AcDbBlockBegin
  2
*D11
 70
     1
 10
0.0
 20
0.0
 30
0.0
  3
*D11
  1

  0
LINE
  5
46B6
330
46B5
100
AcDbEntity
  8
Z_OM_DIM
100
AcDbLine
 10
612.0404675128031
 20
-47.68107857610782
 30
0.0
 11
612.0404675128031
 21
-32.10978619619857
 31
0.0
  0
LINE
  5
46B7
330
46B5
100
AcDbEntity
  8
Z_OM_DIM
100
AcDbLine
 10
631.5404675128031
 20
-49.3355910676238
 30
0.0
 11
631.5404675128031
 21
-32.10978619619857
 31
0.0
  0
LINE
  5
46B8
330
46B5
100
AcDbEntity
  8
Z_OM_DIM
100
AcDbLine
 10
614.5404675128031
 20
-33.35978619619857
 30
0.0
 11
629.0404675128031
 21
-33.35978619619857
 31
0.0
  0
INSERT
  5
46B9
330
46B5
100
AcDbEntity
  8
Z_OM_DIM
100
AcDbBlockReference
  2
_OPEN30
 10
612.0404675128031
 20
-33.35978619619857
 30
0.0
 41
2.5
 42
2.5
 43
2.5
 50
180.0
  0
INSERT
  5
46BA
330
46B5
100
AcDbEntity
  8
Z_OM_DIM
100
AcDbBlockReference
  2
_OPEN30
 10
631.5404675128031
 20
-33.35978619619857
 30
0.0
 41
2.5
 42
2.5
 43
2.5
  0
MTEXT
  5
46BB
330
46B5
100
AcDbEntity
  8
Z_OM_DIM
100
AcDbMText
 10
621.7904675128031
 20
-31.48478619619857
 30
0.0
 40
2.5
 41
0.0
 71
     5
 72
     1
  1
19.5
  7
CatalogDxf
 73
     1
 44
1.0
1001
ACAD
1000
MTEXTBEGIN
1070
    73
1070
     1
1070
    44
1040
1.0
1070
    74
1070
     0
1000
MTEXTEND
  0
POINT
  5
46BC
330
46B5
100
AcDbEntity
  8
DEFPOINTS
 62
     0
100
AcDbPoint
 10
612.0404675128031
 20
-48.30607857610782
 30
0.0
  0
POINT
  5
46BD
330
46B5
100
AcDbEntity
  8
DEFPOINTS
 62
     0
100
AcDbPoint
 10
631.5404675128031
 20
-49.9605910676238
 30
0.0
  0
POINT
  5
46BE
330
46B5
100
AcDbEntity
  8
DEFPOINTS
 62
     0
100
AcDbPoint
 10
631.5404675128031
 20
-33.35978619619857
 30
0.0
  0
ENDBLK
  5
46C0
330
46B5
100
AcDbEntity
  8
0
100
AcDbBlockEnd
  0
BLOCK
  5
472D
330
4723
100
AcDbEntity
  8
0
100
AcDbBlockBegin
  2
*D12
 70
     1
 10
0.0
 20
0.0
 30
0.0
  3
*D12
  1

  0
LINE
  5
4724
330
4723
100
AcDbEntity
  8
Z_OM_DIM
100
AcDbLine
 10
596.5404675128032
 20
33.25495311506796
 30
0.0
 11
596.5404675128032
 21
16.58624642323798
 31
0.0
  0
LINE
  5
4725
330
4723
100
AcDbEntity
  8
Z_OM_DIM
100
AcDbLine
 10
606.5404675128031
 20
38.24420311506793
 30
0.0
 11
606.5404675128031
 21
16.58624642323798
 31
0.0
  0
LINE
  5
4726
330
4723
100
AcDbEntity
  8
Z_OM_DIM
100
AcDbLine
 10
599.0404675128031
 20
17.83624642323798
 30
0.0
 11
604.0404675128031
 21
17.83624642323798
 31
0.0
  0
INSERT
  5
4727
330
4723
100
AcDbEntity
  8
Z_OM_DIM
100
AcDbBlockReference
  2
_OPEN30
 10
596.5404675128032
 20
17.83624642323798
 30
0.0
 41
2.5
 42
2.5
 43
2.5
 50
180.0
  0
INSERT
  5
4728
330
4723
100
AcDbEntity
  8
Z_OM_DIM
100
AcDbBlockReference
  2
_OPEN30
 10
606.5404675128031
 20
17.83624642323798
 30
0.0
 41
2.5
 42
2.5
 43
2.5
  0
MTEXT
  5
4729
330
4723
100
AcDbEntity
  8
Z_OM_DIM
100
AcDbMText
 10
601.5404675128031
 20
19.71124642323798
 30
0.0
 40
2.5
 41
0.0
 71
     5
 72
     1
  1
10
  7
CatalogDxf
 73
     1
 44
1.0
1001
ACAD
1000
MTEXTBEGIN
1070
    73
1070
     1
1070
    44
1040
1.0
1070
    74
1070
     0
1000
MTEXTEND
  0
POINT
  5
472A
330
4723
100
AcDbEntity
  8
DEFPOINTS
 62
     0
100
AcDbPoint
 10
596.5404675128032
 20
33.87995311506796
 30
0.0
  0
POINT
  5
472B
330
4723
100
AcDbEntity
  8
DEFPOINTS
 62
     0
100
AcDbPoint
 10
606.5404675128031
 20
38.86920311506793
 30
0.0
  0
POINT
  5
472C
330
4723
100
AcDbEntity
  8
DEFPOINTS
 62
     0
100
AcDbPoint
 10
606.5404675128031
 20
17.83624642323798
 30
0.0
  0
ENDBLK
  5
472E
330
4723
100
AcDbEntity
  8
0
100
AcDbBlockEnd
  0
ENDSEC
  0
SECTION
  2
ENTITIES
  0
MTEXT
  5
4130
330
17
100
AcDbEntity
  8
Z_OM_DIM
100
AcDbMText
 10
692.8345818346939
 20
-130.0405919429706
 30
0.0
 40
3.0
 41
93.92693936784551
 71
     1
 72
     5
  1
TAKAHA KIKO Co., Ltd\PCAD DRAWING No. CA1578
  7
CatalogDxf
 73
     1
 44
1.0
1001
ACAD
1000
MTEXTBEGIN
1070
    73
1070
     1
1070
    44
1040
1.0
1070
    74
1070
     0
1000
MTEXTEND
  0
MTEXT
  5
42AA
330
17
100
AcDbEntity
  8
Z_OM_DIM
100
AcDbMText
 10
468.360114657794
 20
78.45324839774469
 30
0.0
 40
3.0
 41
47.03999999999999
 71
     1
 72
     1
  1
Adsorbed position
  7
CatalogDxf
 73
     1
 44
1.0
1001
ACAD
1000
MTEXTBEGIN
1070
    73
1070
     1
1070
    44
1040
1.0
1070
    74
1070
     0
1000
MTEXTEND
  0
LINE
  5
4301
330
17
100
AcDbEntity
  8
0
 48
0.5
100
AcDbLine
 10
739.7696745114302
 20
40.86920311506793
 30
0.0
 11
739.7696745114294
 21
38.86920311506793
 31
0.0
  0
SPLINE
  5
4302
330
17
100
AcDbEntity
  8
additional
 48
0.5
100
AcDbSpline
210
0.0
220
0.0
230
1.0
 70
     8
 71
     3
 72
    18
 73
    14
 74
    12
 42
0.0000000001
 43
0.0000000001
 44
0.0000000001
 40
0.0
 40
0.0
 40
0.0
 40
0.0
 40
0.7826237921252379
 40
1.56524758425024
 40
2.96524758425016
 40
3.747871376375233
 40
4.530495168500292
 40
5.313118960625066
 40
6.095742752749941
 40
8.195742752750014
 40
8.978366544874813
 40
9.760990336999618
 40
10.54361412912479
 40
10.54361412912479
 40
10.54361412912479
 40
10.54361412912479
 10
702.9280151433805
 20
45.90394954223157
 30
0.0
 10
703.0405848266733
 20
45.66867007552274
 30
0.0
 10
703.2657241932591
 20
45.19811114210516
 30
0.0
 10
703.7853715715404
 20
44.3509131994769
 30
0.0
 10
703.7855265474686
 20
43.25694796241714
 30
0.0
 10
703.2654642907268
 20
42.4098752420456
 30
0.0
 10
702.9289861569085
 20
41.70361219428438
 30
0.0
 10
702.5866819419223
 20
40.99937323420794
 30
0.0
 10
701.9711348186411
 20
39.94285439738341
 30
0.0
 10
701.9703412441462
 20
38.56475394966358
 30
0.0
 10
702.58756918518
 20
37.50893166496219
 30
0.0
 10
702.9256266329305
 20
36.80270401154882
 30
0.0
 10
703.1605523065641
 20
36.33686769867076
 30
0.0
 10
703.2780151433811
 20
36.10394954223167
 30
0.0
 11
702.9280151433805
 21
45.90394954223157
 31
0.0
 11
703.2780151433811
 21
45.20394954223152
 31
0.0
 11
703.6280151433814
 21
44.50394954223155
 31
0.0
 11
703.6280151433814
 21
43.10394954223164
 31
0.0
 11
703.2780151433811
 21
42.4039495422316
 31
0.0
 11
702.9280151433805
 21
41.70394954223175
 31
0.0
 11
702.5780151433808
 21
41.00394954223175
 31
0.0
 11
702.228015143381
 21
40.30394954223171
 31
0.0
 11
702.228015143381
 21
38.20394954223164
 31
0.0
 11
702.5780151433808
 21
37.50394954223168
 31
0.0
 11
702.9280151433805
 21
36.80394954223166
 31
0.0
 11
703.2780151433811
 21
36.10394954223167
 31
0.0
  0
SPLINE
  5
4303
330
17
100
AcDbEntity
  8
additional
 48
0.5
100
AcDbSpline
210
0.0
220
0.0
230
1.0
 70
     8
 71
     3
 72
    18
 73
    14
 74
    12
 42
0.0000000001
 43
0.0000000001
 44
0.0000000001
 40
0.0
 40
0.0
 40
0.0
 40
0.0
 40
0.7826237921249328
 40
1.565247584249833
 40
2.965247584249754
 40
3.747871376374725
 40
4.53049516849948
 40
5.313118960624558
 40
6.095742752749433
 40
8.195742752749506
 40
8.978366544874305
 40
9.760990336999416
 40
10.54361412912428
 40
10.54361412912428
 40
10.54361412912428
 40
10.54361412912428
 10
704.6780151433812
 20
45.90394954223157
 30
0.0
 10
704.7905848266737
 20
45.66867007552272
 30
0.0
 10
705.0157241932591
 20
45.19811114210506
 30
0.0
 10
705.5353715715402
 20
44.35091319947685
 30
0.0
 10
705.535526547468
 20
43.25694796241717
 30
0.0
 10
705.0154642907268
 20
42.40987524204575
 30
0.0
 10
704.6789861569095
 20
41.703612194284
 30
0.0
 10
704.3366819419222
 20
40.99937323420816
 30
0.0
 10
703.7211348186412
 20
39.94285439738331
 30
0.0
 10
703.7203412441469
 20
38.56475394966371
 30
0.0
 10
704.3375691851797
 20
37.50893166496197
 30
0.0
 10
704.6756266329314
 20
36.80270401154917
 30
0.0
 10
704.9105523065646
 20
36.33686769867082
 30
0.0
 10
705.0280151433811
 20
36.10394954223167
 30
0.0
 11
704.6780151433812
 21
45.90394954223157
 31
0.0
 11
705.0280151433811
 21
45.20394954223152
 31
0.0
 11
705.3780151433811
 21
44.50394954223155
 31
0.0
 11
705.3780151433811
 21
43.10394954223164
 31
0.0
 11
705.0280151433811
 21
42.4039495422316
 31
0.0
 11
704.6780151433812
 21
41.70394954223175
 31
0.0
 11
704.3280151433808
 21
41.00394954223175
 31
0.0
 11
703.978015143381
 21
40.30394954223171
 31
0.0
 11
703.978015143381
 21
38.20394954223164
 31
0.0
 11
704.3280151433808
 21
37.50394954223168
 31
0.0
 11
704.6780151433812
 21
36.80394954223166
 31
0.0
 11
705.0280151433811
 21
36.10394954223167
 31
0.0
  0
LINE
  5
4304
330
17
100
AcDbEntity
  8
0
100
AcDbLine
 10
684.9404675128027
 20
38.86920311506793
 30
0.0
 11
702.0595113150027
 21
38.86920311506793
 31
0.0
  0
LINE
  5
4305
330
17
100
AcDbEntity
  8
0
100
AcDbLine
 10
684.9404675128027
 20
40.86920311506793
 30
0.0
 11
702.5052930138156
 21
40.86920311506793
 31
0.0
  0
LINE
  5
4306
330
17
100
AcDbEntity
  8
0
100
AcDbLine
 10
684.9404675128027
 20
42.86920311506793
 30
0.0
 11
703.5285223437254
 21
42.86920311506793
 31
0.0
  0
LINE
  5
4307
330
17
100
AcDbEntity
  8
0
100
AcDbLine
 10
739.7696745114302
 20
42.86920311506793
 30
0.0
 11
739.7696745114302
 21
38.86920311506793
 31
0.0
  0
LINE
  5
4308
330
17
100
AcDbEntity
  8
0
100
AcDbLine
 10
705.2785223437254
 20
42.86920311506793
 30
0.0
 11
739.7696745114294
 21
42.86920311506793
 31
0.0
  0
LINE
  5
4309
330
17
100
AcDbEntity
  8
0
100
AcDbLine
 10
703.8095113150027
 20
38.86920311506793
 30
0.0
 11
739.7696745114302
 21
38.86920311506793
 31
0.0
  0
LINE
  5
430A
330
17
100
AcDbEntity
  8
0
100
AcDbLine
 10
704.2552930138156
 20
40.86920311506793
 30
0.0
 11
739.7696745114302
 21
40.86920311506793
 31
0.0
  0
POINT
  5
430B
330
17
100
AcDbEntity
  8
0
100
AcDbPoint
 10
739.7696745114294
 20
42.86920311506793
 30
0.0
  0
POINT
  5
430C
330
17
100
AcDbEntity
  8
0
100
AcDbPoint
 10
739.7696745114302
 20
41.86920311506793
 30
0.0
  0
POINT
  5
430D
330
17
100
AcDbEntity
  8
0
100
AcDbPoint
 10
739.7696745114294
 20
38.86920311506793
 30
0.0
  0
POINT
  5
430E
330
17
100
AcDbEntity
  8
0
100
AcDbPoint
 10
739.7696745114302
 20
39.86920311506793
 30
0.0
  0
LINE
  5
430F
330
17
100
AcDbEntity
  8
0
100
AcDbLine
 10
739.7696745114302
 20
39.36920311506793
 30
0.0
 11
753.7696745114303
 21
39.36920311506793
 31
0.0
  0
LINE
  5
4310
330
17
100
AcDbEntity
  8
0
100
AcDbLine
 10
739.7696745114302
 20
40.36920311506793
 30
0.0
 11
753.7696745114303
 21
40.36920311506793
 31
0.0
  0
LINE
  5
4311
330
17
100
AcDbEntity
  8
0
100
AcDbLine
 10
739.7696745114302
 20
41.36920311506793
 30
0.0
 11
753.7696745114303
 21
41.36920311506793
 31
0.0
  0
LINE
  5
4312
330
17
100
AcDbEntity
  8
0
100
AcDbLine
 10
739.7696745114302
 20
42.36920311506793
 30
0.0
 11
753.7696745114303
 21
42.36920311506793
 31
0.0
  0
DIMENSION
  5
4313
330
17
100
AcDbEntity
  8
Z_OM_DIM
100
AcDbDimension
  2
*D1
 10
753.7696745114303
 20
-3.324513022559698
 30
0.0
 11
721.6550710121167
 21
-1.449513022559699
 31
0.0
 70
    32
  1
180 - 200
 71
     5
 42
64.22920699862721
  3
CatalogDxf
100
AcDbAlignedDimension
 13
689.5404675128031
 23
17.11920311506804
 33
0.0
 14
753.7696745114303
 24
39.36920311506793
 34
0.0
100
AcDbRotatedDimension
  0
LINE
  5
441F
330
17
100
AcDbEntity
  8
0
 48
0.5
100
AcDbLine
 10
612.0404675128031
 20
17.71920311506801
 30
0.0
 11
612.0404675128031
 21
15.11920311506799
 31
0.0
  0
LINE
  5
4420
330
17
100
AcDbEntity
  8
0
 48
0.5
100
AcDbLine
 10
612.0404675128031
 20
15.11920311506799
 30
0.0
 11
687.5404675128031
 21
15.11920311506799
 31
0.0
  0
LINE
  5
4421
330
17
100
AcDbEntity
  8
0
 48
0.5
100
AcDbLine
 10
689.5404675128031
 20
17.11920311506799
 30
0.0
 11
689.5404675128031
 21
38.86920311506799
 31
0.0
  0
LINE
  5
4422
330
17
100
AcDbEntity
  8
0
 48
0.5
100
AcDbLine
 10
689.5404675128027
 20
42.86920311506799
 30
0.0
 11
689.5404675128031
 21
64.61920311506799
 31
0.0
  0
LINE
  5
4423
330
17
100
AcDbEntity
  8
0
 48
0.5
100
AcDbLine
 10
687.5404675128031
 20
66.61920311506799
 30
0.0
 11
612.0404675128031
 21
66.61920311506799
 31
0.0
  0
LINE
  5
4424
330
17
100
AcDbEntity
  8
0
 48
0.5
100
AcDbLine
 10
612.0404675128031
 20
66.61920311506799
 30
0.0
 11
612.0404675128031
 21
64.01920311506795
 31
0.0
  0
LINE
  5
4425
330
17
100
AcDbEntity
  8
0
 48
0.5
100
AcDbLine
 10
612.0404675128031
 20
64.01920311506795
 30
0.0
 11
686.9404675128026
 21
64.01920311506795
 31
0.0
  0
LINE
  5
4426
330
17
100
AcDbEntity
  8
0
 48
0.5
100
AcDbLine
 10
686.9404675128026
 20
64.01920311506795
 30
0.0
 11
686.9404675128026
 21
42.86920311506803
 31
0.0
  0
LINE
  5
4427
330
17
100
AcDbEntity
  8
0
 48
0.5
100
AcDbLine
 10
686.9404675128026
 20
38.86920311506805
 30
0.0
 11
686.9404675128026
 21
17.71920311506801
 31
0.0
  0
LINE
  5
4428
330
17
100
AcDbEntity
  8
0
 48
0.5
100
AcDbLine
 10
686.9404675128026
 20
17.71920311506801
 30
0.0
 11
612.0404675128031
 21
17.71920311506801
 31
0.0
  0
LINE
  5
4429
330
17
100
AcDbEntity
  8
0
 48
0.5
100
AcDbLine
 10
684.9404675128027
 20
20.71920311506801
 30
0.0
 11
619.0404675128036
 21
20.71920311506801
 31
0.0
  0
ARC
  5
442A
330
17
100
AcDbEntity
  8
0
 48
0.5
100
AcDbCircle
 10
687.5404675128031
 20
17.11920311506804
 30
0.0
 40
2.0
100
AcDbArc
 50
270.0
 51
0.0
  0
ARC
  5
442B
330
17
100
AcDbEntity
  8
0
 48
0.5
100
AcDbCircle
 10
687.5404675128031
 20
64.61920311506805
 30
0.0
 40
2.0
100
AcDbArc
 50
0.0
 51
90.0
  0
LINE
  5
442C
330
17
100
AcDbEntity
  8
0
 48
0.5
100
AcDbLine
 10
616.740467512803
 20
17.71920311506801
 30
0.0
 11
616.740467512803
 21
64.01920311506795
 31
0.0
  0
LINE
  5
442D
330
17
100
AcDbEntity
  8
0
 48
0.5
100
AcDbLine
 10
616.740467512803
 20
18.86920311506798
 30
0.0
 11
613.5404675128032
 21
18.86920311506798
 31
0.0
  0
LINE
  5
442E
330
17
100
AcDbEntity
  8
0
 48
0.5
100
AcDbLine
 10
613.5404675128032
 20
18.86920311506798
 30
0.0
 11
613.5404675128032
 21
62.86920311506799
 31
0.0
  0
LINE
  5
442F
330
17
100
AcDbEntity
  8
0
 48
0.5
100
AcDbLine
 10
613.5404675128032
 20
62.86920311506799
 30
0.0
 11
616.740467512803
 21
62.86920311506799
 31
0.0
  0
LINE
  5
4430
330
17
100
AcDbEntity
  8
0
 48
0.5
100
AcDbLine
 10
616.740467512803
 20
62.86920311506799
 30
0.0
 11
616.740467512803
 21
18.86920311506798
 31
0.0
  0
LINE
  5
4431
330
17
100
AcDbEntity
  8
0
 48
0.5
100
AcDbLine
 10
613.5404675128032
 20
25.86920311506799
 30
0.0
 11
610.9404675128026
 21
25.86920311506799
 31
0.0
  0
LINE
  5
4432
330
17
100
AcDbEntity
  8
0
 48
0.5
100
AcDbLine
 10
610.9404675128026
 20
25.86920311506799
 30
0.0
 11
610.9404675128026
 21
55.86920311506799
 31
0.0
  0
LINE
  5
4433
330
17
100
AcDbEntity
  8
0
 48
0.5
100
AcDbLine
 10
610.9404675128026
 20
55.86920311506799
 30
0.0
 11
613.5404675128032
 21
55.86920311506799
 31
0.0
  0
LINE
  5
4434
330
17
100
AcDbEntity
  8
0
 48
0.5
100
AcDbLine
 10
684.9404675128027
 20
62.36920311506799
 30
0.0
 11
686.9404675128026
 21
62.36920311506799
 31
0.0
  0
LINE
  5
4435
330
17
100
AcDbEntity
  8
0
 48
0.5
100
AcDbLine
 10
686.9404675128026
 20
62.36920311506799
 30
0.0
 11
686.9404675128026
 21
42.86920311506799
 31
0.0
  0
LINE
  5
4436
330
17
100
AcDbEntity
  8
0
 48
0.5
100
AcDbLine
 10
686.9404675128026
 20
38.86920311506799
 30
0.0
 11
686.9404675128026
 21
19.36920311506798
 31
0.0
  0
LINE
  5
4437
330
17
100
AcDbEntity
  8
0
 48
0.5
100
AcDbLine
 10
686.9404675128026
 20
19.36920311506798
 30
0.0
 11
684.9404675128027
 21
19.36920311506798
 31
0.0
  0
LINE
  5
4438
330
17
100
AcDbEntity
  8
0
 48
0.5
100
AcDbLine
 10
684.9404675128027
 20
19.36920311506798
 30
0.0
 11
684.9404675128027
 21
62.36920311506799
 31
0.0
  0
LINE
  5
4439
330
17
100
AcDbEntity
  8
0
 48
0.5
100
AcDbLine
 10
619.0404675128036
 20
63.61920311506799
 30
0.0
 11
616.7404675128032
 21
63.61920311506799
 31
0.0
  0
LINE
  5
443A
330
17
100
AcDbEntity
  8
0
 48
0.5
100
AcDbLine
 10
616.7404675128032
 20
18.11920311506798
 30
0.0
 11
619.0404675128036
 21
18.11920311506798
 31
0.0
  0
LINE
  5
443B
330
17
100
AcDbEntity
  8
0
 48
0.5
100
AcDbLine
 10
619.0404675128036
 20
18.11920311506804
 30
0.0
 11
619.0404675128036
 21
63.61920311506799
 31
0.0
  0
LINE
  5
443C
330
17
100
AcDbEntity
  8
0
100
AcDbLine
 10
608.8404675128032
 20
48.35845311506796
 30
0.0
 11
597.0404675128031
 21
48.35845311506796
 31
0.0
  0
LINE
  5
443D
330
17
100
AcDbEntity
  8
0
100
AcDbLine
 10
596.5404675128032
 20
47.85845311506796
 30
0.0
 11
596.5404675128032
 21
42.86920311506793
 31
0.0
  0
LINE
  5
443E
330
17
100
AcDbEntity
  8
0
100
AcDbLine
 10
597.0404675128031
 20
48.35845311506796
 30
0.0
 11
596.5404675128032
 21
47.85845311506796
 31
0.0
  0
LINE
  5
443F
330
17
100
AcDbEntity
  8
0
100
AcDbLine
 10
596.5404675128032
 20
38.86920311506793
 30
0.0
 11
596.5404675128032
 21
33.87995311506796
 31
0.0
  0
LINE
  5
4440
330
17
100
AcDbEntity
  8
0
100
AcDbLine
 10
597.0404675128031
 20
33.37995311506797
 30
0.0
 11
608.8404675128032
 21
33.37995311506797
 31
0.0
  0
LINE
  5
4441
330
17
100
AcDbEntity
  8
0
100
AcDbLine
 10
608.9404675128027
 20
33.47995311506799
 30
0.0
 11
608.8404675128032
 21
33.37995311506797
 31
0.0
  0
LINE
  5
4442
330
17
100
AcDbEntity
  8
0
100
AcDbLine
 10
596.5404675128032
 20
33.87995311506796
 30
0.0
 11
597.0404675128031
 21
33.37995311506797
 31
0.0
  0
LINE
  5
4443
330
17
100
AcDbEntity
  8
0
100
AcDbLine
 10
608.9404675128027
 20
33.47995311506799
 30
0.0
 11
608.9404675128027
 21
48.258453115068
 31
0.0
  0
LINE
  5
4444
330
17
100
AcDbEntity
  8
0
100
AcDbLine
 10
608.8404675128032
 20
48.35845311506796
 30
0.0
 11
608.9404675128027
 21
48.258453115068
 31
0.0
  0
LINE
  5
4445
330
17
100
AcDbEntity
  8
0
100
AcDbLine
 10
596.5404675128032
 20
42.86920311506793
 30
0.0
 11
606.5404675128031
 21
42.86920311506793
 31
0.0
  0
LINE
  5
4446
330
17
100
AcDbEntity
  8
0
100
AcDbLine
 10
606.5404675128031
 20
42.86920311506793
 30
0.0
 11
606.5404675128031
 21
38.86920311506793
 31
0.0
  0
LINE
  5
4447
330
17
100
AcDbEntity
  8
0
100
AcDbLine
 10
606.5404675128031
 20
38.86920311506793
 30
0.0
 11
596.5404675128032
 21
38.86920311506793
 31
0.0
  0
LINE
  5
4448
330
17
100
AcDbEntity
  8
0
100
AcDbLine
 10
472.9462174508856
 20
-92.30607857610792
 30
0.0
 11
524.4462174508854
 21
-92.30607857610792
 31
0.0
  0
LINE
  5
4449
330
17
100
AcDbEntity
  8
0
100
AcDbLine
 10
524.4462174508854
 20
-92.30607857610792
 30
0.0
 11
524.4462174508854
 21
-48.30607857610795
 31
0.0
  0
LINE
  5
444A
330
17
100
AcDbEntity
  8
0
100
AcDbLine
 10
524.4462174508854
 20
-48.30607857610795
 30
0.0
 11
472.9462174508856
 21
-48.30607857610795
 31
0.0
  0
LINE
  5
444B
330
17
100
AcDbEntity
  8
0
100
AcDbLine
 10
472.9462174508856
 20
-48.30607857610795
 30
0.0
 11
472.9462174508856
 21
-92.30607857610792
 31
0.0
  0
CIRCLE
  5
444C
330
17
100
AcDbEntity
  8
0
100
AcDbCircle
 10
498.6962174508856
 20
-70.30607857610792
 30
0.0
 40
15.0
  0
CIRCLE
  5
444D
330
17
100
AcDbEntity
  8
0
100
AcDbCircle
 10
498.6962174508856
 20
-70.30607857610792
 30
0.0
 40
7.492499999999934
  0
LINE
  5
444E
330
17
100
AcDbEntity
  8
0
100
AcDbLine
 10
496.6462174508854
 20
-77.51267668131672
 30
0.0
 11
496.6462174508854
 21
-63.09948047089911
 31
0.0
  0
LINE
  5
444F
330
17
100
AcDbEntity
  8
0
100
AcDbLine
 10
500.7462174508858
 20
-77.51267668131679
 30
0.0
 11
500.7462174508858
 21
-63.09948047089911
 31
0.0
  0
LINE
  5
4450
330
17
100
AcDbEntity
  8
0
100
AcDbLine
 10
472.9462174508856
 20
-57.80607857610792
 30
0.0
 11
475.546217450886
 21
-57.80607857610792
 31
0.0
  0
LINE
  5
4451
330
17
100
AcDbEntity
  8
0
100
AcDbLine
 10
475.546217450886
 20
-60.27857857610789
 30
0.0
 11
475.546217450886
 21
-48.30607857610795
 31
0.0
  0
LINE
  5
4452
330
17
100
AcDbEntity
  8
0
100
AcDbLine
 10
472.9462174508856
 20
-54.80607857610792
 30
0.0
 11
475.546217450886
 21
-54.80607857610792
 31
0.0
  0
LINE
  5
4453
330
17
100
AcDbEntity
  8
0
100
AcDbLine
 10
472.9462174508856
 20
-60.27857857610789
 30
0.0
 11
475.546217450886
 21
-60.27857857610789
 31
0.0
  0
LINE
  5
4454
330
17
100
AcDbEntity
  8
0
100
AcDbLine
 10
472.9462174508856
 20
-82.80607857610792
 30
0.0
 11
475.546217450886
 21
-82.80607857610792
 31
0.0
  0
LINE
  5
4455
330
17
100
AcDbEntity
  8
0
100
AcDbLine
 10
475.546217450886
 20
-80.3335785761079
 30
0.0
 11
475.546217450886
 21
-92.30607857610792
 31
0.0
  0
LINE
  5
4456
330
17
100
AcDbEntity
  8
0
100
AcDbLine
 10
472.9462174508856
 20
-85.80607857610791
 30
0.0
 11
475.546217450886
 21
-85.80607857610791
 31
0.0
  0
LINE
  5
4457
330
17
100
AcDbEntity
  8
0
100
AcDbLine
 10
472.9462174508856
 20
-80.3335785761079
 30
0.0
 11
475.546217450886
 21
-80.3335785761079
 31
0.0
  0
LINE
  5
4458
330
17
100
AcDbEntity
  8
0
100
AcDbLine
 10
524.4462174508854
 20
-48.30607857610795
 30
0.0
 11
524.4462174508854
 21
-92.30607857610792
 31
0.0
  0
LINE
  5
4459
330
17
100
AcDbEntity
  8
0
100
AcDbLine
 10
524.4462174508854
 20
-57.80607857610792
 30
0.0
 11
521.8462174508852
 21
-57.80607857610792
 31
0.0
  0
LINE
  5
445A
330
17
100
AcDbEntity
  8
0
100
AcDbLine
 10
521.8462174508852
 20
-60.27857857610789
 30
0.0
 11
521.8462174508852
 21
-48.30607857610795
 31
0.0
  0
LINE
  5
445B
330
17
100
AcDbEntity
  8
0
100
AcDbLine
 10
524.4462174508854
 20
-54.80607857610792
 30
0.0
 11
521.8462174508852
 21
-54.80607857610792
 31
0.0
  0
LINE
  5
445C
330
17
100
AcDbEntity
  8
0
100
AcDbLine
 10
524.4462174508854
 20
-60.27857857610789
 30
0.0
 11
521.8462174508852
 21
-60.27857857610789
 31
0.0
  0
LINE
  5
445D
330
17
100
AcDbEntity
  8
0
100
AcDbLine
 10
524.4462174508854
 20
-82.80607857610792
 30
0.0
 11
521.8462174508852
 21
-82.80607857610792
 31
0.0
  0
LINE
  5
445E
330
17
100
AcDbEntity
  8
0
100
AcDbLine
 10
521.8462174508852
 20
-80.3335785761079
 30
0.0
 11
521.8462174508852
 21
-92.30607857610792
 31
0.0
  0
LINE
  5
445F
330
17
100
AcDbEntity
  8
0
100
AcDbLine
 10
524.4462174508854
 20
-85.80607857610791
 30
0.0
 11
521.8462174508852
 21
-85.80607857610791
 31
0.0
  0
LINE
  5
4460
330
17
100
AcDbEntity
  8
0
100
AcDbLine
 10
524.4462174508854
 20
-80.3335785761079
 30
0.0
 11
521.8462174508852
 21
-80.3335785761079
 31
0.0
  0
LINE
  5
4461
330
17
100
AcDbEntity
  8
0
 48
0.5
100
AcDbLine
 10
684.9404675128027
 20
61.01920311506797
 30
0.0
 11
619.0404675128036
 21
61.01920311506797
 31
0.0
  0
LINE
  5
4462
330
17
100
AcDbEntity
  8
0
 48
0.5
100
AcDbLine
 10
612.0404675128031
 20
-48.30607857610782
 30
0.0
 11
612.0404675128031
 21
-54.80607857610785
 31
0.0
  0
LINE
  5
4463
330
17
100
AcDbEntity
  8
0
 48
0.5
100
AcDbLine
 10
612.0404675128031
 20
-57.80607857610785
 30
0.0
 11
612.0404675128031
 21
-60.27857857610783
 31
0.0
  0
LINE
  5
4464
330
17
100
AcDbEntity
  8
0
 48
0.5
100
AcDbLine
 10
616.740467512803
 20
-60.27857857610793
 30
0.0
 11
616.740467512803
 21
-80.3335785761079
 31
0.0
  0
LINE
  5
4465
330
17
100
AcDbEntity
  8
0
 48
0.5
100
AcDbLine
 10
614.0404675128031
 20
-48.30607857610782
 30
0.0
 11
689.5404675128031
 21
-48.30607857610782
 31
0.0
  0
LINE
  5
4466
330
17
100
AcDbEntity
  8
0
 48
0.5
100
AcDbLine
 10
689.5404675128031
 20
-48.30607857610782
 30
0.0
 11
689.5404675128031
 21
-92.30607857610786
 31
0.0
  0
LINE
  5
4467
330
17
100
AcDbEntity
  8
0
 48
0.5
100
AcDbLine
 10
689.5404675128031
 20
-92.30607857610786
 30
0.0
 11
614.0404675128031
 21
-92.30607857610786
 31
0.0
  0
ARC
  5
4468
330
17
100
AcDbEntity
  8
0
 48
0.5
100
AcDbCircle
 10
614.0404675128031
 20
-56.30607857610787
 30
0.0
 40
1.5
100
AcDbArc
 50
270.0
 51
90.0
  0
LINE
  5
4469
330
17
100
AcDbEntity
  8
0
 48
0.5
100
AcDbLine
 10
612.0404675128031
 20
-54.80607857610785
 30
0.0
 11
614.0404675128031
 21
-54.80607857610785
 31
0.0
  0
LINE
  5
446A
330
17
100
AcDbEntity
  8
0
 48
0.5
100
AcDbLine
 10
612.0404675128031
 20
-92.30607857610786
 30
0.0
 11
612.0404675128031
 21
-85.80607857610784
 31
0.0
  0
ARC
  5
446B
330
17
100
AcDbEntity
  8
0
 48
0.5
100
AcDbCircle
 10
614.0404675128031
 20
-84.30607857610786
 30
0.0
 40
1.5
100
AcDbArc
 50
270.0
 51
90.0
  0
LINE
  5
446C
330
17
100
AcDbEntity
  8
0
 48
0.5
100
AcDbLine
 10
612.0404675128031
 20
-85.80607857610784
 30
0.0
 11
614.0404675128031
 21
-85.80607857610784
 31
0.0
  0
LINE
  5
446D
330
17
100
AcDbEntity
  8
0
 48
0.5
100
AcDbLine
 10
613.5404675128032
 20
-82.80607857610787
 30
0.0
 11
614.0404675128031
 21
-82.80607857610787
 31
0.0
  0
LINE
  5
446E
330
17
100
AcDbEntity
  8
0
 48
0.5
100
AcDbLine
 10
608.9404675128027
 20
-62.81357857610792
 30
0.0
 11
597.0404675128031
 21
-62.81357857610792
 31
0.0
  0
LINE
  5
446F
330
17
100
AcDbEntity
  8
0
 48
0.5
100
AcDbLine
 10
608.9404675128027
 20
-77.79857857610782
 30
0.0
 11
597.0404675128031
 21
-77.79857857610782
 31
0.0
  0
LINE
  5
4470
330
17
100
AcDbEntity
  8
0
 48
0.5
100
AcDbLine
 10
596.5404675128032
 20
-63.31357857610786
 30
0.0
 11
596.5404675128032
 21
-77.29857857610777
 31
0.0
  0
LINE
  5
4471
330
17
100
AcDbEntity
  8
0
 48
0.5
100
AcDbLine
 10
597.0404675128031
 20
-62.81357857610785
 30
0.0
 11
596.5404675128032
 21
-63.31357857610786
 31
0.0
  0
LINE
  5
4472
330
17
100
AcDbEntity
  8
0
 48
0.5
100
AcDbLine
 10
596.5404675128032
 20
-77.29857857610777
 30
0.0
 11
597.0404675128031
 21
-77.79857857610775
 31
0.0
  0
LINE
  5
4473
330
17
100
AcDbEntity
  8
0
 48
0.5
100
AcDbLine
 10
616.740467512803
 20
-48.30607857610782
 30
0.0
 11
612.0404675128031
 21
-48.30607857610782
 31
0.0
  0
LINE
  5
4474
330
17
100
AcDbEntity
  8
0
 48
0.5
100
AcDbLine
 10
613.5404675128032
 20
-54.80607857610785
 30
0.0
 11
613.5404675128032
 21
-57.80607857610785
 31
0.0
  0
LINE
  5
4475
330
17
100
AcDbEntity
  8
0
 48
0.5
100
AcDbLine
 10
612.0404675128031
 20
-92.30607857610786
 30
0.0
 11
616.740467512803
 21
-92.30607857610786
 31
0.0
  0
LINE
  5
4476
330
17
100
AcDbEntity
  8
0
 48
0.5
100
AcDbLine
 10
616.740467512803
 20
-80.33357857610784
 30
0.0
 11
616.740467512803
 21
-60.27857857610783
 31
0.0
  0
LINE
  5
4477
330
17
100
AcDbEntity
  8
0
 48
0.5
100
AcDbLine
 10
613.5404675128032
 20
-55.30607857610785
 30
0.0
 11
610.9404675128026
 21
-55.30607857610785
 31
0.0
  0
LINE
  5
4478
330
17
100
AcDbEntity
  8
0
 48
0.5
100
AcDbLine
 10
610.9404675128026
 20
-85.30607857610787
 30
0.0
 11
613.5404675128032
 21
-85.30607857610787
 31
0.0
  0
LINE
  5
4479
330
17
100
AcDbEntity
  8
0
 48
0.5
100
AcDbLine
 10
613.5404675128032
 20
-82.80607857610787
 30
0.0
 11
613.5404675128032
 21
-85.80607857610784
 31
0.0
  0
CIRCLE
  5
447A
330
17
100
AcDbEntity
  8
0
100
AcDbCircle
 10
601.5404675128031
 20
-70.30607857610785
 30
0.0
 40
2.0
  0
LINE
  5
447B
330
17
100
AcDbEntity
  8
0
 48
0.5
100
AcDbLine
 10
690.0404675128031
 20
-72.77107857610778
 30
0.0
 11
690.0404675128031
 21
-67.84107857610783
 31
0.0
  0
LINE
  5
447C
330
17
100
AcDbEntity
  8
0
100
AcDbLine
 10
690.0404675128031
 20
-67.84107857610783
 30
0.0
 11
689.5404675128031
 21
-67.84107857610783
 31
0.0
  0
LINE
  5
447D
330
17
100
AcDbEntity
  8
0
100
AcDbLine
 10
690.0404675128031
 20
-72.77107857610778
 30
0.0
 11
689.5404675128031
 21
-72.77107857610778
 31
0.0
  0
LINE
  5
447E
330
17
100
AcDbEntity
  8
0
 48
0.5
100
AcDbLine
 10
613.5404675128032
 20
-60.27857857610793
 30
0.0
 11
613.5404675128032
 21
-80.3335785761079
 31
0.0
  0
LINE
  5
447F
330
17
100
AcDbEntity
  8
0
 48
0.5
100
AcDbLine
 10
612.0404675128031
 20
-60.27857857610783
 30
0.0
 11
616.740467512803
 21
-60.27857857610783
 31
0.0
  0
LINE
  5
4480
330
17
100
AcDbEntity
  8
0
 48
0.5
100
AcDbLine
 10
612.0404675128031
 20
-57.80607857610785
 30
0.0
 11
614.0404675128031
 21
-57.80607857610785
 31
0.0
  0
LINE
  5
4481
330
17
100
AcDbEntity
  8
0
 48
0.5
100
AcDbLine
 10
695.6820899084178
 20
-48.30607857610782
 30
0.0
 11
689.5404675128031
 21
-48.30607857610782
 31
0.0
  0
LINE
  5
4482
330
17
100
AcDbEntity
  8
0
 48
0.5
100
AcDbLine
 10
684.9404675128027
 20
-48.30607857610782
 30
0.0
 11
684.9404675128027
 21
-46.30607857610782
 31
0.0
  0
CIRCLE
  5
4483
330
17
100
AcDbEntity
  8
additional
  6
HIDDEN2
100
AcDbCircle
 10
631.5404675128031
 20
-55.30607857610792
 30
0.0
 40
1.5
  0
CIRCLE
  5
4484
330
17
100
AcDbEntity
  8
0
 48
0.5
100
AcDbCircle
 10
631.5404675128031
 20
-55.30607857610792
 30
0.0
 40
1.25
  0
CIRCLE
  5
4485
330
17
100
AcDbEntity
  8
additional
  6
HIDDEN2
100
AcDbCircle
 10
671.5404675128032
 20
-55.30607857610792
 30
0.0
 40
1.5
  0
CIRCLE
  5
4486
330
17
100
AcDbEntity
  8
0
 48
0.5
100
AcDbCircle
 10
671.5404675128032
 20
-55.30607857610792
 30
0.0
 40
1.25
  0
CIRCLE
  5
4487
330
17
100
AcDbEntity
  8
additional
  6
HIDDEN2
 48
0.5
100
AcDbCircle
 10
631.5404675128031
 20
-85.30607857610792
 30
0.0
 40
1.5
  0
CIRCLE
  5
4488
330
17
100
AcDbEntity
  8
0
100
AcDbCircle
 10
631.5404675128031
 20
-85.30607857610792
 30
0.0
 40
1.25
  0
CIRCLE
  5
4489
330
17
100
AcDbEntity
  8
additional
  6
HIDDEN2
100
AcDbCircle
 10
671.5404675128032
 20
-85.30607857610792
 30
0.0
 40
1.5
  0
CIRCLE
  5
448A
330
17
100
AcDbEntity
  8
0
 48
0.5
100
AcDbCircle
 10
671.5404675128032
 20
-85.30607857610792
 30
0.0
 40
1.25
  0
LINE
  5
448B
330
17
100
AcDbEntity
  8
0
100
AcDbLine
 10
608.9404675128027
 20
52.36920311506793
 30
0.0
 11
609.9404675128027
 21
52.36920311506793
 31
0.0
  0
LINE
  5
448C
330
17
100
AcDbEntity
  8
0
100
AcDbLine
 10
609.9404675128027
 20
52.36920311506793
 30
0.0
 11
609.9404675128027
 21
29.36920311506793
 31
0.0
  0
LINE
  5
448D
330
17
100
AcDbEntity
  8
0
100
AcDbLine
 10
609.9404675128027
 20
29.36920311506793
 30
0.0
 11
608.9404675128027
 21
29.36920311506793
 31
0.0
  0
LINE
  5
448E
330
17
100
AcDbEntity
  8
0
100
AcDbLine
 10
608.9404675128027
 20
29.36920311506793
 30
0.0
 11
608.9404675128027
 21
52.36920311506793
 31
0.0
  0
LINE
  5
448F
330
17
100
AcDbEntity
  8
0
100
AcDbLine
 10
609.9404675128027
 20
52.36920311506793
 30
0.0
 11
610.9404675128026
 21
52.36920311506793
 31
0.0
  0
LINE
  5
4490
330
17
100
AcDbEntity
  8
0
100
AcDbLine
 10
610.9404675128026
 20
52.36920311506793
 30
0.0
 11
610.9404675128026
 21
29.36920311506793
 31
0.0
  0
LINE
  5
4491
330
17
100
AcDbEntity
  8
0
100
AcDbLine
 10
610.9404675128026
 20
29.36920311506793
 30
0.0
 11
609.9404675128027
 21
29.36920311506793
 31
0.0
  0
LINE
  5
4492
330
17
100
AcDbEntity
  8
0
100
AcDbLine
 10
609.9404675128027
 20
29.36920311506793
 30
0.0
 11
609.9404675128027
 21
52.36920311506793
 31
0.0
  0
LINE
  5
4493
330
17
100
AcDbEntity
  8
0
100
AcDbLine
 10
608.9404675128027
 20
-58.80607857610792
 30
0.0
 11
609.9404675128027
 21
-58.80607857610792
 31
0.0
  0
LINE
  5
4494
330
17
100
AcDbEntity
  8
0
100
AcDbLine
 10
609.9404675128027
 20
-58.80607857610792
 30
0.0
 11
609.9404675128027
 21
-81.80607857610793
 31
0.0
  0
LINE
  5
4495
330
17
100
AcDbEntity
  8
0
100
AcDbLine
 10
609.9404675128027
 20
-81.80607857610793
 30
0.0
 11
608.9404675128027
 21
-81.80607857610793
 31
0.0
  0
LINE
  5
4496
330
17
100
AcDbEntity
  8
0
100
AcDbLine
 10
608.9404675128027
 20
-81.80607857610793
 30
0.0
 11
608.9404675128027
 21
-58.80607857610792
 31
0.0
  0
LINE
  5
4497
330
17
100
AcDbEntity
  8
0
100
AcDbLine
 10
609.9404675128027
 20
-58.80607857610792
 30
0.0
 11
610.9404675128026
 21
-58.80607857610792
 31
0.0
  0
LINE
  5
4498
330
17
100
AcDbEntity
  8
0
100
AcDbLine
 10
610.9404675128026
 20
-58.80607857610792
 30
0.0
 11
610.9404675128026
 21
-81.80607857610793
 31
0.0
  0
LINE
  5
4499
330
17
100
AcDbEntity
  8
0
100
AcDbLine
 10
610.9404675128026
 20
-81.80607857610793
 30
0.0
 11
609.9404675128027
 21
-81.80607857610793
 31
0.0
  0
LINE
  5
449A
330
17
100
AcDbEntity
  8
0
100
AcDbLine
 10
609.9404675128027
 20
-81.80607857610793
 30
0.0
 11
609.9404675128027
 21
-58.80607857610792
 31
0.0
  0
LINE
  5
449B
330
17
100
AcDbEntity
  8
0
 48
0.5
100
AcDbLine
 10
610.9404675128026
 20
-55.30607857610785
 30
0.0
 11
610.9404675128026
 21
-85.30607857610787
 31
0.0
  0
ARC
  5
449C
330
17
100
AcDbEntity
  8
0
100
AcDbCircle
 10
498.6962174508856
 20
-70.30607857610792
 30
0.0
 40
11.5
100
AcDbArc
 50
306.210827037642
 51
233.7891729623579
  0
ARC
  5
449D
330
17
100
AcDbEntity
  8
0
100
AcDbCircle
 10
498.6962174508856
 20
-70.30607857610792
 30
0.0
 40
9.099999999999999
100
AcDbArc
 50
117.0916460844218
 51
172.9083539156105
  0
ARC
  5
449E
330
17
100
AcDbEntity
  8
0
100
AcDbCircle
 10
498.6962174508856
 20
-70.30607857610792
 30
0.0
 40
9.099999999999999
100
AcDbArc
 50
7.091646084389489
 51
62.90835391557815
  0
ARC
  5
449F
330
17
100
AcDbEntity
  8
0
100
AcDbCircle
 10
504.8991779871469
 20
-78.77798984721917
 30
0.0
 40
1.0
100
AcDbArc
 50
200.0000000000171
 51
306.210827037642
  0
ARC
  5
44A0
330
17
100
AcDbEntity
  8
0
100
AcDbCircle
 10
492.4932569146243
 20
-78.7779898472193
 30
0.0
 40
1.0
100
AcDbArc
 50
233.7891729623579
 51
339.9999999999829
  0
LINE
  5
44A1
330
17
100
AcDbEntity
  8
0
100
AcDbLine
 10
493.4329495354098
 20
-79.12000999054491
 30
0.0
 11
494.4053884771921
 21
-76.44825595619986
 31
0.0
  0
LINE
  5
44A2
330
17
100
AcDbEntity
  8
0
100
AcDbLine
 10
490.6581828652417
 20
-70.30607857610802
 30
0.0
 11
491.2037174508853
 21
-70.30607857610799
 31
0.0
  0
ARC
  5
44A3
330
17
100
AcDbEntity
  8
0
100
AcDbCircle
 10
490.6581828652417
 20
-69.30607857610792
 30
0.0
 40
1.0
100
AcDbArc
 50
172.9083539156105
 51
270.0
  0
LINE
  5
44A4
330
17
100
AcDbEntity
  8
0
100
AcDbLine
 10
502.987046424579
 20
-76.4482559561997
 30
0.0
 11
503.9594853663613
 21
-79.1200099905448
 31
0.0
  0
ARC
  5
44A5
330
17
100
AcDbEntity
  8
0
100
AcDbCircle
 10
506.7342520365293
 20
-69.30607857610802
 30
0.0
 40
1.0
100
AcDbArc
 50
270.0
 51
7.091646084389489
  0
LINE
  5
44A6
330
17
100
AcDbEntity
  8
0
100
AcDbLine
 10
506.1887174508858
 20
-70.30607857610802
 30
0.0
 11
506.7342520365293
 21
-70.30607857610802
 31
0.0
  0
LINE
  5
44A7
330
17
100
AcDbEntity
  8
0
100
AcDbLine
 10
495.9470477098468
 20
-62.75279679035683
 30
0.0
 11
496.1336315270185
 21
-63.26543161486952
 31
0.0
  0
ARC
  5
44A8
330
17
100
AcDbEntity
  8
0
100
AcDbCircle
 10
495.0073550890612
 20
-63.09481693368244
 30
0.0
 40
1.0
100
AcDbArc
 50
20.00000000001094
 51
117.0916460844218
  0
LINE
  5
44A9
330
17
100
AcDbEntity
  8
0
100
AcDbLine
 10
501.4453871919243
 20
-62.75279679035683
 30
0.0
 11
501.2588033747536
 21
-63.26543161486958
 31
0.0
  0
ARC
  5
44AA
330
17
100
AcDbEntity
  8
0
100
AcDbCircle
 10
502.3850798127099
 20
-63.09481693368255
 30
0.0
 40
1.0
100
AcDbArc
 50
62.90835391557815
 51
159.9999999999829
  0
LINE
  5
44AC
330
17
100
AcDbEntity
  8
0
100
AcDbLine
 10
597.0404675128031
 20
48.35845311506796
 30
0.0
 11
597.0404675128031
 21
42.86920311506799
 31
0.0
  0
LINE
  5
44AD
330
17
100
AcDbEntity
  8
0
100
AcDbLine
 10
597.0404675128031
 20
33.37995311506797
 30
0.0
 11
597.0404675128031
 21
38.86920311506799
 31
0.0
  0
LINE
  5
44AE
330
17
100
AcDbEntity
  8
0
100
AcDbLine
 10
597.0404675128031
 20
-62.81357857610792
 30
0.0
 11
597.0404675128031
 21
-77.79857857610782
 31
0.0
  0
ARC
  5
44AF
330
17
100
AcDbEntity
  8
0
100
AcDbCircle
 10
498.6962174508856
 20
-70.30607857610792
 30
0.0
 40
6.992500000000048
100
AcDbArc
 50
107.0479101595413
 51
252.9520898404586
  0
ARC
  5
44B0
330
17
100
AcDbEntity
  8
0
100
AcDbCircle
 10
498.6962174508856
 20
-70.30607857610792
 30
0.0
 40
6.992500000000048
100
AcDbArc
 50
287.0479101595413
 51
72.95208984045867
  0
LINE
  5
44B1
330
17
100
AcDbEntity
  8
additional
  6
CENTER2
100
AcDbLine
 10
529.4299702581618
 20
-70.30607857610785
 30
0.0
 11
468.201385743402
 21
-70.30607857610792
 31
0.0
  0
LINE
  5
44B2
330
17
100
AcDbEntity
  8
additional
  6
CENTER2
100
AcDbLine
 10
498.6962174508856
 20
-96.89194098194985
 30
0.0
 11
498.6962174508856
 21
-41.46312431881944
 31
0.0
  0
LINE
  5
44B3
330
17
100
AcDbEntity
  8
additional
 48
0.5
100
AcDbLine
 10
527.2027361653377
 20
-55.30607857610798
 30
0.0
 11
519.4659297576506
 21
-55.30607857610798
 31
0.0
  0
LINE
  5
44B4
330
17
100
AcDbEntity
  8
additional
 48
0.5
100
AcDbLine
 10
527.2027361653377
 20
-85.30607857610775
 30
0.0
 11
519.4659297576506
 21
-85.30607857610775
 31
0.0
  0
LINE
  5
44B5
330
17
100
AcDbEntity
  8
additional
 48
0.5
100
AcDbLine
 10
470.1896987364333
 20
-55.30607857610798
 30
0.0
 11
477.9265051441204
 21
-55.30607857610798
 31
0.0
  0
LINE
  5
44B6
330
17
100
AcDbEntity
  8
additional
 48
0.5
100
AcDbLine
 10
470.1896987364333
 20
-85.30607857610775
 30
0.0
 11
477.9265051441204
 21
-85.30607857610775
 31
0.0
  0
LINE
  5
44B7
330
17
100
AcDbEntity
  8
additional
  6
CENTER2
100
AcDbLine
 10
631.5404675128031
 20
-49.9605910676238
 30
0.0
 11
631.5404675128031
 21
-90.7703474928668
 31
0.0
  0
LINE
  5
44B8
330
17
100
AcDbEntity
  8
additional
  6
CENTER2
100
AcDbLine
 10
625.1339461064318
 20
-55.30607857610789
 30
0.0
 11
677.9491939100433
 21
-55.30607857610789
 31
0.0
  0
LINE
  5
44B9
330
17
100
AcDbEntity
  8
additional
  6
CENTER2
100
AcDbLine
 10
601.5404675128031
 20
-58.68501136128887
 30
0.0
 11
601.5404675128031
 21
-82.17931978404321
 31
0.0
  0
LINE
  5
44BA
330
17
100
AcDbEntity
  8
additional
  6
CENTER2
100
AcDbLine
 10
591.9657479459117
 20
-70.30607857610789
 30
0.0
 11
694.2924265552327
 21
-70.30607857610789
 31
0.0
  0
LINE
  5
44BB
330
17
100
AcDbEntity
  8
additional
  6
CENTER2
100
AcDbLine
 10
671.5404675128032
 20
-49.96059106762382
 30
0.0
 11
671.5404675128032
 21
-90.77034749286676
 31
0.0
  0
LINE
  5
44BC
330
17
100
AcDbEntity
  8
additional
100
AcDbLine
 10
631.5404675128031
 20
12.61431559811575
 30
0.0
 11
631.5404675128031
 21
22.23144079473008
 31
0.0
  0
LINE
  5
44BD
330
17
100
AcDbEntity
  8
additional
100
AcDbLine
 10
671.5404675128032
 20
12.61431559811575
 30
0.0
 11
671.5404675128032
 21
22.23144079473008
 31
0.0
  0
LINE
  5
44BE
330
17
100
AcDbEntity
  8
additional
100
AcDbLine
 10
631.5404675128031
 20
69.12409063202023
 30
0.0
 11
631.5404675128031
 21
59.5069654354059
 31
0.0
  0
LINE
  5
44BF
330
17
100
AcDbEntity
  8
additional
100
AcDbLine
 10
671.5404675128032
 20
69.12409063202028
 30
0.0
 11
671.5404675128032
 21
59.50696543540596
 31
0.0
  0
LINE
  5
44C4
330
17
100
AcDbEntity
  8
0
 48
0.5
100
AcDbLine
 10
700.3793251238626
 20
-46.30607857610782
 30
0.0
 11
684.9404675128027
 21
-46.30607857610782
 31
0.0
  0
LINE
  5
44C5
330
17
100
AcDbEntity
  8
0
 48
0.5
100
AcDbLine
 10
699.4305589798736
 20
-48.30607857610782
 30
0.0
 11
684.9404675128027
 21
-48.30607857610782
 31
0.0
  0
LINE
  5
44C7
330
17
100
AcDbEntity
  8
0
 48
0.5
100
AcDbLine
 10
684.9404675128027
 20
-45.70607857610781
 30
0.0
 11
684.9404675128027
 21
-48.30607857610782
 31
0.0
  0
LINE
  5
44C8
330
17
100
AcDbEntity
  8
0
 48
0.5
100
AcDbLine
 10
684.9404675128027
 20
-45.70607857610781
 30
0.0
 11
639.4541820651048
 21
-45.70607857610781
 31
0.0
  0
LINE
  5
44C9
330
17
100
AcDbEntity
  8
0
 48
0.5
100
AcDbLine
 10
619.040467512804
 20
-48.30607857610782
 30
0.0
 11
639.4541820651048
 21
-45.70607857610781
 31
0.0
  0
LINE
  5
44CA
330
17
100
AcDbEntity
  8
0
 48
0.5
100
AcDbLine
 10
503.6962174508856
 20
-45.70607857610781
 30
0.0
 11
493.6962174508856
 21
-45.70607857610781
 31
0.0
  0
LINE
  5
44CB
330
17
100
AcDbEntity
  8
0
 48
0.5
100
AcDbLine
 10
503.6962174508856
 20
-45.70607857610781
 30
0.0
 11
518.6962174508854
 21
-48.306078576108
 31
0.0
  0
LINE
  5
44CC
330
17
100
AcDbEntity
  8
0
 48
0.5
100
AcDbLine
 10
493.6962174508856
 20
-45.70607857610781
 30
0.0
 11
478.6962174508856
 21
-48.306078576108
 31
0.0
  0
LINE
  5
44CD
330
17
100
AcDbEntity
  8
additional
  6
CENTER2
100
AcDbLine
 10
601.5404675128031
 20
52.49027032988698
 30
0.0
 11
601.5404675128031
 21
28.99596190713265
 31
0.0
  0
LINE
  5
44CE
330
17
100
AcDbEntity
  8
additional
  6
CENTER2
100
AcDbLine
 10
625.1339461064318
 20
-85.30607857610789
 30
0.0
 11
677.9491939100433
 21
-85.30607857610789
 31
0.0
  0
LINE
  5
44CF
330
17
100
AcDbEntity
  8
additional
  6
CENTER2
100
AcDbLine
 10
591.9657479459117
 20
40.86920311506793
 30
0.0
 11
684.9404675128027
 21
40.86920311506793
 31
0.0
  0
LINE
  5
44D0
330
17
100
AcDbEntity
  8
0
 48
0.5
100
AcDbLine
 10
612.0404675128026
 20
-82.80607857610799
 30
0.0
 11
612.0404675128031
 21
-80.333578576108
 31
0.0
  0
LINE
  5
44D1
330
17
100
AcDbEntity
  8
0
 48
0.5
100
AcDbLine
 10
612.0404675128026
 20
-82.80607857610799
 30
0.0
 11
614.0404675128027
 21
-82.80607857610801
 31
0.0
  0
LINE
  5
44D2
330
17
100
AcDbEntity
  8
0
 48
0.5
100
AcDbLine
 10
612.0404675128031
 20
-80.33357857610807
 30
0.0
 11
616.740467512803
 21
-80.3335785761082
 31
0.0
  0
CIRCLE
  5
44D3
330
17
100
AcDbEntity
  8
0
100
AcDbCircle
 10
498.6962174508856
 20
-70.30607857610789
 30
0.0
 40
11.49999999999997
  0
LINE
  5
44D4
330
17
100
AcDbEntity
  8
0
 48
0.5
100
AcDbLine
 10
690.0404675128031
 20
38.40420311506807
 30
0.0
 11
690.0404675128031
 21
38.86920311506799
 31
0.0
  0
LINE
  5
44D5
330
17
100
AcDbEntity
  8
0
 48
0.5
100
AcDbLine
 10
690.0404675128036
 20
42.86920311506799
 30
0.0
 11
690.0404675128031
 21
43.33420311506801
 31
0.0
  0
LINE
  5
44D6
330
17
100
AcDbEntity
  8
0
100
AcDbLine
 10
690.0404675128031
 20
43.33420311506801
 30
0.0
 11
689.5404675128031
 21
43.33420311506801
 31
0.0
  0
LINE
  5
44D7
330
17
100
AcDbEntity
  8
0
100
AcDbLine
 10
690.0404675128031
 20
38.40420311506813
 30
0.0
 11
689.5404675128031
 21
38.40420311506807
 31
0.0
  0
LINE
  5
44D8
330
17
100
AcDbEntity
  8
additional
  6
HIDDEN2
100
AcDbLine
 10
603.5404675128031
 20
33.87995311506796
 30
0.0
 11
604.0404675128031
 21
33.37995311506797
 31
0.0
  0
LINE
  5
44D9
330
17
100
AcDbEntity
  8
additional
  6
HIDDEN2
100
AcDbLine
 10
603.5404675128031
 20
38.86920311506793
 30
0.0
 11
603.5404675128031
 21
33.87995311506796
 31
0.0
  0
LINE
  5
44DA
330
17
100
AcDbEntity
  8
additional
  6
HIDDEN2
100
AcDbLine
 10
599.5404675128031
 20
33.87995311506796
 30
0.0
 11
603.5404675128031
 21
33.87995311506796
 31
0.0
  0
LINE
  5
44DB
330
17
100
AcDbEntity
  8
additional
  6
HIDDEN2
100
AcDbLine
 10
599.5404675128031
 20
33.87995311506796
 30
0.0
 11
599.0404675128031
 21
33.37995311506797
 31
0.0
  0
LINE
  5
44DC
330
17
100
AcDbEntity
  8
additional
  6
HIDDEN2
100
AcDbLine
 10
599.5404675128031
 20
38.86920311506793
 30
0.0
 11
599.5404675128031
 21
33.87995311506796
 31
0.0
  0
LINE
  5
44DD
330
17
100
AcDbEntity
  8
additional
  6
HIDDEN2
100
AcDbLine
 10
603.5404675128031
 20
47.8584531150679
 30
0.0
 11
604.0404675128031
 21
48.3584531150679
 31
0.0
  0
LINE
  5
44DE
330
17
100
AcDbEntity
  8
additional
  6
HIDDEN2
100
AcDbLine
 10
603.5404675128031
 20
42.86920311506793
 30
0.0
 11
603.5404675128031
 21
47.8584531150679
 31
0.0
  0
LINE
  5
44DF
330
17
100
AcDbEntity
  8
additional
  6
HIDDEN2
100
AcDbLine
 10
599.5404675128031
 20
47.8584531150679
 30
0.0
 11
603.5404675128031
 21
47.8584531150679
 31
0.0
  0
LINE
  5
44E0
330
17
100
AcDbEntity
  8
additional
  6
HIDDEN2
100
AcDbLine
 10
599.5404675128031
 20
47.8584531150679
 30
0.0
 11
599.0404675128031
 21
48.3584531150679
 31
0.0
  0
LINE
  5
44E1
330
17
100
AcDbEntity
  8
additional
  6
HIDDEN2
100
AcDbLine
 10
599.5404675128031
 20
42.86920311506793
 30
0.0
 11
599.5404675128031
 21
47.8584531150679
 31
0.0
  0
LINE
  5
44E2
330
17
100
AcDbEntity
  8
additional
  6
HIDDEN2
100
AcDbLine
 10
491.4755833893921
 20
-68.30607857610782
 30
0.0
 11
496.6462174508858
 21
-68.30607857610782
 31
0.0
  0
LINE
  5
44E3
330
17
100
AcDbEntity
  8
additional
  6
HIDDEN2
100
AcDbLine
 10
500.7462174508853
 20
-68.30607857610782
 30
0.0
 11
505.9168515123791
 21
-68.30607857610782
 31
0.0
  0
LINE
  5
44E4
330
17
100
AcDbEntity
  8
additional
  6
HIDDEN2
100
AcDbLine
 10
491.4755833893921
 20
-72.30607857610799
 30
0.0
 11
496.6462174508858
 21
-72.30607857610799
 31
0.0
  0
LINE
  5
44E5
330
17
100
AcDbEntity
  8
additional
  6
HIDDEN2
100
AcDbLine
 10
500.7462174508853
 20
-72.30607857610799
 30
0.0
 11
505.9168515123791
 21
-72.30607857610799
 31
0.0
  0
SPLINE
  5
450D
330
17
100
AcDbEntity
  8
additional
 48
0.5
100
AcDbSpline
210
0.0
220
0.0
230
1.0
 70
     8
 71
     3
 72
    18
 73
    14
 74
    12
 42
0.0000000001
 43
0.0000000001
 44
0.0000000001
 40
0.0
 40
0.0
 40
0.0
 40
0.0
 40
0.7826237921249201
 40
1.565247584249878
 40
2.965247584249805
 40
3.747871376374827
 40
4.530495168499582
 40
5.313118960624648
 40
6.095742752749587
 40
8.195742752749666
 40
8.978366544874516
 40
9.760990336999615
 40
10.54361412912449
 40
10.54361412912449
 40
10.54361412912449
 40
10.54361412912449
 10
700.2206769041212
 20
-42.43381599477131
 30
0.0
 10
700.3332465874138
 20
-42.66909546148015
 30
0.0
 10
700.5583859539992
 20
-43.13965439489786
 30
0.0
 10
701.0780333322802
 20
-43.98685233752597
 30
0.0
 10
701.0781883082081
 20
-45.08081757458576
 30
0.0
 10
700.5581260514668
 20
-45.92789029495709
 30
0.0
 10
700.2216479176495
 20
-46.63415334271888
 30
0.0
 10
699.8793437026622
 20
-47.33839230279474
 30
0.0
 10
699.2637965793808
 20
-48.39491113961951
 30
0.0
 10
699.2630030048863
 20
-49.77301158733926
 30
0.0
 10
699.88023094592
 20
-50.82883387204088
 30
0.0
 10
700.2182883936716
 20
-51.53506152545372
 30
0.0
 10
700.4532140673046
 20
-52.00089783833209
 30
0.0
 10
700.5706769041211
 20
-52.23381599477121
 30
0.0
 11
700.2206769041212
 21
-42.43381599477131
 31
0.0
 11
700.5706769041211
 21
-43.13381599477135
 31
0.0
 11
700.9206769041212
 21
-43.83381599477131
 31
0.0
 11
700.9206769041212
 21
-45.23381599477125
 31
0.0
 11
700.5706769041211
 21
-45.93381599477129
 31
0.0
 11
700.2206769041212
 21
-46.63381599477114
 31
0.0
 11
699.8706769041208
 21
-47.33381599477112
 31
0.0
 11
699.5206769041209
 21
-48.03381599477117
 31
0.0
 11
699.5206769041209
 21
-50.13381599477125
 31
0.0
 11
699.8706769041208
 21
-50.83381599477121
 31
0.0
 11
700.2206769041212
 21
-51.53381599477122
 31
0.0
 11
700.5706769041211
 21
-52.23381599477121
 31
0.0
  0
DIMENSION
  5
450E
330
17
100
AcDbEntity
  8
Z_OM_DIM
100
AcDbDimension
  2
*D2
 10
579.3363597712356
 20
38.86920311506794
 30
0.0
 11
579.3363597712356
 21
40.86920311506803
 31
0.0
 70
   160
 71
     5
 42
4.0
  3
CatalogDxf
100
AcDbAlignedDimension
 13
596.5404675128032
 23
42.86920311506793
 33
0.0
 14
596.5404675128032
 24
38.86920311506793
 34
0.0
 50
90.0
100
AcDbRotatedDimension
  0
DIMENSION
  5
4528
330
17
100
AcDbEntity
  8
Z_OM_DIM
100
AcDbDimension
  2
*D3
 10
631.5404675128031
 20
-25.59206366650597
 30
0.0
 11
651.5404675128031
 21
-23.71706366650597
 31
0.0
 70
    32
 71
     5
 42
40.0
  3
CatalogDxf
100
AcDbAlignedDimension
 13
671.5404675128032
 23
-49.96059106762382
 33
0.0
 14
631.5404675128031
 24
-49.9605910676238
 34
0.0
100
AcDbRotatedDimension
  0
DIMENSION
  5
4535
330
17
100
AcDbEntity
  8
Z_OM_DIM
100
AcDbDimension
  2
*D4
 10
601.5404675128031
 20
-25.59206366650597
 30
0.0
 11
616.5404675128031
 21
-23.71706366650597
 31
0.0
 70
    32
 71
     5
 42
30.0
  3
CatalogDxf
100
AcDbAlignedDimension
 13
631.5404675128031
 23
-49.9605910676238
 33
0.0
 14
601.5404675128031
 24
-58.68501136128887
 34
0.0
100
AcDbRotatedDimension
1001
ACAD
1000
DSTYLE
1002
{
1070
   279
1070
     1
1002
}
  0
DIMENSION
  5
4542
330
17
100
AcDbEntity
  8
Z_OM_DIM
100
AcDbDimension
  2
*D5
 10
596.5404675128032
 20
-25.59206366650597
 30
0.0
 11
599.0404675128031
 21
-23.71706366650597
 31
0.0
 70
    32
 71
     5
 42
5.0
  3
CatalogDxf
100
AcDbAlignedDimension
 13
601.5404675128031
 23
-58.68501136128887
 33
0.0
 14
596.5404675128032
 24
-63.31357857610786
 34
0.0
100
AcDbRotatedDimension
1001
ACAD
1000
DSTYLE
1002
{
1070
   279
1070
     1
1002
}
  0
DIMENSION
  5
4551
330
17
100
AcDbEntity
  8
Z_OM_DIM
100
AcDbDimension
  2
*D6
 10
579.3363597712356
 20
-77.79857857610775
 30
0.0
 11
577.4613597712356
 21
-70.30607857610772
 31
0.0
 70
    32
  1
%%c15
 71
     5
 42
14.98499999999985
  3
CatalogDxf
100
AcDbAlignedDimension
 13
597.0404675128031
 23
-62.81357857610792
 33
0.0
 14
597.0404675128031
 24
-77.79857857610775
 34
0.0
 50
90.0
100
AcDbRotatedDimension
  0
DIMENSION
  5
4567
330
17
100
AcDbEntity
  8
Z_OM_DIM
100
AcDbDimension
  2
*D7
 10
708.8676014176171
 20
-85.30607857610789
 30
0.0
 11
706.9926014176171
 21
-70.30607857610778
 31
0.0
 70
    32
 71
     5
 42
30.0
  3
CatalogDxf
100
AcDbAlignedDimension
 13
677.9491939100433
 23
-55.30607857610789
 33
0.0
 14
677.9491939100433
 24
-85.30607857610789
 34
0.0
 50
90.0
100
AcDbRotatedDimension
  0
DIMENSION
  5
4574
330
17
100
AcDbEntity
  8
Z_OM_DIM
100
AcDbDimension
  2
*D8
 10
524.4462174508854
 20
-111.4250252395522
 30
0.0
 11
498.6962174508854
 21
-109.5500252395522
 31
0.0
 70
    32
 71
     5
 42
51.49999999999995
  3
CatalogDxf
100
AcDbAlignedDimension
 13
472.9462174508856
 23
-92.30607857610792
 33
0.0
 14
524.4462174508854
 24
-92.30607857610792
 34
0.0
100
AcDbRotatedDimension
  0
DIMENSION
  5
4581
330
17
100
AcDbEntity
  8
Z_OM_DIM
100
AcDbDimension
  2
*D9
 10
545.6786782061498
 20
-92.30607857610792
 30
0.0
 11
543.8036782061498
 21
-70.30607857610785
 31
0.0
 70
    32
 71
     5
 42
43.99999999999997
  3
CatalogDxf
100
AcDbAlignedDimension
 13
524.4462174508854
 23
-48.30607857610795
 33
0.0
 14
524.4462174508854
 24
-92.30607857610792
 34
0.0
 50
90.0
100
AcDbRotatedDimension
  0
DIMENSION
  5
45B7
330
17
100
AcDbEntity
  8
Z_OM_DIM
100
AcDbDimension
  2
*D10
 10
689.5404675128031
 20
-3.324513022559698
 30
0.0
 11
650.7904675128031
 21
-1.449513022559699
 31
0.0
 70
    32
 71
     5
 42
77.5
  3
CatalogDxf
100
AcDbAlignedDimension
 13
612.0404675128031
 23
15.11920311506799
 33
0.0
 14
689.5404675128031
 24
17.11920311506804
 34
0.0
100
AcDbRotatedDimension
  0
MTEXT
  5
45F0
330
17
100
AcDbEntity
  8
Z_OM_DIM
100
AcDbMText
 10
725.2513879640551
 20
54.53688762581434
 30
0.0
 40
2.5
 41
42.8494883882687
 71
     7
 72
     1
  1
UL1007 AWG20 white
  7
CatalogDxf
 73
     1
 44
1.0
1001
ACAD
1000
ACAD_MTEXT_DEFINED_HEIGHT_BEGIN
1070
    46
1040
2.500000000000004
1000
ACAD_MTEXT_DEFINED_HEIGHT_END
1000
MTEXTBEGIN
1070
    73
1070
     1
1070
    44
1040
1.0
1070
    74
1070
     0
1000
MTEXTEND
  0
LEADER
  5
45F1
330
17
100
AcDbEntity
  8
Z_OM_DIM
100
AcDbLeader
  3
ISO-25
 76
     3
 10
718.1437741519502
 20
42.86920311506793
 30
0.0
 10
724.6872784702953
 20
53.91188762581434
 30
0.0
 10
766.0455685424136
 20
53.91188762581434
 30
0.0
1001
ACAD
1000
DSTYLE
1002
{
1070
   341
1005
977
1070
   147
1040
0.625
1070
    77
1070
     0
1002
}
  0
LEADER
  5
45FA
330
17
100
AcDbEntity
  8
Z_OM_DIM
100
AcDbLeader
  3
ISO-25
 76
     3
 10
672.2589624973028
 20
-86.32894951481366
 30
0.0
 10
682.9886338389859
 20
-101.6040303908672
 30
0.0
 10
708.1584075560745
 20
-101.6040303908672
 30
0.0
1001
ACAD
1000
DSTYLE
1002
{
1070
   341
1005
977
1070
   147
1040
0.625
1070
    77
1070
     0
1002
}
  0
MTEXT
  5
45FB
330
17
100
AcDbEntity
  8
Z_OM_DIM
100
AcDbMText
 10
684.1626318429556
 20
-101.6445273055534
 30
0.0
 40
2.5
 41
24.05930144544266
 71
     4
 72
     1
  1
4-M3\Pboth faces
  7
CatalogDxf
 73
     1
 44
1.0
1001
ACAD
1000
MTEXTBEGIN
1070
    73
1070
     1
1070
    44
1040
1.0
1070
    74
1070
     0
1000
MTEXTEND
  0
MTEXT
  5
4604
330
17
100
AcDbEntity
  8
Z_OM_DIM
100
AcDbMText
 10
588.7060582035469
 20
-89.67347729903506
 30
0.0
 40
2.5
 41
4.689704236643136
 71
     7
 72
     1
  1
%%C4
  7
CatalogDxf
 73
     1
 44
1.0
1001
ACAD
1000
MTEXTBEGIN
1070
    73
1070
     1
1070
    44
1040
1.0
1070
    74
1070
     0
1000
MTEXTEND
  0
LEADER
  5
4605
330
17
100
AcDbEntity
  8
Z_OM_DIM
100
AcDbLeader
  3
ISO-25
 76
     3
 10
600.584975042032
 20
-72.0630743468198
 30
0.0
 10
594.2033751104867
 20
-90.37807754094236
 30
0.0
 10
587.6891427629947
 20
-90.37807754094236
 30
0.0
211
-1.0
221
0.0
231
0.0
1001
ACAD
1000
DSTYLE
1002
{
1070
   341
1005
977
1070
   147
1040
0.625
1070
    77
1070
     0
1002
}
  0
DIMENSION
  5
46B4
330
17
100
AcDbEntity
  8
Z_OM_DIM
100
AcDbDimension
  2
*D11
 10
631.5404675128031
 20
-33.35978619619857
 30
0.0
 11
621.7904675128031
 21
-31.48478619619857
 31
0.0
 70
    32
 71
     5
 42
19.5
  3
CatalogDxf
100
AcDbAlignedDimension
 13
612.0404675128031
 23
-48.30607857610782
 33
0.0
 14
631.5404675128031
 24
-49.9605910676238
 34
0.0
100
AcDbRotatedDimension
  0
DIMENSION
  5
4722
330
17
100
AcDbEntity
  8
Z_OM_DIM
100
AcDbDimension
  2
*D12
 10
606.5404675128031
 20
17.83624642323798
 30
0.0
 11
601.5404675128031
 21
19.71124642323798
 31
0.0
 70
    32
 71
     5
 42
10.0
  3
CatalogDxf
100
AcDbAlignedDimension
 13
596.5404675128032
 23
33.87995311506796
 33
0.0
 14
606.5404675128031
 24
38.86920311506793
 34
0.0
100
AcDbRotatedDimension
  0
ENDSEC
  0
SECTION
  2
OBJECTS
  0
DICTIONARY
  5
C
330
0
100
AcDbDictionary
281
     1
  3
ACAD_2007HEADERVARS_RT
350
4598
  3
ACAD_COLOR
350
3D57
  3
ACAD_GROUP
350
D
  3
ACAD_LAYOUT
350
3D5A
  3
ACAD_MATERIAL
350
3D42
  3
ACAD_MLINESTYLE
350
1A
  3
ACAD_PLOTSETTINGS
350
957
  3
ACAD_PLOTSTYLENAME
350
3D40
  3
ACAD_TABLESTYLE
350
3D58
  3
ACAD_VISUALSTYLE
350
3D46
  3
ACADDIM
350
1BB8
  3
AcDbVariableDictionary
350
4116
1001
ACAD
1000
TREAT_AS_HARD
1070
     0
  0
DICTIONARY
  5
459C
330
8
100
AcDbDictionary
280
     1
281
     1
  3
ACAD_XREC_ROUNDTRIP
360
459D
  0
DICTIONARY
  5
3DBA
330
2
100
AcDbDictionary
280
     1
281
     1
  3
ACAD_LAYERFILTERS
360
421C
  3
ACAD_LAYERSTATES
360
3DBB
  3
ACLYDICTIONARY
360
421B
  0
DICTIONARY
  5
459E
330
E
100
AcDbDictionary
280
     1
281
     1
  3
ACAD_XREC_ROUNDTRIP
360
459F
  0
DICTIONARY
  5
45A0
330
27
100
AcDbDictionary
280
     1
281
     1
  3
ACAD_XREC_ROUNDTRIP
360
45A1
  0
DICTIONARY
  5
45A2
330
2B
100
AcDbDictionary
280
     1
281
     1
  3
ACAD_XREC_ROUNDTRIP
360
45A3
  0
DICTIONARY
  5
45A6
330
3DB5
100
AcDbDictionary
280
     1
281
     1
  3
ACAD_XREC_ROUNDTRIP
360
45A7
  0
DICTIONARY
  5
1808
330
17
100
AcDbDictionary
280
     1
281
     1
  3
ACAD_LAYOUTSELFREF
360
3D3B
  3
ACAD_SORTENTS
360
460B
1001
ACAD
1000
TREAT_AS_HARD
1070
     1
  0
DICTIONARY
  5
1806
330
14
100
AcDbDictionary
280
     1
281
     1
  3
ACAD_LAYOUTSELFREF
360
3D3A
1001
ACAD
1000
TREAT_AS_HARD
1070
     1
  0
DICTIONARY
  5
4598
102
{ACAD_REACTORS
330
C
102
}
330
C
100
AcDbDictionary
281
     1
  3
DIMLTEX1
350
459A
  3
DIMLTEX2
350
459B
  3
DIMLTYPE
350
4599
  0
DICTIONARY
  5
3D57
102
{ACAD_REACTORS
330
C
102
}
330
C
100
AcDbDictionary
281
     1
  0
DICTIONARY
  5
D
102
{ACAD_REACTORS
330
C
102
}
330
C
100
AcDbDictionary
281
     1
1001
ACAD
1000
TREAT_AS_HARD
1070
     0
  0
DICTIONARY
  5
3D5A
102
{ACAD_REACTORS
330
C
102
}
330
C
100
AcDbDictionary
281
     1
  3
Model
350
3D5B
  3
レイアウト1
350
3D5C
  0
DICTIONARY
  5
3D42
102
{ACAD_REACTORS
330
C
102
}
330
C
100
AcDbDictionary
281
     1
  3
ByBlock
350
3D44
  3
ByLayer
350
3D43
  3
Global
350
3D45
  0
DICTIONARY
  5
1A
102
{ACAD_REACTORS
330
C
102
}
330
C
100
AcDbDictionary
281
     1
  3
STANDARD
350
1B
1001
ACAD
1000
TREAT_AS_HARD
1070
     0
  0
DICTIONARY
  5
957
102
{ACAD_REACTORS
330
C
102
}
330
C
100
AcDbDictionary
281
     1
1001
ACAD
1000
TREAT_AS_HARD
1070
     0
  0
ACDBDICTIONARYWDFLT
  5
3D40
102
{ACAD_REACTORS
330
C
102
}
330
C
100
AcDbDictionary
281
     1
  3
Normal
350
3D41
100
AcDbDictionaryWithDefault
340
3D41
  0
DICTIONARY
  5
3D58
102
{ACAD_REACTORS
330
C
102
}
330
C
100
AcDbDictionary
281
     1
  3
Standard
350
3D59
  0
DICTIONARY
  5
3D46
102
{ACAD_REACTORS
330
C
102
}
330
C
100
AcDbDictionary
281
     1
  3
2dWireframe
350
3D4C
  3
3D Hidden
350
3D4E
  3
3dWireframe
350
3D4D
  3
Basic
350
3D4B
  3
Brighten
350
3D52
  3
ColorChange
350
3D56
  3
Conceptual
350
3D4F
  3
Dim
350
3D51
  3
Facepattern
350
3D55
  3
Flat
350
3D47
  3
FlatWithEdges
350
3D48
  3
Gouraud
350
3D49
  3
GouraudWithEdges
350
3D4A
  3
Linepattern
350
3D54
  3
Realistic
350
3D50
  3
Thicken
350
3D53
  0
XRECORD
  5
1BB8
102
{ACAD_REACTORS
330
C
102
}
330
C
100
AcDbXrecord
280
     1
 90
   990106
  3

 60
     0
 61
     0
 62
     4
 63
     4
 64
     1
 65
     0
 66
     0
 67
     2
 68
     1
 69
     0
 70
     0
 71
     0
 72
     0
 40
13.39673007426836
170
     2
340
0
  0
DICTIONARY
  5
4116
102
{ACAD_REACTORS
330
C
102
}
330
C
100
AcDbDictionary
281
     1
  3
CTABLESTYLE
350
4117
  3
DIMASSOC
350
474E
  3
PROJECTNAME
350
474F
  0
XRECORD
  5
459D
102
{ACAD_REACTORS
330
459C
102
}
330
459C
100
AcDbXrecord
280
     1
102
VTR_0.000_0.000_1.000_1.000_VISUALSTYLE
340
3D4C
102
VTR_0.000_0.000_1.000_1.000_GRIDDISPLAY
 70
     3
102
VTR_0.000_0.000_1.000_1.000_GRIDMAJOR
 70
     5
102
VTR_0.000_0.000_1.000_1.000_DEFAULTLIGHTING
280
     1
102
VTR_0.000_0.000_1.000_1.000_DEFAULTLIGHTINGTYPE
 70
     1
102
VTR_0.000_0.000_1.000_1.000_BRIGHTNESS
141
0.0
102
VTR_0.000_0.000_1.000_1.000_CONTRAST
142
0.0
  0
DICTIONARY
  5
421C
102
{ACAD_REACTORS
330
3DBA
102
}
330
3DBA
100
AcDbDictionary
281
     1
  0
DICTIONARY
  5
3DBB
102
{ACAD_REACTORS
330
3DBA
102
}
330
3DBA
100
AcDbDictionary
281
     1
  0
DICTIONARY
  5
421B
102
{ACAD_REACTORS
330
3DBA
102
}
330
3DBA
100
AcDbDictionary
281
     1
1001
ACAD
1000
<All
  0
XRECORD
  5
459F
102
{ACAD_REACTORS
330
459E
102
}
330
459E
100
AcDbXrecord
280
     1
102
MATERIAL
340
3D45
  0
XRECORD
  5
45A1
102
{ACAD_REACTORS
330
45A0
102
}
330
45A0
100
AcDbXrecord
280
     1
102
MATERIAL
340
3D45
  0
XRECORD
  5
45A3
102
{ACAD_REACTORS
330
45A2
102
}
330
45A2
100
AcDbXrecord
280
     1
102
MATERIAL
340
3D45
  0
XRECORD
  5
45A7
102
{ACAD_REACTORS
330
45A6
102
}
330
45A6
100
AcDbXrecord
280
     1
102
MATERIAL
340
3D45
  0
XRECORD
  5
3D3B
102
{ACAD_REACTORS
330
1808
102
}
330
1808
100
AcDbXrecord
280
     1
340
17
  0
SORTENTSTABLE
  5
460B
102
{ACAD_REACTORS
330
1808
102
}
330
1808
100
AcDbSortentsTable
330
17
331
4438
  5
4438
331
44B6
  5
44B6
331
4440
  5
4440
331
4477
  5
4477
331
44BE
  5
44BE
331
4301
  5
4301
331
4448
  5
4448
331
447F
  5
447F
331
4487
  5
4487
331
4309
  5
4309
331
4450
  5
4450
331
448F
  5
448F
331
44CE
  5
44CF
331
4458
  5
4458
331
4460
  5
4460
331
4497
  5
4497
331
4421
  5
4421
331
44D6
  5
44D7
331
44DE
  5
44DF
331
4429
  5
4429
331
4468
  5
4468
331
449F
  5
449F
331
44A7
  5
44A7
331
4431
  5
4431
331
4310
  5
4310
331
44AF
  5
44AF
331
4439
  5
4439
331
4470
  5
4470
331
4478
  5
4478
331
44B7
  5
44B7
331
42AA
  5
42AA
331
4441
  5
4441
331
4449
  5
4449
331
4480
  5
4480
331
4302
  5
4302
331
44BF
  5
44BF
331
44C7
  5
44C8
331
4451
  5
4451
331
4488
  5
4488
331
430A
  5
430A
331
44CF
  5
44D0
331
45F0
  5
45F1
331
4459
  5
4459
331
4490
  5
4490
331
4498
  5
4498
331
44D7
  5
44D8
331
4422
  5
4422
331
4461
  5
4461
331
4469
  5
4469
331
44A0
  5
44A0
331
442A
  5
442A
331
44DF
  5
44E0
331
44A8
  5
44A8
331
4432
  5
4432
331
4311
  5
4311
331
4574
  5
4581
331
443A
  5
443A
331
4471
  5
4471
331
44B0
  5
44B0
331
44B8
  5
44B8
331
4442
  5
4442
331
4479
  5
4479
331
450D
  5
450E
331
4303
  5
4303
331
444A
  5
444A
331
4481
  5
4481
331
4489
  5
4489
331
44C8
  5
44C9
331
430B
  5
430B
331
4452
  5
4452
331
45F1
  5
45FA
331
4535
  5
4542
331
445A
  5
445A
331
4491
  5
4491
331
44D0
  5
44D1
331
44D8
  5
44D9
331
4462
  5
4462
331
4499
  5
4499
331
4423
  5
4423
331
44E0
  5
44E1
331
442B
  5
442B
331
446A
  5
446A
331
44A1
  5
44A1
331
44A9
  5
44A9
331
4433
  5
4433
331
4312
  5
4312
331
4472
  5
4472
331
44B1
  5
44B1
331
443B
  5
443B
331
447A
  5
447A
331
44B9
  5
44B9
331
4443
  5
4443
331
444B
  5
444B
331
4482
  5
4482
331
450E
  5
4528
331
4304
  5
4304
331
44C9
  5
44CA
331
430C
  5
430C
331
4453
  5
4453
331
448A
  5
448A
331
44D1
  5
44D2
331
445B
  5
445B
331
4492
  5
4492
331
449A
  5
449A
331
44D9
  5
44DA
331
4424
  5
4424
331
4463
  5
4463
331
45FA
  5
45FB
331
446B
  5
446B
331
44A2
  5
44A2
331
442C
  5
442C
331
44E1
  5
44E2
331
44AA
  5
44AA
331
4434
  5
4434
331
4313
  5
4313
331
443C
  5
443C
331
4473
  5
4473
331
44B2
  5
44B2
331
44BA
  5
44BA
331
4444
  5
4444
331
447B
  5
447B
331
4483
  5
4483
331
4305
  5
4305
331
444C
  5
444C
331
448B
  5
448B
331
44CA
  5
44CB
331
430D
  5
430D
331
4454
  5
4454
331
445C
  5
445C
331
4493
  5
4493
331
44D2
  5
44D3
331
44DA
  5
44DB
331
45FB
  5
4604
331
4425
  5
4425
331
4464
  5
4464
331
449B
  5
449B
331
44E2
  5
44E3
331
442D
  5
442D
331
446C
  5
446C
331
44A3
  5
44A3
331
4567
  5
4574
331
4435
  5
4435
331
4474
  5
4474
331
44B3
  5
44B3
331
443D
  5
443D
331
447C
  5
447C
331
44BB
  5
44BB
331
4445
  5
4445
331
45B7
  5
45F0
331
444D
  5
444D
331
4484
  5
4484
331
4528
  5
4535
331
4306
  5
4306
331
44CB
  5
44CC
331
430E
  5
430E
331
4455
  5
4455
331
448C
  5
448C
331
4494
  5
4494
331
44D3
  5
44D4
331
445D
  5
445D
331
449C
  5
449C
331
44DB
  5
44DC
331
4426
  5
4426
331
4465
  5
4465
331
4604
  5
4605
331
446D
  5
446D
331
44A4
  5
44A4
331
442E
  5
442E
331
44E3
  5
44E4
331
4436
  5
4436
331
44AC
  5
44AC
331
443E
  5
443E
331
4475
  5
4475
331
44B4
  5
44B4
331
44BC
  5
44BC
331
4446
  5
4446
331
447D
  5
447D
331
4485
  5
4485
331
44C4
  5
44C4
331
4307
  5
4307
331
444E
  5
444E
331
448D
  5
448D
331
44CC
  5
44CD
331
430F
  5
430F
331
4456
  5
4456
331
445E
  5
445E
331
4495
  5
4495
331
441F
  5
441F
331
44D4
  5
44D5
331
4551
  5
4567
331
44DC
  5
44DD
331
4427
  5
4427
331
4466
  5
4466
331
449D
  5
449D
331
44A5
  5
44A5
331
44E4
  5
44E5
331
442F
  5
442F
331
446E
  5
446E
331
4605
  5
460A
331
44AD
  5
44AD
331
4437
  5
4437
331
4130
  5
4130
331
4476
  5
4476
331
44B5
  5
44B5
331
4581
  5
45B7
331
443F
  5
443F
331
4447
  5
4447
331
447E
  5
447E
331
44BD
  5
44BD
331
444F
  5
444F
331
4486
  5
4486
331
4308
  5
4308
331
44C5
  5
44C7
331
44CD
  5
44CE
331
4457
  5
4457
331
448E
  5
448E
331
4542
  5
4551
331
4496
  5
4496
331
44D5
  5
44D6
331
4420
  5
4420
331
445F
  5
445F
331
449E
  5
449E
331
44DD
  5
44DE
331
4428
  5
4428
331
4467
  5
4467
331
446F
  5
446F
331
44A6
  5
44A6
331
4430
  5
4430
331
44E5
  5
450D
331
44AE
  5
44AE
  0
XRECORD
  5
3D3A
102
{ACAD_REACTORS
330
1806
102
}
330
1806
100
AcDbXrecord
280
     1
340
14
  0
XRECORD
  5
459A
102
{ACAD_REACTORS
330
4598
102
}
330
4598
100
AcDbXrecord
280
     1
340
12
  0
XRECORD
  5
459B
102
{ACAD_REACTORS
330
4598
102
}
330
4598
100
AcDbXrecord
280
     1
340
12
  0
XRECORD
  5
4599
102
{ACAD_REACTORS
330
4598
102
}
330
4598
100
AcDbXrecord
280
     1
340
12
  0
LAYOUT
  5
3D5B
102
{ACAD_REACTORS
330
3D5A
102
}
330
3D5A
100
AcDbPlotSettings
  1

  2
none_device
  4
Letter_(8.50_x_11.00_Inches)
  6

 40
6.349999904632567
 41
6.349999904632567
 42
6.350006103515625
 43
6.350006103515625
 44
215.8999938964844
 45
279.3999938964844
 46
3.966796237580393
 47
-90.12979700399077
 48
0.0
 49
0.0
140
0.0
141
0.0
142
1.0
143
37.08400000000001
 70
 11940
 72
     0
 73
     1
 74
     0
  7
monochrome.ctb
 75
     0
147
0.0269658073562723
 76
     0
 77
     2
 78
   300
148
-8545.936125914458
149
4135.644082048453
100
AcDbLayout
  1
Model
 70
     1
 71
     0
 10
0.0
 20
0.0
 11
12.0
 21
9.0
 12
0.0
 22
0.0
 32
0.0
 14
0.0
 24
0.0
 34
0.0
 15
0.0
 25
0.0
 35
0.0
146
0.0
 13
0.0
 23
0.0
 33
0.0
 16
1.0
 26
0.0
 36
0.0
 17
0.0
 27
1.0
 37
0.0
 76
     0
330
17
1001
ACAD_PSEXT
1000
なし
1000
なし
1000
適切ではありません
1000
新しいプロッタ環境設定名を選択しない限り、レイアウトは印刷されません。
1070
     0
  0
LAYOUT
  5
3D5C
102
{ACAD_REACTORS
330
3D5A
102
}
330
3D5A
100
AcDbPlotSettings
  1

  2
Microsoft XPS Document Writer
  4

  6

 40
0.0
 41
0.0
 42
0.0
 43
0.0
 44
0.0
 45
0.0
 46
0.0
 47
0.0
 48
0.0
 49
0.0
140
0.0
141
0.0
142
1.0
143
1.0
 70
   688
 72
     0
 73
     0
 74
     5
  7
monochrome.ctb
 75
    16
147
1.0
 76
     0
 77
     2
 78
   300
148
0.0
149
0.0
100
AcDbLayout
  1
レイアウト1
 70
     1
 71
     1
 10
0.0
 20
0.0
 11
12.0
 21
9.0
 12
0.0
 22
0.0
 32
0.0
 14
1.000000000000000E+20
 24
1.000000000000000E+20
 34
1.000000000000000E+20
 15
-1.000000000000000E+20
 25
-1.000000000000000E+20
 35
-1.000000000000000E+20
146
0.0
 13
0.0
 23
0.0
 33
0.0
 16
1.0
 26
0.0
 36
0.0
 17
0.0
 27
1.0
 37
0.0
 76
     0
330
14
  0
MATERIAL
  5
3D44
102
{ACAD_XDICTIONARY
360
419D
102
}
102
{ACAD_REACTORS
330
3D42
102
}
330
3D42
100
AcDbMaterial
  1
ByBlock
  0
MATERIAL
  5
3D43
102
{ACAD_XDICTIONARY
360
419B
102
}
102
{ACAD_REACTORS
330
3D42
102
}
330
3D42
100
AcDbMaterial
  1
ByLayer
  0
MATERIAL
  5
3D45
102
{ACAD_XDICTIONARY
360
419F
102
}
102
{ACAD_REACTORS
330
3D42
102
}
330
3D42
100
AcDbMaterial
  1
Global
  0
MLINESTYLE
  5
1B
102
{ACAD_REACTORS
330
1A
102
}
330
1A
100
AcDbMlineStyle
  2
STANDARD
 70
     0
  3

 62
   256
 51
90.0
 52
90.0
 71
     2
 49
0.5
 62
   256
  6
BYLAYER
 49
-0.5
 62
   256
  6
BYLAYER
  0
ACDBPLACEHOLDER
  5
3D41
102
{ACAD_REACTORS
330
3D40
102
}
330
3D40
  0
TABLESTYLE
  5
3D59
102
{ACAD_XDICTIONARY
360
45A4
102
}
102
{ACAD_REACTORS
330
3D58
102
}
330
3D58
100
AcDbTableStyle
  3
Standard
 70
     0
 71
     0
 40
0.06
 41
0.06
280
     0
281
     0
  7
STANDARD
140
0.18
170
     2
 62
     0
 63
     7
283
     0
274
    -2
284
     1
 64
     0
275
    -2
285
     1
 65
     0
276
    -2
286
     1
 66
     0
277
    -2
287
     1
 67
     0
278
    -2
288
     1
 68
     0
279
    -2
289
     1
 69
     0
  7
STANDARD
140
0.25
170
     5
 62
     0
 63
     7
283
     0
274
    -2
284
     1
 64
     0
275
    -2
285
     1
 65
     0
276
    -2
286
     1
 66
     0
277
    -2
287
     1
 67
     0
278
    -2
288
     1
 68
     0
279
    -2
289
     1
 69
     0
  7
STANDARD
140
0.18
170
     5
 62
     0
 63
     7
283
     0
274
    -2
284
     1
 64
     0
275
    -2
285
     1
 65
     0
276
    -2
286
     1
 66
     0
277
    -2
287
     1
 67
     0
278
    -2
288
     1
 68
     0
279
    -2
289
     1
 69
     0
  0
ACAD_PROXY_OBJECT
  5
3D4C
102
{ACAD_REACTORS
330
3D46
102
}
330
3D46
100
AcDbProxyObject
 90
      499
 91
      503
 95
  2555929
 70
     0
 93
      598
310
430C9915DA5C99599C985B59401049028333333333333E3BF0000000000000FB023FFFFFF0802405048070000C3008000000C800405A000000320014050640A01C00030C010500920280D2
 94
        0
1001
ACAD
1000
AcDbSavedByObjectVersion
1070
     0
1000
AcDbSavedByObjectVersion
1070
     0
1000
AcDbSavedByObjectVersion
1070
     0
1000
AcDbSavedByObjectVersion
1070
     0
1000
AcDbSavedByObjectVersion
1070
     0
1000
AcDbSavedByObjectVersion
1070
     0
1000
AcDbSavedByObjectVersion
1070
     0
1000
AcDbSavedByObjectVersion
1070
     0
1000
AcDbSavedByObjectVersion
1070
     0
1000
AcRTDxfName
1000
VISUALSTYLE
  0
ACAD_PROXY_OBJECT
  5
3D4E
102
{ACAD_REACTORS
330
3D46
102
}
330
3D46
100
AcDbProxyObject
 90
      499
 91
      503
 95
  2555929
 70
     0
 93
      662
310
428CD108121A5919195B8010640502408333333333333E3BF0000000000000FB023FFFFFF0802409028070000C3008000000C8004080000000000004440A000000320014050640A01C00030C010300920280D1
 94
        0
1001
ACAD
1000
AcDbSavedByObjectVersion
1070
     0
1000
AcDbSavedByObjectVersion
1070
     0
1000
AcDbSavedByObjectVersion
1070
     0
1000
AcDbSavedByObjectVersion
1070
     0
1000
AcDbSavedByObjectVersion
1070
     0
1000
AcDbSavedByObjectVersion
1070
     0
1000
AcDbSavedByObjectVersion
1070
     0
1000
AcDbSavedByObjectVersion
1070
     0
1000
AcDbSavedByObjectVersion
1070
     0
1000
AcRTDxfName
1000
VISUALSTYLE
  0
ACAD_PROXY_OBJECT
  5
3D4D
102
{ACAD_REACTORS
330
3D46
102
}
330
3D46
100
AcDbProxyObject
 90
      499
 91
      503
 95
  2555929
 70
     0
 93
      598
310
430CD915DA5C99599C985B59401059028333333333333E3BF0000000000000FB023FFFFFF0802405048070000C3008000000C800405A000000320014050640A01C00030C010500920280D1
 94
        0
1001
ACAD
1000
AcDbSavedByObjectVersion
1070
     0
1000
AcDbSavedByObjectVersion
1070
     0
1000
AcDbSavedByObjectVersion
1070
     0
1000
AcDbSavedByObjectVersion
1070
     0
1000
AcDbSavedByObjectVersion
1070
     0
1000
AcDbSavedByObjectVersion
1070
     0
1000
AcDbSavedByObjectVersion
1070
     0
1000
AcDbSavedByObjectVersion
1070
     0
1000
AcDbSavedByObjectVersion
1070
     0
1000
AcRTDxfName
1000
VISUALSTYLE
  0
ACAD_PROXY_OBJECT
  5
3D4B
102
{ACAD_REACTORS
330
3D46
102
}
330
3D46
100
AcDbProxyObject
 90
      499
 91
      503
 95
  2555929
 70
     0
 93
      558
310
4190985CDA58C0107406404333333333333E3BF0000000000000FB023FFFFFF08029048070000C3008000000C80040542201C00030C014050640A01C00030C010500920280D5
 94
        0
1001
ACAD
1000
AcDbSavedByObjectVersion
1070
     0
1000
AcDbSavedByObjectVersion
1070
     0
1000
AcDbSavedByObjectVersion
1070
     0
1000
AcDbSavedByObjectVersion
1070
     0
1000
AcDbSavedByObjectVersion
1070
     0
1000
AcDbSavedByObjectVersion
1070
     0
1000
AcDbSavedByObjectVersion
1070
     0
1000
AcDbSavedByObjectVersion
1070
     0
1000
AcDbSavedByObjectVersion
1070
     0
1000
AcRTDxfName
1000
VISUALSTYLE
  0
ACAD_PROXY_OBJECT
  5
3D52
102
{ACAD_REACTORS
330
3D46
102
}
330
3D46
100
AcDbProxyObject
 90
      499
 91
      503
 95
  2555929
 70
     0
 93
      598
310
42509C9A59DA1D195B8010C409028333333333333E3BF0000000000000FB023FFFFFF0802405048070000C3008000000C80040542201C00030C014050640A01C00030C010500920280A655
 94
        0
1001
ACAD
1000
AcDbSavedByObjectVersion
1070
     0
1000
AcDbSavedByObjectVersion
1070
     0
1000
AcDbSavedByObjectVersion
1070
     0
1000
AcDbSavedByObjectVersion
1070
     0
1000
AcDbSavedByObjectVersion
1070
     0
1000
AcDbSavedByObjectVersion
1070
     0
1000
AcDbSavedByObjectVersion
1070
     0
1000
AcDbSavedByObjectVersion
1070
     0
1000
AcDbSavedByObjectVersion
1070
     0
1000
AcRTDxfName
1000
VISUALSTYLE
  0
ACAD_PROXY_OBJECT
  5
3D56
102
{ACAD_REACTORS
330
3D46
102
}
330
3D46
100
AcDbProxyObject
 90
      499
 91
      503
 95
  2555929
 70
     0
 93
      622
310
4310DBDB1BDC90DA185B99D9401104090240C333333333333E3BF0000000000000FB0220202030802405048070000C3008000000C800405422202020308014050640A01C00030C010500920280D4
 94
        0
1001
ACAD
1000
AcDbSavedByObjectVersion
1070
     0
1000
AcDbSavedByObjectVersion
1070
     0
1000
AcDbSavedByObjectVersion
1070
     0
1000
AcDbSavedByObjectVersion
1070
     0
1000
AcDbSavedByObjectVersion
1070
     0
1000
AcDbSavedByObjectVersion
1070
     0
1000
AcDbSavedByObjectVersion
1070
     0
1000
AcDbSavedByObjectVersion
1070
     0
1000
AcDbSavedByObjectVersion
1070
     0
1000
AcRTDxfName
1000
VISUALSTYLE
  0
ACAD_PROXY_OBJECT
  5
3D4F
102
{ACAD_REACTORS
330
3D46
102
}
330
3D46
100
AcDbProxyObject
 90
      499
 91
      503
 95
  2555929
 70
     0
 93
      670
310
42D0DBDB98D95C1D1D585B0010940D028333333333333E3BF0000000000000FB023FFFFFF0802409028070000C3008000000C800404000000000000444042201C00030C014050640A01C00030C010300920280D1
 94
        0
1001
ACAD
1000
AcDbSavedByObjectVersion
1070
     0
1000
AcDbSavedByObjectVersion
1070
     0
1000
AcDbSavedByObjectVersion
1070
     0
1000
AcDbSavedByObjectVersion
1070
     0
1000
AcDbSavedByObjectVersion
1070
     0
1000
AcDbSavedByObjectVersion
1070
     0
1000
AcDbSavedByObjectVersion
1070
     0
1000
AcDbSavedByObjectVersion
1070
     0
1000
AcDbSavedByObjectVersion
1070
     0
1000
AcRTDxfName
1000
VISUALSTYLE
  0
ACAD_PROXY_OBJECT
  5
3D51
102
{ACAD_REACTORS
330
3D46
102
}
330
3D46
100
AcDbProxyObject
 90
      499
 91
      503
 95
  2555929
 70
     0
 93
      582
310
41111A5B4010B409028333333333333E3BF0000000000000FB023FFFFFF0802405048070000C3008000000C80040542201C00030C014050640A01C00030C01050092028099DFFFFFF5
 94
        0
1001
ACAD
1000
AcDbSavedByObjectVersion
1070
     0
1000
AcDbSavedByObjectVersion
1070
     0
1000
AcDbSavedByObjectVersion
1070
     0
1000
AcDbSavedByObjectVersion
1070
     0
1000
AcDbSavedByObjectVersion
1070
     0
1000
AcDbSavedByObjectVersion
1070
     0
1000
AcDbSavedByObjectVersion
1070
     0
1000
AcDbSavedByObjectVersion
1070
     0
1000
AcDbSavedByObjectVersion
1070
     0
1000
AcRTDxfName
1000
VISUALSTYLE
  0
ACAD_PROXY_OBJECT
  5
3D55
102
{ACAD_REACTORS
330
3D46
102
}
330
3D46
100
AcDbProxyObject
 90
      499
 91
      503
 95
  2555929
 70
     0
 93
      614
310
43119858D95C185D1D195C9B8010F409028333333333333E3BF0000000000000FB023FFFFFF0802405048070000C3008000000C80040542201C00030C014050640A01C00030C010500920280D4
 94
        0
1001
ACAD
1000
AcDbSavedByObjectVersion
1070
     0
1000
AcDbSavedByObjectVersion
1070
     0
1000
AcDbSavedByObjectVersion
1070
     0
1000
AcDbSavedByObjectVersion
1070
     0
1000
AcDbSavedByObjectVersion
1070
     0
1000
AcDbSavedByObjectVersion
1070
     0
1000
AcDbSavedByObjectVersion
1070
     0
1000
AcDbSavedByObjectVersion
1070
     0
1000
AcDbSavedByObjectVersion
1070
     0
1000
AcRTDxfName
1000
VISUALSTYLE
  0
ACAD_PROXY_OBJECT
  5
3D47
102
{ACAD_REACTORS
330
3D46
102
}
330
3D46
100
AcDbProxyObject
 90
      499
 91
      503
 95
  2555929
 70
     0
 93
      558
310
41519B185D00240901404333333333333E3BF0000000000000F9023FFFFFF0801029048070000C3008000000C80040542201C00030C014050640A01C00030C010500920286D5
 94
        0
1001
ACAD
1000
AcDbSavedByObjectVersion
1070
     0
1000
AcDbSavedByObjectVersion
1070
     0
1000
AcDbSavedByObjectVersion
1070
     0
1000
AcDbSavedByObjectVersion
1070
     0
1000
AcDbSavedByObjectVersion
1070
     0
1000
AcDbSavedByObjectVersion
1070
     0
1000
AcDbSavedByObjectVersion
1070
     0
1000
AcDbSavedByObjectVersion
1070
     0
1000
AcDbSavedByObjectVersion
1070
     0
1000
AcRTDxfName
1000
VISUALSTYLE
  0
ACAD_PROXY_OBJECT
  5
3D48
102
{ACAD_REACTORS
330
3D46
102
}
330
3D46
100
AcDbProxyObject
 90
      499
 91
      503
 95
  2555929
 70
     0
 93
      638
310
43919B185D15DA5D1A115919D95CC010140901404333333333333E3BF0000000000000F9023FFFFFF080102405048070000C3008000000C800405A000000320014050640A01C00030C010500920286D4
 94
        0
1001
ACAD
1000
AcDbSavedByObjectVersion
1070
     0
1000
AcDbSavedByObjectVersion
1070
     0
1000
AcDbSavedByObjectVersion
1070
     0
1000
AcDbSavedByObjectVersion
1070
     0
1000
AcDbSavedByObjectVersion
1070
     0
1000
AcDbSavedByObjectVersion
1070
     0
1000
AcDbSavedByObjectVersion
1070
     0
1000
AcDbSavedByObjectVersion
1070
     0
1000
AcDbSavedByObjectVersion
1070
     0
1000
AcRTDxfName
1000
VISUALSTYLE
  0
ACAD_PROXY_OBJECT
  5
3D49
102
{ACAD_REACTORS
330
3D46
102
}
330
3D46
100
AcDbProxyObject
 90
      499
 91
      503
 95
  2555929
 70
     0
 93
      582
310
4211DBDD5C985D590010240902404333333333333E3BF0000000000000F9023FFFFFF0801029048070000C3008000000C800405A01C00030C014050640A01C00030C010500920286D5
 94
        0
1001
ACAD
1000
AcDbSavedByObjectVersion
1070
     0
1000
AcDbSavedByObjectVersion
1070
     0
1000
AcDbSavedByObjectVersion
1070
     0
1000
AcDbSavedByObjectVersion
1070
     0
1000
AcDbSavedByObjectVersion
1070
     0
1000
AcDbSavedByObjectVersion
1070
     0
1000
AcDbSavedByObjectVersion
1070
     0
1000
AcDbSavedByObjectVersion
1070
     0
1000
AcDbSavedByObjectVersion
1070
     0
1000
AcRTDxfName
1000
VISUALSTYLE
  0
ACAD_PROXY_OBJECT
  5
3D4A
102
{ACAD_REACTORS
330
3D46
102
}
330
3D46
100
AcDbProxyObject
 90
      499
 91
      503
 95
  2555929
 70
     0
 93
      662
310
4451DBDD5C985D5915DA5D1A115919D95CC010340902404333333333333E3BF0000000000000F9023FFFFFF080102405048070000C3008000000C800405A000000320014050640A01C00030C010500920286D5
 94
        0
1001
ACAD
1000
AcDbSavedByObjectVersion
1070
     0
1000
AcDbSavedByObjectVersion
1070
     0
1000
AcDbSavedByObjectVersion
1070
     0
1000
AcDbSavedByObjectVersion
1070
     0
1000
AcDbSavedByObjectVersion
1070
     0
1000
AcDbSavedByObjectVersion
1070
     0
1000
AcDbSavedByObjectVersion
1070
     0
1000
AcDbSavedByObjectVersion
1070
     0
1000
AcDbSavedByObjectVersion
1070
     0
1000
AcRTDxfName
1000
VISUALSTYLE
  0
ACAD_PROXY_OBJECT
  5
3D54
102
{ACAD_REACTORS
330
3D46
102
}
330
3D46
100
AcDbProxyObject
 90
      499
 91
      503
 95
  2555929
 70
     0
 93
      614
310
43131A5B995C185D1D195C9B8010E409028333333333333E3BF0000000000000FB023FFFFFF0802405048070000C3008000000C80041D42201C00030C014050640A01C00030C010500920E80D4
 94
        0
1001
ACAD
1000
AcDbSavedByObjectVersion
1070
     0
1000
AcDbSavedByObjectVersion
1070
     0
1000
AcDbSavedByObjectVersion
1070
     0
1000
AcDbSavedByObjectVersion
1070
     0
1000
AcDbSavedByObjectVersion
1070
     0
1000
AcDbSavedByObjectVersion
1070
     0
1000
AcDbSavedByObjectVersion
1070
     0
1000
AcDbSavedByObjectVersion
1070
     0
1000
AcDbSavedByObjectVersion
1070
     0
1000
AcRTDxfName
1000
VISUALSTYLE
  0
ACAD_PROXY_OBJECT
  5
3D50
102
{ACAD_REACTORS
330
3D46
102
}
330
3D46
100
AcDbProxyObject
 90
      499
 91
      503
 95
  2555929
 70
     0
 93
      590
310
429499585B1A5CDD1A58C0108409028333333333333E3BF0000000000000FB023FFFFFF08024068070000C3008000000C8004054221E1E1E308014050640A01C00030C010500920286D1
 94
        0
1001
ACAD
1000
AcDbSavedByObjectVersion
1070
     0
1000
AcDbSavedByObjectVersion
1070
     0
1000
AcDbSavedByObjectVersion
1070
     0
1000
AcDbSavedByObjectVersion
1070
     0
1000
AcDbSavedByObjectVersion
1070
     0
1000
AcDbSavedByObjectVersion
1070
     0
1000
AcDbSavedByObjectVersion
1070
     0
1000
AcDbSavedByObjectVersion
1070
     0
1000
AcDbSavedByObjectVersion
1070
     0
1000
AcRTDxfName
1000
VISUALSTYLE
  0
ACAD_PROXY_OBJECT
  5
3D53
102
{ACAD_REACTORS
330
3D46
102
}
330
3D46
100
AcDbProxyObject
 90
      499
 91
      503
 95
  2555929
 70
     0
 93
      582
310
42151A1A58DAD95B8010D409028333333333333E3BF0000000000000FB023FFFFFF0802405048070000C3008000000C80040543201C00030C014050640A01C00030C010500920280D5
 94
        0
1001
ACAD
1000
AcDbSavedByObjectVersion
1070
     0
1000
AcDbSavedByObjectVersion
1070
     0
1000
AcDbSavedByObjectVersion
1070
     0
1000
AcDbSavedByObjectVersion
1070
     0
1000
AcDbSavedByObjectVersion
1070
     0
1000
AcDbSavedByObjectVersion
1070
     0
1000
AcDbSavedByObjectVersion
1070
     0
1000
AcDbSavedByObjectVersion
1070
     0
1000
AcDbSavedByObjectVersion
1070
     0
1000
AcRTDxfName
1000
VISUALSTYLE
  0
DICTIONARYVAR
  5
4117
102
{ACAD_REACTORS
330
4116
102
}
330
4116
100
DictionaryVariables
280
     0
  1
STANDARD
  0
DICTIONARYVAR
  5
474E
102
{ACAD_REACTORS
330
4116
102
}
330
4116
100
DictionaryVariables
280
     0
  1
1
  0
DICTIONARYVAR
  5
474F
102
{ACAD_REACTORS
330
4116
102
}
330
4116
100
DictionaryVariables
280
     0
  1

  0
DICTIONARY
  5
419D
330
3D44
100
AcDbDictionary
280
     1
281
     1
  3
ACAD_XREC_ROUNDTRIP
360
419E
  0
DICTIONARY
  5
419B
330
3D43
100
AcDbDictionary
280
     1
281
     1
  3
ACAD_XREC_ROUNDTRIP
360
419C
  0
DICTIONARY
  5
419F
330
3D45
100
AcDbDictionary
280
     1
281
     1
  3
ACAD_XREC_ROUNDTRIP
360
41A0
  0
DICTIONARY
  5
45A4
330
3D59
100
AcDbDictionary
280
     1
281
     1
  3
ACAD_XREC_ROUNDTRIP
360
45A5
  0
XRECORD
  5
419E
102
{ACAD_REACTORS
330
419D
102
}
330
419D
100
AcDbXrecord
280
     1
102
MATERIAL
148
0.0
149
0.0
149
0.0
 93
        0
 94
       63
282
     0
 72
     1
 77
     1
171
     1
175
     1
179
     1
273
     0
  0
XRECORD
  5
419C
102
{ACAD_REACTORS
330
419B
102
}
330
419B
100
AcDbXrecord
280
     1
102
MATERIAL
148
0.0
149
0.0
149
0.0
 93
        0
 94
       63
282
     0
 72
     1
 77
     1
171
     1
175
     1
179
     1
273
     0
  0
XRECORD
  5
41A0
102
{ACAD_REACTORS
330
419F
102
}
330
419F
100
AcDbXrecord
280
     1
102
MATERIAL
148
0.0
149
0.0
149
0.0
 93
        0
 94
       63
282
     0
 72
     1
 77
     1
171
     1
175
     1
179
     1
273
     0
  0
XRECORD
  5
45A5
102
{ACAD_REACTORS
330
45A4
102
}
330
45A4
100
AcDbXrecord
280
     1
102
ACAD_ROUNDTRIP_PRE2007_TABLESTYLE
 90
      512
 91
        0
  1

 92
      512
 93
        0
  2

 94
      512
 95
        0
  3

  0
ENDSEC
  0
EOF
