  0
SECTION
  2
HEADER
  9
$ACADVER
  1
AC1015
  9
$ACADMAINTVER
 70
    20
  9
$DWGCODEPAGE
  3
ANSI_932
  9
$INSBASE
 10
0.0
 20
0.0
 30
0.0
  9
$EXTMIN
 10
496.5109870136818
 20
-142.1338330253577
 30
-0.2791729953577083
  9
$EXTMAX
 10
743.2185321101183
 20
18.94564122533506
 30
0.0000170401474524
  9
$LIMMIN
 10
0.0
 20
0.0
  9
$LIMMAX
 10
12.0
 20
9.0
  9
$ORTHOMODE
 70
     1
  9
$REGENMODE
 70
     1
  9
$FILLMODE
 70
     1
  9
$QTEXTMODE
 70
     0
  9
$MIRRTEXT
 70
     1
  9
$LTSCALE
 40
0.5
  9
$ATTMODE
 70
     1
  9
$TEXTSIZE
 40
2.5
  9
$TRACEWID
 40
0.05
  9
$TEXTSTYLE
  7
CatalogDxf
  9
$CLAYER
  8
Z_OM_DIM
  9
$CELTYPE
  6
BYLAYER
  9
$CECOLOR
 62
   256
  9
$CELTSCALE
 40
1.0
  9
$DISPSILH
 70
     0
  9
$DIMSCALE
 40
1.0
  9
$DIMASZ
 40
2.5
  9
$DIMEXO
 40
0.625
  9
$DIMDLI
 40
3.75
  9
$DIMRND
 40
0.0
  9
$DIMDLE
 40
0.0
  9
$DIMEXE
 40
1.25
  9
$DIMTP
 40
0.0
  9
$DIMTM
 40
0.0
  9
$DIMTXT
 40
2.5
  9
$DIMCEN
 40
2.5
  9
$DIMTSZ
 40
0.0
  9
$DIMTOL
 70
     0
  9
$DIMLIM
 70
     0
  9
$DIMTIH
 70
     0
  9
$DIMTOH
 70
     0
  9
$DIMSE1
 70
     0
  9
$DIMSE2
 70
     0
  9
$DIMTAD
 70
     1
  9
$DIMZIN
 70
     8
  9
$DIMBLK
  1
OPEN30
  9
$DIMASO
 70
     1
  9
$DIMSHO
 70
     1
  9
$DIMPOST
  1

  9
$DIMAPOST
  1

  9
$DIMALT
 70
     0
  9
$DIMALTD
 70
     3
  9
$DIMALTF
 40
0.03937007874016
  9
$DIMLFAC
 40
1.0
  9
$DIMTOFL
 70
     1
  9
$DIMTVP
 40
0.0
  9
$DIMTIX
 70
     0
  9
$DIMSOXD
 70
     0
  9
$DIMSAH
 70
     0
  9
$DIMBLK1
  1

  9
$DIMBLK2
  1

  9
$DIMSTYLE
  2
CatalogDxf
  9
$DIMCLRD
 70
   256
  9
$DIMCLRE
 70
   256
  9
$DIMCLRT
 70
   256
  9
$DIMTFAC
 40
1.0
  9
$DIMGAP
 40
0.625
  9
$DIMJUST
 70
     0
  9
$DIMSD1
 70
     0
  9
$DIMSD2
 70
     0
  9
$DIMTOLJ
 70
     0
  9
$DIMTZIN
 70
     8
  9
$DIMALTZ
 70
     0
  9
$DIMALTTZ
 70
     0
  9
$DIMUPT
 70
     0
  9
$DIMDEC
 70
     1
  9
$DIMTDEC
 70
     1
  9
$DIMALTU
 70
     2
  9
$DIMALTTD
 70
     3
  9
$DIMTXSTY
  7
CatalogDxf
  9
$DIMAUNIT
 70
     0
  9
$DIMADEC
 70
     0
  9
$DIMALTRND
 40
0.0
  9
$DIMAZIN
 70
     0
  9
$DIMDSEP
 70
    46
  9
$DIMATFIT
 70
     3
  9
$DIMFRAC
 70
     0
  9
$DIMLDRBLK
  1
OPEN30
  9
$DIMLUNIT
 70
     2
  9
$DIMLWD
 70
    -1
  9
$DIMLWE
 70
    -1
  9
$DIMTMOVE
 70
     0
  9
$LUNITS
 70
     2
  9
$LUPREC
 70
     2
  9
$SKETCHINC
 40
0.1
  9
$FILLETRAD
 40
0.0
  9
$AUNITS
 70
     0
  9
$AUPREC
 70
     2
  9
$MENU
  1
acad
  9
$ELEVATION
 40
0.0
  9
$PELEVATION
 40
0.0
  9
$THICKNESS
 40
0.0
  9
$LIMCHECK
 70
     0
  9
$CHAMFERA
 40
0.0
  9
$CHAMFERB
 40
0.0
  9
$CHAMFERC
 40
0.0
  9
$CHAMFERD
 40
0.0
  9
$SKPOLY
 70
     0
  9
$TDCREATE
 40
2455090.761732894
  9
$TDUCREATE
 40
2455090.386732893
  9
$TDUPDATE
 40
2455678.577258229
  9
$TDUUPDATE
 40
2455678.202258229
  9
$TDINDWG
 40
0.5402711921
  9
$TDUSRTIMER
 40
0.5402619560
  9
$USRTIMER
 70
     1
  9
$ANGBASE
 50
0.0
  9
$ANGDIR
 70
     0
  9
$PDMODE
 70
     0
  9
$PDSIZE
 40
0.0
  9
$PLINEWID
 40
0.0
  9
$SPLFRAME
 70
     0
  9
$SPLINETYPE
 70
     6
  9
$SPLINESEGS
 70
     8
  9
$HANDSEED
  5
4817
  9
$SURFTAB1
 70
     6
  9
$SURFTAB2
 70
     6
  9
$SURFTYPE
 70
     6
  9
$SURFU
 70
     6
  9
$SURFV
 70
     6
  9
$UCSBASE
  2

  9
$UCSNAME
  2

  9
$UCSORG
 10
0.0
 20
0.0
 30
0.0
  9
$UCSXDIR
 10
1.0
 20
0.0
 30
0.0
  9
$UCSYDIR
 10
0.0
 20
1.0
 30
0.0
  9
$UCSORTHOREF
  2

  9
$UCSORTHOVIEW
 70
     1
  9
$UCSORGTOP
 10
0.0
 20
0.0
 30
0.0
  9
$UCSORGBOTTOM
 10
0.0
 20
0.0
 30
0.0
  9
$UCSORGLEFT
 10
0.0
 20
0.0
 30
0.0
  9
$UCSORGRIGHT
 10
0.0
 20
0.0
 30
0.0
  9
$UCSORGFRONT
 10
0.0
 20
0.0
 30
0.0
  9
$UCSORGBACK
 10
0.0
 20
0.0
 30
0.0
  9
$PUCSBASE
  2

  9
$PUCSNAME
  2

  9
$PUCSORG
 10
0.0
 20
0.0
 30
0.0
  9
$PUCSXDIR
 10
1.0
 20
0.0
 30
0.0
  9
$PUCSYDIR
 10
0.0
 20
1.0
 30
0.0
  9
$PUCSORTHOREF
  2

  9
$PUCSORTHOVIEW
 70
     0
  9
$PUCSORGTOP
 10
0.0
 20
0.0
 30
0.0
  9
$PUCSORGBOTTOM
 10
0.0
 20
0.0
 30
0.0
  9
$PUCSORGLEFT
 10
0.0
 20
0.0
 30
0.0
  9
$PUCSORGRIGHT
 10
0.0
 20
0.0
 30
0.0
  9
$PUCSORGFRONT
 10
0.0
 20
0.0
 30
0.0
  9
$PUCSORGBACK
 10
0.0
 20
0.0
 30
0.0
  9
$USERI1
 70
     0
  9
$USERI2
 70
     0
  9
$USERI3
 70
     0
  9
$USERI4
 70
     0
  9
$USERI5
 70
     0
  9
$USERR1
 40
0.0
  9
$USERR2
 40
0.0
  9
$USERR3
 40
0.0
  9
$USERR4
 40
0.0
  9
$USERR5
 40
0.0
  9
$WORLDVIEW
 70
     1
  9
$SHADEDGE
 70
     3
  9
$SHADEDIF
 70
    70
  9
$TILEMODE
 70
     1
  9
$MAXACTVP
 70
    16
  9
$PINSBASE
 10
0.0
 20
0.0
 30
0.0
  9
$PLIMCHECK
 70
     0
  9
$PEXTMIN
 10
1.000000000000000E+20
 20
1.000000000000000E+20
 30
1.000000000000000E+20
  9
$PEXTMAX
 10
-1.000000000000000E+20
 20
-1.000000000000000E+20
 30
-1.000000000000000E+20
  9
$PLIMMIN
 10
0.0
 20
0.0
  9
$PLIMMAX
 10
12.0
 20
9.0
  9
$UNITMODE
 70
     0
  9
$VISRETAIN
 70
     0
  9
$PLINEGEN
 70
     0
  9
$PSLTSCALE
 70
     1
  9
$TREEDEPTH
 70
  3020
  9
$CMLSTYLE
  2
STANDARD
  9
$CMLJUST
 70
     0
  9
$CMLSCALE
 40
1.0
  9
$PROXYGRAPHICS
 70
     1
  9
$MEASUREMENT
 70
     0
  9
$CELWEIGHT
370
    -1
  9
$ENDCAPS
280
     0
  9
$JOINSTYLE
280
     0
  9
$LWDISPLAY
290
     0
  9
$INSUNITS
 70
     0
  9
$HYPERLINKBASE
  1

  9
$STYLESHEET
  1
monochrome.ctb
  9
$XEDIT
290
     1
  9
$CEPSNTYPE
380
     0
  9
$PSTYLEMODE
290
     1
  9
$FINGERPRINTGUID
  2
{AFC0AA2D-B3CD-48CF-B830-EF9C44F122D3}
  9
$VERSIONGUID
  2
{D68000C5-3309-48C6-BCCD-CD9C44045285}
  9
$EXTNAMES
290
     1
  9
$PSVPSCALE
 40
0.0
  9
$OLESTARTUP
290
     0
  0
ENDSEC
  0
SECTION
  2
CLASSES
  0
CLASS
  1
ACDBDICTIONARYWDFLT
  2
AcDbDictionaryWithDefault
  3
ObjectDBX Classes
 90
        0
280
     0
281
     0
  0
CLASS
  1
DICTIONARYVAR
  2
AcDbDictionaryVar
  3
ObjectDBX Classes
 90
        0
280
     0
281
     0
  0
CLASS
  1
MATERIAL
  2
AcDbMaterial
  3
ObjectDBX Classes
 90
        0
280
     0
281
     0
  0
CLASS
  1
VISUALSTYLE
  2
AcDbVisualStyle
  3
ObjectDBX Classes
 90
     4095
280
     0
281
     0
  0
CLASS
  1
TABLESTYLE
  2
AcDbTableStyle
  3
ObjectDBX Classes
 90
     2047
280
     0
281
     0
  0
CLASS
  1
DIMASSOC
  2
AcDbDimAssoc
  3
"AcDbDimAssoc|Product Desc:     AcDim ARX App For Dimension|Company:          Autodesk, Inc.|WEB Address:      www.autodesk.com"
 90
    32768
280
     0
281
     0
  0
CLASS
  1
SORTENTSTABLE
  2
AcDbSortentsTable
  3
ObjectDBX Classes
 90
    32768
280
     0
281
     0
  0
CLASS
  1
ACDBPLACEHOLDER
  2
AcDbPlaceHolder
  3
ObjectDBX Classes
 90
        0
280
     0
281
     0
  0
CLASS
  1
LAYOUT
  2
AcDbLayout
  3
ObjectDBX Classes
 90
        0
280
     0
281
     0
  0
ENDSEC
  0
SECTION
  2
TABLES
  0
TABLE
  2
VPORT
  5
8
102
{ACAD_XDICTIONARY
360
45A4
102
}
330
0
100
AcDbSymbolTable
 70
     2
  0
VPORT
  5
4810
330
8
100
AcDbSymbolTableRecord
100
AcDbViewportTableRecord
  2
*Active
 70
     0
 10
0.0
 20
0.0
 11
1.0
 21
1.0
 12
677.0801062892018
 22
-54.03365762131373
 13
0.0
 23
0.0
 14
1.0
 24
1.0
 15
0.0
 25
0.0
 16
0.0
 26
0.0
 36
1.0
 17
0.0
 27
0.0
 37
0.0
 40
222.5968262208358
 41
2.288973384030418
 42
50.0
 43
0.0
 44
0.0
 50
0.0
 51
0.0
 71
     0
 72
   100
 73
     1
 74
     1
 75
     0
 76
     0
 77
     0
 78
     0
281
     0
 65
     1
110
0.0
120
0.0
130
0.0
111
1.0
121
0.0
131
0.0
112
0.0
122
1.0
132
0.0
 79
     0
146
0.0
  0
ENDTAB
  0
TABLE
  2
LTYPE
  5
5
330
0
100
AcDbSymbolTable
 70
     3
  0
LTYPE
  5
11
330
5
100
AcDbSymbolTableRecord
100
AcDbLinetypeTableRecord
  2
BYBLOCK
 70
     0
  3

 72
    65
 73
     0
 40
0.0
  0
LTYPE
  5
12
330
5
100
AcDbSymbolTableRecord
100
AcDbLinetypeTableRecord
  2
BYLAYER
 70
     0
  3

 72
    65
 73
     0
 40
0.0
  0
LTYPE
  5
13
330
5
100
AcDbSymbolTableRecord
100
AcDbLinetypeTableRecord
  2
CONTINUOUS
 70
     0
  3
Solid line
 72
    65
 73
     0
 40
0.0
  0
LTYPE
  5
3DB3
330
5
100
AcDbSymbolTableRecord
100
AcDbLinetypeTableRecord
  2
CENTER2
 70
     0
  3
Center (.5x) ___ _ ___ _ ___ _ ___ _ ___ _ ___
 72
    65
 73
     4
 40
28.575
 49
19.05
 74
     0
 49
-3.174999999999998
 74
     0
 49
3.174999999999998
 74
     0
 49
-3.174999999999998
 74
     0
  0
LTYPE
  5
3DB4
330
5
100
AcDbSymbolTableRecord
100
AcDbLinetypeTableRecord
  2
HIDDEN2
 70
     0
  3
Hidden (.5x) _ _ _ _ _ _ _ _ _ _ _ _ _ _ _ _ _
 72
    65
 73
     2
 40
4.762499999999998
 49
3.174999999999998
 74
     0
 49
-1.587499999999999
 74
     0
  0
ENDTAB
  0
TABLE
  2
LAYER
  5
2
102
{ACAD_XDICTIONARY
360
3DBA
102
}
330
0
100
AcDbSymbolTable
 70
     4
  0
LAYER
  5
E
102
{ACAD_XDICTIONARY
360
45A6
102
}
330
2
100
AcDbSymbolTableRecord
100
AcDbLayerTableRecord
  2
0
 70
     0
 62
     7
  6
CONTINUOUS
370
    -3
390
3D41
  0
LAYER
  5
27
102
{ACAD_XDICTIONARY
360
45A8
102
}
330
2
100
AcDbSymbolTableRecord
100
AcDbLayerTableRecord
  2
Z_OM_DIM
 70
     0
 62
     4
  6
CONTINUOUS
370
    -3
390
3D41
  0
LAYER
  5
2B
102
{ACAD_XDICTIONARY
360
45AA
102
}
330
2
100
AcDbSymbolTableRecord
100
AcDbLayerTableRecord
  2
DEFPOINTS
 70
     0
 62
     7
  6
CONTINUOUS
290
     0
370
    -3
390
3D41
  0
LAYER
  5
3DB5
102
{ACAD_XDICTIONARY
360
45AE
102
}
330
2
100
AcDbSymbolTableRecord
100
AcDbLayerTableRecord
  2
additional
 70
     0
 62
    50
  6
CONTINUOUS
370
    -3
390
3D41
1001
AcAecLayerStandard
1000

1000

  0
ENDTAB
  0
TABLE
  2
STYLE
  5
3
330
0
100
AcDbSymbolTable
 70
     4
  0
STYLE
  5
F
330
3
100
AcDbSymbolTableRecord
100
AcDbTextStyleTableRecord
  2
STANDARD
 70
     0
 40
0.0
 41
1.08
 50
0.0
 71
     0
 42
3.0
  3
txt.shx
  4
bigfont.shx
  0
STYLE
  5
3DB6
330
3
100
AcDbSymbolTableRecord
100
AcDbTextStyleTableRecord
  2
CatalogDxf
 70
     0
 40
0.0
 41
1.0
 50
0.0
 71
     0
 42
2.5
  3
txt.shx
  4
bigfont.shx
  0
STYLE
  5
4196
330
3
100
AcDbSymbolTableRecord
100
AcDbTextStyleTableRecord
  2

 70
     1
 40
0.0
 41
1.0
 50
0.0
 71
     0
 42
3.0
  3
ltypeshp.shx
  4

  0
ENDTAB
  0
TABLE
  2
VIEW
  5
6
330
0
100
AcDbSymbolTable
 70
     0
  0
ENDTAB
  0
TABLE
  2
UCS
  5
7
330
0
100
AcDbSymbolTable
 70
     0
  0
ENDTAB
  0
TABLE
  2
APPID
  5
9
330
0
100
AcDbSymbolTable
 70
     8
  0
APPID
  5
10
330
9
100
AcDbSymbolTableRecord
100
AcDbRegAppTableRecord
  2
ACAD
 70
     0
  0
APPID
  5
3D5E
330
9
100
AcDbSymbolTableRecord
100
AcDbRegAppTableRecord
  2
ACAD_PSEXT
 70
     0
  0
APPID
  5
3DB9
330
9
100
AcDbSymbolTableRecord
100
AcDbRegAppTableRecord
  2
AcAecLayerStandard
 70
     0
  0
APPID
  5
41A3
330
9
100
AcDbSymbolTableRecord
100
AcDbRegAppTableRecord
  2
ACAD_DSTYLE_DIM_LINETYPE
 70
     0
  0
APPID
  5
41A4
330
9
100
AcDbSymbolTableRecord
100
AcDbRegAppTableRecord
  2
ACAD_DSTYLE_DIM_EXT1_LINETYPE
 70
     0
  0
APPID
  5
41A5
330
9
100
AcDbSymbolTableRecord
100
AcDbRegAppTableRecord
  2
ACAD_DSTYLE_DIM_EXT2_LINETYPE
 70
     0
  0
APPID
  5
44B9
330
9
100
AcDbSymbolTableRecord
100
AcDbRegAppTableRecord
  2
ACAD_EXEMPT_FROM_CAD_STANDARDS
 70
     0
  0
APPID
  5
471A
330
9
100
AcDbSymbolTableRecord
100
AcDbRegAppTableRecord
  2
ACAD_DSTYLE_DIMTEXT_FILL
 70
     0
  0
ENDTAB
  0
TABLE
  2
DIMSTYLE
  5
A
330
0
100
AcDbSymbolTable
 70
     4
100
AcDbDimStyleTable
 71
     2
340
3DB8
340
30
  0
DIMSTYLE
105
30
330
A
100
AcDbSymbolTableRecord
100
AcDbDimStyleTableRecord
  2
STANDARD
 70
     0
 41
6.0
 42
1.0
 43
16.0
 44
3.0
 73
     0
 74
     0
 77
     1
 78
     8
140
4.4
141
10.0
147
1.6
172
     1
176
   256
177
   256
178
   256
340
F
341
977
342
977
  0
DIMSTYLE
105
3DB8
102
{ACAD_REACTORS
330
4313
330
44E1
330
44F0
330
451A
330
4527
330
4534
330
4543
330
455B
330
4577
330
4584
330
45D4
330
46DE
102
}
330
A
100
AcDbSymbolTableRecord
100
AcDbDimStyleTableRecord
  2
CatalogDxf
 70
     0
 41
2.5
 42
0.625
 43
3.75
 44
1.25
 73
     0
 74
     0
 77
     1
 78
     8
140
2.5
141
2.5
143
0.03937007874016
147
0.625
171
     3
172
     1
176
   256
177
   256
178
   256
271
     1
272
     1
274
     3
283
     0
284
     8
340
3DB6
341
977
342
977
371
    -1
372
    -1
1001
ACAD_DSTYLE_DIM_LINETYPE
1070
   380
1005
12
1001
ACAD_DSTYLE_DIM_EXT1_LINETYPE
1070
   381
1005
12
1001
ACAD_DSTYLE_DIM_EXT2_LINETYPE
1070
   382
1005
12
  0
DIMSTYLE
105
4353
330
A
100
AcDbSymbolTableRecord
100
AcDbDimStyleTableRecord
  2
ISO-25
 70
     0
 41
2.5
 42
0.625
 43
3.75
 44
1.25
 73
     0
 74
     0
 77
     1
 78
     8
140
2.5
141
2.5
143
0.03937007874016
147
0.625
171
     3
172
     1
271
     2
272
     2
274
     3
278
    44
283
     0
284
     8
340
F
  0
ENDTAB
  0
TABLE
  2
BLOCK_RECORD
  5
1
330
0
100
AcDbSymbolTable
 70
    14
  0
BLOCK_RECORD
  5
17
102
{ACAD_XDICTIONARY
360
1808
102
}
330
1
100
AcDbSymbolTableRecord
100
AcDbBlockTableRecord
  2
*MODEL_SPACE
340
3D5B
  0
BLOCK_RECORD
  5
14
102
{ACAD_XDICTIONARY
360
1806
102
}
330
1
100
AcDbSymbolTableRecord
100
AcDbBlockTableRecord
  2
*PAPER_SPACE
340
3D5C
  0
BLOCK_RECORD
  5
977
330
1
100
AcDbSymbolTableRecord
100
AcDbBlockTableRecord
  2
_OPEN30
340
0
102
{BLKREFS
331
4776
331
4777
331
4781
331
4782
331
478A
331
478B
331
4793
331
4794
331
479C
331
479D
331
47A7
331
47A8
331
47B0
331
47B1
331
47B9
331
47BA
331
47C2
331
47C3
331
47CB
331
47CC
331
47D4
331
47D5
331
47EE
331
47EF
102
}
  0
BLOCK_RECORD
  5
4314
330
1
100
AcDbSymbolTableRecord
100
AcDbBlockTableRecord
  2
*D1
340
0
  0
BLOCK_RECORD
  5
44E2
330
1
100
AcDbSymbolTableRecord
100
AcDbBlockTableRecord
  2
*D2
340
0
  0
BLOCK_RECORD
  5
44F1
330
1
100
AcDbSymbolTableRecord
100
AcDbBlockTableRecord
  2
*D3
340
0
  0
BLOCK_RECORD
  5
451B
330
1
100
AcDbSymbolTableRecord
100
AcDbBlockTableRecord
  2
*D4
340
0
  0
BLOCK_RECORD
  5
4528
330
1
100
AcDbSymbolTableRecord
100
AcDbBlockTableRecord
  2
*D5
340
0
  0
BLOCK_RECORD
  5
4535
330
1
100
AcDbSymbolTableRecord
100
AcDbBlockTableRecord
  2
*D6
340
0
  0
BLOCK_RECORD
  5
4544
330
1
100
AcDbSymbolTableRecord
100
AcDbBlockTableRecord
  2
*D7
340
0
  0
BLOCK_RECORD
  5
455C
330
1
100
AcDbSymbolTableRecord
100
AcDbBlockTableRecord
  2
*D8
340
0
  0
BLOCK_RECORD
  5
4578
330
1
100
AcDbSymbolTableRecord
100
AcDbBlockTableRecord
  2
*D9
340
0
  0
BLOCK_RECORD
  5
4585
330
1
100
AcDbSymbolTableRecord
100
AcDbBlockTableRecord
  2
*D10
340
0
  0
BLOCK_RECORD
  5
45D5
330
1
100
AcDbSymbolTableRecord
100
AcDbBlockTableRecord
  2
*D11
340
0
  0
BLOCK_RECORD
  5
46DF
330
1
100
AcDbSymbolTableRecord
100
AcDbBlockTableRecord
  2
*D12
340
0
  0
ENDTAB
  0
ENDSEC
  0
SECTION
  2
BLOCKS
  0
BLOCK
  5
2E
330
17
100
AcDbEntity
  8
0
100
AcDbBlockBegin
  2
*MODEL_SPACE
 70
     0
 10
0.0
 20
0.0
 30
0.0
  3
*MODEL_SPACE
  1

  0
ENDBLK
  5
2F
330
17
100
AcDbEntity
  8
0
100
AcDbBlockEnd
  0
BLOCK
  5
2C
330
14
100
AcDbEntity
 67
     1
  8
0
100
AcDbBlockBegin
  2
*PAPER_SPACE
 70
     0
 10
0.0
 20
0.0
 30
0.0
  3
*PAPER_SPACE
  1

  0
ENDBLK
  5
2D
330
14
100
AcDbEntity
 67
     1
  8
0
100
AcDbBlockEnd
  0
BLOCK
  5
97B
330
977
100
AcDbEntity
  8
0
100
AcDbBlockBegin
  2
_OPEN30
 70
     0
 10
0.0
 20
0.0
 30
0.0
  3
_OPEN30
  1

  0
LINE
  5
978
330
977
100
AcDbEntity
  8
0
  6
ByBlock
 62
     0
100
AcDbLine
 10
-1.0
 20
0.26794919
 30
0.0
 11
0.0
 21
0.0
 31
0.0
  0
LINE
  5
979
330
977
100
AcDbEntity
  8
0
  6
ByBlock
 62
     0
100
AcDbLine
 10
0.0
 20
0.0
 30
0.0
 11
-1.0
 21
-0.26794919
 31
0.0
  0
LINE
  5
97A
330
977
100
AcDbEntity
  8
0
  6
ByBlock
 62
     0
100
AcDbLine
 10
0.0
 20
0.0
 30
0.0
 11
-1.0
 21
0.0
 31
0.0
  0
ENDBLK
  5
97C
330
977
100
AcDbEntity
  8
0
100
AcDbBlockEnd
  0
BLOCK
  5
431E
330
4314
100
AcDbEntity
  8
0
100
AcDbBlockBegin
  2
*D1
 70
     1
 10
0.0
 20
0.0
 30
0.0
  3
*D1
  1

  0
LINE
  5
4773
330
4314
100
AcDbEntity
  8
Z_OM_DIM
100
AcDbLine
 10
677.4161871534758
 20
-20.2532139764359
 30
0.0
 11
677.4161871534758
 21
-37.86956447330255
 31
0.0
  0
LINE
  5
4774
330
4314
100
AcDbEntity
  8
Z_OM_DIM
100
AcDbLine
 10
707.6307906527897
 20
-4.403213976435949
 30
0.0
 11
707.6307906527897
 21
-37.86956447330255
 31
0.0
  0
LINE
  5
4775
330
4314
100
AcDbEntity
  8
Z_OM_DIM
100
AcDbLine
 10
679.9161871534757
 20
-36.61956447330255
 30
0.0
 11
705.1307906527897
 21
-36.61956447330255
 31
0.0
  0
INSERT
  5
4776
330
4314
100
AcDbEntity
  8
Z_OM_DIM
100
AcDbBlockReference
  2
_OPEN30
 10
677.4161871534758
 20
-36.61956447330255
 30
0.0
 41
2.5
 42
2.5
 43
2.5
 50
180.0
  0
INSERT
  5
4777
330
4314
100
AcDbEntity
  8
Z_OM_DIM
100
AcDbBlockReference
  2
_OPEN30
 10
707.6307906527897
 20
-36.61956447330255
 30
0.0
 41
2.5
 42
2.5
 43
2.5
  0
MTEXT
  5
4778
330
4314
100
AcDbEntity
  8
Z_OM_DIM
100
AcDbMText
 10
692.5234889031328
 20
-34.74456447330255
 30
0.0
 40
2.5
 41
0.0
 71
     5
 72
     1
  1
180 - 200
  7
CatalogDxf
 73
     1
 44
1.0
1001
ACAD
1000
MTEXTBEGIN
1070
    73
1070
     1
1070
    44
1040
1.0
1070
    74
1070
     0
1000
MTEXTEND
  0
POINT
  5
4779
330
4314
100
AcDbEntity
  8
DEFPOINTS
 62
     0
100
AcDbPoint
 10
677.4161871534758
 20
-19.6282139764359
 30
0.0
  0
POINT
  5
477A
330
4314
100
AcDbEntity
  8
DEFPOINTS
 62
     0
100
AcDbPoint
 10
707.6307906527897
 20
-3.778213976435949
 30
0.0
  0
POINT
  5
477B
330
4314
100
AcDbEntity
  8
DEFPOINTS
 62
     0
100
AcDbPoint
 10
707.6307906527897
 20
-36.61956447330255
 30
0.0
  0
ENDBLK
  5
431F
330
4314
100
AcDbEntity
  8
0
100
AcDbBlockEnd
  0
BLOCK
  5
44EE
330
44E2
100
AcDbEntity
  8
0
100
AcDbBlockBegin
  2
*D2
 70
     1
 10
0.0
 20
0.0
 30
0.0
  3
*D2
  1

  0
LINE
  5
477C
330
44E2
100
AcDbEntity
  8
Z_OM_DIM
100
AcDbLine
 10
602.6911871534754
 20
-1.278213976435949
 30
0.0
 11
587.8899421158911
 21
-1.278213976435945
 31
0.0
  0
LINE
  5
477D
330
44E2
100
AcDbEntity
  8
Z_OM_DIM
100
AcDbLine
 10
602.6911871534754
 20
-4.778213976435949
 30
0.0
 11
587.8899421158911
 21
-4.778213976435945
 31
0.0
  0
LINE
  5
477E
330
44E2
100
AcDbEntity
  8
Z_OM_DIM
100
AcDbLine
 10
589.1399421158911
 20
-7.278213976435945
 30
0.0
 11
589.1399421158911
 21
-9.778213976435946
 31
0.0
  0
LINE
  5
477F
330
44E2
100
AcDbEntity
  8
Z_OM_DIM
100
AcDbLine
 10
589.1399421158911
 20
1.221786023564054
 30
0.0
 11
589.1399421158911
 21
10.18011935689738
 31
0.0
  0
LINE
  5
4780
330
44E2
100
AcDbEntity
  8
Z_OM_DIM
100
AcDbLine
 10
589.1399421158911
 20
-4.778213976435945
 30
0.0
 11
589.1399421158911
 21
-1.278213976435945
 31
0.0
  0
INSERT
  5
4781
330
44E2
100
AcDbEntity
  8
Z_OM_DIM
100
AcDbBlockReference
  2
_OPEN30
 10
589.1399421158911
 20
-4.778213976435945
 30
0.0
 41
2.5
 42
2.5
 43
2.5
 50
90.0
  0
INSERT
  5
4782
330
44E2
100
AcDbEntity
  8
Z_OM_DIM
100
AcDbBlockReference
  2
_OPEN30
 10
589.1399421158911
 20
-1.278213976435945
 30
0.0
 41
2.5
 42
2.5
 43
2.5
 50
270.0
  0
MTEXT
  5
4783
330
44E2
100
AcDbEntity
  8
Z_OM_DIM
100
AcDbMText
 10
587.2649421158911
 20
7.055119356897482
 30
0.0
 40
2.5
 41
0.0
 71
     5
 72
     1
  1
3.5
  7
CatalogDxf
 11
0.0000000000000001
 21
1.0
 31
0.0
 73
     1
 44
1.0
1001
ACAD
1000
MTEXTBEGIN
1070
    73
1070
     1
1070
    44
1040
1.0
1070
    74
1070
     0
1000
MTEXTEND
  0
POINT
  5
4784
330
44E2
100
AcDbEntity
  8
DEFPOINTS
 62
     0
100
AcDbPoint
 10
603.3161871534754
 20
-1.278213976435949
 30
0.0
  0
POINT
  5
4785
330
44E2
100
AcDbEntity
  8
DEFPOINTS
 62
     0
100
AcDbPoint
 10
603.3161871534754
 20
-4.778213976435949
 30
0.0
  0
POINT
  5
4786
330
44E2
100
AcDbEntity
  8
DEFPOINTS
 62
     0
100
AcDbPoint
 10
589.1399421158911
 20
-4.778213976435945
 30
0.0
  0
ENDBLK
  5
44EF
330
44E2
100
AcDbEntity
  8
0
100
AcDbBlockEnd
  0
BLOCK
  5
44FB
330
44F1
100
AcDbEntity
  8
0
100
AcDbBlockBegin
  2
*D3
 70
     1
 10
0.0
 20
0.0
 30
0.0
  3
*D3
  1

  0
LINE
  5
4787
330
44F1
100
AcDbEntity
  8
Z_OM_DIM
100
AcDbLine
 10
611.3161871534754
 20
-5.403213976435949
 30
0.0
 11
611.3161871534754
 21
-21.95949402258248
 31
0.0
  0
LINE
  5
4788
330
44F1
100
AcDbEntity
  8
Z_OM_DIM
100
AcDbLine
 10
603.3161871534754
 20
-9.117463976435942
 30
0.0
 11
603.3161871534754
 21
-21.95949402258248
 31
0.0
  0
LINE
  5
4789
330
44F1
100
AcDbEntity
  8
Z_OM_DIM
100
AcDbLine
 10
608.8161871534754
 20
-20.70949402258248
 30
0.0
 11
605.8161871534754
 21
-20.70949402258248
 31
0.0
  0
INSERT
  5
478A
330
44F1
100
AcDbEntity
  8
Z_OM_DIM
100
AcDbBlockReference
  2
_OPEN30
 10
611.3161871534754
 20
-20.70949402258248
 30
0.0
 41
2.5
 42
2.5
 43
2.5
  0
INSERT
  5
478B
330
44F1
100
AcDbEntity
  8
Z_OM_DIM
100
AcDbBlockReference
  2
_OPEN30
 10
603.3161871534754
 20
-20.70949402258248
 30
0.0
 41
2.5
 42
2.5
 43
2.5
 50
180.0
  0
MTEXT
  5
478C
330
44F1
100
AcDbEntity
  8
Z_OM_DIM
100
AcDbMText
 10
607.3161871534754
 20
-18.83449402258247
 30
0.0
 40
2.5
 41
0.0
 71
     5
 72
     1
  1
8
  7
CatalogDxf
 73
     1
 44
1.0
1001
ACAD
1000
MTEXTBEGIN
1070
    73
1070
     1
1070
    44
1040
1.0
1070
    74
1070
     0
1000
MTEXTEND
  0
POINT
  5
478D
330
44F1
100
AcDbEntity
  8
DEFPOINTS
 62
     0
100
AcDbPoint
 10
611.3161871534754
 20
-4.778213976435949
 30
0.0
  0
POINT
  5
478E
330
44F1
100
AcDbEntity
  8
DEFPOINTS
 62
     0
100
AcDbPoint
 10
603.3161871534754
 20
-8.492463976435942
 30
0.0
  0
POINT
  5
478F
330
44F1
100
AcDbEntity
  8
DEFPOINTS
 62
     0
100
AcDbPoint
 10
603.3161871534754
 20
-20.70949402258248
 30
0.0
  0
ENDBLK
  5
44FC
330
44F1
100
AcDbEntity
  8
0
100
AcDbBlockEnd
  0
BLOCK
  5
4525
330
451B
100
AcDbEntity
  8
0
100
AcDbBlockBegin
  2
*D4
 70
     1
 10
0.0
 20
0.0
 30
0.0
  3
*D4
  1

  0
LINE
  5
4790
330
451B
100
AcDbEntity
  8
Z_OM_DIM
100
AcDbLine
 10
660.3161871534754
 20
-75.88368298596691
 30
0.0
 11
660.3161871534754
 21
-57.28517012981601
 31
0.0
  0
LINE
  5
4791
330
451B
100
AcDbEntity
  8
Z_OM_DIM
100
AcDbLine
 10
632.3161871534754
 20
-75.88368298596691
 30
0.0
 11
632.3161871534754
 21
-57.28517012981601
 31
0.0
  0
LINE
  5
4792
330
451B
100
AcDbEntity
  8
Z_OM_DIM
100
AcDbLine
 10
657.8161871534754
 20
-58.53517012981601
 30
0.0
 11
634.8161871534754
 21
-58.53517012981601
 31
0.0
  0
INSERT
  5
4793
330
451B
100
AcDbEntity
  8
Z_OM_DIM
100
AcDbBlockReference
  2
_OPEN30
 10
660.3161871534754
 20
-58.53517012981601
 30
0.0
 41
2.5
 42
2.5
 43
2.5
  0
INSERT
  5
4794
330
451B
100
AcDbEntity
  8
Z_OM_DIM
100
AcDbBlockReference
  2
_OPEN30
 10
632.3161871534754
 20
-58.53517012981601
 30
0.0
 41
2.5
 42
2.5
 43
2.5
 50
180.0
  0
MTEXT
  5
4795
330
451B
100
AcDbEntity
  8
Z_OM_DIM
100
AcDbMText
 10
646.3161871534754
 20
-56.66017012981601
 30
0.0
 40
2.5
 41
0.0
 71
     5
 72
     1
  1
28
  7
CatalogDxf
 73
     1
 44
1.0
1001
ACAD
1000
MTEXTBEGIN
1070
    73
1070
     1
1070
    44
1040
1.0
1070
    74
1070
     0
1000
MTEXTEND
  0
POINT
  5
4796
330
451B
100
AcDbEntity
  8
DEFPOINTS
 62
     0
100
AcDbPoint
 10
660.3161871534754
 20
-76.50868298596691
 30
0.0
  0
POINT
  5
4797
330
451B
100
AcDbEntity
  8
DEFPOINTS
 62
     0
100
AcDbPoint
 10
632.3161871534754
 20
-76.50868298596691
 30
0.0
  0
POINT
  5
4798
330
451B
100
AcDbEntity
  8
DEFPOINTS
 62
     0
100
AcDbPoint
 10
632.3161871534754
 20
-58.53517012981601
 30
0.0
  0
ENDBLK
  5
4526
330
451B
100
AcDbEntity
  8
0
100
AcDbBlockEnd
  0
BLOCK
  5
4532
330
4528
100
AcDbEntity
  8
0
100
AcDbBlockBegin
  2
*D5
 70
     1
 10
0.0
 20
0.0
 30
0.0
  3
*D5
  1

  0
LINE
  5
4799
330
4528
100
AcDbEntity
  8
Z_OM_DIM
100
AcDbLine
 10
632.3161871534754
 20
-75.88368298596691
 30
0.0
 11
632.3161871534754
 21
-57.28517012981601
 31
0.0
  0
LINE
  5
479A
330
4528
100
AcDbEntity
  8
Z_OM_DIM
100
AcDbLine
 10
607.3161871534754
 20
-80.12570165033826
 30
0.0
 11
607.3161871534754
 21
-57.28517012981601
 31
0.0
  0
LINE
  5
479B
330
4528
100
AcDbEntity
  8
Z_OM_DIM
100
AcDbLine
 10
629.8161871534754
 20
-58.53517012981601
 30
0.0
 11
609.8161871534754
 21
-58.53517012981601
 31
0.0
  0
INSERT
  5
479C
330
4528
100
AcDbEntity
  8
Z_OM_DIM
100
AcDbBlockReference
  2
_OPEN30
 10
632.3161871534754
 20
-58.53517012981601
 30
0.0
 41
2.5
 42
2.5
 43
2.5
  0
INSERT
  5
479D
330
4528
100
AcDbEntity
  8
Z_OM_DIM
100
AcDbBlockReference
  2
_OPEN30
 10
607.3161871534754
 20
-58.53517012981601
 30
0.0
 41
2.5
 42
2.5
 43
2.5
 50
180.0
  0
MTEXT
  5
479E
330
4528
100
AcDbEntity
  8
Z_OM_DIM
100
AcDbMText
 10
619.8161871534754
 20
-56.66017012981601
 30
0.0
 40
2.5
 41
0.0
 71
     5
 72
     1
  1
25
  7
CatalogDxf
 73
     1
 44
1.0
1001
ACAD
1000
MTEXTBEGIN
1070
    73
1070
     1
1070
    44
1040
1.0
1070
    74
1070
     0
1000
MTEXTEND
  0
POINT
  5
479F
330
4528
100
AcDbEntity
  8
DEFPOINTS
 62
     0
100
AcDbPoint
 10
632.3161871534754
 20
-76.50868298596691
 30
0.0
  0
POINT
  5
47A0
330
4528
100
AcDbEntity
  8
DEFPOINTS
 62
     0
100
AcDbPoint
 10
607.3161871534754
 20
-80.75070165033826
 30
-0.2791559578101779
  0
POINT
  5
47A1
330
4528
100
AcDbEntity
  8
DEFPOINTS
 62
     0
100
AcDbPoint
 10
607.3161871534754
 20
-58.53517012981601
 30
0.0
  0
ENDBLK
  5
4533
330
4528
100
AcDbEntity
  8
0
100
AcDbBlockEnd
  0
BLOCK
  5
4541
330
4535
100
AcDbEntity
  8
0
100
AcDbBlockBegin
  2
*D6
 70
     1
 10
0.0
 20
0.0
 30
0.0
  3
*D6
  1

  0
LINE
  5
47A2
330
4535
100
AcDbEntity
  8
Z_OM_DIM
100
AcDbLine
 10
607.3161871534754
 20
-80.12570165033826
 30
0.0
 11
607.3161871534754
 21
-57.28517012981601
 31
0.0
  0
LINE
  5
47A3
330
4535
100
AcDbEntity
  8
Z_OM_DIM
100
AcDbLine
 10
603.3161871534754
 20
-83.41943298596692
 30
0.0
 11
603.3161871534754
 21
-57.28517012981601
 31
0.0
  0
LINE
  5
47A4
330
4535
100
AcDbEntity
  8
Z_OM_DIM
100
AcDbLine
 10
609.8161871534754
 20
-58.53517012981601
 30
0.0
 11
612.3161871534754
 21
-58.53517012981601
 31
0.0
  0
LINE
  5
47A5
330
4535
100
AcDbEntity
  8
Z_OM_DIM
100
AcDbLine
 10
600.8161871534754
 20
-58.53517012981601
 30
0.0
 11
595.3995204868087
 21
-58.53517012981601
 31
0.0
  0
LINE
  5
47A6
330
4535
100
AcDbEntity
  8
Z_OM_DIM
100
AcDbLine
 10
607.3161871534754
 20
-58.53517012981601
 30
0.0
 11
603.3161871534754
 21
-58.53517012981601
 31
0.0
  0
INSERT
  5
47A7
330
4535
100
AcDbEntity
  8
Z_OM_DIM
100
AcDbBlockReference
  2
_OPEN30
 10
607.3161871534754
 20
-58.53517012981601
 30
0.0
 41
2.5
 42
2.5
 43
2.5
 50
180.0
  0
INSERT
  5
47A8
330
4535
100
AcDbEntity
  8
Z_OM_DIM
100
AcDbBlockReference
  2
_OPEN30
 10
603.3161871534754
 20
-58.53517012981601
 30
0.0
 41
2.5
 42
2.5
 43
2.5
  0
MTEXT
  5
47A9
330
4535
100
AcDbEntity
  8
Z_OM_DIM
100
AcDbMText
 10
596.857853820142
 20
-56.66017012981601
 30
0.0
 40
2.5
 41
0.0
 71
     5
 72
     1
  1
4
  7
CatalogDxf
 73
     1
 44
1.0
1001
ACAD
1000
MTEXTBEGIN
1070
    73
1070
     1
1070
    44
1040
1.0
1070
    74
1070
     0
1000
MTEXTEND
  0
POINT
  5
47AA
330
4535
100
AcDbEntity
  8
DEFPOINTS
 62
     0
100
AcDbPoint
 10
607.3161871534754
 20
-80.75070165033826
 30
-0.2791559578101779
  0
POINT
  5
47AB
330
4535
100
AcDbEntity
  8
DEFPOINTS
 62
     0
100
AcDbPoint
 10
603.3161871534754
 20
-84.04443298596692
 30
0.0
  0
POINT
  5
47AC
330
4535
100
AcDbEntity
  8
DEFPOINTS
 62
     0
100
AcDbPoint
 10
603.3161871534754
 20
-58.53517012981601
 30
0.0
  0
ENDBLK
  5
4542
330
4535
100
AcDbEntity
  8
0
100
AcDbBlockEnd
  0
BLOCK
  5
454E
330
4544
100
AcDbEntity
  8
0
100
AcDbBlockBegin
  2
*D7
 70
     1
 10
0.0
 20
0.0
 30
0.0
  3
*D7
  1

  0
LINE
  5
47AD
330
4544
100
AcDbEntity
  8
Z_OM_DIM
100
AcDbLine
 10
663.9629237116961
 20
-79.50868298596688
 30
0.0
 11
695.9395766309767
 21
-79.5086829859669
 31
0.0
  0
LINE
  5
47AE
330
4544
100
AcDbEntity
  8
Z_OM_DIM
100
AcDbLine
 10
663.9629237116961
 20
-99.50868298596686
 30
0.0
 11
695.9395766309767
 21
-99.50868298596688
 31
0.0
  0
LINE
  5
47AF
330
4544
100
AcDbEntity
  8
Z_OM_DIM
100
AcDbLine
 10
694.6895766309767
 20
-82.0086829859669
 30
0.0
 11
694.6895766309767
 21
-97.00868298596688
 31
0.0
  0
INSERT
  5
47B0
330
4544
100
AcDbEntity
  8
Z_OM_DIM
100
AcDbBlockReference
  2
_OPEN30
 10
694.6895766309767
 20
-79.5086829859669
 30
0.0
 41
2.5
 42
2.5
 43
2.5
 50
90.0
  0
INSERT
  5
47B1
330
4544
100
AcDbEntity
  8
Z_OM_DIM
100
AcDbBlockReference
  2
_OPEN30
 10
694.6895766309767
 20
-99.50868298596688
 30
0.0
 41
2.5
 42
2.5
 43
2.5
 50
270.0
  0
MTEXT
  5
47B2
330
4544
100
AcDbEntity
  8
Z_OM_DIM
100
AcDbMText
 10
692.8145766309767
 20
-89.50868298596677
 30
0.0
 40
2.5
 41
0.0
 71
     5
 72
     1
  1
20
  7
CatalogDxf
 11
0.0000000000000001
 21
1.0
 31
0.0
 73
     1
 44
1.0
1001
ACAD
1000
MTEXTBEGIN
1070
    73
1070
     1
1070
    44
1040
1.0
1070
    74
1070
     0
1000
MTEXTEND
  0
POINT
  5
47B3
330
4544
100
AcDbEntity
  8
DEFPOINTS
 62
     0
100
AcDbPoint
 10
663.3379237116961
 20
-79.50868298596688
 30
0.0
  0
POINT
  5
47B4
330
4544
100
AcDbEntity
  8
DEFPOINTS
 62
     0
100
AcDbPoint
 10
663.3379237116961
 20
-99.50868298596686
 30
0.0
  0
POINT
  5
47B5
330
4544
100
AcDbEntity
  8
DEFPOINTS
 62
     0
100
AcDbPoint
 10
694.6895766309767
 20
-99.50868298596688
 30
0.0
  0
ENDBLK
  5
454F
330
4544
100
AcDbEntity
  8
0
100
AcDbBlockEnd
  0
BLOCK
  5
4566
330
455C
100
AcDbEntity
  8
0
100
AcDbBlockBegin
  2
*D8
 70
     1
 10
0.0
 20
0.0
 30
0.0
  3
*D8
  1

  0
LINE
  5
47B6
330
455C
100
AcDbEntity
  8
Z_OM_DIM
100
AcDbLine
 10
603.1911871534754
 20
-83.54443298596692
 30
0.0
 11
587.8899421158911
 21
-83.54443298596692
 31
0.0
  0
LINE
  5
47B7
330
455C
100
AcDbEntity
  8
Z_OM_DIM
100
AcDbLine
 10
603.1911871534754
 20
-95.47293298596688
 30
0.0
 11
587.8899421158911
 21
-95.47293298596688
 31
0.0
  0
LINE
  5
47B8
330
455C
100
AcDbEntity
  8
Z_OM_DIM
100
AcDbLine
 10
589.1399421158911
 20
-86.04443298596692
 30
0.0
 11
589.1399421158911
 21
-92.97293298596688
 31
0.0
  0
INSERT
  5
47B9
330
455C
100
AcDbEntity
  8
Z_OM_DIM
100
AcDbBlockReference
  2
_OPEN30
 10
589.1399421158911
 20
-83.54443298596692
 30
0.0
 41
2.5
 42
2.5
 43
2.5
 50
90.0
  0
INSERT
  5
47BA
330
455C
100
AcDbEntity
  8
Z_OM_DIM
100
AcDbBlockReference
  2
_OPEN30
 10
589.1399421158911
 20
-95.47293298596688
 30
0.0
 41
2.5
 42
2.5
 43
2.5
 50
270.0
  0
MTEXT
  5
47BB
330
455C
100
AcDbEntity
  8
Z_OM_DIM
100
AcDbMText
 10
587.2649421158911
 20
-89.50868298596681
 30
0.0
 40
2.5
 41
0.0
 71
     5
 72
     1
  1
%%C12
  7
CatalogDxf
 11
0.0000000000000001
 21
1.0
 31
0.0
 73
     1
 44
1.0
1001
ACAD
1000
MTEXTBEGIN
1070
    73
1070
     1
1070
    44
1040
1.0
1070
    74
1070
     0
1000
MTEXTEND
  0
POINT
  5
47BC
330
455C
100
AcDbEntity
  8
DEFPOINTS
 62
     0
100
AcDbPoint
 10
603.8161871534754
 20
-83.54443298596692
 30
0.0
  0
POINT
  5
47BD
330
455C
100
AcDbEntity
  8
DEFPOINTS
 62
     0
100
AcDbPoint
 10
603.8161871534754
 20
-95.47293298596688
 30
0.0
  0
POINT
  5
47BE
330
455C
100
AcDbEntity
  8
DEFPOINTS
 62
     0
100
AcDbPoint
 10
589.1399421158911
 20
-95.47293298596688
 30
0.0
  0
ENDBLK
  5
4567
330
455C
100
AcDbEntity
  8
0
100
AcDbBlockEnd
  0
BLOCK
  5
4582
330
4578
100
AcDbEntity
  8
0
100
AcDbBlockBegin
  2
*D9
 70
     1
 10
0.0
 20
0.0
 30
0.0
  3
*D9
  1

  0
LINE
  5
47BF
330
4578
100
AcDbEntity
  8
Z_OM_DIM
100
AcDbLine
 10
549.3983669101267
 20
-74.50868298596692
 30
0.0
 11
568.1262477884891
 21
-74.50868298596692
 31
0.0
  0
LINE
  5
47C0
330
4578
100
AcDbEntity
  8
Z_OM_DIM
100
AcDbLine
 10
549.3983669101267
 20
-104.5086829859669
 30
0.0
 11
568.1262477884891
 21
-104.5086829859669
 31
0.0
  0
LINE
  5
47C1
330
4578
100
AcDbEntity
  8
Z_OM_DIM
100
AcDbLine
 10
566.8762477884891
 20
-77.00868298596692
 30
0.0
 11
566.8762477884891
 21
-102.0086829859669
 31
0.0
  0
INSERT
  5
47C2
330
4578
100
AcDbEntity
  8
Z_OM_DIM
100
AcDbBlockReference
  2
_OPEN30
 10
566.8762477884891
 20
-74.50868298596692
 30
0.0
 41
2.5
 42
2.5
 43
2.5
 50
90.0
  0
INSERT
  5
47C3
330
4578
100
AcDbEntity
  8
Z_OM_DIM
100
AcDbBlockReference
  2
_OPEN30
 10
566.8762477884891
 20
-104.5086829859669
 30
0.0
 41
2.5
 42
2.5
 43
2.5
 50
270.0
  0
MTEXT
  5
47C4
330
4578
100
AcDbEntity
  8
Z_OM_DIM
100
AcDbMText
 10
565.0012477884891
 20
-89.50868298596681
 30
0.0
 40
2.5
 41
0.0
 71
     5
 72
     1
  1
30
  7
CatalogDxf
 11
0.0000000000000001
 21
1.0
 31
0.0
 73
     1
 44
1.0
1001
ACAD
1000
MTEXTBEGIN
1070
    73
1070
     1
1070
    44
1040
1.0
1070
    74
1070
     0
1000
MTEXTEND
  0
POINT
  5
47C5
330
4578
100
AcDbEntity
  8
DEFPOINTS
 62
     0
100
AcDbPoint
 10
548.7733669101268
 20
-74.50868298596692
 30
0.0
  0
POINT
  5
47C6
330
4578
100
AcDbEntity
  8
DEFPOINTS
 62
     0
100
AcDbPoint
 10
548.7733669101268
 20
-104.5086829859669
 30
0.0
  0
POINT
  5
47C7
330
4578
100
AcDbEntity
  8
DEFPOINTS
 62
     0
100
AcDbPoint
 10
566.8762477884891
 20
-104.5086829859669
 30
0.0
  0
ENDBLK
  5
4583
330
4578
100
AcDbEntity
  8
0
100
AcDbBlockEnd
  0
BLOCK
  5
458F
330
4585
100
AcDbEntity
  8
0
100
AcDbBlockBegin
  2
*D10
 70
     1
 10
0.0
 20
0.0
 30
0.0
  3
*D10
  1

  0
LINE
  5
47C8
330
4585
100
AcDbEntity
  8
Z_OM_DIM
100
AcDbLine
 10
510.573366910127
 20
-105.1336829859669
 30
0.0
 11
510.573366910127
 21
-121.8838247543934
 31
0.0
  0
LINE
  5
47C9
330
4585
100
AcDbEntity
  8
Z_OM_DIM
100
AcDbLine
 10
548.7733669101268
 20
-105.1336829859669
 30
0.0
 11
548.7733669101268
 21
-121.8838247543934
 31
0.0
  0
LINE
  5
47CA
330
4585
100
AcDbEntity
  8
Z_OM_DIM
100
AcDbLine
 10
513.0733669101269
 20
-120.6338247543934
 30
0.0
 11
546.2733669101267
 21
-120.6338247543934
 31
0.0
  0
INSERT
  5
47CB
330
4585
100
AcDbEntity
  8
Z_OM_DIM
100
AcDbBlockReference
  2
_OPEN30
 10
510.573366910127
 20
-120.6338247543934
 30
0.0
 41
2.5
 42
2.5
 43
2.5
 50
180.0
  0
INSERT
  5
47CC
330
4585
100
AcDbEntity
  8
Z_OM_DIM
100
AcDbBlockReference
  2
_OPEN30
 10
548.7733669101268
 20
-120.6338247543934
 30
0.0
 41
2.5
 42
2.5
 43
2.5
  0
MTEXT
  5
47CD
330
4585
100
AcDbEntity
  8
Z_OM_DIM
100
AcDbMText
 10
529.6733669101269
 20
-118.7588247543934
 30
0.0
 40
2.5
 41
0.0
 71
     5
 72
     1
  1
38
  7
CatalogDxf
 73
     1
 44
1.0
1001
ACAD
1000
MTEXTBEGIN
1070
    73
1070
     1
1070
    44
1040
1.0
1070
    74
1070
     0
1000
MTEXTEND
  0
POINT
  5
47CE
330
4585
100
AcDbEntity
  8
DEFPOINTS
 62
     0
100
AcDbPoint
 10
510.573366910127
 20
-104.5086829859669
 30
0.0
  0
POINT
  5
47CF
330
4585
100
AcDbEntity
  8
DEFPOINTS
 62
     0
100
AcDbPoint
 10
548.7733669101268
 20
-104.5086829859669
 30
0.0
  0
POINT
  5
47D0
330
4585
100
AcDbEntity
  8
DEFPOINTS
 62
     0
100
AcDbPoint
 10
548.7733669101268
 20
-120.6338247543934
 30
0.0
  0
ENDBLK
  5
4590
330
4585
100
AcDbEntity
  8
0
100
AcDbBlockEnd
  0
BLOCK
  5
45DF
330
45D5
100
AcDbEntity
  8
0
100
AcDbBlockBegin
  2
*D11
 70
     1
 10
0.0
 20
0.0
 30
0.0
  3
*D11
  1

  0
LINE
  5
47D1
330
45D5
100
AcDbEntity
  8
Z_OM_DIM
100
AcDbLine
 10
613.4161871534757
 20
-22.75321397643597
 30
0.0
 11
613.4161871534757
 21
-37.86956447330255
 31
0.0
  0
LINE
  5
47D2
330
45D5
100
AcDbEntity
  8
Z_OM_DIM
100
AcDbLine
 10
677.4161871534758
 20
-20.2532139764359
 30
0.0
 11
677.4161871534758
 21
-37.86956447330255
 31
0.0
  0
LINE
  5
47D3
330
45D5
100
AcDbEntity
  8
Z_OM_DIM
100
AcDbLine
 10
615.9161871534758
 20
-36.61956447330255
 30
0.0
 11
674.9161871534758
 21
-36.61956447330255
 31
0.0
  0
INSERT
  5
47D4
330
45D5
100
AcDbEntity
  8
Z_OM_DIM
100
AcDbBlockReference
  2
_OPEN30
 10
613.4161871534757
 20
-36.61956447330255
 30
0.0
 41
2.5
 42
2.5
 43
2.5
 50
180.0
  0
INSERT
  5
47D5
330
45D5
100
AcDbEntity
  8
Z_OM_DIM
100
AcDbBlockReference
  2
_OPEN30
 10
677.4161871534758
 20
-36.61956447330255
 30
0.0
 41
2.5
 42
2.5
 43
2.5
  0
MTEXT
  5
47D6
330
45D5
100
AcDbEntity
  8
Z_OM_DIM
100
AcDbMText
 10
645.4161871534758
 20
-34.74456447330255
 30
0.0
 40
2.5
 41
0.0
 71
     5
 72
     1
  1
64
  7
CatalogDxf
 73
     1
 44
1.0
1001
ACAD
1000
MTEXTBEGIN
1070
    73
1070
     1
1070
    44
1040
1.0
1070
    74
1070
     0
1000
MTEXTEND
  0
POINT
  5
47D7
330
45D5
100
AcDbEntity
  8
DEFPOINTS
 62
     0
100
AcDbPoint
 10
613.4161871534757
 20
-22.12821397643597
 30
0.0
  0
POINT
  5
47D8
330
45D5
100
AcDbEntity
  8
DEFPOINTS
 62
     0
100
AcDbPoint
 10
677.4161871534758
 20
-19.6282139764359
 30
0.0
  0
POINT
  5
47D9
330
45D5
100
AcDbEntity
  8
DEFPOINTS
 62
     0
100
AcDbPoint
 10
677.4161871534758
 20
-36.61956447330255
 30
0.0
  0
ENDBLK
  5
45E0
330
45D5
100
AcDbEntity
  8
0
100
AcDbBlockEnd
  0
BLOCK
  5
46E9
330
46DF
100
AcDbEntity
  8
0
100
AcDbBlockBegin
  2
*D12
 70
     1
 10
0.0
 20
0.0
 30
0.0
  3
*D12
  1

  0
LINE
  5
47EB
330
46DF
100
AcDbEntity
  8
Z_OM_DIM
100
AcDbLine
 10
613.4161871534757
 20
-73.88368298596688
 30
0.0
 11
613.4161871534757
 21
-63.2849009101999
 31
0.0
  0
LINE
  5
47EC
330
46DF
100
AcDbEntity
  8
Z_OM_DIM
100
AcDbLine
 10
632.3161871534754
 20
-75.88368298596694
 30
0.0
 11
632.3161871534754
 21
-63.2849009101999
 31
0.0
  0
LINE
  5
47ED
330
46DF
100
AcDbEntity
  8
Z_OM_DIM
100
AcDbLine
 10
615.9161871534758
 20
-64.5349009101999
 30
0.0
 11
629.8161871534754
 21
-64.5349009101999
 31
0.0
  0
INSERT
  5
47EE
330
46DF
100
AcDbEntity
  8
Z_OM_DIM
100
AcDbBlockReference
  2
_OPEN30
 10
613.4161871534757
 20
-64.5349009101999
 30
0.0
 41
2.5
 42
2.5
 43
2.5
 50
180.0
  0
INSERT
  5
47EF
330
46DF
100
AcDbEntity
  8
Z_OM_DIM
100
AcDbBlockReference
  2
_OPEN30
 10
632.3161871534754
 20
-64.5349009101999
 30
0.0
 41
2.5
 42
2.5
 43
2.5
  0
MTEXT
  5
47F0
330
46DF
100
AcDbEntity
  8
Z_OM_DIM
100
AcDbMText
 10
622.8661871534756
 20
-62.6599009101999
 30
0.0
 40
2.5
 41
0.0
 71
     5
 72
     1
  1
19
  7
CatalogDxf
 73
     1
 44
1.0
1001
ACAD
1000
MTEXTBEGIN
1070
    73
1070
     1
1070
    44
1040
1.0
1070
    74
1070
     0
1000
MTEXTEND
  0
POINT
  5
47F1
330
46DF
100
AcDbEntity
  8
DEFPOINTS
 62
     0
100
AcDbPoint
 10
613.4161871534757
 20
-74.50868298596688
 30
0.0
  0
POINT
  5
47F2
330
46DF
100
AcDbEntity
  8
DEFPOINTS
 62
     0
100
AcDbPoint
 10
632.3161871534754
 20
-76.50868298596694
 30
0.0
  0
POINT
  5
47F3
330
46DF
100
AcDbEntity
  8
DEFPOINTS
 62
     0
100
AcDbPoint
 10
632.3161871534754
 20
-64.5349009101999
 30
0.0
  0
ENDBLK
  5
46EA
330
46DF
100
AcDbEntity
  8
0
100
AcDbBlockEnd
  0
ENDSEC
  0
SECTION
  2
ENTITIES
  0
MTEXT
  5
4130
330
17
100
AcDbEntity
  8
Z_OM_DIM
100
AcDbMText
 10
684.7893286867087
 20
-134.1257744583827
 30
0.0
 40
3.0
 41
93.92693936784551
 71
     1
 72
     5
  1
TAKAHA KIKO Co., Ltd\PCAD DRAWING No. CA1264
  7
CatalogDxf
 73
     1
 44
1.0
1001
ACAD
1000
MTEXTBEGIN
1070
    73
1070
     1
1070
    44
1040
1.0
1070
    74
1070
     0
1000
MTEXTEND
  0
MTEXT
  5
42AA
330
17
100
AcDbEntity
  8
Z_OM_DIM
100
AcDbMText
 10
496.5671756568651
 20
7.501298111130321
 30
0.0
 40
3.0
 41
47.03999999999999
 71
     1
 72
     1
  1
Adsorbed position
  7
CatalogDxf
 73
     1
 44
1.0
1001
ACAD
1000
MTEXTBEGIN
1070
    73
1070
     1
1070
    44
1040
1.0
1070
    74
1070
     0
1000
MTEXTEND
  0
LINE
  5
4301
330
17
100
AcDbEntity
  8
0
 48
0.5
100
AcDbLine
 10
700.6307906527897
 20
-3.028213976435949
 30
0.0
 11
700.6307906527893
 21
-4.028213976435949
 31
0.0
  0
SPLINE
  5
4302
330
17
100
AcDbEntity
  8
additional
 48
0.5
100
AcDbSpline
210
0.0
220
0.0
230
1.0
 70
     8
 71
     3
 72
    18
 73
    14
 74
    12
 42
0.0000000001
 43
0.0000000001
 44
0.0000000001
 40
0.0
 40
0.0
 40
0.0
 40
0.0
 40
0.3913118960626157
 40
0.7826237921250917
 40
1.482623792125051
 40
1.873935688187565
 40
2.265247584250092
 40
2.656559480312479
 40
3.047871376374942
 40
4.097871376374982
 40
4.489183272437407
 40
4.880495168499806
 40
5.271807064562397
 40
5.271807064562397
 40
5.271807064562397
 40
5.271807064562397
 10
682.2099609687649
 20
-0.5108407628541301
 30
0.0
 10
682.2662458104113
 20
-0.6284804962085414
 30
0.0
 10
682.3788154937042
 20
-0.8637599629173214
 30
0.0
 10
682.6386391828446
 20
-1.287358934231487
 30
0.0
 10
682.6387166708086
 20
-1.834341552761316
 30
0.0
 10
682.3786855424381
 20
-2.257877912947128
 30
0.0
 10
682.210446475529
 20
-2.611009436827721
 30
0.0
 10
682.0392943680358
 20
-2.963128916865953
 30
0.0
 10
681.7315208063951
 20
-3.491388335278172
 30
0.0
 10
681.7311240191473
 20
-4.180438559138152
 30
0.0
 10
682.0397379896649
 20
-4.708349701488808
 30
0.0
 10
682.2087667135399
 20
-5.061463528195503
 30
0.0
 10
682.3262295503566
 20
-5.294381684634534
 30
0.0
 10
682.3849609687652
 20
-5.410840762854078
 30
0.0
 11
682.2099609687649
 21
-0.5108407628541301
 31
0.0
 11
682.3849609687652
 21
-0.8608407628541527
 31
0.0
 11
682.5599609687652
 21
-1.210840762854132
 31
0.0
 11
682.5599609687652
 21
-1.910840762854093
 31
0.0
 11
682.3849609687652
 21
-2.260840762854115
 31
0.0
 11
682.2099609687649
 21
-2.610840762854039
 31
0.0
 11
682.034960968765
 21
-2.960840762854033
 31
0.0
 11
681.8599609687651
 21
-3.310840762854056
 31
0.0
 11
681.8599609687651
 21
-4.360840762854095
 31
0.0
 11
682.034960968765
 21
-4.710840762854076
 31
0.0
 11
682.2099609687649
 21
-5.060840762854084
 31
0.0
 11
682.3849609687652
 21
-5.410840762854078
 31
0.0
  0
SPLINE
  5
4303
330
17
100
AcDbEntity
  8
additional
 48
0.5
100
AcDbSpline
210
0.0
220
0.0
230
1.0
 70
     8
 71
     3
 72
    18
 73
    14
 74
    12
 42
0.0000000001
 43
0.0000000001
 44
0.0000000001
 40
0.0
 40
0.0
 40
0.0
 40
0.0
 40
0.3913118960624632
 40
0.7826237921249391
 40
1.482623792124899
 40
1.873935688187413
 40
2.265247584249787
 40
2.656559480312326
 40
3.047871376374789
 40
4.097871376374829
 40
4.489183272437254
 40
4.880495168499806
 40
5.271807064562244
 40
5.271807064562244
 40
5.271807064562244
 40
5.271807064562244
 10
683.0849609687652
 20
-0.5108407628541301
 30
0.0
 10
683.1412458104114
 20
-0.628480496208553
 30
0.0
 10
683.2538154937041
 20
-0.8637599629174028
 30
0.0
 10
683.5136391828449
 20
-1.287358934231462
 30
0.0
 10
683.5137166708086
 20
-1.834341552761351
 30
0.0
 10
683.253685542438
 20
-2.257877912947022
 30
0.0
 10
683.0854464755295
 20
-2.611009436827912
 30
0.0
 10
682.9142943680356
 20
-2.963128916865846
 30
0.0
 10
682.6065208063954
 20
-3.491388335278229
 30
0.0
 10
682.6061240191476
 20
-4.180438559138101
 30
0.0
 10
682.9147379896646
 20
-4.708349701488908
 30
0.0
 10
683.0837667135404
 20
-5.061463528195329
 30
0.0
 10
683.2012295503568
 20
-5.294381684634507
 30
0.0
 10
683.2599609687652
 20
-5.410840762854078
 30
0.0
 11
683.0849609687652
 21
-0.5108407628541301
 31
0.0
 11
683.2599609687652
 21
-0.8608407628541527
 31
0.0
 11
683.4349609687652
 21
-1.210840762854132
 31
0.0
 11
683.4349609687652
 21
-1.910840762854093
 31
0.0
 11
683.2599609687652
 21
-2.260840762854115
 31
0.0
 11
683.0849609687652
 21
-2.610840762854039
 31
0.0
 11
682.909960968765
 21
-2.960840762854033
 31
0.0
 11
682.7349609687651
 21
-3.310840762854056
 31
0.0
 11
682.7349609687651
 21
-4.360840762854095
 31
0.0
 11
682.909960968765
 21
-4.710840762854076
 31
0.0
 11
683.0849609687652
 21
-5.060840762854084
 31
0.0
 11
683.2599609687652
 21
-5.410840762854078
 31
0.0
  0
LINE
  5
4304
330
17
100
AcDbEntity
  8
0
100
AcDbLine
 10
673.2161871534759
 20
-4.028213976435949
 30
0.0
 11
681.7757090545759
 21
-4.028213976435949
 31
0.0
  0
LINE
  5
4305
330
17
100
AcDbEntity
  8
0
100
AcDbLine
 10
673.2161871534759
 20
-3.028213976435949
 30
0.0
 11
681.9985999039824
 21
-3.028213976435949
 31
0.0
  0
LINE
  5
4306
330
17
100
AcDbEntity
  8
0
100
AcDbLine
 10
673.2161871534759
 20
-2.028213976435949
 30
0.0
 11
682.5102145689372
 21
-2.028213976435949
 31
0.0
  0
LINE
  5
4307
330
17
100
AcDbEntity
  8
0
100
AcDbLine
 10
700.6307906527897
 20
-2.028213976435949
 30
0.0
 11
700.6307906527897
 21
-4.028213976435949
 31
0.0
  0
LINE
  5
4308
330
17
100
AcDbEntity
  8
0
100
AcDbLine
 10
683.3852145689372
 20
-2.028213976435949
 30
0.0
 11
700.6307906527893
 21
-2.028213976435949
 31
0.0
  0
LINE
  5
4309
330
17
100
AcDbEntity
  8
0
100
AcDbLine
 10
682.6507090545759
 20
-4.028213976435949
 30
0.0
 11
700.6307906527897
 21
-4.028213976435949
 31
0.0
  0
LINE
  5
430A
330
17
100
AcDbEntity
  8
0
100
AcDbLine
 10
682.8735999039824
 20
-3.028213976435949
 30
0.0
 11
700.6307906527897
 21
-3.028213976435949
 31
0.0
  0
POINT
  5
430B
330
17
100
AcDbEntity
  8
0
100
AcDbPoint
 10
700.6307906527893
 20
-2.028213976435949
 30
0.0
  0
POINT
  5
430C
330
17
100
AcDbEntity
  8
0
100
AcDbPoint
 10
700.6307906527897
 20
-2.528213976435949
 30
0.0
  0
POINT
  5
430D
330
17
100
AcDbEntity
  8
0
100
AcDbPoint
 10
700.6307906527893
 20
-4.028213976435949
 30
0.0
  0
POINT
  5
430E
330
17
100
AcDbEntity
  8
0
100
AcDbPoint
 10
700.6307906527897
 20
-3.528213976435949
 30
0.0
  0
LINE
  5
430F
330
17
100
AcDbEntity
  8
0
100
AcDbLine
 10
700.6307906527897
 20
-3.778213976435949
 30
0.0
 11
707.6307906527897
 21
-3.778213976435949
 31
0.0
  0
LINE
  5
4310
330
17
100
AcDbEntity
  8
0
100
AcDbLine
 10
700.6307906527897
 20
-3.278213976435949
 30
0.0
 11
707.6307906527897
 21
-3.278213976435949
 31
0.0
  0
LINE
  5
4311
330
17
100
AcDbEntity
  8
0
100
AcDbLine
 10
700.6307906527897
 20
-2.778213976435949
 30
0.0
 11
707.6307906527897
 21
-2.778213976435949
 31
0.0
  0
LINE
  5
4312
330
17
100
AcDbEntity
  8
0
100
AcDbLine
 10
700.6307906527897
 20
-2.278213976435949
 30
0.0
 11
707.6307906527897
 21
-2.278213976435949
 31
0.0
  0
DIMENSION
  5
4313
330
17
100
AcDbEntity
  8
Z_OM_DIM
100
AcDbDimension
  2
*D1
 10
707.6307906527897
 20
-36.61956447330255
 30
0.0
 11
692.5234889031328
 21
-34.74456447330255
 31
0.0
 70
    32
  1
180 - 200
 71
     5
 42
30.21460349931397
  3
CatalogDxf
100
AcDbAlignedDimension
 13
677.4161871534758
 23
-19.6282139764359
 33
0.0
 14
707.6307906527897
 24
-3.778213976435949
 34
0.0
100
AcDbRotatedDimension
  0
LINE
  5
4408
330
17
100
AcDbEntity
  8
additional
  6
CENTER2
 48
0.5
100
AcDbLine
 10
529.6733669101273
 20
-69.00027318990749
 30
-0.2791559578101779
 11
529.6733669101273
 21
-107.7651028463481
 31
-0.2791559578101779
  0
LINE
  5
4409
330
17
100
AcDbEntity
  8
0
 48
0.5
100
AcDbLine
 10
613.4161871534757
 20
-104.5086829859669
 30
0.0
 11
677.4161871534758
 21
-104.5086829859669
 31
0.0
  0
LINE
  5
440A
330
17
100
AcDbEntity
  8
0
 48
0.5
100
AcDbLine
 10
677.4161871534758
 20
-104.5086829859669
 30
0.0
 11
677.4161871534758
 21
-74.50868298596688
 31
0.0
  0
LINE
  5
440B
330
17
100
AcDbEntity
  8
0
 48
0.5
100
AcDbLine
 10
677.4161871534758
 20
-74.50868298596688
 30
0.0
 11
613.4161871534757
 21
-74.50868298596688
 31
0.0
  0
LINE
  5
440C
330
17
100
AcDbEntity
  8
0
 48
0.5
100
AcDbLine
 10
613.4161871534757
 20
-74.50868298596688
 30
0.0
 11
613.4161871534757
 21
-81.9836829859669
 31
0.0
  0
LINE
  5
440D
330
17
100
AcDbEntity
  8
0
 48
0.5
100
AcDbLine
 10
613.4161871534757
 20
-81.9836829859669
 30
0.0
 11
618.3161871534754
 21
-81.9836829859669
 31
0.0
  0
LINE
  5
440E
330
17
100
AcDbEntity
  8
0
 48
0.5
100
AcDbLine
 10
618.3161871534754
 20
-81.9836829859669
 30
0.0
 11
618.3161871534754
 21
-97.03368298596686
 31
0.0
  0
LINE
  5
440F
330
17
100
AcDbEntity
  8
0
 48
0.5
100
AcDbLine
 10
618.3161871534754
 20
-97.03368298596686
 30
0.0
 11
613.4161871534757
 21
-97.03368298596686
 31
0.0
  0
LINE
  5
4410
330
17
100
AcDbEntity
  8
0
 48
0.5
100
AcDbLine
 10
613.4161871534757
 20
-97.03368298596686
 30
0.0
 11
613.4161871534757
 21
-104.5086829859669
 31
0.0
  0
CIRCLE
  5
4411
330
17
100
AcDbEntity
  8
0
 48
0.5
100
AcDbCircle
 10
632.3161871534754
 20
-79.50868298596685
 30
0.0
 40
1.25
  0
CIRCLE
  5
4412
330
17
100
AcDbEntity
  8
additional
  6
HIDDEN2
 48
0.5
100
AcDbCircle
 10
632.3161871534754
 20
-79.50868298596685
 30
0.0
 40
1.5
  0
CIRCLE
  5
4413
330
17
100
AcDbEntity
  8
0
 48
0.5
100
AcDbCircle
 10
632.3161871534754
 20
-99.50868298596686
 30
0.0
 40
1.25
  0
CIRCLE
  5
4414
330
17
100
AcDbEntity
  8
additional
  6
HIDDEN2
 48
0.5
100
AcDbCircle
 10
632.3161871534754
 20
-99.50868298596686
 30
0.0
 40
1.5
  0
CIRCLE
  5
4415
330
17
100
AcDbEntity
  8
0
 48
0.5
100
AcDbCircle
 10
660.3161871534754
 20
-99.50868298596686
 30
0.0
 40
1.25
  0
CIRCLE
  5
4416
330
17
100
AcDbEntity
  8
additional
  6
HIDDEN2
 48
0.5
100
AcDbCircle
 10
660.3161871534754
 20
-99.50868298596686
 30
0.0
 40
1.5
  0
CIRCLE
  5
4417
330
17
100
AcDbEntity
  8
0
 48
0.5
100
AcDbCircle
 10
660.3161871534754
 20
-79.50868298596685
 30
0.0
 40
1.25
  0
CIRCLE
  5
4418
330
17
100
AcDbEntity
  8
additional
  6
HIDDEN2
 48
0.5
100
AcDbCircle
 10
660.3161871534754
 20
-79.50868298596685
 30
0.0
 40
1.5
  0
LINE
  5
4419
330
17
100
AcDbEntity
  8
0
100
AcDbLine
 10
613.4161871534757
 20
-22.12821397643597
 30
0.0
 11
674.9161871534758
 21
-22.12821397643597
 31
0.0
  0
LINE
  5
441A
330
17
100
AcDbEntity
  8
0
100
AcDbLine
 10
674.9161871534758
 20
16.07178602356407
 30
0.0
 11
613.4161871534757
 21
16.07178602356407
 31
0.0
  0
LINE
  5
441B
330
17
100
AcDbEntity
  8
0
100
AcDbLine
 10
613.4161871534757
 20
16.07178602356407
 30
0.0
 11
613.4161871534757
 21
13.47178602356405
 31
0.0
  0
LINE
  5
441C
330
17
100
AcDbEntity
  8
0
100
AcDbLine
 10
613.4161871534757
 20
13.47178602356405
 30
0.0
 11
674.8161871534754
 21
13.47178602356405
 31
0.0
  0
LINE
  5
441D
330
17
100
AcDbEntity
  8
0
100
AcDbLine
 10
674.8161871534754
 20
-19.52821397643595
 30
0.0
 11
613.4161871534757
 21
-19.52821397643595
 31
0.0
  0
LINE
  5
441E
330
17
100
AcDbEntity
  8
0
100
AcDbLine
 10
613.4161871534757
 20
-19.52821397643595
 30
0.0
 11
613.4161871534757
 21
-22.12821397643597
 31
0.0
  0
ARC
  5
441F
330
17
100
AcDbEntity
  8
0
100
AcDbCircle
 10
674.9161871534758
 20
13.57178602356407
 30
0.0
 40
2.5
100
AcDbArc
 50
0.0
 51
90.0
  0
ARC
  5
4420
330
17
100
AcDbEntity
  8
0
100
AcDbCircle
 10
674.9161871534758
 20
-19.62821397643597
 30
0.0
 40
2.5
100
AcDbArc
 50
270.0
 51
0.0
  0
LINE
  5
4421
330
17
100
AcDbEntity
  8
0
100
AcDbLine
 10
618.3161871534754
 20
13.47178602356405
 30
0.0
 11
618.3161871534754
 21
-19.52821397643595
 31
0.0
  0
LINE
  5
4422
330
17
100
AcDbEntity
  8
0
100
AcDbLine
 10
616.3161871534754
 20
13.47178602356405
 30
0.0
 11
616.3161871534754
 21
-19.52821397643595
 31
0.0
  0
LINE
  5
4423
330
17
100
AcDbEntity
  8
0
100
AcDbLine
 10
614.3161871534754
 20
13.47178602356405
 30
0.0
 11
614.3161871534754
 21
-19.52821397643595
 31
0.0
  0
LINE
  5
4424
330
17
100
AcDbEntity
  8
0
100
AcDbLine
 10
618.3161871534754
 20
-19.27821397643595
 30
0.0
 11
619.4161871534758
 21
-19.27821397643595
 31
0.0
  0
LINE
  5
4425
330
17
100
AcDbEntity
  8
0
100
AcDbLine
 10
619.716187153476
 20
-18.97821397643594
 30
0.0
 11
619.716187153476
 21
12.92178602356404
 31
0.0
  0
LINE
  5
4426
330
17
100
AcDbEntity
  8
0
100
AcDbLine
 10
618.3161871534754
 20
13.22178602356405
 30
0.0
 11
618.3161871534754
 21
-19.27821397643595
 31
0.0
  0
LINE
  5
4427
330
17
100
AcDbEntity
  8
0
100
AcDbLine
 10
673.5161871534752
 20
-17.9532139764359
 30
0.0
 11
674.8161871534754
 21
-17.95321397643596
 31
0.0
  0
LINE
  5
4428
330
17
100
AcDbEntity
  8
0
100
AcDbLine
 10
674.8161871534754
 20
-19.52821397643595
 30
0.0
 11
674.8161871534754
 21
-4.028213976435949
 31
0.0
  0
LINE
  5
4429
330
17
100
AcDbEntity
  8
0
100
AcDbLine
 10
674.8161871534754
 20
-2.028213976435949
 30
0.0
 11
674.8161871534754
 21
13.47178602356405
 31
0.0
  0
LINE
  5
442A
330
17
100
AcDbEntity
  8
0
100
AcDbLine
 10
673.2161871534759
 20
11.59678602356405
 30
0.0
 11
673.2161871534759
 21
-17.65321397643595
 31
0.0
  0
ARC
  5
442B
330
17
100
AcDbEntity
  8
0
100
AcDbCircle
 10
673.5161871534752
 20
-17.65321397643595
 30
0.0
 40
0.3
100
AcDbArc
 50
180.0
 51
270.0
  0
ARC
  5
442C
330
17
100
AcDbEntity
  8
0
100
AcDbCircle
 10
619.4161871534758
 20
-18.97821397643594
 30
0.0
 40
0.3
100
AcDbArc
 50
270.0
 51
0.0
  0
LINE
  5
442D
330
17
100
AcDbEntity
  8
0
100
AcDbLine
 10
618.3161871534754
 20
13.22178602356405
 30
0.0
 11
619.4161871534758
 21
13.22178602356405
 31
0.0
  0
LINE
  5
442E
330
17
100
AcDbEntity
  8
0
100
AcDbLine
 10
673.5161871534761
 20
11.89678602356406
 30
0.0
 11
674.8161871534754
 21
11.89678602356406
 31
0.0
  0
ARC
  5
442F
330
17
100
AcDbEntity
  8
0
100
AcDbCircle
 10
673.5161871534752
 20
11.59678602356405
 30
0.0
 40
0.3
100
AcDbArc
 50
90.0
 51
180.0
  0
ARC
  5
4430
330
17
100
AcDbEntity
  8
0
100
AcDbCircle
 10
619.4161871534758
 20
12.92178602356404
 30
0.0
 40
0.3
100
AcDbArc
 50
0.0
 51
90.0
  0
LINE
  5
4431
330
17
100
AcDbEntity
  8
0
100
AcDbLine
 10
677.4161871534758
 20
-0.2782139764359499
 30
0.0
 11
677.7661871534752
 21
-0.2782139764359499
 31
0.0
  0
LINE
  5
4432
330
17
100
AcDbEntity
  8
0
100
AcDbLine
 10
677.4161871534758
 20
-5.778213976435949
 30
0.0
 11
677.7661871534752
 21
-5.778213976435949
 31
0.0
  0
LINE
  5
4433
330
17
100
AcDbEntity
  8
0
100
AcDbLine
 10
613.3661871534756
 20
6.971786023564106
 30
0.0
 11
613.3661871534756
 21
-13.02821397643589
 31
0.0
  0
LINE
  5
4434
330
17
100
AcDbEntity
  8
0
100
AcDbLine
 10
612.3661871534756
 20
6.97178602356405
 30
0.0
 11
614.3161871534754
 21
6.97178602356405
 31
0.0
  0
LINE
  5
4435
330
17
100
AcDbEntity
  8
0
100
AcDbLine
 10
612.3661871534756
 20
-13.02821397643595
 30
0.0
 11
614.3161871534754
 21
-13.02821397643595
 31
0.0
  0
LINE
  5
4436
330
17
100
AcDbEntity
  8
0
100
AcDbLine
 10
612.3661871534756
 20
6.971786023564106
 30
0.0
 11
612.3661871534756
 21
-13.02821397643589
 31
0.0
  0
LINE
  5
4437
330
17
100
AcDbEntity
  8
0
100
AcDbLine
 10
614.3161871534754
 20
6.97178602356405
 30
0.0
 11
614.3161871534754
 21
-13.02821397643595
 31
0.0
  0
LINE
  5
4438
330
17
100
AcDbEntity
  8
0
100
AcDbLine
 10
619.716187153476
 20
11.47178602356405
 30
0.0
 11
673.2161871534759
 21
11.47178602356405
 31
0.0
  0
LINE
  5
4439
330
17
100
AcDbEntity
  8
0
100
AcDbLine
 10
619.716187153476
 20
-17.52821397643595
 30
0.0
 11
673.2161871534759
 21
-17.52821397643595
 31
0.0
  0
LINE
  5
443A
330
17
100
AcDbEntity
  8
0
100
AcDbLine
 10
510.573366910127
 20
-74.50868298596692
 30
0.0
 11
548.7733669101268
 21
-74.50868298596692
 31
0.0
  0
LINE
  5
443B
330
17
100
AcDbEntity
  8
0
100
AcDbLine
 10
510.573366910127
 20
-104.5086829859669
 30
0.0
 11
548.7733669101268
 21
-104.5086829859669
 31
0.0
  0
LINE
  5
443C
330
17
100
AcDbEntity
  8
0
100
AcDbLine
 10
510.573366910127
 20
-74.50868298596692
 30
0.0
 11
510.573366910127
 21
-104.5086829859669
 31
0.0
  0
LINE
  5
443D
330
17
100
AcDbEntity
  8
0
100
AcDbLine
 10
548.7733669101268
 20
-74.50868298596692
 30
0.0
 11
548.7733669101268
 21
-104.5086829859669
 31
0.0
  0
LINE
  5
4441
330
17
100
AcDbEntity
  8
0
100
AcDbLine
 10
677.7661871534752
 20
-92.25868298596685
 30
0.0
 11
677.7661871534761
 21
-86.75868298596686
 31
0.0
  0
LINE
  5
4442
330
17
100
AcDbEntity
  8
0
100
AcDbLine
 10
677.4161871534758
 20
-86.75868298596686
 30
0.0
 11
677.7661871534752
 21
-86.75868298596686
 31
0.0
  0
LINE
  5
4443
330
17
100
AcDbEntity
  8
0
100
AcDbLine
 10
677.4161871534758
 20
-92.25868298596685
 30
0.0
 11
677.7661871534752
 21
-92.25868298596685
 31
0.0
  0
LINE
  5
4444
330
17
100
AcDbEntity
  8
0
100
AcDbLine
 10
677.7661871534761
 20
-1.528213976435949
 30
0.0
 11
677.7661871534761
 21
-0.2782139764359499
 31
0.0
  0
LINE
  5
4445
330
17
100
AcDbEntity
  8
0
100
AcDbLine
 10
677.4161871534758
 20
-19.62821397643597
 30
0.0
 11
677.4161871534753
 21
-4.028213976435949
 31
0.0
  0
LINE
  5
4446
330
17
100
AcDbEntity
  8
0
100
AcDbLine
 10
677.4161871534758
 20
-2.028213976435949
 30
0.0
 11
677.4161871534758
 21
13.57178602356407
 31
0.0
  0
LINE
  5
4447
330
17
100
AcDbEntity
  8
0
100
AcDbLine
 10
613.3661871534756
 20
-79.50868298596685
 30
0.0
 11
613.3661871534756
 21
-99.50868298596686
 31
0.0
  0
LINE
  5
4448
330
17
100
AcDbEntity
  8
0
100
AcDbLine
 10
612.3661871534756
 20
-79.50868298596688
 30
0.0
 11
613.4161871534757
 21
-79.50868298596692
 31
0.0
  0
LINE
  5
4449
330
17
100
AcDbEntity
  8
0
100
AcDbLine
 10
612.3661871534756
 20
-79.50868298596685
 30
0.0
 11
612.3661871534756
 21
-99.50868298596697
 31
0.0
  0
LINE
  5
444A
330
17
100
AcDbEntity
  8
0
100
AcDbLine
 10
612.3661871534756
 20
-95.48368298596685
 30
0.0
 11
612.3661871534756
 21
-94.50868298596688
 31
0.0
  0
LINE
  5
444B
330
17
100
AcDbEntity
  8
0
100
AcDbLine
 10
612.3661871534756
 20
-95.48368298596685
 30
0.0
 11
612.3661871534756
 21
-94.50868298596688
 31
0.0
  0
LINE
  5
444C
330
17
100
AcDbEntity
  8
0
100
AcDbLine
 10
612.3661871534756
 20
-84.50868298596688
 30
0.0
 11
612.3661871534756
 21
-94.50868298596688
 31
0.0
  0
LINE
  5
444D
330
17
100
AcDbEntity
  8
0
 48
0.5
100
AcDbLine
 10
612.3661871534756
 20
-95.49793298596688
 30
0.0
 11
612.3661871534756
 21
-95.44006038151307
 31
0.0
  0
LINE
  5
444E
330
17
100
AcDbEntity
  8
0
 48
0.5
100
AcDbLine
 10
612.3661871534756
 20
-83.51943298596692
 30
0.0
 11
612.3661871534756
 21
-84.50868298596688
 31
0.0
  0
CIRCLE
  5
444F
330
17
100
AcDbEntity
  8
0
100
AcDbCircle
 10
607.3161871534754
 20
-89.50868298596692
 30
0.0
 40
1.499999999999943
  0
CIRCLE
  5
4450
330
17
100
AcDbEntity
  8
0
100
AcDbCircle
 10
529.6733669101273
 20
-89.50868298596692
 30
0.0
 40
10.00000000000001
  0
CIRCLE
  5
4451
330
17
100
AcDbEntity
  8
0
100
AcDbCircle
 10
529.6733669101273
 20
-89.50868298596692
 30
0.0
 40
5.989249999999984
  0
LINE
  5
4452
330
17
100
AcDbEntity
  8
0
100
AcDbLine
 10
616.3161871534754
 20
-81.98368298596694
 30
0.0
 11
616.3161871534754
 21
-97.03368298596686
 31
0.0
  0
LINE
  5
4453
330
17
100
AcDbEntity
  8
0
100
AcDbLine
 10
614.3161871534754
 20
-81.98368298596689
 30
0.0
 11
614.3161871534754
 21
-97.03368298596689
 31
0.0
  0
LINE
  5
4454
330
17
100
AcDbEntity
  8
0
100
AcDbLine
 10
612.3661871534756
 20
-9.003213976435915
 30
0.0
 11
612.3661871534756
 21
-8.028213976435949
 31
0.0
  0
LINE
  5
4455
330
17
100
AcDbEntity
  8
0
100
AcDbLine
 10
612.3661871534756
 20
-9.003213976435915
 30
0.0
 11
612.3661871534756
 21
-8.028213976435949
 31
0.0
  0
LINE
  5
4456
330
17
100
AcDbEntity
  8
0
 48
0.5
100
AcDbLine
 10
612.3661871534756
 20
-9.017463976435919
 30
0.0
 11
612.3661871534756
 21
-8.959591371982128
 31
0.0
  0
LINE
  5
4457
330
17
100
AcDbEntity
  8
0
 48
0.5
100
AcDbLine
 10
612.3661871534756
 20
2.96103602356402
 30
0.0
 11
612.3661871534756
 21
1.97178602356405
 31
0.0
  0
LINE
  5
4458
330
17
100
AcDbEntity
  8
0
100
AcDbLine
 10
531.4733669101266
 20
-83.79631783985624
 30
-0.2791559578101779
 11
531.4733669101266
 21
-95.23231819446857
 31
-0.2791559578101779
  0
LINE
  5
4459
330
17
100
AcDbEntity
  8
0
100
AcDbLine
 10
527.8733669101272
 20
-83.79631783985624
 30
-0.2791559578101779
 11
527.8733669101272
 21
-95.22104813207755
 31
-0.2791559578101779
  0
LINE
  5
445A
330
17
100
AcDbEntity
  8
0
100
AcDbLine
 10
546.1733669101273
 20
-74.50868298596692
 30
0.0
 11
546.1733669101273
 21
-81.98368298596689
 31
0.0
  0
LINE
  5
445B
330
17
100
AcDbEntity
  8
0
100
AcDbLine
 10
548.7733669101268
 20
-81.98368298596689
 30
0.0
 11
546.1733669101273
 21
-81.98368298596689
 31
0.0
  0
LINE
  5
445C
330
17
100
AcDbEntity
  8
0
100
AcDbLine
 10
513.1733669101273
 20
-74.50868298596694
 30
0.0
 11
513.1733669101273
 21
-81.9836829859669
 31
0.0
  0
LINE
  5
445D
330
17
100
AcDbEntity
  8
0
100
AcDbLine
 10
510.573366910127
 20
-81.98368298596694
 30
0.0
 11
513.1733669101273
 21
-81.9836829859669
 31
0.0
  0
LINE
  5
445E
330
17
100
AcDbEntity
  8
0
100
AcDbLine
 10
546.1733669101264
 20
-104.5086829859669
 30
0.0
 11
546.1733669101264
 21
-97.03368298596695
 31
0.0
  0
LINE
  5
445F
330
17
100
AcDbEntity
  8
0
100
AcDbLine
 10
548.7733669101268
 20
-97.03368298596695
 30
0.0
 11
546.1733669101264
 21
-97.03368298596695
 31
0.0
  0
LINE
  5
4460
330
17
100
AcDbEntity
  8
0
100
AcDbLine
 10
513.1733669101264
 20
-104.5086829859668
 30
0.0
 11
513.1733669101273
 21
-97.03368298596684
 31
0.0
  0
LINE
  5
4461
330
17
100
AcDbEntity
  8
0
100
AcDbLine
 10
510.573366910127
 20
-97.03368298596684
 30
0.0
 11
513.1733669101273
 21
-97.03368298596684
 31
0.0
  0
LINE
  5
4462
330
17
100
AcDbEntity
  8
0
 48
0.5
100
AcDbLine
 10
544.1733669101264
 20
-74.50868298596694
 30
0.0
 11
533.6733669101264
 21
-72.50868298596697
 31
0.0
  0
LINE
  5
4463
330
17
100
AcDbEntity
  8
0
 48
0.5
100
AcDbLine
 10
533.6733669101264
 20
-72.50868298596697
 30
0.0
 11
525.6733669101264
 21
-72.50868298596703
 31
0.0
  0
LINE
  5
4464
330
17
100
AcDbEntity
  8
0
 48
0.5
100
AcDbLine
 10
515.1733669101264
 20
-74.50868298596702
 30
0.0
 11
525.6733669101264
 21
-72.50868298596703
 31
0.0
  0
LINE
  5
4465
330
17
100
AcDbEntity
  8
0
100
AcDbLine
 10
613.3661871534756
 20
-99.50868298596688
 30
0.0
 11
613.4161871534757
 21
-99.50868298596688
 31
0.0
  0
LINE
  5
4466
330
17
100
AcDbEntity
  8
0
 48
0.5
100
AcDbLine
 10
612.3661871534756
 20
-83.5444329859669
 30
0.0
 11
603.8161871534754
 21
-83.54443298596692
 31
0.0
  0
LINE
  5
4467
330
17
100
AcDbEntity
  8
0
 48
0.5
100
AcDbLine
 10
603.3161871534754
 20
-84.04443298596692
 30
0.0
 11
603.3161871534754
 21
-94.97293298596664
 31
0.0
  0
LINE
  5
4468
330
17
100
AcDbEntity
  8
0
 48
0.5
100
AcDbLine
 10
603.8161871534754
 20
-95.4729329859669
 30
0.0
 11
612.3661871534756
 21
-95.47293298596688
 31
0.0
  0
LINE
  5
4469
330
17
100
AcDbEntity
  8
0
 48
0.5
100
AcDbLine
 10
612.3661871534756
 20
-95.47293298596688
 30
0.0
 11
612.3661871534756
 21
-83.54443298596692
 31
0.0
  0
LINE
  5
446A
330
17
100
AcDbEntity
  8
0
 48
0.5
100
AcDbLine
 10
603.8161871534754
 20
-83.54443298596692
 30
0.0
 11
603.3161871534754
 21
-84.04443298596692
 31
0.0
  0
LINE
  5
446B
330
17
100
AcDbEntity
  8
0
 48
0.5
100
AcDbLine
 10
603.3161871534754
 20
-94.97293298596687
 30
0.0
 11
603.8161871534754
 21
-95.47293298596688
 31
0.0
  0
LINE
  5
446C
330
17
100
AcDbEntity
  8
0
 48
0.5
100
AcDbLine
 10
603.8161871534754
 20
-83.54443298596692
 30
0.0
 11
603.8161871534754
 21
-95.47293298596699
 31
0.0
  0
LINE
  5
446D
330
17
100
AcDbEntity
  8
0
100
AcDbLine
 10
677.4161871534758
 20
-5.828213976435904
 30
0.0
 11
677.4161871534758
 21
-5.503213976435858
 31
0.0
  0
LINE
  5
446E
330
17
100
AcDbEntity
  8
0
100
AcDbLine
 10
677.7661871534761
 20
-5.778213976435949
 30
0.0
 11
677.7661871534757
 21
-4.028213976435949
 31
0.0
  0
LINE
  5
446F
330
17
100
AcDbEntity
  8
0
100
AcDbLine
 10
677.7661871534752
 20
-2.028213976435949
 30
0.0
 11
677.7661871534752
 21
-0.2782139764359499
 31
0.0
  0
LINE
  5
4470
330
17
100
AcDbEntity
  8
0
100
AcDbLine
 10
677.4161871534758
 20
-0.5532139764358704
 30
0.0
 11
677.4161871534758
 21
-0.2282139764358817
 31
0.0
  0
LINE
  5
4471
330
17
100
AcDbEntity
  8
0
 48
0.5
100
AcDbLine
 10
612.3661871534756
 20
2.936036023564042
 30
0.0
 11
603.8161871534754
 21
2.936036023564042
 31
0.0
  0
LINE
  5
4472
330
17
100
AcDbEntity
  8
0
 48
0.5
100
AcDbLine
 10
603.3161871534754
 20
2.436036023563985
 30
0.0
 11
603.3161871534754
 21
-1.278213976435949
 31
0.0
  0
LINE
  5
4473
330
17
100
AcDbEntity
  8
0
 48
0.5
100
AcDbLine
 10
603.8161871534754
 20
-8.992463976435999
 30
0.0
 11
612.3661871534756
 21
-8.992463976435942
 31
0.0
  0
LINE
  5
4474
330
17
100
AcDbEntity
  8
0
 48
0.5
100
AcDbLine
 10
612.3661871534756
 20
-8.992463976435942
 30
0.0
 11
612.3661871534756
 21
2.936036023563985
 31
0.0
  0
LINE
  5
4475
330
17
100
AcDbEntity
  8
0
 48
0.5
100
AcDbLine
 10
603.3161871534754
 20
-1.278213976435949
 30
0.0
 11
611.3161871534754
 21
-1.278213976435949
 31
0.0
  0
LINE
  5
4476
330
17
100
AcDbEntity
  8
0
 48
0.5
100
AcDbLine
 10
611.3161871534754
 20
-4.778213976435949
 30
0.0
 11
603.3161871534754
 21
-4.778213976435949
 31
0.0
  0
LINE
  5
4477
330
17
100
AcDbEntity
  8
0
 48
0.5
100
AcDbLine
 10
603.3161871534754
 20
-4.778213976436006
 30
0.0
 11
603.3161871534754
 21
-8.492463976435942
 31
0.0
  0
LINE
  5
4478
330
17
100
AcDbEntity
  8
0
 48
0.5
100
AcDbLine
 10
603.8161871534754
 20
2.936036023563985
 30
0.0
 11
603.3161871534754
 21
2.436036023563985
 31
0.0
  0
LINE
  5
4479
330
17
100
AcDbEntity
  8
0
 48
0.5
100
AcDbLine
 10
603.3161871534754
 20
-8.492463976435942
 30
0.0
 11
603.8161871534754
 21
-8.992463976435942
 31
0.0
  0
LINE
  5
447A
330
17
100
AcDbEntity
  8
0
 48
0.5
100
AcDbLine
 10
603.8161871534754
 20
2.936036023563985
 30
0.0
 11
603.8161871534754
 21
-1.278213976435949
 31
0.0
  0
LINE
  5
447B
330
17
100
AcDbEntity
  8
0
 48
0.5
100
AcDbLine
 10
603.8161871534754
 20
-8.992463976435942
 30
0.0
 11
603.8161871534754
 21
-4.778213976435949
 31
0.0
  0
LINE
  5
447C
330
17
100
AcDbEntity
  8
additional
  6
HIDDEN2
 48
0.5
100
AcDbLine
 10
608.8386871534754
 20
-1.278213976435949
 30
0.0
 11
608.8386871534754
 21
2.436036023564042
 31
0.0
  0
LINE
  5
447D
330
17
100
AcDbEntity
  8
additional
  6
HIDDEN2
 48
0.5
100
AcDbLine
 10
608.8386871534754
 20
2.436036023564042
 30
0.0
 11
609.3386871534754
 21
2.936036023564042
 31
0.0
  0
LINE
  5
447E
330
17
100
AcDbEntity
  8
additional
  6
HIDDEN2
 48
0.5
100
AcDbLine
 10
605.7936871534754
 20
-1.278213976435949
 30
0.0
 11
605.7936871534754
 21
2.436036023564042
 31
0.0
  0
LINE
  5
447F
330
17
100
AcDbEntity
  8
additional
  6
HIDDEN2
 48
0.5
100
AcDbLine
 10
605.7936871534754
 20
2.436036023564042
 30
0.0
 11
605.2936871534754
 21
2.936036023564042
 31
0.0
  0
LINE
  5
4480
330
17
100
AcDbEntity
  8
additional
  6
HIDDEN2
 48
0.5
100
AcDbLine
 10
608.8386871534754
 20
-4.778213976435949
 30
0.0
 11
608.8386871534754
 21
-8.492463976435942
 31
0.0
  0
LINE
  5
4481
330
17
100
AcDbEntity
  8
additional
  6
HIDDEN2
 48
0.5
100
AcDbLine
 10
608.8386871534754
 20
-8.492463976435942
 30
0.0
 11
609.3386871534754
 21
-8.992463976435942
 31
0.0
  0
LINE
  5
4482
330
17
100
AcDbEntity
  8
additional
  6
HIDDEN2
 48
0.5
100
AcDbLine
 10
605.7936871534754
 20
-4.778213976435949
 30
0.0
 11
605.7936871534754
 21
-8.492463976435942
 31
0.0
  0
LINE
  5
4483
330
17
100
AcDbEntity
  8
additional
  6
HIDDEN2
 48
0.5
100
AcDbLine
 10
605.7936871534754
 20
-8.492463976435942
 30
0.0
 11
605.2936871534754
 21
-8.992463976435942
 31
0.0
  0
LINE
  5
4484
330
17
100
AcDbEntity
  8
additional
  6
HIDDEN2
 48
0.5
100
AcDbLine
 10
605.7936871534754
 20
2.436036023564042
 30
0.0
 11
608.8386871534754
 21
2.436036023564042
 31
0.0
  0
LINE
  5
4485
330
17
100
AcDbEntity
  8
additional
  6
HIDDEN2
 48
0.5
100
AcDbLine
 10
605.7936871534754
 20
-8.492463976435942
 30
0.0
 11
608.8386871534754
 21
-8.492463976435942
 31
0.0
  0
LINE
  5
4486
330
17
100
AcDbEntity
  8
0
 48
0.5
100
AcDbLine
 10
611.3161871534754
 20
-1.278213976435949
 30
0.0
 11
611.3161871534754
 21
-4.778213976435949
 31
0.0
  0
ARC
  5
4487
330
17
100
AcDbEntity
  8
0
100
AcDbCircle
 10
529.6733669101273
 20
-89.50868298596686
 30
0.0
 40
10.0
100
AcDbArc
 50
308.9155955561984
 51
231.0844044438017
  0
ARC
  5
4488
330
17
100
AcDbEntity
  8
0
100
AcDbCircle
 10
523.7842275287481
 20
-96.8031097863867
 30
0.0
 40
0.625
100
AcDbArc
 50
231.0844044438017
 51
339.999999999986
  0
LINE
  5
4489
330
17
100
AcDbEntity
  8
0
100
AcDbLine
 10
524.3715354167394
 20
-97.01687237596514
 30
0.0
 11
525.5301525263923
 21
-93.83359802939953
 31
0.0
  0
ARC
  5
448A
330
17
100
AcDbEntity
  8
0
100
AcDbCircle
 10
535.5625062915074
 20
-96.80310978638637
 30
0.0
 40
0.625
100
AcDbArc
 50
200.0000000000213
 51
308.9155955561984
  0
LINE
  5
448B
330
17
100
AcDbEntity
  8
0
100
AcDbLine
 10
533.8165812938629
 20
-93.83359802939907
 30
0.0
 11
534.9751984035162
 21
-97.01687237596502
 31
0.0
  0
ARC
  5
448C
330
17
100
AcDbEntity
  8
0
100
AcDbCircle
 10
526.6585591582967
 20
-83.05294451391819
 30
0.0
 40
0.625
100
AcDbArc
 50
20.00000000002126
 51
115.0324134955246
  0
ARC
  5
448D
330
17
100
AcDbEntity
  8
0
100
AcDbCircle
 10
529.6733669101273
 20
-89.50868298596686
 30
0.0
 40
7.75
100
AcDbArc
 50
115.0324134955246
 51
174.967586504503
  0
ARC
  5
448E
330
17
100
AcDbEntity
  8
0
100
AcDbCircle
 10
522.5758321268391
 20
-88.88368298596686
 30
0.0
 40
0.625
100
AcDbArc
 50
174.967586504503
 51
270.0
  0
LINE
  5
448F
330
17
100
AcDbEntity
  8
0
100
AcDbLine
 10
522.5758321268391
 20
-89.50868298596686
 30
0.0
 11
523.6841169101272
 21
-89.50868298596686
 31
0.0
  0
ARC
  5
4490
330
17
100
AcDbEntity
  8
0
100
AcDbCircle
 10
529.6733669101273
 20
-89.50868298596686
 30
0.0
 40
7.75
100
AcDbArc
 50
5.032413495496966
 51
64.9675865044754
  0
ARC
  5
4491
330
17
100
AcDbEntity
  8
0
100
AcDbCircle
 10
532.6881746619579
 20
-83.05294451391819
 30
0.0
 40
0.625
100
AcDbArc
 50
64.9675865044754
 51
159.9999999999787
  0
LINE
  5
4492
330
17
100
AcDbEntity
  8
0
100
AcDbLine
 10
532.1008667739667
 20
-82.83918192433953
 30
0.0
 11
531.7218110535406
 21
-83.88062895692485
 31
0.0
  0
LINE
  5
4493
330
17
100
AcDbEntity
  8
0
100
AcDbLine
 10
527.245867046288
 20
-82.83918192433953
 30
0.0
 11
527.6249227667141
 21
-83.88062895692485
 31
0.0
  0
LINE
  5
4494
330
17
100
AcDbEntity
  8
0
100
AcDbLine
 10
535.6626169101274
 20
-89.50868298596692
 30
0.0
 11
536.7709016934155
 21
-89.50868298596697
 31
0.0
  0
ARC
  5
4495
330
17
100
AcDbEntity
  8
0
100
AcDbCircle
 10
536.7709016934155
 20
-88.88368298596697
 30
0.0
 40
0.625
100
AcDbArc
 50
270.0
 51
5.032413495496966
  0
ARC
  5
4496
330
17
100
AcDbEntity
  8
0
100
AcDbCircle
 10
529.6733669101273
 20
-89.50868298596692
 30
0.0
 40
5.464249999999751
100
AcDbArc
 50
109.233206553893
 51
250.7667934461069
  0
ARC
  5
4497
330
17
100
AcDbEntity
  8
0
100
AcDbCircle
 10
529.6733669101273
 20
-89.50868298596692
 30
0.0
 40
5.464249999999751
100
AcDbArc
 50
289.2332065538931
 51
70.76679344610693
  0
LINE
  5
4498
330
17
100
AcDbEntity
  8
additional
  6
HIDDEN2
 48
0.5
100
AcDbLine
 10
535.4717387128403
 20
-88.00868298596697
 30
0.0
 11
531.4733669101266
 21
-88.00868298596697
 31
0.0
  0
LINE
  5
4499
330
17
100
AcDbEntity
  8
additional
  6
HIDDEN2
 48
0.5
100
AcDbLine
 10
527.8733669101276
 20
-88.00868298596697
 30
0.0
 11
523.8749951074143
 21
-88.00868298596697
 31
0.0
  0
LINE
  5
449A
330
17
100
AcDbEntity
  8
additional
  6
HIDDEN2
 48
0.5
100
AcDbLine
 10
535.4717387128403
 20
-91.00868298596685
 30
0.0
 11
531.4733669101266
 21
-91.00868298596685
 31
0.0
  0
LINE
  5
449B
330
17
100
AcDbEntity
  8
additional
  6
HIDDEN2
 48
0.5
100
AcDbLine
 10
527.8733669101276
 20
-91.00868298596685
 30
0.0
 11
523.8749951074143
 21
-91.00868298596685
 31
0.0
  0
LINE
  5
449C
330
17
100
AcDbEntity
  8
additional
  6
CENTER2
 48
0.5
100
AcDbLine
 10
507.2130777483604
 20
-89.50868298596692
 30
0.0
 11
552.0564717407133
 21
-89.50868298596692
 31
0.0
  0
LINE
  5
449D
330
17
100
AcDbEntity
  8
0
 48
0.5
100
AcDbLine
 10
619.7161871534764
 20
-74.50868298596685
 30
0.0
 11
638.3299017057785
 21
-72.50868298596699
 31
0.0
  0
LINE
  5
449E
330
17
100
AcDbEntity
  8
0
 48
0.5
100
AcDbLine
 10
687.802147116388
 20
-74.50868298596688
 30
0.0
 11
676.366187153476
 21
-74.50868298596688
 31
0.0
  0
LINE
  5
449F
330
17
100
AcDbEntity
  8
0
 48
0.5
100
AcDbLine
 10
688.6681725201725
 20
-73.00868298596691
 30
0.0
 11
673.2161871534759
 21
-73.00868298596686
 31
0.0
  0
LINE
  5
44A0
330
17
100
AcDbEntity
  8
0
 48
0.5
100
AcDbLine
 10
638.3299017057785
 20
-72.50868298596699
 30
0.0
 11
673.2161871534759
 21
-72.50868298596683
 31
0.0
  0
LINE
  5
44A1
330
17
100
AcDbEntity
  8
0
 48
0.5
100
AcDbLine
 10
673.2161871534759
 20
-74.50868298596688
 30
0.0
 11
673.2161871534759
 21
-72.50868298596683
 31
0.0
  0
LINE
  5
44A3
330
17
100
AcDbEntity
  8
additional
  6
CENTER2
 48
0.5
100
AcDbLine
 10
599.9936622804171
 20
-89.50868298596692
 30
0.0
 11
680.9845377388993
 21
-89.50868298596693
 31
0.0
  0
LINE
  5
44A4
330
17
100
AcDbEntity
  8
additional
  6
CENTER2
 48
0.5
100
AcDbLine
 10
607.3161871534754
 20
-80.75070165033826
 30
-0.2791559578101779
 11
607.3161871534754
 21
-98.27784562304877
 31
-0.2791559578101779
  0
LINE
  5
44A5
330
17
100
AcDbEntity
  8
additional
  6
CENTER2
 48
0.5
100
AcDbLine
 10
599.9936622804171
 20
-3.028213976435893
 30
0.0
 11
673.2161871534759
 21
-3.028213976435949
 31
0.0
  0
LINE
  5
44A6
330
17
100
AcDbEntity
  8
additional
  6
CENTER2
 48
0.5
100
AcDbLine
 10
607.3161871534754
 20
5.729767359192749
 30
0.0
 11
607.3161871534754
 21
-11.79737661351777
 31
0.0
  0
LINE
  5
44A7
330
17
100
AcDbEntity
  8
additional
 48
0.5
100
AcDbLine
 10
543.7626916940672
 20
-79.50868298596688
 30
0.0
 11
551.3766517155105
 21
-79.50868298596688
 31
0.0
  0
LINE
  5
44A8
330
17
100
AcDbEntity
  8
additional
 48
0.5
100
AcDbLine
 10
543.7626916940672
 20
-99.50868298596692
 30
0.0
 11
551.3766517155105
 21
-99.50868298596692
 31
0.0
  0
LINE
  5
44A9
330
17
100
AcDbEntity
  8
additional
 48
0.5
100
AcDbLine
 10
515.5840421261874
 20
-79.50868298596688
 30
0.0
 11
507.9700821047441
 21
-79.50868298596688
 31
0.0
  0
LINE
  5
44AA
330
17
100
AcDbEntity
  8
additional
 48
0.5
100
AcDbLine
 10
515.5840421261874
 20
-99.50868298596692
 30
0.0
 11
507.9700821047441
 21
-99.50868298596692
 31
0.0
  0
LINE
  5
44AB
330
17
100
AcDbEntity
  8
additional
  6
CENTER2
 48
0.5
100
AcDbLine
 10
632.3161871534754
 20
-102.6379404092496
 30
0.0
 11
632.3161871534754
 21
-76.50868298596694
 31
0.0
  0
LINE
  5
44AC
330
17
100
AcDbEntity
  8
additional
  6
CENTER2
 48
0.5
100
AcDbLine
 10
629.3161871534754
 20
-79.50868298596688
 30
0.0
 11
663.3379237116961
 21
-79.50868298596688
 31
0.0
  0
LINE
  5
44AD
330
17
100
AcDbEntity
  8
additional
  6
CENTER2
 48
0.5
100
AcDbLine
 10
660.3161871534754
 20
-102.6379404092496
 30
0.0
 11
660.3161871534754
 21
-76.50868298596691
 31
0.0
  0
LINE
  5
44AE
330
17
100
AcDbEntity
  8
additional
  6
CENTER2
 48
0.5
100
AcDbLine
 10
629.3161871534754
 20
-99.50868298596686
 30
0.0
 11
663.3379237116961
 21
-99.50868298596686
 31
0.0
  0
LINE
  5
44AF
330
17
100
AcDbEntity
  8
additional
 48
0.5
100
AcDbLine
 10
660.316187153475
 20
-24.99227983040896
 30
0.0
 11
660.3161871534759
 21
-16.0967843774672
 31
0.0
  0
LINE
  5
44B0
330
17
100
AcDbEntity
  8
additional
 48
0.5
100
AcDbLine
 10
632.3161871534749
 20
-24.99227983040896
 30
0.0
 11
632.3161871534758
 21
-16.0967843774672
 31
0.0
  0
LINE
  5
44B1
330
17
100
AcDbEntity
  8
additional
 48
0.5
100
AcDbLine
 10
660.316187153475
 20
18.93585187753712
 30
0.0
 11
660.3161871534759
 21
10.04035642459536
 31
0.0
  0
LINE
  5
44B2
330
17
100
AcDbEntity
  8
additional
 48
0.5
100
AcDbLine
 10
632.3161871534749
 20
18.93585187753712
 30
0.0
 11
632.3161871534758
 21
10.04035642459536
 31
0.0
  0
LINE
  5
44B7
330
17
100
AcDbEntity
  8
0
100
AcDbLine
 10
612.3661871534756
 20
-99.50868298596697
 30
0.0
 11
613.4161871534757
 21
-99.50868298596695
 31
0.0
  0
SPLINE
  5
44E0
330
17
100
AcDbEntity
  8
additional
 48
0.5
100
AcDbSpline
210
0.0
220
0.0
230
1.0
 70
     8
 71
     3
 72
    18
 73
    14
 74
    12
 42
0.0000000001
 43
0.0000000001
 44
0.0000000001
 40
0.0
 40
0.0
 40
0.0
 40
0.0
 40
0.3913118960624632
 40
0.7826237921249391
 40
1.482623792124899
 40
1.873935688187413
 40
2.265247584249787
 40
2.656559480312326
 40
3.047871376374789
 40
4.097871376374829
 40
4.489183272437254
 40
4.880495168499806
 40
5.271807064562244
 40
5.271807064562244
 40
5.271807064562244
 40
5.271807064562244
 10
688.5215595771526
 20
-71.16216630787228
 30
0.0
 10
688.5778444187987
 20
-71.27980604122669
 30
0.0
 10
688.6904141020915
 20
-71.51508550793555
 30
0.0
 10
688.9502377912323
 20
-71.93868447924962
 30
0.0
 10
688.9503152791959
 20
-72.48566709777948
 30
0.0
 10
688.6902841508255
 20
-72.90920345796519
 30
0.0
 10
688.5220450839167
 20
-73.26233498184606
 30
0.0
 10
688.350892976423
 20
-73.61445446188401
 30
0.0
 10
688.0431194147827
 20
-74.14271388029639
 30
0.0
 10
688.0427226275351
 20
-74.83176410415627
 30
0.0
 10
688.351336598052
 20
-75.35967524650705
 30
0.0
 10
688.5203653219279
 20
-75.71278907321349
 30
0.0
 10
688.6378281587443
 20
-75.94570722965265
 30
0.0
 10
688.6965595771526
 20
-76.06216630787223
 30
0.0
 11
688.5215595771526
 21
-71.16216630787228
 31
0.0
 11
688.6965595771526
 21
-71.51216630787231
 31
0.0
 11
688.8715595771526
 21
-71.86216630787228
 31
0.0
 11
688.8715595771526
 21
-72.56216630787225
 31
0.0
 11
688.6965595771526
 21
-72.91216630787227
 31
0.0
 11
688.5215595771526
 21
-73.26216630787219
 31
0.0
 11
688.3465595771524
 21
-73.61216630787218
 31
0.0
 11
688.1715595771525
 21
-73.96216630787221
 31
0.0
 11
688.1715595771525
 21
-75.01216630787225
 31
0.0
 11
688.3465595771524
 21
-75.36216630787222
 31
0.0
 11
688.5215595771526
 21
-75.71216630787223
 31
0.0
 11
688.6965595771526
 21
-76.06216630787223
 31
0.0
  0
DIMENSION
  5
44E1
330
17
100
AcDbEntity
  8
Z_OM_DIM
100
AcDbDimension
  2
*D2
 10
589.1399421158911
 20
-4.778213976435945
 30
0.0
 11
589.1399421158911
 21
7.055119356897481
 31
0.0
 70
   160
 71
     5
 42
3.5
  3
CatalogDxf
100
AcDbAlignedDimension
 13
603.3161871534754
 23
-1.278213976435949
 33
0.0
 14
603.3161871534754
 24
-4.778213976435949
 34
0.0
 50
90.0
100
AcDbRotatedDimension
  0
DIMENSION
  5
44F0
330
17
100
AcDbEntity
  8
Z_OM_DIM
100
AcDbDimension
  2
*D3
 10
603.3161871534754
 20
-20.70949402258248
 30
0.0
 11
607.3161871534754
 21
-18.83449402258247
 31
0.0
 70
    32
 71
     5
 42
8.0
  3
CatalogDxf
100
AcDbAlignedDimension
 13
611.3161871534754
 23
-4.778213976435949
 33
0.0
 14
603.3161871534754
 24
-8.492463976435942
 34
0.0
100
AcDbRotatedDimension
  0
DIMENSION
  5
451A
330
17
100
AcDbEntity
  8
Z_OM_DIM
100
AcDbDimension
  2
*D4
 10
632.3161871534754
 20
-58.53517012981601
 30
0.0
 11
646.3161871534754
 21
-56.66017012981601
 31
0.0
 70
    32
 71
     5
 42
28.0
  3
CatalogDxf
100
AcDbAlignedDimension
 13
660.3161871534754
 23
-76.50868298596691
 33
0.0
 14
632.3161871534754
 24
-76.50868298596691
 34
0.0
100
AcDbRotatedDimension
  0
DIMENSION
  5
4527
330
17
100
AcDbEntity
  8
Z_OM_DIM
100
AcDbDimension
  2
*D5
 10
607.3161871534754
 20
-58.53517012981601
 30
0.0
 11
619.8161871534754
 21
-56.66017012981601
 31
0.0
 70
    32
 71
     5
 42
25.0
  3
CatalogDxf
100
AcDbAlignedDimension
 13
632.3161871534754
 23
-76.50868298596691
 33
0.0
 14
607.3161871534754
 24
-80.75070165033826
 34
-0.2791559578101779
100
AcDbRotatedDimension
1001
ACAD
1000
DSTYLE
1002
{
1070
   279
1070
     1
1002
}
  0
DIMENSION
  5
4534
330
17
100
AcDbEntity
  8
Z_OM_DIM
100
AcDbDimension
  2
*D6
 10
603.3161871534754
 20
-58.53517012981601
 30
0.0
 11
596.857853820142
 21
-58.53517012981601
 31
0.0
 70
   160
 71
     5
 42
4.0
  3
CatalogDxf
100
AcDbAlignedDimension
 13
607.3161871534754
 23
-80.75070165033826
 33
-0.2791559578101779
 14
603.3161871534754
 24
-84.04443298596692
 34
0.0
100
AcDbRotatedDimension
  0
DIMENSION
  5
4543
330
17
100
AcDbEntity
  8
Z_OM_DIM
100
AcDbDimension
  2
*D7
 10
694.6895766309767
 20
-99.50868298596688
 30
0.0
 11
692.8145766309767
 21
-89.50868298596677
 31
0.0
 70
    32
 71
     5
 42
19.99999999999997
  3
CatalogDxf
100
AcDbAlignedDimension
 13
663.3379237116961
 23
-79.50868298596688
 33
0.0
 14
663.3379237116961
 24
-99.50868298596686
 34
0.0
 50
90.0
100
AcDbRotatedDimension
  0
DIMENSION
  5
455B
330
17
100
AcDbEntity
  8
Z_OM_DIM
100
AcDbDimension
  2
*D8
 10
589.1399421158911
 20
-95.47293298596688
 30
0.0
 11
587.2649421158911
 21
-89.50868298596681
 31
0.0
 70
    32
  1
%%C12
 71
     5
 42
11.92849999999995
  3
CatalogDxf
100
AcDbAlignedDimension
 13
603.8161871534754
 23
-83.54443298596692
 33
0.0
 14
603.8161871534754
 24
-95.47293298596688
 34
0.0
 50
90.0
100
AcDbRotatedDimension
  0
DIMENSION
  5
4577
330
17
100
AcDbEntity
  8
Z_OM_DIM
100
AcDbDimension
  2
*D9
 10
566.8762477884891
 20
-104.5086829859669
 30
0.0
 11
565.0012477884891
 21
-89.50868298596681
 31
0.0
 70
    32
 71
     5
 42
30.0
  3
CatalogDxf
100
AcDbAlignedDimension
 13
548.7733669101268
 23
-74.50868298596692
 33
0.0
 14
548.7733669101268
 24
-104.5086829859669
 34
0.0
 50
90.0
100
AcDbRotatedDimension
  0
DIMENSION
  5
4584
330
17
100
AcDbEntity
  8
Z_OM_DIM
100
AcDbDimension
  2
*D10
 10
548.7733669101268
 20
-120.6338247543934
 30
0.0
 11
529.6733669101269
 21
-118.7588247543934
 31
0.0
 70
    32
  1
38
 71
     5
 42
38.19999999999982
  3
CatalogDxf
100
AcDbAlignedDimension
 13
510.573366910127
 23
-104.5086829859669
 33
0.0
 14
548.7733669101268
 24
-104.5086829859669
 34
0.0
100
AcDbRotatedDimension
  0
LEADER
  5
45BE
330
17
100
AcDbEntity
  8
Z_OM_DIM
100
AcDbLeader
  3
ISO-25
 76
     3
 10
661.0138136634039
 20
-100.5458990929788
 30
0.0
 10
669.8608276907918
 20
-113.6994494778521
 30
0.0
 10
695.0306014078803
 20
-113.6994494778521
 30
0.0
1001
ACAD
1000
DSTYLE
1002
{
1070
   341
1005
977
1070
   147
1040
0.625
1070
    77
1070
     0
1002
}
  0
MTEXT
  5
45BF
330
17
100
AcDbEntity
  8
Z_OM_DIM
100
AcDbMText
 10
671.0348256947614
 20
-113.7399463925382
 30
0.0
 40
2.5
 41
24.05930144544266
 71
     4
 72
     1
  1
4-M3\Pboth faces
  7
CatalogDxf
 73
     1
 44
1.0
1001
ACAD
1000
MTEXTBEGIN
1070
    73
1070
     1
1070
    44
1040
1.0
1070
    74
1070
     0
1000
MTEXTEND
  0
MTEXT
  5
45C8
330
17
100
AcDbEntity
  8
Z_OM_DIM
100
AcDbMText
 10
596.5798733387266
 20
-105.7066256852087
 30
0.0
 40
2.5
 41
4.580851048175645
 71
     7
 72
     1
  1
%%C3
  7
CatalogDxf
 73
     1
 44
1.0
1001
ACAD
1000
MTEXTBEGIN
1070
    73
1070
     1
1070
    44
1040
1.0
1070
    74
1070
     0
1000
MTEXTEND
  0
LEADER
  5
45C9
330
17
100
AcDbEntity
  8
Z_OM_DIM
100
AcDbLeader
  3
ISO-25
 76
     3
 10
606.8651775502821
 20
-90.93927389109223
 30
0.0
 10
601.9683370571988
 20
-106.411225927116
 30
0.0
 10
595.4408484876676
 20
-106.411225927116
 30
0.0
211
-1.0
221
0.0
231
0.0
1001
ACAD
1000
DSTYLE
1002
{
1070
   341
1005
977
1070
   147
1040
0.625
1070
    77
1070
     0
1002
}
  0
MTEXT
  5
45D2
330
17
100
AcDbEntity
  8
Z_OM_DIM
100
AcDbMText
 10
696.601665956866
 20
9.710576391676717
 30
0.0
 40
2.5
 41
42.8494883882687
 71
     7
 72
     1
  1
UL1007 AWG20 white
  7
CatalogDxf
 73
     1
 44
1.0
1001
ACAD
1000
ACAD_MTEXT_DEFINED_HEIGHT_BEGIN
1070
    46
1040
2.500000000000005
1000
ACAD_MTEXT_DEFINED_HEIGHT_END
1000
MTEXTBEGIN
1070
    73
1070
     1
1070
    44
1040
1.0
1070
    74
1070
     0
1000
MTEXTEND
  0
LEADER
  5
45D3
330
17
100
AcDbEntity
  8
Z_OM_DIM
100
AcDbLeader
  3
ISO-25
 76
     3
 10
689.4940521447613
 20
-2.028213976435949
 30
0.0
 10
696.0375564631065
 20
9.085576391676724
 30
0.0
 10
737.3958465352246
 20
9.085576391676724
 30
0.0
1001
ACAD
1000
DSTYLE
1002
{
1070
   341
1005
977
1070
   147
1040
0.625
1070
    77
1070
     0
1002
}
  0
DIMENSION
  5
45D4
330
17
100
AcDbEntity
  8
Z_OM_DIM
100
AcDbDimension
  2
*D11
 10
677.4161871534758
 20
-36.61956447330255
 30
0.0
 11
645.4161871534758
 21
-34.74456447330255
 31
0.0
 70
    32
 71
     5
 42
64.0
  3
CatalogDxf
100
AcDbAlignedDimension
 13
613.4161871534757
 23
-22.12821397643597
 33
0.0
 14
677.4161871534758
 24
-19.6282139764359
 34
0.0
100
AcDbRotatedDimension
  0
DIMENSION
  5
46DE
330
17
100
AcDbEntity
  8
Z_OM_DIM
100
AcDbDimension
  2
*D12
 10
632.3161871534754
 20
-64.5349009101999
 30
0.0
 11
622.8661871534756
 21
-62.6599009101999
 31
0.0
 70
    32
  1
19
 71
     5
 42
18.89999999999963
  3
CatalogDxf
100
AcDbAlignedDimension
 13
613.4161871534757
 23
-74.50868298596688
 33
0.0
 14
632.3161871534754
 24
-76.50868298596694
 34
0.0
100
AcDbRotatedDimension
  0
ENDSEC
  0
SECTION
  2
OBJECTS
  0
DICTIONARY
  5
C
330
0
100
AcDbDictionary
281
     1
  3
ACAD_2007HEADERVARS_RT
350
45A0
  3
ACAD_COLOR
350
3D57
  3
ACAD_GROUP
350
D
  3
ACAD_LAYOUT
350
3D5A
  3
ACAD_MATERIAL
350
3D42
  3
ACAD_MLINESTYLE
350
1A
  3
ACAD_PLOTSETTINGS
350
957
  3
ACAD_PLOTSTYLENAME
350
3D40
  3
ACAD_TABLESTYLE
350
3D58
  3
ACAD_VISUALSTYLE
350
3D46
  3
AcadDim
350
4572
  3
ACDBHEADERROUNDTRIPXREC
350
4812
  3
AcDbVariableDictionary
350
4116
  3
DWGPROPS
350
4811
1001
ACAD
1000
TREAT_AS_HARD
1070
     0
  0
DICTIONARY
  5
45A4
330
8
100
AcDbDictionary
280
     1
281
     1
  3
ACAD_XREC_ROUNDTRIP
360
45A5
  0
DICTIONARY
  5
3DBA
330
2
100
AcDbDictionary
280
     1
281
     1
  3
ACAD_LAYERFILTERS
360
421C
  3
ACAD_LAYERSTATES
360
3DBB
  3
ACLYDICTIONARY
360
421B
  0
DICTIONARY
  5
45A6
330
E
100
AcDbDictionary
280
     1
281
     1
  3
ACAD_XREC_ROUNDTRIP
360
45A7
  0
DICTIONARY
  5
45A8
330
27
100
AcDbDictionary
280
     1
281
     1
  3
ACAD_XREC_ROUNDTRIP
360
45A9
  0
DICTIONARY
  5
45AA
330
2B
100
AcDbDictionary
280
     1
281
     1
  3
ACAD_XREC_ROUNDTRIP
360
45AB
  0
DICTIONARY
  5
45AE
330
3DB5
100
AcDbDictionary
280
     1
281
     1
  3
ACAD_XREC_ROUNDTRIP
360
45AF
  0
DICTIONARY
  5
1808
330
17
100
AcDbDictionary
280
     1
281
     1
  3
ACAD_LAYOUTSELFREF
360
3D3B
1001
ACAD
1000
TREAT_AS_HARD
1070
     1
  0
DICTIONARY
  5
1806
330
14
100
AcDbDictionary
280
     1
281
     1
  3
ACAD_LAYOUTSELFREF
360
3D3A
1001
ACAD
1000
TREAT_AS_HARD
1070
     1
  0
DICTIONARY
  5
45A0
102
{ACAD_REACTORS
330
C
102
}
330
C
100
AcDbDictionary
281
     1
  3
DIMLTEX1
350
45A2
  3
DIMLTEX2
350
45A3
  3
DIMLTYPE
350
45A1
  0
DICTIONARY
  5
3D57
102
{ACAD_REACTORS
330
C
102
}
330
C
100
AcDbDictionary
281
     1
  0
DICTIONARY
  5
D
102
{ACAD_REACTORS
330
C
102
}
330
C
100
AcDbDictionary
281
     1
1001
ACAD
1000
TREAT_AS_HARD
1070
     0
  0
DICTIONARY
  5
3D5A
102
{ACAD_REACTORS
330
C
102
}
330
C
100
AcDbDictionary
281
     1
  3
Model
350
3D5B
  3
レイアウト1
350
3D5C
  0
DICTIONARY
  5
3D42
102
{ACAD_REACTORS
330
C
102
}
330
C
100
AcDbDictionary
281
     1
  3
ByBlock
350
3D44
  3
ByLayer
350
3D43
  3
Global
350
3D45
  0
DICTIONARY
  5
1A
102
{ACAD_REACTORS
330
C
102
}
330
C
100
AcDbDictionary
281
     1
  3
STANDARD
350
1B
1001
ACAD
1000
TREAT_AS_HARD
1070
     0
  0
DICTIONARY
  5
957
102
{ACAD_REACTORS
330
C
102
}
330
C
100
AcDbDictionary
281
     1
1001
ACAD
1000
TREAT_AS_HARD
1070
     0
  0
ACDBDICTIONARYWDFLT
  5
3D40
102
{ACAD_REACTORS
330
C
102
}
330
C
100
AcDbDictionary
281
     1
  3
Normal
350
3D41
100
AcDbDictionaryWithDefault
340
3D41
  0
DICTIONARY
  5
3D58
102
{ACAD_REACTORS
330
C
102
}
330
C
100
AcDbDictionary
281
     1
  3
Standard
350
3D59
  0
DICTIONARY
  5
3D46
102
{ACAD_REACTORS
330
C
102
}
330
C
100
AcDbDictionary
281
     1
  3
2dWireframe
350
3D4C
  3
3D Hidden
350
3D4E
  3
3dWireframe
350
3D4D
  3
Basic
350
3D4B
  3
Brighten
350
3D52
  3
ColorChange
350
3D56
  3
Conceptual
350
3D4F
  3
Dim
350
3D51
  3
Facepattern
350
3D55
  3
Flat
350
3D47
  3
FlatWithEdges
350
3D48
  3
Gouraud
350
3D49
  3
GouraudWithEdges
350
3D4A
  3
Linepattern
350
3D54
  3
Realistic
350
3D50
  3
Thicken
350
3D53
  0
XRECORD
  5
4572
102
{ACAD_REACTORS
330
C
102
}
330
C
100
AcDbXrecord
280
     1
 90
   990106
  3

 60
     0
 61
     0
 62
     4
 63
     4
 64
     1
 65
     0
 66
     0
 67
     2
 68
     1
 69
     0
 70
     0
 71
     0
 72
     0
 40
59.9862923609046
170
     2
340
0
  0
DICTIONARY
  5
4812
102
{ACAD_REACTORS
330
C
102
}
330
C
100
AcDbDictionary
281
     1
  0
DICTIONARY
  5
4116
102
{ACAD_REACTORS
330
C
102
}
330
C
100
AcDbDictionary
281
     1
  3
CTABLESTYLE
350
4117
  3
DIMASSOC
350
480E
  3
PROJECTNAME
350
480F
  0
XRECORD
  5
4811
102
{ACAD_REACTORS
330
C
102
}
330
C
100
AcDbXrecord
280
     1
  1
DWGPROPS COOKIE
  2

  3

  4

  6

  7

  8
yakata
  9

300
=
301
=
302
=
303
=
304
=
305
=
306
=
307
=
308
=
309
=
 40
0.5402708333333334
 41
2455090.761732894
 42
2455678.577258229
  1

 90
        0
  0
XRECORD
  5
45A5
102
{ACAD_REACTORS
330
45A4
102
}
330
45A4
100
AcDbXrecord
280
     1
102
VTR_0.000_0.000_1.000_1.000_VISUALSTYLE
340
3D4C
102
VTR_0.000_0.000_1.000_1.000_GRIDDISPLAY
 70
     3
102
VTR_0.000_0.000_1.000_1.000_GRIDMAJOR
 70
     5
102
VTR_0.000_0.000_1.000_1.000_DEFAULTLIGHTING
280
     1
102
VTR_0.000_0.000_1.000_1.000_DEFAULTLIGHTINGTYPE
 70
     1
102
VTR_0.000_0.000_1.000_1.000_BRIGHTNESS
141
0.0
102
VTR_0.000_0.000_1.000_1.000_CONTRAST
142
0.0
  0
DICTIONARY
  5
421C
102
{ACAD_REACTORS
330
3DBA
102
}
330
3DBA
100
AcDbDictionary
281
     1
  0
DICTIONARY
  5
3DBB
102
{ACAD_REACTORS
330
3DBA
102
}
330
3DBA
100
AcDbDictionary
281
     1
  0
DICTIONARY
  5
421B
102
{ACAD_REACTORS
330
3DBA
102
}
330
3DBA
100
AcDbDictionary
281
     1
1001
ACAD
1000
<All
  0
XRECORD
  5
45A7
102
{ACAD_REACTORS
330
45A6
102
}
330
45A6
100
AcDbXrecord
280
     1
102
MATERIAL
340
3D45
  0
XRECORD
  5
45A9
102
{ACAD_REACTORS
330
45A8
102
}
330
45A8
100
AcDbXrecord
280
     1
102
MATERIAL
340
3D45
  0
XRECORD
  5
45AB
102
{ACAD_REACTORS
330
45AA
102
}
330
45AA
100
AcDbXrecord
280
     1
102
MATERIAL
340
3D45
  0
XRECORD
  5
45AF
102
{ACAD_REACTORS
330
45AE
102
}
330
45AE
100
AcDbXrecord
280
     1
102
MATERIAL
340
3D45
  0
XRECORD
  5
3D3B
102
{ACAD_REACTORS
330
1808
102
}
330
1808
100
AcDbXrecord
280
     1
340
17
  0
XRECORD
  5
3D3A
102
{ACAD_REACTORS
330
1806
102
}
330
1806
100
AcDbXrecord
280
     1
340
14
  0
XRECORD
  5
45A2
102
{ACAD_REACTORS
330
45A0
102
}
330
45A0
100
AcDbXrecord
280
     1
340
12
  0
XRECORD
  5
45A3
102
{ACAD_REACTORS
330
45A0
102
}
330
45A0
100
AcDbXrecord
280
     1
340
12
  0
XRECORD
  5
45A1
102
{ACAD_REACTORS
330
45A0
102
}
330
45A0
100
AcDbXrecord
280
     1
340
12
  0
LAYOUT
  5
3D5B
102
{ACAD_XDICTIONARY
360
4813
102
}
102
{ACAD_REACTORS
330
3D5A
102
}
330
3D5A
100
AcDbPlotSettings
  1

  2
none_device
  4
Letter_(8.50_x_11.00_Inches)
  6

 40
6.349999904632568
 41
6.349999904632568
 42
6.350006103515625
 43
6.350006103515625
 44
215.8999938964844
 45
279.3999938964844
 46
5.487374677831382
 47
-86.64923342592581
 48
0.0
 49
0.0
140
0.0
141
0.0
142
1.0
143
29.4132
 70
 11940
 72
     0
 73
     1
 74
     0
  7
monochrome.ctb
 75
     0
147
0.033998340880965
148
-10726.95342526368
149
4199.434596585983
100
AcDbLayout
  1
Model
 70
     1
 71
     0
 10
0.0
 20
0.0
 11
12.0
 21
9.0
 12
0.0
 22
0.0
 32
0.0
 14
0.0
 24
0.0
 34
0.0
 15
0.0
 25
0.0
 35
0.0
146
0.0
 13
0.0
 23
0.0
 33
0.0
 16
1.0
 26
0.0
 36
0.0
 17
0.0
 27
1.0
 37
0.0
 76
     0
330
17
1001
ACAD_PSEXT
1000
なし
1000
なし
1000
適切ではありません
1000
新しいプロッタ環境設定名を選択しない限り、レイアウトは印刷されません。
1070
     0
  0
LAYOUT
  5
3D5C
102
{ACAD_XDICTIONARY
360
4815
102
}
102
{ACAD_REACTORS
330
3D5A
102
}
330
3D5A
100
AcDbPlotSettings
  1

  2
Microsoft XPS Document Writer
  4

  6

 40
0.0
 41
0.0
 42
0.0
 43
0.0
 44
0.0
 45
0.0
 46
0.0
 47
0.0
 48
0.0
 49
0.0
140
0.0
141
0.0
142
1.0
143
1.0
 70
   688
 72
     0
 73
     0
 74
     5
  7
monochrome.ctb
 75
    16
147
1.0
148
0.0
149
0.0
100
AcDbLayout
  1
レイアウト1
 70
     1
 71
     1
 10
0.0
 20
0.0
 11
12.0
 21
9.0
 12
0.0
 22
0.0
 32
0.0
 14
1.000000000000000E+20
 24
1.000000000000000E+20
 34
1.000000000000000E+20
 15
-1.000000000000000E+20
 25
-1.000000000000000E+20
 35
-1.000000000000000E+20
146
0.0
 13
0.0
 23
0.0
 33
0.0
 16
1.0
 26
0.0
 36
0.0
 17
0.0
 27
1.0
 37
0.0
 76
     0
330
14
  0
MATERIAL
  5
3D44
102
{ACAD_XDICTIONARY
360
419D
102
}
102
{ACAD_REACTORS
330
3D42
102
}
330
3D42
100
AcDbMaterial
  1
ByBlock
  0
MATERIAL
  5
3D43
102
{ACAD_XDICTIONARY
360
419B
102
}
102
{ACAD_REACTORS
330
3D42
102
}
330
3D42
100
AcDbMaterial
  1
ByLayer
  0
MATERIAL
  5
3D45
102
{ACAD_XDICTIONARY
360
419F
102
}
102
{ACAD_REACTORS
330
3D42
102
}
330
3D42
100
AcDbMaterial
  1
Global
  0
MLINESTYLE
  5
1B
102
{ACAD_REACTORS
330
1A
102
}
330
1A
100
AcDbMlineStyle
  2
STANDARD
 70
     0
  3

 62
   256
 51
90.0
 52
90.0
 71
     2
 49
0.5
 62
   256
  6
BYLAYER
 49
-0.5
 62
   256
  6
BYLAYER
  0
ACDBPLACEHOLDER
  5
3D41
102
{ACAD_REACTORS
330
3D40
102
}
330
3D40
  0
TABLESTYLE
  5
3D59
102
{ACAD_XDICTIONARY
360
45AC
102
}
102
{ACAD_REACTORS
330
3D58
102
}
330
3D58
100
AcDbTableStyle
  3
Standard
 70
     0
 71
     0
 40
0.06
 41
0.06
280
     0
281
     0
  7
STANDARD
140
0.18
170
     2
 62
     0
 63
     7
283
     0
274
    -2
284
     1
 64
     0
275
    -2
285
     1
 65
     0
276
    -2
286
     1
 66
     0
277
    -2
287
     1
 67
     0
278
    -2
288
     1
 68
     0
279
    -2
289
     1
 69
     0
  7
STANDARD
140
0.25
170
     5
 62
     0
 63
     7
283
     0
274
    -2
284
     1
 64
     0
275
    -2
285
     1
 65
     0
276
    -2
286
     1
 66
     0
277
    -2
287
     1
 67
     0
278
    -2
288
     1
 68
     0
279
    -2
289
     1
 69
     0
  7
STANDARD
140
0.18
170
     5
 62
     0
 63
     7
283
     0
274
    -2
284
     1
 64
     0
275
    -2
285
     1
 65
     0
276
    -2
286
     1
 66
     0
277
    -2
287
     1
 67
     0
278
    -2
288
     1
 68
     0
279
    -2
289
     1
 69
     0
  0
ACAD_PROXY_OBJECT
  5
3D4C
102
{ACAD_REACTORS
330
3D46
102
}
330
3D46
100
AcDbProxyObject
 90
      499
 91
      503
 95
  2555929
 70
     0
 93
      598
310
430C9915DA5C99599C985B59401049028333333333333E3BF0000000000000FB023FFFFFF0802405048070000C3008000000C800405A000000320014050640A01C00030C010500920280D3
 94
        0
1001
ACAD
1000
AcDbSavedByObjectVersion
1070
     0
1000
AcDbSavedByObjectVersion
1070
     0
1000
AcDbSavedByObjectVersion
1070
     0
1000
AcDbSavedByObjectVersion
1070
     0
1000
AcDbSavedByObjectVersion
1070
     0
1000
AcDbSavedByObjectVersion
1070
     0
1000
AcDbSavedByObjectVersion
1070
     0
1000
AcDbSavedByObjectVersion
1070
     0
1000
AcDbSavedByObjectVersion
1070
     0
1000
AcRTDxfName
1000
VISUALSTYLE
  0
ACAD_PROXY_OBJECT
  5
3D4E
102
{ACAD_REACTORS
330
3D46
102
}
330
3D46
100
AcDbProxyObject
 90
      499
 91
      503
 95
  2555929
 70
     0
 93
      662
310
428CD108121A5919195B8010640502408333333333333E3BF0000000000000FB023FFFFFF0802409028070000C3008000000C8004080000000000004440A000000320014050640A01C00030C010300920280D0
 94
        0
1001
ACAD
1000
AcDbSavedByObjectVersion
1070
     0
1000
AcDbSavedByObjectVersion
1070
     0
1000
AcDbSavedByObjectVersion
1070
     0
1000
AcDbSavedByObjectVersion
1070
     0
1000
AcDbSavedByObjectVersion
1070
     0
1000
AcDbSavedByObjectVersion
1070
     0
1000
AcDbSavedByObjectVersion
1070
     0
1000
AcDbSavedByObjectVersion
1070
     0
1000
AcDbSavedByObjectVersion
1070
     0
1000
AcRTDxfName
1000
VISUALSTYLE
  0
ACAD_PROXY_OBJECT
  5
3D4D
102
{ACAD_REACTORS
330
3D46
102
}
330
3D46
100
AcDbProxyObject
 90
      499
 91
      503
 95
  2555929
 70
     0
 93
      598
310
430CD915DA5C99599C985B59401059028333333333333E3BF0000000000000FB023FFFFFF0802405048070000C3008000000C800405A000000320014050640A01C00030C010500920280D0
 94
        0
1001
ACAD
1000
AcDbSavedByObjectVersion
1070
     0
1000
AcDbSavedByObjectVersion
1070
     0
1000
AcDbSavedByObjectVersion
1070
     0
1000
AcDbSavedByObjectVersion
1070
     0
1000
AcDbSavedByObjectVersion
1070
     0
1000
AcDbSavedByObjectVersion
1070
     0
1000
AcDbSavedByObjectVersion
1070
     0
1000
AcDbSavedByObjectVersion
1070
     0
1000
AcDbSavedByObjectVersion
1070
     0
1000
AcRTDxfName
1000
VISUALSTYLE
  0
ACAD_PROXY_OBJECT
  5
3D4B
102
{ACAD_REACTORS
330
3D46
102
}
330
3D46
100
AcDbProxyObject
 90
      499
 91
      503
 95
  2555929
 70
     0
 93
      558
310
4190985CDA58C0107406404333333333333E3BF0000000000000FB023FFFFFF08029048070000C3008000000C80040542201C00030C014050640A01C00030C010500920280D6
 94
        0
1001
ACAD
1000
AcDbSavedByObjectVersion
1070
     0
1000
AcDbSavedByObjectVersion
1070
     0
1000
AcDbSavedByObjectVersion
1070
     0
1000
AcDbSavedByObjectVersion
1070
     0
1000
AcDbSavedByObjectVersion
1070
     0
1000
AcDbSavedByObjectVersion
1070
     0
1000
AcDbSavedByObjectVersion
1070
     0
1000
AcDbSavedByObjectVersion
1070
     0
1000
AcDbSavedByObjectVersion
1070
     0
1000
AcRTDxfName
1000
VISUALSTYLE
  0
ACAD_PROXY_OBJECT
  5
3D52
102
{ACAD_REACTORS
330
3D46
102
}
330
3D46
100
AcDbProxyObject
 90
      499
 91
      503
 95
  2555929
 70
     0
 93
      598
310
42509C9A59DA1D195B8010C409028333333333333E3BF0000000000000FB023FFFFFF0802405048070000C3008000000C80040542201C00030C014050640A01C00030C010500920280A657
 94
        0
1001
ACAD
1000
AcDbSavedByObjectVersion
1070
     0
1000
AcDbSavedByObjectVersion
1070
     0
1000
AcDbSavedByObjectVersion
1070
     0
1000
AcDbSavedByObjectVersion
1070
     0
1000
AcDbSavedByObjectVersion
1070
     0
1000
AcDbSavedByObjectVersion
1070
     0
1000
AcDbSavedByObjectVersion
1070
     0
1000
AcDbSavedByObjectVersion
1070
     0
1000
AcDbSavedByObjectVersion
1070
     0
1000
AcRTDxfName
1000
VISUALSTYLE
  0
ACAD_PROXY_OBJECT
  5
3D56
102
{ACAD_REACTORS
330
3D46
102
}
330
3D46
100
AcDbProxyObject
 90
      499
 91
      503
 95
  2555929
 70
     0
 93
      622
310
4310DBDB1BDC90DA185B99D9401104090240C333333333333E3BF0000000000000FB0220202030802405048070000C3008000000C800405422202020308014050640A01C00030C010500920280D7
 94
        0
1001
ACAD
1000
AcDbSavedByObjectVersion
1070
     0
1000
AcDbSavedByObjectVersion
1070
     0
1000
AcDbSavedByObjectVersion
1070
     0
1000
AcDbSavedByObjectVersion
1070
     0
1000
AcDbSavedByObjectVersion
1070
     0
1000
AcDbSavedByObjectVersion
1070
     0
1000
AcDbSavedByObjectVersion
1070
     0
1000
AcDbSavedByObjectVersion
1070
     0
1000
AcDbSavedByObjectVersion
1070
     0
1000
AcRTDxfName
1000
VISUALSTYLE
  0
ACAD_PROXY_OBJECT
  5
3D4F
102
{ACAD_REACTORS
330
3D46
102
}
330
3D46
100
AcDbProxyObject
 90
      499
 91
      503
 95
  2555929
 70
     0
 93
      670
310
42D0DBDB98D95C1D1D585B0010940D028333333333333E3BF0000000000000FB023FFFFFF0802409028070000C3008000000C800404000000000000444042201C00030C014050640A01C00030C010300920280D0
 94
        0
1001
ACAD
1000
AcDbSavedByObjectVersion
1070
     0
1000
AcDbSavedByObjectVersion
1070
     0
1000
AcDbSavedByObjectVersion
1070
     0
1000
AcDbSavedByObjectVersion
1070
     0
1000
AcDbSavedByObjectVersion
1070
     0
1000
AcDbSavedByObjectVersion
1070
     0
1000
AcDbSavedByObjectVersion
1070
     0
1000
AcDbSavedByObjectVersion
1070
     0
1000
AcDbSavedByObjectVersion
1070
     0
1000
AcRTDxfName
1000
VISUALSTYLE
  0
ACAD_PROXY_OBJECT
  5
3D51
102
{ACAD_REACTORS
330
3D46
102
}
330
3D46
100
AcDbProxyObject
 90
      499
 91
      503
 95
  2555929
 70
     0
 93
      582
310
41111A5B4010B409028333333333333E3BF0000000000000FB023FFFFFF0802405048070000C3008000000C80040542201C00030C014050640A01C00030C01050092028099DFFFFFF4
 94
        0
1001
ACAD
1000
AcDbSavedByObjectVersion
1070
     0
1000
AcDbSavedByObjectVersion
1070
     0
1000
AcDbSavedByObjectVersion
1070
     0
1000
AcDbSavedByObjectVersion
1070
     0
1000
AcDbSavedByObjectVersion
1070
     0
1000
AcDbSavedByObjectVersion
1070
     0
1000
AcDbSavedByObjectVersion
1070
     0
1000
AcDbSavedByObjectVersion
1070
     0
1000
AcDbSavedByObjectVersion
1070
     0
1000
AcRTDxfName
1000
VISUALSTYLE
  0
ACAD_PROXY_OBJECT
  5
3D55
102
{ACAD_REACTORS
330
3D46
102
}
330
3D46
100
AcDbProxyObject
 90
      499
 91
      503
 95
  2555929
 70
     0
 93
      614
310
43119858D95C185D1D195C9B8010F409028333333333333E3BF0000000000000FB023FFFFFF0802405048070000C3008000000C80040542201C00030C014050640A01C00030C010500920280D4
 94
        0
1001
ACAD
1000
AcDbSavedByObjectVersion
1070
     0
1000
AcDbSavedByObjectVersion
1070
     0
1000
AcDbSavedByObjectVersion
1070
     0
1000
AcDbSavedByObjectVersion
1070
     0
1000
AcDbSavedByObjectVersion
1070
     0
1000
AcDbSavedByObjectVersion
1070
     0
1000
AcDbSavedByObjectVersion
1070
     0
1000
AcDbSavedByObjectVersion
1070
     0
1000
AcDbSavedByObjectVersion
1070
     0
1000
AcRTDxfName
1000
VISUALSTYLE
  0
ACAD_PROXY_OBJECT
  5
3D47
102
{ACAD_REACTORS
330
3D46
102
}
330
3D46
100
AcDbProxyObject
 90
      499
 91
      503
 95
  2555929
 70
     0
 93
      558
310
41519B185D00240901404333333333333E3BF0000000000000F9023FFFFFF0801029048070000C3008000000C80040542201C00030C014050640A01C00030C010500920286D4
 94
        0
1001
ACAD
1000
AcDbSavedByObjectVersion
1070
     0
1000
AcDbSavedByObjectVersion
1070
     0
1000
AcDbSavedByObjectVersion
1070
     0
1000
AcDbSavedByObjectVersion
1070
     0
1000
AcDbSavedByObjectVersion
1070
     0
1000
AcDbSavedByObjectVersion
1070
     0
1000
AcDbSavedByObjectVersion
1070
     0
1000
AcDbSavedByObjectVersion
1070
     0
1000
AcDbSavedByObjectVersion
1070
     0
1000
AcRTDxfName
1000
VISUALSTYLE
  0
ACAD_PROXY_OBJECT
  5
3D48
102
{ACAD_REACTORS
330
3D46
102
}
330
3D46
100
AcDbProxyObject
 90
      499
 91
      503
 95
  2555929
 70
     0
 93
      638
310
43919B185D15DA5D1A115919D95CC010140901404333333333333E3BF0000000000000F9023FFFFFF080102405048070000C3008000000C800405A000000320014050640A01C00030C010500920286D4
 94
        0
1001
ACAD
1000
AcDbSavedByObjectVersion
1070
     0
1000
AcDbSavedByObjectVersion
1070
     0
1000
AcDbSavedByObjectVersion
1070
     0
1000
AcDbSavedByObjectVersion
1070
     0
1000
AcDbSavedByObjectVersion
1070
     0
1000
AcDbSavedByObjectVersion
1070
     0
1000
AcDbSavedByObjectVersion
1070
     0
1000
AcDbSavedByObjectVersion
1070
     0
1000
AcDbSavedByObjectVersion
1070
     0
1000
AcRTDxfName
1000
VISUALSTYLE
  0
ACAD_PROXY_OBJECT
  5
3D49
102
{ACAD_REACTORS
330
3D46
102
}
330
3D46
100
AcDbProxyObject
 90
      499
 91
      503
 95
  2555929
 70
     0
 93
      582
310
4211DBDD5C985D590010240902404333333333333E3BF0000000000000F9023FFFFFF0801029048070000C3008000000C800405A01C00030C014050640A01C00030C010500920286D4
 94
        0
1001
ACAD
1000
AcDbSavedByObjectVersion
1070
     0
1000
AcDbSavedByObjectVersion
1070
     0
1000
AcDbSavedByObjectVersion
1070
     0
1000
AcDbSavedByObjectVersion
1070
     0
1000
AcDbSavedByObjectVersion
1070
     0
1000
AcDbSavedByObjectVersion
1070
     0
1000
AcDbSavedByObjectVersion
1070
     0
1000
AcDbSavedByObjectVersion
1070
     0
1000
AcDbSavedByObjectVersion
1070
     0
1000
AcRTDxfName
1000
VISUALSTYLE
  0
ACAD_PROXY_OBJECT
  5
3D4A
102
{ACAD_REACTORS
330
3D46
102
}
330
3D46
100
AcDbProxyObject
 90
      499
 91
      503
 95
  2555929
 70
     0
 93
      662
310
4451DBDD5C985D5915DA5D1A115919D95CC010340902404333333333333E3BF0000000000000F9023FFFFFF080102405048070000C3008000000C800405A000000320014050640A01C00030C010500920286D4
 94
        0
1001
ACAD
1000
AcDbSavedByObjectVersion
1070
     0
1000
AcDbSavedByObjectVersion
1070
     0
1000
AcDbSavedByObjectVersion
1070
     0
1000
AcDbSavedByObjectVersion
1070
     0
1000
AcDbSavedByObjectVersion
1070
     0
1000
AcDbSavedByObjectVersion
1070
     0
1000
AcDbSavedByObjectVersion
1070
     0
1000
AcDbSavedByObjectVersion
1070
     0
1000
AcDbSavedByObjectVersion
1070
     0
1000
AcRTDxfName
1000
VISUALSTYLE
  0
ACAD_PROXY_OBJECT
  5
3D54
102
{ACAD_REACTORS
330
3D46
102
}
330
3D46
100
AcDbProxyObject
 90
      499
 91
      503
 95
  2555929
 70
     0
 93
      614
310
43131A5B995C185D1D195C9B8010E409028333333333333E3BF0000000000000FB023FFFFFF0802405048070000C3008000000C80041D42201C00030C014050640A01C00030C010500920E80D5
 94
        0
1001
ACAD
1000
AcDbSavedByObjectVersion
1070
     0
1000
AcDbSavedByObjectVersion
1070
     0
1000
AcDbSavedByObjectVersion
1070
     0
1000
AcDbSavedByObjectVersion
1070
     0
1000
AcDbSavedByObjectVersion
1070
     0
1000
AcDbSavedByObjectVersion
1070
     0
1000
AcDbSavedByObjectVersion
1070
     0
1000
AcDbSavedByObjectVersion
1070
     0
1000
AcDbSavedByObjectVersion
1070
     0
1000
AcRTDxfName
1000
VISUALSTYLE
  0
ACAD_PROXY_OBJECT
  5
3D50
102
{ACAD_REACTORS
330
3D46
102
}
330
3D46
100
AcDbProxyObject
 90
      499
 91
      503
 95
  2555929
 70
     0
 93
      590
310
429499585B1A5CDD1A58C0108409028333333333333E3BF0000000000000FB023FFFFFF08024068070000C3008000000C8004054221E1E1E308014050640A01C00030C010500920286D0
 94
        0
1001
ACAD
1000
AcDbSavedByObjectVersion
1070
     0
1000
AcDbSavedByObjectVersion
1070
     0
1000
AcDbSavedByObjectVersion
1070
     0
1000
AcDbSavedByObjectVersion
1070
     0
1000
AcDbSavedByObjectVersion
1070
     0
1000
AcDbSavedByObjectVersion
1070
     0
1000
AcDbSavedByObjectVersion
1070
     0
1000
AcDbSavedByObjectVersion
1070
     0
1000
AcDbSavedByObjectVersion
1070
     0
1000
AcRTDxfName
1000
VISUALSTYLE
  0
ACAD_PROXY_OBJECT
  5
3D53
102
{ACAD_REACTORS
330
3D46
102
}
330
3D46
100
AcDbProxyObject
 90
      499
 91
      503
 95
  2555929
 70
     0
 93
      582
310
42151A1A58DAD95B8010D409028333333333333E3BF0000000000000FB023FFFFFF0802405048070000C3008000000C80040543201C00030C014050640A01C00030C010500920280D4
 94
        0
1001
ACAD
1000
AcDbSavedByObjectVersion
1070
     0
1000
AcDbSavedByObjectVersion
1070
     0
1000
AcDbSavedByObjectVersion
1070
     0
1000
AcDbSavedByObjectVersion
1070
     0
1000
AcDbSavedByObjectVersion
1070
     0
1000
AcDbSavedByObjectVersion
1070
     0
1000
AcDbSavedByObjectVersion
1070
     0
1000
AcDbSavedByObjectVersion
1070
     0
1000
AcDbSavedByObjectVersion
1070
     0
1000
AcRTDxfName
1000
VISUALSTYLE
  0
DICTIONARYVAR
  5
4117
102
{ACAD_REACTORS
330
4116
102
}
330
4116
100
DictionaryVariables
280
     0
  1
STANDARD
  0
DICTIONARYVAR
  5
480E
102
{ACAD_REACTORS
330
4116
102
}
330
4116
100
DictionaryVariables
280
     0
  1
1
  0
DICTIONARYVAR
  5
480F
102
{ACAD_REACTORS
330
4116
102
}
330
4116
100
DictionaryVariables
280
     0
  1

  0
DICTIONARY
  5
4813
330
3D5B
100
AcDbDictionary
280
     1
281
     1
  3
ACAD_XREC_ROUNDTRIP
360
4814
  0
DICTIONARY
  5
4815
330
3D5C
100
AcDbDictionary
280
     1
281
     1
  3
ACAD_XREC_ROUNDTRIP
360
4816
  0
DICTIONARY
  5
419D
330
3D44
100
AcDbDictionary
280
     1
281
     1
  3
ACAD_XREC_ROUNDTRIP
360
419E
  0
DICTIONARY
  5
419B
330
3D43
100
AcDbDictionary
280
     1
281
     1
  3
ACAD_XREC_ROUNDTRIP
360
419C
  0
DICTIONARY
  5
419F
330
3D45
100
AcDbDictionary
280
     1
281
     1
  3
ACAD_XREC_ROUNDTRIP
360
41A0
  0
DICTIONARY
  5
45AC
330
3D59
100
AcDbDictionary
280
     1
281
     1
  3
ACAD_XREC_ROUNDTRIP
360
45AD
  0
XRECORD
  5
4814
102
{ACAD_REACTORS
330
4813
102
}
330
4813
100
AcDbXrecord
280
     1
102
SHADEPLOT
 70
     0
102
SHADEPLOTRESLEVEL
 70
     2
102
SHADEPLOTCUSTOMDPI
 70
   300
  0
XRECORD
  5
4816
102
{ACAD_REACTORS
330
4815
102
}
330
4815
100
AcDbXrecord
280
     1
102
SHADEPLOT
 70
     0
102
SHADEPLOTRESLEVEL
 70
     2
102
SHADEPLOTCUSTOMDPI
 70
   300
  0
XRECORD
  5
419E
102
{ACAD_REACTORS
330
419D
102
}
330
419D
100
AcDbXrecord
280
     1
102
MATERIAL
148
0.0
149
0.0
149
0.0
 93
        0
 94
       63
282
     0
 72
     1
 77
     1
171
     1
175
     1
179
     1
273
     0
  0
XRECORD
  5
419C
102
{ACAD_REACTORS
330
419B
102
}
330
419B
100
AcDbXrecord
280
     1
102
MATERIAL
148
0.0
149
0.0
149
0.0
 93
        0
 94
       63
282
     0
 72
     1
 77
     1
171
     1
175
     1
179
     1
273
     0
  0
XRECORD
  5
41A0
102
{ACAD_REACTORS
330
419F
102
}
330
419F
100
AcDbXrecord
280
     1
102
MATERIAL
148
0.0
149
0.0
149
0.0
 93
        0
 94
       63
282
     0
 72
     1
 77
     1
171
     1
175
     1
179
     1
273
     0
  0
XRECORD
  5
45AD
102
{ACAD_REACTORS
330
45AC
102
}
330
45AC
100
AcDbXrecord
280
     1
102
ACAD_ROUNDTRIP_PRE2007_TABLESTYLE
 90
      512
 91
        0
  1

 92
      512
 93
        0
  2

 94
      512
 95
        0
  3

  0
ENDSEC
  0
EOF
