  0
SECTION
  2
HEADER
  9
$ACADVER
  1
AC1015
  9
$ACADMAINTVER
 70
    20
  9
$DWGCODEPAGE
  3
ANSI_932
  9
$INSBASE
 10
0.0
 20
0.0
 30
0.0
  9
$EXTMIN
 10
496.5174819579906
 20
-150.2958067515044
 30
-0.0000000349181948
  9
$EXTMAX
 10
735.9437285580748
 20
5.516703530045049
 30
0.0000000814935746
  9
$LIMMIN
 10
0.0
 20
0.0
  9
$LIMMAX
 10
12.0
 20
9.0
  9
$ORTHOMODE
 70
     1
  9
$REGENMODE
 70
     1
  9
$FILLMODE
 70
     1
  9
$QTEXTMODE
 70
     0
  9
$MIRRTEXT
 70
     1
  9
$LTSCALE
 40
0.5
  9
$ATTMODE
 70
     1
  9
$TEXTSIZE
 40
2.5
  9
$TRACEWID
 40
0.05
  9
$TEXTSTYLE
  7
CatalogDxf
  9
$CLAYER
  8
Z_OM_DIM
  9
$CELTYPE
  6
BYLAYER
  9
$CECOLOR
 62
   256
  9
$CELTSCALE
 40
1.0
  9
$DISPSILH
 70
     0
  9
$DIMSCALE
 40
1.0
  9
$DIMASZ
 40
2.5
  9
$DIMEXO
 40
0.625
  9
$DIMDLI
 40
3.75
  9
$DIMRND
 40
0.0
  9
$DIMDLE
 40
0.0
  9
$DIMEXE
 40
1.25
  9
$DIMTP
 40
0.0
  9
$DIMTM
 40
0.0
  9
$DIMTXT
 40
2.5
  9
$DIMCEN
 40
2.5
  9
$DIMTSZ
 40
0.0
  9
$DIMTOL
 70
     0
  9
$DIMLIM
 70
     0
  9
$DIMTIH
 70
     0
  9
$DIMTOH
 70
     0
  9
$DIMSE1
 70
     0
  9
$DIMSE2
 70
     0
  9
$DIMTAD
 70
     1
  9
$DIMZIN
 70
     8
  9
$DIMBLK
  1
OPEN30
  9
$DIMASO
 70
     1
  9
$DIMSHO
 70
     1
  9
$DIMPOST
  1

  9
$DIMAPOST
  1

  9
$DIMALT
 70
     0
  9
$DIMALTD
 70
     3
  9
$DIMALTF
 40
0.03937007874016
  9
$DIMLFAC
 40
1.0
  9
$DIMTOFL
 70
     1
  9
$DIMTVP
 40
0.0
  9
$DIMTIX
 70
     0
  9
$DIMSOXD
 70
     0
  9
$DIMSAH
 70
     0
  9
$DIMBLK1
  1

  9
$DIMBLK2
  1

  9
$DIMSTYLE
  2
CatalogDxf
  9
$DIMCLRD
 70
   256
  9
$DIMCLRE
 70
   256
  9
$DIMCLRT
 70
   256
  9
$DIMTFAC
 40
1.0
  9
$DIMGAP
 40
0.625
  9
$DIMJUST
 70
     0
  9
$DIMSD1
 70
     0
  9
$DIMSD2
 70
     0
  9
$DIMTOLJ
 70
     0
  9
$DIMTZIN
 70
     8
  9
$DIMALTZ
 70
     0
  9
$DIMALTTZ
 70
     0
  9
$DIMUPT
 70
     0
  9
$DIMDEC
 70
     1
  9
$DIMTDEC
 70
     1
  9
$DIMALTU
 70
     2
  9
$DIMALTTD
 70
     3
  9
$DIMTXSTY
  7
CatalogDxf
  9
$DIMAUNIT
 70
     0
  9
$DIMADEC
 70
     0
  9
$DIMALTRND
 40
0.0
  9
$DIMAZIN
 70
     0
  9
$DIMDSEP
 70
    46
  9
$DIMATFIT
 70
     3
  9
$DIMFRAC
 70
     0
  9
$DIMLDRBLK
  1
OPEN30
  9
$DIMLUNIT
 70
     2
  9
$DIMLWD
 70
    -1
  9
$DIMLWE
 70
    -1
  9
$DIMTMOVE
 70
     0
  9
$LUNITS
 70
     2
  9
$LUPREC
 70
     2
  9
$SKETCHINC
 40
0.1
  9
$FILLETRAD
 40
0.0
  9
$AUNITS
 70
     0
  9
$AUPREC
 70
     2
  9
$MENU
  1
acad
  9
$ELEVATION
 40
0.0
  9
$PELEVATION
 40
0.0
  9
$THICKNESS
 40
0.0
  9
$LIMCHECK
 70
     0
  9
$CHAMFERA
 40
0.0
  9
$CHAMFERB
 40
0.0
  9
$CHAMFERC
 40
0.0
  9
$CHAMFERD
 40
0.0
  9
$SKPOLY
 70
     0
  9
$TDCREATE
 40
2455090.761732894
  9
$TDUCREATE
 40
2455090.386732893
  9
$TDUPDATE
 40
2455678.576406320
  9
$TDUUPDATE
 40
2455678.201406320
  9
$TDINDWG
 40
0.5450671644
  9
$TDUSRTIMER
 40
0.5450604630
  9
$USRTIMER
 70
     1
  9
$ANGBASE
 50
0.0
  9
$ANGDIR
 70
     0
  9
$PDMODE
 70
     0
  9
$PDSIZE
 40
0.0
  9
$PLINEWID
 40
0.0
  9
$SPLFRAME
 70
     0
  9
$SPLINETYPE
 70
     6
  9
$SPLINESEGS
 70
     8
  9
$HANDSEED
  5
47BB
  9
$SURFTAB1
 70
     6
  9
$SURFTAB2
 70
     6
  9
$SURFTYPE
 70
     6
  9
$SURFU
 70
     6
  9
$SURFV
 70
     6
  9
$UCSBASE
  2

  9
$UCSNAME
  2

  9
$UCSORG
 10
0.0
 20
0.0
 30
0.0
  9
$UCSXDIR
 10
1.0
 20
0.0
 30
0.0
  9
$UCSYDIR
 10
0.0
 20
1.0
 30
0.0
  9
$UCSORTHOREF
  2

  9
$UCSORTHOVIEW
 70
     1
  9
$UCSORGTOP
 10
0.0
 20
0.0
 30
0.0
  9
$UCSORGBOTTOM
 10
0.0
 20
0.0
 30
0.0
  9
$UCSORGLEFT
 10
0.0
 20
0.0
 30
0.0
  9
$UCSORGRIGHT
 10
0.0
 20
0.0
 30
0.0
  9
$UCSORGFRONT
 10
0.0
 20
0.0
 30
0.0
  9
$UCSORGBACK
 10
0.0
 20
0.0
 30
0.0
  9
$PUCSBASE
  2

  9
$PUCSNAME
  2

  9
$PUCSORG
 10
0.0
 20
0.0
 30
0.0
  9
$PUCSXDIR
 10
1.0
 20
0.0
 30
0.0
  9
$PUCSYDIR
 10
0.0
 20
1.0
 30
0.0
  9
$PUCSORTHOREF
  2

  9
$PUCSORTHOVIEW
 70
     0
  9
$PUCSORGTOP
 10
0.0
 20
0.0
 30
0.0
  9
$PUCSORGBOTTOM
 10
0.0
 20
0.0
 30
0.0
  9
$PUCSORGLEFT
 10
0.0
 20
0.0
 30
0.0
  9
$PUCSORGRIGHT
 10
0.0
 20
0.0
 30
0.0
  9
$PUCSORGFRONT
 10
0.0
 20
0.0
 30
0.0
  9
$PUCSORGBACK
 10
0.0
 20
0.0
 30
0.0
  9
$USERI1
 70
     0
  9
$USERI2
 70
     0
  9
$USERI3
 70
     0
  9
$USERI4
 70
     0
  9
$USERI5
 70
     0
  9
$USERR1
 40
0.0
  9
$USERR2
 40
0.0
  9
$USERR3
 40
0.0
  9
$USERR4
 40
0.0
  9
$USERR5
 40
0.0
  9
$WORLDVIEW
 70
     1
  9
$SHADEDGE
 70
     3
  9
$SHADEDIF
 70
    70
  9
$TILEMODE
 70
     1
  9
$MAXACTVP
 70
    16
  9
$PINSBASE
 10
0.0
 20
0.0
 30
0.0
  9
$PLIMCHECK
 70
     0
  9
$PEXTMIN
 10
1.000000000000000E+20
 20
1.000000000000000E+20
 30
1.000000000000000E+20
  9
$PEXTMAX
 10
-1.000000000000000E+20
 20
-1.000000000000000E+20
 30
-1.000000000000000E+20
  9
$PLIMMIN
 10
0.0
 20
0.0
  9
$PLIMMAX
 10
12.0
 20
9.0
  9
$UNITMODE
 70
     0
  9
$VISRETAIN
 70
     0
  9
$PLINEGEN
 70
     0
  9
$PSLTSCALE
 70
     1
  9
$TREEDEPTH
 70
  3020
  9
$CMLSTYLE
  2
STANDARD
  9
$CMLJUST
 70
     0
  9
$CMLSCALE
 40
1.0
  9
$PROXYGRAPHICS
 70
     1
  9
$MEASUREMENT
 70
     0
  9
$CELWEIGHT
370
    -1
  9
$ENDCAPS
280
     0
  9
$JOINSTYLE
280
     0
  9
$LWDISPLAY
290
     0
  9
$INSUNITS
 70
     0
  9
$HYPERLINKBASE
  1

  9
$STYLESHEET
  1
monochrome.ctb
  9
$XEDIT
290
     1
  9
$CEPSNTYPE
380
     0
  9
$PSTYLEMODE
290
     1
  9
$FINGERPRINTGUID
  2
{AFC0AA2D-B3CD-48CF-B830-EF9C44F122D3}
  9
$VERSIONGUID
  2
{ACE93A5B-C3B5-4A4A-BE4B-AEBAA9B84BA1}
  9
$EXTNAMES
290
     1
  9
$PSVPSCALE
 40
0.0
  9
$OLESTARTUP
290
     0
  0
ENDSEC
  0
SECTION
  2
CLASSES
  0
CLASS
  1
ACDBDICTIONARYWDFLT
  2
AcDbDictionaryWithDefault
  3
ObjectDBX Classes
 90
        0
280
     0
281
     0
  0
CLASS
  1
DICTIONARYVAR
  2
AcDbDictionaryVar
  3
ObjectDBX Classes
 90
        0
280
     0
281
     0
  0
CLASS
  1
MATERIAL
  2
AcDbMaterial
  3
ObjectDBX Classes
 90
        0
280
     0
281
     0
  0
CLASS
  1
VISUALSTYLE
  2
AcDbVisualStyle
  3
ObjectDBX Classes
 90
     4095
280
     0
281
     0
  0
CLASS
  1
TABLESTYLE
  2
AcDbTableStyle
  3
ObjectDBX Classes
 90
     2047
280
     0
281
     0
  0
CLASS
  1
DIMASSOC
  2
AcDbDimAssoc
  3
"AcDbDimAssoc|Product Desc:     AcDim ARX App For Dimension|Company:          Autodesk, Inc.|WEB Address:      www.autodesk.com"
 90
    32768
280
     0
281
     0
  0
CLASS
  1
SORTENTSTABLE
  2
AcDbSortentsTable
  3
ObjectDBX Classes
 90
        0
280
     0
281
     0
  0
CLASS
  1
ACDBPLACEHOLDER
  2
AcDbPlaceHolder
  3
ObjectDBX Classes
 90
        0
280
     0
281
     0
  0
CLASS
  1
LAYOUT
  2
AcDbLayout
  3
ObjectDBX Classes
 90
        0
280
     0
281
     0
  0
ENDSEC
  0
SECTION
  2
TABLES
  0
TABLE
  2
VPORT
  5
8
102
{ACAD_XDICTIONARY
360
454A
102
}
330
0
100
AcDbSymbolTable
 70
     2
  0
VPORT
  5
47B4
330
8
100
AcDbSymbolTableRecord
100
AcDbViewportTableRecord
  2
*Active
 70
     0
 10
0.0
 20
0.0
 11
1.0
 21
1.0
 12
653.7691615663679
 22
-61.69124236730699
 13
0.0
 23
0.0
 14
1.0
 24
1.0
 15
0.0
 25
0.0
 16
0.0
 26
0.0
 36
1.0
 17
0.0
 27
0.0
 37
0.0
 40
195.0236024968045
 41
2.288973384030418
 42
50.0
 43
0.0
 44
0.0
 50
0.0
 51
0.0
 71
     0
 72
   100
 73
     1
 74
     1
 75
     0
 76
     0
 77
     0
 78
     0
281
     0
 65
     1
110
0.0
120
0.0
130
0.0
111
1.0
121
0.0
131
0.0
112
0.0
122
1.0
132
0.0
 79
     0
146
0.0
  0
ENDTAB
  0
TABLE
  2
LTYPE
  5
5
330
0
100
AcDbSymbolTable
 70
     3
  0
LTYPE
  5
11
330
5
100
AcDbSymbolTableRecord
100
AcDbLinetypeTableRecord
  2
BYBLOCK
 70
     0
  3

 72
    65
 73
     0
 40
0.0
  0
LTYPE
  5
12
330
5
100
AcDbSymbolTableRecord
100
AcDbLinetypeTableRecord
  2
BYLAYER
 70
     0
  3

 72
    65
 73
     0
 40
0.0
  0
LTYPE
  5
13
330
5
100
AcDbSymbolTableRecord
100
AcDbLinetypeTableRecord
  2
CONTINUOUS
 70
     0
  3
Solid line
 72
    65
 73
     0
 40
0.0
  0
LTYPE
  5
3DB3
330
5
100
AcDbSymbolTableRecord
100
AcDbLinetypeTableRecord
  2
CENTER2
 70
     0
  3
Center (.5x) ___ _ ___ _ ___ _ ___ _ ___ _ ___
 72
    65
 73
     4
 40
28.575
 49
19.05
 74
     0
 49
-3.174999999999998
 74
     0
 49
3.174999999999998
 74
     0
 49
-3.174999999999998
 74
     0
  0
LTYPE
  5
3DB4
330
5
100
AcDbSymbolTableRecord
100
AcDbLinetypeTableRecord
  2
HIDDEN2
 70
     0
  3
Hidden (.5x) _ _ _ _ _ _ _ _ _ _ _ _ _ _ _ _ _
 72
    65
 73
     2
 40
4.762499999999998
 49
3.174999999999998
 74
     0
 49
-1.587499999999999
 74
     0
  0
ENDTAB
  0
TABLE
  2
LAYER
  5
2
102
{ACAD_XDICTIONARY
360
3DBA
102
}
330
0
100
AcDbSymbolTable
 70
     4
  0
LAYER
  5
E
102
{ACAD_XDICTIONARY
360
454C
102
}
330
2
100
AcDbSymbolTableRecord
100
AcDbLayerTableRecord
  2
0
 70
     0
 62
     7
  6
CONTINUOUS
370
    -3
390
3D41
  0
LAYER
  5
27
102
{ACAD_XDICTIONARY
360
454E
102
}
330
2
100
AcDbSymbolTableRecord
100
AcDbLayerTableRecord
  2
Z_OM_DIM
 70
     0
 62
     4
  6
CONTINUOUS
370
    -3
390
3D41
  0
LAYER
  5
2B
102
{ACAD_XDICTIONARY
360
4550
102
}
330
2
100
AcDbSymbolTableRecord
100
AcDbLayerTableRecord
  2
DEFPOINTS
 70
     0
 62
     7
  6
CONTINUOUS
290
     0
370
    -3
390
3D41
  0
LAYER
  5
3DB5
102
{ACAD_XDICTIONARY
360
4554
102
}
330
2
100
AcDbSymbolTableRecord
100
AcDbLayerTableRecord
  2
additional
 70
     0
 62
    50
  6
CONTINUOUS
370
    -3
390
3D41
1001
AcAecLayerStandard
1000

1000

  0
ENDTAB
  0
TABLE
  2
STYLE
  5
3
330
0
100
AcDbSymbolTable
 70
     4
  0
STYLE
  5
F
330
3
100
AcDbSymbolTableRecord
100
AcDbTextStyleTableRecord
  2
STANDARD
 70
     0
 40
0.0
 41
1.08
 50
0.0
 71
     0
 42
3.0
  3
txt.shx
  4
bigfont.shx
  0
STYLE
  5
3DB6
330
3
100
AcDbSymbolTableRecord
100
AcDbTextStyleTableRecord
  2
CatalogDxf
 70
     0
 40
0.0
 41
1.0
 50
0.0
 71
     0
 42
2.5
  3
txt.shx
  4
bigfont.shx
  0
STYLE
  5
4196
330
3
100
AcDbSymbolTableRecord
100
AcDbTextStyleTableRecord
  2

 70
     1
 40
0.0
 41
1.0
 50
0.0
 71
     0
 42
3.0
  3
ltypeshp.shx
  4

  0
ENDTAB
  0
TABLE
  2
VIEW
  5
6
330
0
100
AcDbSymbolTable
 70
     0
  0
ENDTAB
  0
TABLE
  2
UCS
  5
7
330
0
100
AcDbSymbolTable
 70
     0
  0
ENDTAB
  0
TABLE
  2
APPID
  5
9
330
0
100
AcDbSymbolTable
 70
     7
  0
APPID
  5
10
330
9
100
AcDbSymbolTableRecord
100
AcDbRegAppTableRecord
  2
ACAD
 70
     0
  0
APPID
  5
3D5E
330
9
100
AcDbSymbolTableRecord
100
AcDbRegAppTableRecord
  2
ACAD_PSEXT
 70
     0
  0
APPID
  5
3DB9
330
9
100
AcDbSymbolTableRecord
100
AcDbRegAppTableRecord
  2
AcAecLayerStandard
 70
     0
  0
APPID
  5
41A3
330
9
100
AcDbSymbolTableRecord
100
AcDbRegAppTableRecord
  2
ACAD_DSTYLE_DIM_LINETYPE
 70
     0
  0
APPID
  5
41A4
330
9
100
AcDbSymbolTableRecord
100
AcDbRegAppTableRecord
  2
ACAD_DSTYLE_DIM_EXT1_LINETYPE
 70
     0
  0
APPID
  5
41A5
330
9
100
AcDbSymbolTableRecord
100
AcDbRegAppTableRecord
  2
ACAD_DSTYLE_DIM_EXT2_LINETYPE
 70
     0
  0
APPID
  5
4680
330
9
100
AcDbSymbolTableRecord
100
AcDbRegAppTableRecord
  2
ACAD_DSTYLE_DIMTEXT_FILL
 70
     0
  0
ENDTAB
  0
TABLE
  2
DIMSTYLE
  5
A
330
0
100
AcDbSymbolTable
 70
     4
100
AcDbDimStyleTable
 71
     2
340
3DB8
340
30
  0
DIMSTYLE
105
30
330
A
100
AcDbSymbolTableRecord
100
AcDbDimStyleTableRecord
  2
STANDARD
 70
     0
 41
6.0
 42
1.0
 43
16.0
 44
3.0
 73
     0
 74
     0
 77
     1
 78
     8
140
4.4
141
10.0
147
1.6
172
     1
176
   256
177
   256
178
   256
340
F
341
977
342
977
  0
DIMSTYLE
105
3DB8
102
{ACAD_REACTORS
330
4313
330
44C7
330
44D4
330
44E1
330
44F0
330
44FD
330
450C
330
4519
330
4526
330
461C
330
4629
330
4672
102
}
330
A
100
AcDbSymbolTableRecord
100
AcDbDimStyleTableRecord
  2
CatalogDxf
 70
     0
 41
2.5
 42
0.625
 43
3.75
 44
1.25
 73
     0
 74
     0
 77
     1
 78
     8
140
2.5
141
2.5
143
0.03937007874016
147
0.625
171
     3
172
     1
176
   256
177
   256
178
   256
271
     1
272
     1
274
     3
283
     0
284
     8
340
3DB6
341
977
342
977
371
    -1
372
    -1
1001
ACAD_DSTYLE_DIM_LINETYPE
1070
   380
1005
12
1001
ACAD_DSTYLE_DIM_EXT1_LINETYPE
1070
   381
1005
12
1001
ACAD_DSTYLE_DIM_EXT2_LINETYPE
1070
   382
1005
12
  0
DIMSTYLE
105
4353
330
A
100
AcDbSymbolTableRecord
100
AcDbDimStyleTableRecord
  2
ISO-25
 70
     0
 41
2.5
 42
0.625
 43
3.75
 44
1.25
 73
     0
 74
     0
 77
     1
 78
     8
140
2.5
141
2.5
143
0.03937007874016
147
0.625
171
     3
172
     1
271
     2
272
     2
274
     3
278
    44
283
     0
284
     8
340
F
  0
ENDTAB
  0
TABLE
  2
BLOCK_RECORD
  5
1
330
0
100
AcDbSymbolTable
 70
    14
  0
BLOCK_RECORD
  5
17
102
{ACAD_XDICTIONARY
360
1808
102
}
330
1
100
AcDbSymbolTableRecord
100
AcDbBlockTableRecord
  2
*MODEL_SPACE
340
3D5B
  0
BLOCK_RECORD
  5
14
102
{ACAD_XDICTIONARY
360
1806
102
}
330
1
100
AcDbSymbolTableRecord
100
AcDbBlockTableRecord
  2
*PAPER_SPACE
340
3D5C
  0
BLOCK_RECORD
  5
977
330
1
100
AcDbSymbolTableRecord
100
AcDbBlockTableRecord
  2
_OPEN30
340
0
102
{BLKREFS
331
46E5
331
46E6
331
46EE
331
46EF
331
46F9
331
46FA
331
4702
331
4703
331
470D
331
470E
331
4716
331
4717
331
4728
331
4729
331
4731
331
4732
331
475E
331
475F
331
4770
331
4771
331
478B
331
478C
331
4794
331
4795
102
}
  0
BLOCK_RECORD
  5
4314
330
1
100
AcDbSymbolTableRecord
100
AcDbBlockTableRecord
  2
*D1
340
0
  0
BLOCK_RECORD
  5
44C8
330
1
100
AcDbSymbolTableRecord
100
AcDbBlockTableRecord
  2
*D2
340
0
  0
BLOCK_RECORD
  5
44D5
330
1
100
AcDbSymbolTableRecord
100
AcDbBlockTableRecord
  2
*D3
340
0
  0
BLOCK_RECORD
  5
44E2
330
1
100
AcDbSymbolTableRecord
100
AcDbBlockTableRecord
  2
*D4
340
0
  0
BLOCK_RECORD
  5
44F1
330
1
100
AcDbSymbolTableRecord
100
AcDbBlockTableRecord
  2
*D5
340
0
  0
BLOCK_RECORD
  5
44FE
330
1
100
AcDbSymbolTableRecord
100
AcDbBlockTableRecord
  2
*D6
340
0
  0
BLOCK_RECORD
  5
450D
330
1
100
AcDbSymbolTableRecord
100
AcDbBlockTableRecord
  2
*D7
340
0
  0
BLOCK_RECORD
  5
451A
330
1
100
AcDbSymbolTableRecord
100
AcDbBlockTableRecord
  2
*D8
340
0
  0
BLOCK_RECORD
  5
4527
330
1
100
AcDbSymbolTableRecord
100
AcDbBlockTableRecord
  2
*D9
340
0
  0
BLOCK_RECORD
  5
461D
330
1
100
AcDbSymbolTableRecord
100
AcDbBlockTableRecord
  2
*D10
340
0
  0
BLOCK_RECORD
  5
462A
330
1
100
AcDbSymbolTableRecord
100
AcDbBlockTableRecord
  2
*D11
340
0
  0
BLOCK_RECORD
  5
4673
330
1
100
AcDbSymbolTableRecord
100
AcDbBlockTableRecord
  2
*D12
340
0
  0
ENDTAB
  0
ENDSEC
  0
SECTION
  2
BLOCKS
  0
BLOCK
  5
2E
330
17
100
AcDbEntity
  8
0
100
AcDbBlockBegin
  2
*MODEL_SPACE
 70
     0
 10
0.0
 20
0.0
 30
0.0
  3
*MODEL_SPACE
  1

  0
ENDBLK
  5
2F
330
17
100
AcDbEntity
  8
0
100
AcDbBlockEnd
  0
BLOCK
  5
2C
330
14
100
AcDbEntity
 67
     1
  8
0
100
AcDbBlockBegin
  2
*PAPER_SPACE
 70
     0
 10
0.0
 20
0.0
 30
0.0
  3
*PAPER_SPACE
  1

  0
ENDBLK
  5
2D
330
14
100
AcDbEntity
 67
     1
  8
0
100
AcDbBlockEnd
  0
BLOCK
  5
97B
330
977
100
AcDbEntity
  8
0
100
AcDbBlockBegin
  2
_OPEN30
 70
     0
 10
0.0
 20
0.0
 30
0.0
  3
_OPEN30
  1

  0
LINE
  5
978
330
977
100
AcDbEntity
  8
0
  6
ByBlock
 62
     0
100
AcDbLine
 10
-1.0
 20
0.26794919
 30
0.0
 11
0.0
 21
0.0
 31
0.0
  0
LINE
  5
979
330
977
100
AcDbEntity
  8
0
  6
ByBlock
 62
     0
100
AcDbLine
 10
0.0
 20
0.0
 30
0.0
 11
-1.0
 21
-0.26794919
 31
0.0
  0
LINE
  5
97A
330
977
100
AcDbEntity
  8
0
  6
ByBlock
 62
     0
100
AcDbLine
 10
0.0
 20
0.0
 30
0.0
 11
-1.0
 21
0.0
 31
0.0
  0
ENDBLK
  5
97C
330
977
100
AcDbEntity
  8
0
100
AcDbBlockEnd
  0
BLOCK
  5
431E
330
4314
100
AcDbEntity
  8
0
100
AcDbBlockBegin
  2
*D1
 70
     1
 10
0.0
 20
0.0
 30
0.0
  3
*D1
  1

  0
LINE
  5
4788
330
4314
100
AcDbEntity
  8
Z_OM_DIM
100
AcDbLine
 10
673.5364989788766
 20
-26.05048957542144
 30
0.0
 11
673.5364989788766
 21
-45.76875348469167
 31
0.0
  0
LINE
  5
4789
330
4314
100
AcDbEntity
  8
Z_OM_DIM
100
AcDbLine
 10
704.2511024781896
 20
-13.30048957542146
 30
0.0
 11
704.2511024781896
 21
-45.76875348469167
 31
0.0
  0
LINE
  5
478A
330
4314
100
AcDbEntity
  8
Z_OM_DIM
100
AcDbLine
 10
676.0364989788765
 20
-44.51875348469167
 30
0.0
 11
701.7511024781896
 21
-44.51875348469167
 31
0.0
  0
INSERT
  5
478B
330
4314
100
AcDbEntity
  8
Z_OM_DIM
100
AcDbBlockReference
  2
_OPEN30
 10
673.5364989788766
 20
-44.51875348469167
 30
0.0
 41
2.5
 42
2.5
 43
2.5
 50
180.0
  0
INSERT
  5
478C
330
4314
100
AcDbEntity
  8
Z_OM_DIM
100
AcDbBlockReference
  2
_OPEN30
 10
704.2511024781896
 20
-44.51875348469167
 30
0.0
 41
2.5
 42
2.5
 43
2.5
  0
MTEXT
  5
478D
330
4314
100
AcDbEntity
  8
Z_OM_DIM
100
AcDbMText
 10
688.8938007285331
 20
-42.64375348469167
 30
0.0
 40
2.5
 41
0.0
 71
     5
 72
     1
  1
180 - 200
  7
CatalogDxf
 73
     1
 44
1.0
1001
ACAD
1000
MTEXTBEGIN
1070
    73
1070
     1
1070
    44
1040
1.0
1070
    74
1070
     0
1000
MTEXTEND
  0
POINT
  5
478E
330
4314
100
AcDbEntity
  8
DEFPOINTS
 62
     0
100
AcDbPoint
 10
673.5364989788766
 20
-25.42548957542144
 30
0.0
  0
POINT
  5
478F
330
4314
100
AcDbEntity
  8
DEFPOINTS
 62
     0
100
AcDbPoint
 10
704.2511024781896
 20
-12.67548957542146
 30
0.0
  0
POINT
  5
4790
330
4314
100
AcDbEntity
  8
DEFPOINTS
 62
     0
100
AcDbPoint
 10
704.2511024781896
 20
-44.51875348469167
 30
0.0
  0
ENDBLK
  5
431F
330
4314
100
AcDbEntity
  8
0
100
AcDbBlockEnd
  0
BLOCK
  5
44D2
330
44C8
100
AcDbEntity
  8
0
100
AcDbBlockBegin
  2
*D2
 70
     1
 10
0.0
 20
0.0
 30
0.0
  3
*D2
  1

  0
LINE
  5
46E2
330
44C8
100
AcDbEntity
  8
Z_OM_DIM
100
AcDbLine
 10
656.5364989788766
 20
-87.78095858495234
 30
0.0
 11
656.5364989788766
 21
-72.62370823233158
 31
0.0
  0
LINE
  5
46E3
330
44C8
100
AcDbEntity
  8
Z_OM_DIM
100
AcDbLine
 10
626.5364989788765
 20
-87.78095858495234
 30
0.0
 11
626.5364989788765
 21
-72.62370823233158
 31
0.0
  0
LINE
  5
46E4
330
44C8
100
AcDbEntity
  8
Z_OM_DIM
100
AcDbLine
 10
654.0364989788765
 20
-73.87370823233158
 30
0.0
 11
629.0364989788765
 21
-73.87370823233158
 31
0.0
  0
INSERT
  5
46E5
330
44C8
100
AcDbEntity
  8
Z_OM_DIM
100
AcDbBlockReference
  2
_OPEN30
 10
656.5364989788766
 20
-73.87370823233158
 30
0.0
 41
2.5
 42
2.5
 43
2.5
  0
INSERT
  5
46E6
330
44C8
100
AcDbEntity
  8
Z_OM_DIM
100
AcDbBlockReference
  2
_OPEN30
 10
626.5364989788765
 20
-73.87370823233158
 30
0.0
 41
2.5
 42
2.5
 43
2.5
 50
180.0
  0
MTEXT
  5
46E7
330
44C8
100
AcDbEntity
  8
Z_OM_DIM
100
AcDbMText
 10
641.5364989788765
 20
-71.99870823233158
 30
0.0
 40
2.5
 41
0.0
 71
     5
 72
     1
  1
30
  7
CatalogDxf
 73
     1
 44
1.0
1001
ACAD
1000
MTEXTBEGIN
1070
    73
1070
     1
1070
    44
1040
1.0
1070
    74
1070
     0
1000
MTEXTEND
  0
POINT
  5
46E8
330
44C8
100
AcDbEntity
  8
DEFPOINTS
 62
     0
100
AcDbPoint
 10
656.5364989788766
 20
-88.40595858495234
 30
0.0
  0
POINT
  5
46E9
330
44C8
100
AcDbEntity
  8
DEFPOINTS
 62
     0
100
AcDbPoint
 10
626.5364989788765
 20
-88.40595858495234
 30
0.0
  0
POINT
  5
46EA
330
44C8
100
AcDbEntity
  8
DEFPOINTS
 62
     0
100
AcDbPoint
 10
626.5364989788765
 20
-73.87370823233158
 30
0.0
  0
ENDBLK
  5
44D3
330
44C8
100
AcDbEntity
  8
0
100
AcDbBlockEnd
  0
BLOCK
  5
44DF
330
44D5
100
AcDbEntity
  8
0
100
AcDbBlockBegin
  2
*D3
 70
     1
 10
0.0
 20
0.0
 30
0.0
  3
*D3
  1

  0
LINE
  5
46EB
330
44D5
100
AcDbEntity
  8
Z_OM_DIM
100
AcDbLine
 10
626.5364989788765
 20
-87.78095858495234
 30
0.0
 11
626.5364989788765
 21
-72.62370823233158
 31
0.0
  0
LINE
  5
46EC
330
44D5
100
AcDbEntity
  8
Z_OM_DIM
100
AcDbLine
 10
608.0364989788765
 20
-91.39736038354795
 30
0.0
 11
608.0364989788765
 21
-72.62370823233158
 31
0.0
  0
LINE
  5
46ED
330
44D5
100
AcDbEntity
  8
Z_OM_DIM
100
AcDbLine
 10
624.0364989788766
 20
-73.87370823233158
 30
0.0
 11
610.5364989788766
 21
-73.87370823233158
 31
0.0
  0
INSERT
  5
46EE
330
44D5
100
AcDbEntity
  8
Z_OM_DIM
100
AcDbBlockReference
  2
_OPEN30
 10
626.5364989788765
 20
-73.87370823233158
 30
0.0
 41
2.5
 42
2.5
 43
2.5
  0
INSERT
  5
46EF
330
44D5
100
AcDbEntity
  8
Z_OM_DIM
100
AcDbBlockReference
  2
_OPEN30
 10
608.0364989788765
 20
-73.87370823233158
 30
0.0
 41
2.5
 42
2.5
 43
2.5
 50
180.0
  0
MTEXT
  5
46F0
330
44D5
100
AcDbEntity
  8
Z_OM_DIM
100
AcDbMText
 10
617.2864989788766
 20
-71.99870823233158
 30
0.0
 40
2.5
 41
0.0
 71
     5
 72
     1
  1
18.5
  7
CatalogDxf
 73
     1
 44
1.0
1001
ACAD
1000
MTEXTBEGIN
1070
    73
1070
     1
1070
    44
1040
1.0
1070
    74
1070
     0
1000
MTEXTEND
  0
POINT
  5
46F1
330
44D5
100
AcDbEntity
  8
DEFPOINTS
 62
     0
100
AcDbPoint
 10
626.5364989788765
 20
-88.40595858495234
 30
0.0
  0
POINT
  5
46F2
330
44D5
100
AcDbEntity
  8
DEFPOINTS
 62
     0
100
AcDbPoint
 10
608.0364989788765
 20
-92.02236038354795
 30
0.0
  0
POINT
  5
46F3
330
44D5
100
AcDbEntity
  8
DEFPOINTS
 62
     0
100
AcDbPoint
 10
608.0364989788765
 20
-73.87370823233158
 30
0.0
  0
ENDBLK
  5
44E0
330
44D5
100
AcDbEntity
  8
0
100
AcDbBlockEnd
  0
BLOCK
  5
44EE
330
44E2
100
AcDbEntity
  8
0
100
AcDbBlockBegin
  2
*D4
 70
     1
 10
0.0
 20
0.0
 30
0.0
  3
*D4
  1

  0
LINE
  5
46F4
330
44E2
100
AcDbEntity
  8
Z_OM_DIM
100
AcDbLine
 10
608.0364989788765
 20
-91.39736038354795
 30
0.0
 11
608.0364989788765
 21
-72.62370823233158
 31
0.0
  0
LINE
  5
46F5
330
44E2
100
AcDbEntity
  8
Z_OM_DIM
100
AcDbLine
 10
605.0364989788765
 20
-95.3167085849523
 30
0.0
 11
605.0364989788765
 21
-72.62370823233158
 31
0.0
  0
LINE
  5
46F6
330
44E2
100
AcDbEntity
  8
Z_OM_DIM
100
AcDbLine
 10
610.5364989788766
 20
-73.87370823233158
 30
0.0
 11
613.0364989788765
 21
-73.87370823233158
 31
0.0
  0
LINE
  5
46F7
330
44E2
100
AcDbEntity
  8
Z_OM_DIM
100
AcDbLine
 10
602.5364989788766
 20
-73.87370823233158
 30
0.0
 11
597.1198323122099
 21
-73.87370823233158
 31
0.0
  0
LINE
  5
46F8
330
44E2
100
AcDbEntity
  8
Z_OM_DIM
100
AcDbLine
 10
608.0364989788765
 20
-73.87370823233158
 30
0.0
 11
605.0364989788765
 21
-73.87370823233158
 31
0.0
  0
INSERT
  5
46F9
330
44E2
100
AcDbEntity
  8
Z_OM_DIM
100
AcDbBlockReference
  2
_OPEN30
 10
608.0364989788765
 20
-73.87370823233158
 30
0.0
 41
2.5
 42
2.5
 43
2.5
 50
180.0
  0
INSERT
  5
46FA
330
44E2
100
AcDbEntity
  8
Z_OM_DIM
100
AcDbBlockReference
  2
_OPEN30
 10
605.0364989788765
 20
-73.87370823233158
 30
0.0
 41
2.5
 42
2.5
 43
2.5
  0
MTEXT
  5
46FB
330
44E2
100
AcDbEntity
  8
Z_OM_DIM
100
AcDbMText
 10
598.5781656455432
 20
-71.99870823233158
 30
0.0
 40
2.5
 41
0.0
 71
     5
 72
     1
  1
3
  7
CatalogDxf
 73
     1
 44
1.0
1001
ACAD
1000
MTEXTBEGIN
1070
    73
1070
     1
1070
    44
1040
1.0
1070
    74
1070
     0
1000
MTEXTEND
  0
POINT
  5
46FC
330
44E2
100
AcDbEntity
  8
DEFPOINTS
 62
     0
100
AcDbPoint
 10
608.0364989788765
 20
-92.02236038354795
 30
0.0
  0
POINT
  5
46FD
330
44E2
100
AcDbEntity
  8
DEFPOINTS
 62
     0
100
AcDbPoint
 10
605.0364989788765
 20
-95.9417085849523
 30
0.0
  0
POINT
  5
46FE
330
44E2
100
AcDbEntity
  8
DEFPOINTS
 62
     0
100
AcDbPoint
 10
605.0364989788765
 20
-73.87370823233158
 30
0.0
  0
ENDBLK
  5
44EF
330
44E2
100
AcDbEntity
  8
0
100
AcDbBlockEnd
  0
BLOCK
  5
44FB
330
44F1
100
AcDbEntity
  8
0
100
AcDbBlockBegin
  2
*D5
 70
     1
 10
0.0
 20
0.0
 30
0.0
  3
*D5
  1

  0
LINE
  5
46FF
330
44F1
100
AcDbEntity
  8
Z_OM_DIM
100
AcDbLine
 10
659.9255877970188
 20
-91.40595858495229
 30
0.0
 11
691.4281880011028
 21
-91.40595858495229
 31
0.0
  0
LINE
  5
4700
330
44F1
100
AcDbEntity
  8
Z_OM_DIM
100
AcDbLine
 10
659.9255877970188
 20
-111.4059585849523
 30
0.0
 11
691.4281880011028
 21
-111.4059585849523
 31
0.0
  0
LINE
  5
4701
330
44F1
100
AcDbEntity
  8
Z_OM_DIM
100
AcDbLine
 10
690.1781880011029
 20
-93.90595858495229
 30
0.0
 11
690.1781880011029
 21
-108.9059585849523
 31
0.0
  0
INSERT
  5
4702
330
44F1
100
AcDbEntity
  8
Z_OM_DIM
100
AcDbBlockReference
  2
_OPEN30
 10
690.1781880011029
 20
-91.40595858495229
 30
0.0
 41
2.5
 42
2.5
 43
2.5
 50
90.0
  0
INSERT
  5
4703
330
44F1
100
AcDbEntity
  8
Z_OM_DIM
100
AcDbBlockReference
  2
_OPEN30
 10
690.1781880011029
 20
-111.4059585849523
 30
0.0
 41
2.5
 42
2.5
 43
2.5
 50
270.0
  0
MTEXT
  5
4704
330
44F1
100
AcDbEntity
  8
Z_OM_DIM
100
AcDbMText
 10
688.3031880011028
 20
-101.4059585849522
 30
0.0
 40
2.5
 41
0.0
 71
     5
 72
     1
  1
20
  7
CatalogDxf
 11
0.0000000000000001
 21
1.0
 31
0.0
 73
     1
 44
1.0
1001
ACAD
1000
MTEXTBEGIN
1070
    73
1070
     1
1070
    44
1040
1.0
1070
    74
1070
     0
1000
MTEXTEND
  0
POINT
  5
4705
330
44F1
100
AcDbEntity
  8
DEFPOINTS
 62
     0
100
AcDbPoint
 10
659.3005877970187
 20
-91.40595858495229
 30
0.0
  0
POINT
  5
4706
330
44F1
100
AcDbEntity
  8
DEFPOINTS
 62
     0
100
AcDbPoint
 10
659.3005877970187
 20
-111.4059585849523
 30
0.0
  0
POINT
  5
4707
330
44F1
100
AcDbEntity
  8
DEFPOINTS
 62
     0
100
AcDbPoint
 10
690.1781880011029
 20
-111.4059585849523
 30
0.0
  0
ENDBLK
  5
44FC
330
44F1
100
AcDbEntity
  8
0
100
AcDbBlockEnd
  0
BLOCK
  5
450A
330
44FE
100
AcDbEntity
  8
0
100
AcDbBlockBegin
  2
*D6
 70
     1
 10
0.0
 20
0.0
 30
0.0
  3
*D6
  1

  0
LINE
  5
4708
330
44FE
100
AcDbEntity
  8
Z_OM_DIM
100
AcDbLine
 10
604.4114989788766
 20
-10.37548957542142
 30
0.0
 11
590.9598465142722
 21
-10.37548957542142
 31
0.0
  0
LINE
  5
4709
330
44FE
100
AcDbEntity
  8
Z_OM_DIM
100
AcDbLine
 10
604.4114989788766
 20
-13.47548957542145
 30
0.0
 11
590.9598465142722
 21
-13.47548957542144
 31
0.0
  0
LINE
  5
470A
330
44FE
100
AcDbEntity
  8
Z_OM_DIM
100
AcDbLine
 10
592.2098465142722
 20
-15.97548957542144
 30
0.0
 11
592.2098465142722
 21
-18.47548957542144
 31
0.0
  0
LINE
  5
470B
330
44FE
100
AcDbEntity
  8
Z_OM_DIM
100
AcDbLine
 10
592.2098465142722
 20
-7.875489575421422
 30
0.0
 11
592.2098465142722
 21
0.2495104245785766
 31
0.0
  0
LINE
  5
470C
330
44FE
100
AcDbEntity
  8
Z_OM_DIM
100
AcDbLine
 10
592.2098465142722
 20
-13.47548957542144
 30
0.0
 11
592.2098465142722
 21
-10.37548957542142
 31
0.0
  0
INSERT
  5
470D
330
44FE
100
AcDbEntity
  8
Z_OM_DIM
100
AcDbBlockReference
  2
_OPEN30
 10
592.2098465142722
 20
-13.47548957542144
 30
0.0
 41
2.5
 42
2.5
 43
2.5
 50
90.0
  0
INSERT
  5
470E
330
44FE
100
AcDbEntity
  8
Z_OM_DIM
100
AcDbBlockReference
  2
_OPEN30
 10
592.2098465142722
 20
-10.37548957542142
 30
0.0
 41
2.5
 42
2.5
 43
2.5
 50
270.0
  0
MTEXT
  5
470F
330
44FE
100
AcDbEntity
  8
Z_OM_DIM
100
AcDbMText
 10
590.3348465142722
 20
-2.45882290875466
 30
0.0
 40
2.5
 41
0.0
 71
     5
 72
     1
  1
3.1
  7
CatalogDxf
 11
0.0000000000000001
 21
1.0
 31
0.0
 73
     1
 44
1.0
1001
ACAD
1000
MTEXTBEGIN
1070
    73
1070
     1
1070
    44
1040
1.0
1070
    74
1070
     0
1000
MTEXTEND
  0
POINT
  5
4710
330
44FE
100
AcDbEntity
  8
DEFPOINTS
 62
     0
100
AcDbPoint
 10
605.0364989788765
 20
-10.37548957542142
 30
0.0
  0
POINT
  5
4711
330
44FE
100
AcDbEntity
  8
DEFPOINTS
 62
     0
100
AcDbPoint
 10
605.0364989788765
 20
-13.47548957542145
 30
0.0
  0
POINT
  5
4712
330
44FE
100
AcDbEntity
  8
DEFPOINTS
 62
     0
100
AcDbPoint
 10
592.2098465142722
 20
-13.47548957542144
 30
0.0
  0
ENDBLK
  5
450B
330
44FE
100
AcDbEntity
  8
0
100
AcDbBlockEnd
  0
BLOCK
  5
4517
330
450D
100
AcDbEntity
  8
0
100
AcDbBlockBegin
  2
*D7
 70
     1
 10
0.0
 20
0.0
 30
0.0
  3
*D7
  1

  0
LINE
  5
4713
330
450D
100
AcDbEntity
  8
Z_OM_DIM
100
AcDbLine
 10
543.9567691638483
 20
-87.90595858495237
 30
0.0
 11
561.5241247876772
 21
-87.90595858495239
 31
0.0
  0
LINE
  5
4714
330
450D
100
AcDbEntity
  8
Z_OM_DIM
100
AcDbLine
 10
543.9567691638483
 20
-114.9059585849524
 30
0.0
 11
561.5241247876772
 21
-114.9059585849524
 31
0.0
  0
LINE
  5
4715
330
450D
100
AcDbEntity
  8
Z_OM_DIM
100
AcDbLine
 10
560.2741247876772
 20
-90.40595858495239
 30
0.0
 11
560.2741247876772
 21
-112.4059585849524
 31
0.0
  0
INSERT
  5
4716
330
450D
100
AcDbEntity
  8
Z_OM_DIM
100
AcDbBlockReference
  2
_OPEN30
 10
560.2741247876772
 20
-87.90595858495239
 30
0.0
 41
2.5
 42
2.5
 43
2.5
 50
90.0
  0
INSERT
  5
4717
330
450D
100
AcDbEntity
  8
Z_OM_DIM
100
AcDbBlockReference
  2
_OPEN30
 10
560.2741247876772
 20
-114.9059585849524
 30
0.0
 41
2.5
 42
2.5
 43
2.5
 50
270.0
  0
MTEXT
  5
4718
330
450D
100
AcDbEntity
  8
Z_OM_DIM
100
AcDbMText
 10
558.3991247876772
 20
-101.4059585849523
 30
0.0
 40
2.5
 41
0.0
 71
     5
 72
     1
  1
27
  7
CatalogDxf
 11
0.0000000000000001
 21
1.0
 31
0.0
 73
     1
 44
1.0
1001
ACAD
1000
MTEXTBEGIN
1070
    73
1070
     1
1070
    44
1040
1.0
1070
    74
1070
     0
1000
MTEXTEND
  0
POINT
  5
4719
330
450D
100
AcDbEntity
  8
DEFPOINTS
 62
     0
100
AcDbPoint
 10
543.3317691638483
 20
-87.90595858495237
 30
0.0
  0
POINT
  5
471A
330
450D
100
AcDbEntity
  8
DEFPOINTS
 62
     0
100
AcDbPoint
 10
543.3317691638483
 20
-114.9059585849524
 30
0.0
  0
POINT
  5
471B
330
450D
100
AcDbEntity
  8
DEFPOINTS
 62
     0
100
AcDbPoint
 10
560.2741247876772
 20
-114.9059585849524
 30
0.0
  0
ENDBLK
  5
4518
330
450D
100
AcDbEntity
  8
0
100
AcDbBlockEnd
  0
BLOCK
  5
4524
330
451A
100
AcDbEntity
  8
0
100
AcDbBlockBegin
  2
*D8
 70
     1
 10
0.0
 20
0.0
 30
0.0
  3
*D8
  1

  0
LINE
  5
476D
330
451A
100
AcDbEntity
  8
Z_OM_DIM
100
AcDbLine
 10
513.3317691638483
 20
-115.5309585849523
 30
0.0
 11
513.3317691638483
 21
-132.1153505762362
 31
0.0
  0
LINE
  5
476E
330
451A
100
AcDbEntity
  8
Z_OM_DIM
100
AcDbLine
 10
543.3317691638483
 20
-115.5309585849523
 30
0.0
 11
543.3317691638483
 21
-132.1153505762362
 31
0.0
  0
LINE
  5
476F
330
451A
100
AcDbEntity
  8
Z_OM_DIM
100
AcDbLine
 10
515.8317691638483
 20
-130.8653505762362
 30
0.0
 11
540.8317691638483
 21
-130.8653505762362
 31
0.0
  0
INSERT
  5
4770
330
451A
100
AcDbEntity
  8
Z_OM_DIM
100
AcDbBlockReference
  2
_OPEN30
 10
513.3317691638483
 20
-130.8653505762362
 30
0.0
 41
2.5
 42
2.5
 43
2.5
 50
180.0
  0
INSERT
  5
4771
330
451A
100
AcDbEntity
  8
Z_OM_DIM
100
AcDbBlockReference
  2
_OPEN30
 10
543.3317691638483
 20
-130.8653505762362
 30
0.0
 41
2.5
 42
2.5
 43
2.5
  0
MTEXT
  5
4772
330
451A
100
AcDbEntity
  8
Z_OM_DIM
100
AcDbMText
 10
528.3317691638483
 20
-128.9903505762362
 30
0.0
 40
2.5
 41
0.0
 71
     5
 72
     1
  1
30
  7
CatalogDxf
 73
     1
 44
1.0
1001
ACAD
1000
MTEXTBEGIN
1070
    73
1070
     1
1070
    44
1040
1.0
1070
    74
1070
     0
1000
MTEXTEND
  0
POINT
  5
4773
330
451A
100
AcDbEntity
  8
DEFPOINTS
 62
     0
100
AcDbPoint
 10
513.3317691638483
 20
-114.9059585849524
 30
0.0
  0
POINT
  5
4774
330
451A
100
AcDbEntity
  8
DEFPOINTS
 62
     0
100
AcDbPoint
 10
543.3317691638483
 20
-114.9059585849524
 30
0.0
  0
POINT
  5
4775
330
451A
100
AcDbEntity
  8
DEFPOINTS
 62
     0
100
AcDbPoint
 10
543.3317691638483
 20
-130.8653505762362
 30
0.0
  0
ENDBLK
  5
4525
330
451A
100
AcDbEntity
  8
0
100
AcDbBlockEnd
  0
BLOCK
  5
4531
330
4527
100
AcDbEntity
  8
0
100
AcDbBlockBegin
  2
*D9
 70
     1
 10
0.0
 20
0.0
 30
0.0
  3
*D9
  1

  0
LINE
  5
4725
330
4527
100
AcDbEntity
  8
Z_OM_DIM
100
AcDbLine
 10
604.9114989788765
 20
-95.44170858495229
 30
0.0
 11
590.9598465142722
 21
-95.44170858495229
 31
0.0
  0
LINE
  5
4726
330
4527
100
AcDbEntity
  8
Z_OM_DIM
100
AcDbLine
 10
604.9114989788765
 20
-107.3702085849522
 30
0.0
 11
590.9598465142722
 21
-107.3702085849522
 31
0.0
  0
LINE
  5
4727
330
4527
100
AcDbEntity
  8
Z_OM_DIM
100
AcDbLine
 10
592.2098465142722
 20
-97.94170858495229
 30
0.0
 11
592.2098465142722
 21
-104.8702085849523
 31
0.0
  0
INSERT
  5
4728
330
4527
100
AcDbEntity
  8
Z_OM_DIM
100
AcDbBlockReference
  2
_OPEN30
 10
592.2098465142722
 20
-95.44170858495229
 30
0.0
 41
2.5
 42
2.5
 43
2.5
 50
90.0
  0
INSERT
  5
4729
330
4527
100
AcDbEntity
  8
Z_OM_DIM
100
AcDbBlockReference
  2
_OPEN30
 10
592.2098465142722
 20
-107.3702085849522
 30
0.0
 41
2.5
 42
2.5
 43
2.5
 50
270.0
  0
MTEXT
  5
472A
330
4527
100
AcDbEntity
  8
Z_OM_DIM
100
AcDbMText
 10
590.3348465142722
 20
-101.4059585849522
 30
0.0
 40
2.5
 41
0.0
 71
     5
 72
     1
  1
%%c12
  7
CatalogDxf
 11
0.0000000000000001
 21
1.0
 31
0.0
 73
     1
 44
1.0
1001
ACAD
1000
MTEXTBEGIN
1070
    73
1070
     1
1070
    44
1040
1.0
1070
    74
1070
     0
1000
MTEXTEND
  0
POINT
  5
472B
330
4527
100
AcDbEntity
  8
DEFPOINTS
 62
     0
100
AcDbPoint
 10
605.5364989788765
 20
-95.44170858495229
 30
0.0
  0
POINT
  5
472C
330
4527
100
AcDbEntity
  8
DEFPOINTS
 62
     0
100
AcDbPoint
 10
605.5364989788765
 20
-107.3702085849522
 30
0.0
  0
POINT
  5
472D
330
4527
100
AcDbEntity
  8
DEFPOINTS
 62
     0
100
AcDbPoint
 10
592.2098465142722
 20
-107.3702085849522
 30
0.0
  0
ENDBLK
  5
4532
330
4527
100
AcDbEntity
  8
0
100
AcDbBlockEnd
  0
BLOCK
  5
4627
330
461D
100
AcDbEntity
  8
0
100
AcDbBlockBegin
  2
*D10
 70
     1
 10
0.0
 20
0.0
 30
0.0
  3
*D10
  1

  0
LINE
  5
472E
330
461D
100
AcDbEntity
  8
Z_OM_DIM
100
AcDbLine
 10
613.5364989788765
 20
-27.55048957542144
 30
0.0
 11
613.5364989788765
 21
-39.45876713417431
 31
0.0
  0
LINE
  5
472F
330
461D
100
AcDbEntity
  8
Z_OM_DIM
100
AcDbLine
 10
626.5364989788765
 20
-29.98487955968821
 30
0.0
 11
626.5364989788765
 21
-39.45876713417431
 31
0.0
  0
LINE
  5
4730
330
461D
100
AcDbEntity
  8
Z_OM_DIM
100
AcDbLine
 10
616.0364989788766
 20
-38.20876713417431
 30
0.0
 11
624.0364989788766
 21
-38.20876713417431
 31
0.0
  0
INSERT
  5
4731
330
461D
100
AcDbEntity
  8
Z_OM_DIM
100
AcDbBlockReference
  2
_OPEN30
 10
613.5364989788765
 20
-38.20876713417431
 30
0.0
 41
2.5
 42
2.5
 43
2.5
 50
180.0
  0
INSERT
  5
4732
330
461D
100
AcDbEntity
  8
Z_OM_DIM
100
AcDbBlockReference
  2
_OPEN30
 10
626.5364989788765
 20
-38.20876713417431
 30
0.0
 41
2.5
 42
2.5
 43
2.5
  0
MTEXT
  5
4733
330
461D
100
AcDbEntity
  8
Z_OM_DIM
100
AcDbMText
 10
620.0364989788766
 20
-36.33376713417431
 30
0.0
 40
2.5
 41
0.0
 71
     5
 72
     1
  1
13
  7
CatalogDxf
 73
     1
 44
1.0
1001
ACAD
1000
MTEXTBEGIN
1070
    73
1070
     1
1070
    44
1040
1.0
1070
    74
1070
     0
1000
MTEXTEND
  0
POINT
  5
4734
330
461D
100
AcDbEntity
  8
DEFPOINTS
 62
     0
100
AcDbPoint
 10
613.5364989788765
 20
-26.92548957542144
 30
0.0
  0
POINT
  5
4735
330
461D
100
AcDbEntity
  8
DEFPOINTS
 62
     0
100
AcDbPoint
 10
626.5364989788765
 20
-29.35987955968821
 30
0.0
  0
POINT
  5
4736
330
461D
100
AcDbEntity
  8
DEFPOINTS
 62
     0
100
AcDbPoint
 10
626.5364989788765
 20
-38.20876713417431
 30
0.0
  0
ENDBLK
  5
4628
330
461D
100
AcDbEntity
  8
0
100
AcDbBlockEnd
  0
BLOCK
  5
4634
330
462A
100
AcDbEntity
  8
0
100
AcDbBlockBegin
  2
*D11
 70
     1
 10
0.0
 20
0.0
 30
0.0
  3
*D11
  1

  0
LINE
  5
4791
330
462A
100
AcDbEntity
  8
Z_OM_DIM
100
AcDbLine
 10
613.5364989788765
 20
-27.55048957542144
 30
0.0
 11
613.5364989788765
 21
-45.76875348469167
 31
0.0
  0
LINE
  5
4792
330
462A
100
AcDbEntity
  8
Z_OM_DIM
100
AcDbLine
 10
673.5364989788766
 20
-26.05048957542144
 30
0.0
 11
673.5364989788766
 21
-45.76875348469167
 31
0.0
  0
LINE
  5
4793
330
462A
100
AcDbEntity
  8
Z_OM_DIM
100
AcDbLine
 10
616.0364989788766
 20
-44.51875348469167
 30
0.0
 11
671.0364989788765
 21
-44.51875348469167
 31
0.0
  0
INSERT
  5
4794
330
462A
100
AcDbEntity
  8
Z_OM_DIM
100
AcDbBlockReference
  2
_OPEN30
 10
613.5364989788765
 20
-44.51875348469167
 30
0.0
 41
2.5
 42
2.5
 43
2.5
 50
180.0
  0
INSERT
  5
4795
330
462A
100
AcDbEntity
  8
Z_OM_DIM
100
AcDbBlockReference
  2
_OPEN30
 10
673.5364989788766
 20
-44.51875348469167
 30
0.0
 41
2.5
 42
2.5
 43
2.5
  0
MTEXT
  5
4796
330
462A
100
AcDbEntity
  8
Z_OM_DIM
100
AcDbMText
 10
643.5364989788766
 20
-42.64375348469167
 30
0.0
 40
2.5
 41
0.0
 71
     5
 72
     1
  1
60
  7
CatalogDxf
 73
     1
 44
1.0
1001
ACAD
1000
MTEXTBEGIN
1070
    73
1070
     1
1070
    44
1040
1.0
1070
    74
1070
     0
1000
MTEXTEND
  0
POINT
  5
4797
330
462A
100
AcDbEntity
  8
DEFPOINTS
 62
     0
100
AcDbPoint
 10
613.5364989788765
 20
-26.92548957542144
 30
0.0
  0
POINT
  5
4798
330
462A
100
AcDbEntity
  8
DEFPOINTS
 62
     0
100
AcDbPoint
 10
673.5364989788766
 20
-25.42548957542144
 30
0.0
  0
POINT
  5
4799
330
462A
100
AcDbEntity
  8
DEFPOINTS
 62
     0
100
AcDbPoint
 10
673.5364989788766
 20
-44.51875348469167
 30
0.0
  0
ENDBLK
  5
4635
330
462A
100
AcDbEntity
  8
0
100
AcDbBlockEnd
  0
BLOCK
  5
467E
330
4673
100
AcDbEntity
  8
0
100
AcDbBlockBegin
  2
*D12
 70
     1
 10
0.0
 20
0.0
 30
0.0
  3
*D12
  1

  0
LINE
  5
475A
330
4673
100
AcDbEntity
  8
Z_OM_DIM
100
AcDbLine
 10
611.5364989788766
 20
-14.10048957542145
 30
0.0
 11
611.5364989788766
 21
-28.82372648520402
 31
0.0
  0
LINE
  5
475B
330
4673
100
AcDbEntity
  8
Z_OM_DIM
100
AcDbLine
 10
605.0364989788765
 20
-18.01473957542143
 30
0.0
 11
605.0364989788765
 21
-28.82372648520402
 31
0.0
  0
LINE
  5
475C
330
4673
100
AcDbEntity
  8
Z_OM_DIM
100
AcDbLine
 10
609.0364989788765
 20
-27.57372648520402
 30
0.0
 11
607.5364989788766
 21
-27.57372648520402
 31
0.0
  0
LINE
  5
475D
330
4673
100
AcDbEntity
  8
Z_OM_DIM
100
AcDbLine
 10
605.0364989788765
 20
-27.57372648520402
 30
0.0
 11
596.2864989788766
 21
-27.57372648520402
 31
0.0
  0
INSERT
  5
475E
330
4673
100
AcDbEntity
  8
Z_OM_DIM
100
AcDbBlockReference
  2
_OPEN30
 10
611.5364989788766
 20
-27.57372648520402
 30
0.0
 41
2.5
 42
2.5
 43
2.5
  0
INSERT
  5
475F
330
4673
100
AcDbEntity
  8
Z_OM_DIM
100
AcDbBlockReference
  2
_OPEN30
 10
605.0364989788765
 20
-27.57372648520402
 30
0.0
 41
2.5
 42
2.5
 43
2.5
 50
180.0
  0
MTEXT
  5
4760
330
4673
100
AcDbEntity
  8
Z_OM_DIM
100
AcDbMText
 10
599.4114989788766
 20
-25.69872648520402
 30
0.0
 40
2.5
 41
0.0
 71
     5
 72
     1
  1
6.5
  7
CatalogDxf
 73
     1
 44
1.0
1001
ACAD
1000
MTEXTBEGIN
1070
    73
1070
     1
1070
    44
1040
1.0
1070
    74
1070
     0
1000
MTEXTEND
  0
POINT
  5
4761
330
4673
100
AcDbEntity
  8
DEFPOINTS
 62
     0
100
AcDbPoint
 10
611.5364989788766
 20
-13.47548957542145
 30
0.0
  0
POINT
  5
4762
330
4673
100
AcDbEntity
  8
DEFPOINTS
 62
     0
100
AcDbPoint
 10
605.0364989788765
 20
-17.38973957542143
 30
0.0
  0
POINT
  5
4763
330
4673
100
AcDbEntity
  8
DEFPOINTS
 62
     0
100
AcDbPoint
 10
605.0364989788765
 20
-27.57372648520402
 30
0.0
  0
ENDBLK
  5
467F
330
4673
100
AcDbEntity
  8
0
100
AcDbBlockEnd
  0
ENDSEC
  0
SECTION
  2
ENTITIES
  0
MTEXT
  5
4130
330
17
100
AcDbEntity
  8
Z_OM_DIM
100
AcDbMText
 10
678.0285842359945
 20
-142.2936678884103
 30
0.0
 40
3.0
 41
59.23894405442364
 71
     1
 72
     5
  1
TAKAHA KIKO Co., Ltd\PCAD DRAWING No. CA1260
  7
CatalogDxf
 73
     1
 44
1.0
1001
ACAD
1000
MTEXTBEGIN
1070
    73
1070
     1
1070
    44
1040
1.0
1070
    74
1070
     0
1000
MTEXTEND
  0
MTEXT
  5
42AA
330
17
100
AcDbEntity
  8
Z_OM_DIM
100
AcDbMText
 10
496.5671756568651
 20
-4.077668060458908
 30
0.0
 40
3.0
 41
47.03999999999999
 71
     1
 72
     1
  1
Adsorbed position
  7
CatalogDxf
 73
     1
 44
1.0
1001
ACAD
1000
MTEXTBEGIN
1070
    73
1070
     1
1070
    44
1040
1.0
1070
    74
1070
     0
1000
MTEXTEND
  0
LINE
  5
4301
330
17
100
AcDbEntity
  8
0
 48
0.5
100
AcDbLine
 10
697.2511024781896
 20
-11.92548957542146
 30
0.0
 11
697.2511024781891
 21
-12.92548957542146
 31
0.0
  0
SPLINE
  5
4302
330
17
100
AcDbEntity
  8
additional
 48
0.5
100
AcDbSpline
210
0.0
220
0.0
230
1.0
 70
     8
 71
     3
 72
    18
 73
    14
 74
    12
 42
0.0000000001
 43
0.0000000001
 44
0.0000000001
 40
0.0
 40
0.0
 40
0.0
 40
0.0
 40
0.3913118960626157
 40
0.7826237921250917
 40
1.482623792125051
 40
1.873935688187565
 40
2.265247584250092
 40
2.656559480312479
 40
3.047871376374942
 40
4.097871376374982
 40
4.489183272437407
 40
4.880495168499806
 40
5.271807064562397
 40
5.271807064562397
 40
5.271807064562397
 40
5.271807064562397
 10
678.8302727941648
 20
-9.408116361839645
 30
0.0
 10
678.8865576358111
 20
-9.525756095194056
 30
0.0
 10
678.9991273191041
 20
-9.761035561902836
 30
0.0
 10
679.2589510082445
 20
-10.184634533217
 30
0.0
 10
679.2590284962084
 20
-10.73161715174683
 30
0.0
 10
678.998997367838
 20
-11.15515351193264
 30
0.0
 10
678.8307583009289
 20
-11.50828503581323
 30
0.0
 10
678.6596061934357
 20
-11.86040451585147
 30
0.0
 10
678.351832631795
 20
-12.38866393426369
 30
0.0
 10
678.3514358445477
 20
-13.07771415812366
 30
0.0
 10
678.6600498150646
 20
-13.60562530047432
 30
0.0
 10
678.8290785389398
 20
-13.95873912718101
 30
0.0
 10
678.9465413757564
 20
-14.19165728362005
 30
0.0
 10
679.0052727941651
 20
-14.30811636183959
 30
0.0
 11
678.8302727941648
 21
-9.408116361839645
 31
0.0
 11
679.0052727941651
 21
-9.758116361839668
 31
0.0
 11
679.1802727941651
 21
-10.10811636183965
 31
0.0
 11
679.1802727941651
 21
-10.80811636183961
 31
0.0
 11
679.0052727941651
 21
-11.15811636183963
 31
0.0
 11
678.8302727941648
 21
-11.50811636183955
 31
0.0
 11
678.6552727941649
 21
-11.85811636183955
 31
0.0
 11
678.480272794165
 21
-12.20811636183957
 31
0.0
 11
678.480272794165
 21
-13.25811636183961
 31
0.0
 11
678.6552727941649
 21
-13.60811636183959
 31
0.0
 11
678.8302727941648
 21
-13.9581163618396
 31
0.0
 11
679.0052727941651
 21
-14.30811636183959
 31
0.0
  0
SPLINE
  5
4303
330
17
100
AcDbEntity
  8
additional
 48
0.5
100
AcDbSpline
210
0.0
220
0.0
230
1.0
 70
     8
 71
     3
 72
    18
 73
    14
 74
    12
 42
0.0000000001
 43
0.0000000001
 44
0.0000000001
 40
0.0
 40
0.0
 40
0.0
 40
0.0
 40
0.3913118960624632
 40
0.7826237921249391
 40
1.482623792124899
 40
1.873935688187413
 40
2.265247584249787
 40
2.656559480312326
 40
3.047871376374789
 40
4.097871376374829
 40
4.489183272437254
 40
4.880495168499806
 40
5.271807064562244
 40
5.271807064562244
 40
5.271807064562244
 40
5.271807064562244
 10
679.7052727941651
 20
-9.408116361839645
 30
0.0
 10
679.7615576358114
 20
-9.525756095194068
 30
0.0
 10
679.8741273191041
 20
-9.761035561902918
 30
0.0
 10
680.1339510082446
 20
-10.18463453321698
 30
0.0
 10
680.1340284962086
 20
-10.73161715174687
 30
0.0
 10
679.873997367838
 20
-11.15515351193254
 30
0.0
 10
679.7057583009291
 20
-11.50828503581343
 30
0.0
 10
679.5346061934355
 20
-11.86040451585136
 30
0.0
 10
679.2268326317951
 20
-12.38866393426375
 30
0.0
 10
679.2264358445476
 20
-13.07771415812361
 30
0.0
 10
679.5350498150644
 20
-13.60562530047442
 30
0.0
 10
679.7040785389405
 20
-13.95873912718084
 30
0.0
 10
679.8215413757567
 20
-14.19165728362002
 30
0.0
 10
679.8802727941651
 20
-14.30811636183959
 30
0.0
 11
679.7052727941651
 21
-9.408116361839645
 31
0.0
 11
679.8802727941651
 21
-9.758116361839668
 31
0.0
 11
680.0552727941651
 21
-10.10811636183965
 31
0.0
 11
680.0552727941651
 21
-10.80811636183961
 31
0.0
 11
679.8802727941651
 21
-11.15811636183963
 31
0.0
 11
679.7052727941651
 21
-11.50811636183955
 31
0.0
 11
679.5302727941649
 21
-11.85811636183955
 31
0.0
 11
679.355272794165
 21
-12.20811636183957
 31
0.0
 11
679.355272794165
 21
-13.25811636183961
 31
0.0
 11
679.5302727941649
 21
-13.60811636183959
 31
0.0
 11
679.7052727941651
 21
-13.9581163618396
 31
0.0
 11
679.8802727941651
 21
-14.30811636183959
 31
0.0
  0
LINE
  5
4304
330
17
100
AcDbEntity
  8
0
100
AcDbLine
 10
669.8364989788758
 20
-12.92548957542146
 30
0.0
 11
678.3960208799758
 21
-12.92548957542146
 31
0.0
  0
LINE
  5
4305
330
17
100
AcDbEntity
  8
0
100
AcDbLine
 10
669.8364989788758
 20
-11.92548957542146
 30
0.0
 11
678.6189117293822
 21
-11.92548957542146
 31
0.0
  0
LINE
  5
4306
330
17
100
AcDbEntity
  8
0
100
AcDbLine
 10
669.8364989788758
 20
-10.92548957542146
 30
0.0
 11
679.1305263943371
 21
-10.92548957542146
 31
0.0
  0
LINE
  5
4307
330
17
100
AcDbEntity
  8
0
100
AcDbLine
 10
697.2511024781896
 20
-10.92548957542146
 30
0.0
 11
697.2511024781896
 21
-12.92548957542146
 31
0.0
  0
LINE
  5
4308
330
17
100
AcDbEntity
  8
0
100
AcDbLine
 10
680.0055263943371
 20
-10.92548957542146
 30
0.0
 11
697.2511024781891
 21
-10.92548957542146
 31
0.0
  0
LINE
  5
4309
330
17
100
AcDbEntity
  8
0
100
AcDbLine
 10
679.2710208799758
 20
-12.92548957542146
 30
0.0
 11
697.2511024781896
 21
-12.92548957542146
 31
0.0
  0
LINE
  5
430A
330
17
100
AcDbEntity
  8
0
100
AcDbLine
 10
679.4939117293822
 20
-11.92548957542146
 30
0.0
 11
697.2511024781896
 21
-11.92548957542146
 31
0.0
  0
POINT
  5
430B
330
17
100
AcDbEntity
  8
0
100
AcDbPoint
 10
697.2511024781891
 20
-10.92548957542146
 30
0.0
  0
POINT
  5
430C
330
17
100
AcDbEntity
  8
0
100
AcDbPoint
 10
697.2511024781896
 20
-11.42548957542146
 30
0.0
  0
POINT
  5
430D
330
17
100
AcDbEntity
  8
0
100
AcDbPoint
 10
697.2511024781891
 20
-12.92548957542146
 30
0.0
  0
POINT
  5
430E
330
17
100
AcDbEntity
  8
0
100
AcDbPoint
 10
697.2511024781896
 20
-12.42548957542146
 30
0.0
  0
LINE
  5
430F
330
17
100
AcDbEntity
  8
0
100
AcDbLine
 10
697.2511024781896
 20
-12.67548957542146
 30
0.0
 11
704.2511024781896
 21
-12.67548957542146
 31
0.0
  0
LINE
  5
4310
330
17
100
AcDbEntity
  8
0
100
AcDbLine
 10
697.2511024781896
 20
-12.17548957542146
 30
0.0
 11
704.2511024781896
 21
-12.17548957542146
 31
0.0
  0
LINE
  5
4311
330
17
100
AcDbEntity
  8
0
100
AcDbLine
 10
697.2511024781896
 20
-11.67548957542146
 30
0.0
 11
704.2511024781896
 21
-11.67548957542146
 31
0.0
  0
LINE
  5
4312
330
17
100
AcDbEntity
  8
0
100
AcDbLine
 10
697.2511024781896
 20
-11.17548957542146
 30
0.0
 11
704.2511024781896
 21
-11.17548957542146
 31
0.0
  0
DIMENSION
  5
4313
330
17
100
AcDbEntity
  8
Z_OM_DIM
100
AcDbDimension
  2
*D1
 10
704.2511024781896
 20
-44.51875348469167
 30
0.0
 11
688.8938007285331
 21
-42.64375348469167
 31
0.0
 70
    32
  1
180 - 200
 71
     5
 42
30.71460349931306
  3
CatalogDxf
100
AcDbAlignedDimension
 13
673.5364989788766
 23
-25.42548957542144
 33
0.0
 14
704.2511024781896
 24
-12.67548957542146
 34
0.0
100
AcDbRotatedDimension
  0
LINE
  5
4400
330
17
100
AcDbEntity
  8
0
100
AcDbLine
 10
613.0364989788765
 20
-2.925489575421437
 30
0.0
 11
613.0364989788765
 21
-20.92548957542144
 31
0.0
  0
LINE
  5
4401
330
17
100
AcDbEntity
  8
0
100
AcDbLine
 10
613.8364989788765
 20
-2.925489575421437
 30
0.0
 11
613.0364989788765
 21
-2.925489575421437
 31
0.0
  0
LINE
  5
4402
330
17
100
AcDbEntity
  8
0
100
AcDbLine
 10
613.8364989788765
 20
-1.925489575421437
 30
0.0
 11
613.8364989788766
 21
-21.92548957542144
 31
0.0
  0
LINE
  5
4403
330
17
100
AcDbEntity
  8
0
100
AcDbLine
 10
614.3364989788765
 20
-1.925489575421437
 30
0.0
 11
613.8364989788765
 21
-1.925489575421437
 31
0.0
  0
LINE
  5
4404
330
17
100
AcDbEntity
  8
0
100
AcDbLine
 10
613.8364989788765
 20
-20.92548957542144
 30
0.0
 11
613.0364989788765
 21
-20.92548957542144
 31
0.0
  0
LINE
  5
4405
330
17
100
AcDbEntity
  8
0
100
AcDbLine
 10
614.3364989788765
 20
-21.92548957542144
 30
0.0
 11
613.8364989788765
 21
-21.92548957542144
 31
0.0
  0
LINE
  5
4406
330
17
100
AcDbEntity
  8
0
100
AcDbLine
 10
613.0364989788765
 20
-92.40595858495234
 30
0.0
 11
613.0364989788765
 21
-110.4059585849523
 31
0.0
  0
LINE
  5
4407
330
17
100
AcDbEntity
  8
0
100
AcDbLine
 10
613.8364989788765
 20
-92.40595858495234
 30
0.0
 11
613.0364989788765
 21
-92.40595858495234
 31
0.0
  0
LINE
  5
4408
330
17
100
AcDbEntity
  8
0
100
AcDbLine
 10
613.8364989788765
 20
-91.40595858495235
 30
0.0
 11
613.8364989788765
 21
-96.3809585849524
 31
0.0
  0
LINE
  5
4409
330
17
100
AcDbEntity
  8
0
100
AcDbLine
 10
614.3364989788765
 20
-91.40595858495235
 30
0.0
 11
613.8364989788765
 21
-91.40595858495235
 31
0.0
  0
LINE
  5
440A
330
17
100
AcDbEntity
  8
0
100
AcDbLine
 10
613.8364989788765
 20
-110.4059585849523
 30
0.0
 11
613.0364989788765
 21
-110.4059585849523
 31
0.0
  0
LINE
  5
440B
330
17
100
AcDbEntity
  8
0
100
AcDbLine
 10
613.8364989788765
 20
-111.4059585849523
 30
0.0
 11
613.8364989788765
 21
-106.4309585849523
 31
0.0
  0
LINE
  5
440C
330
17
100
AcDbEntity
  8
0
100
AcDbLine
 10
614.3364989788765
 20
-111.4059585849523
 30
0.0
 11
613.8364989788765
 21
-111.4059585849523
 31
0.0
  0
LINE
  5
440D
330
17
100
AcDbEntity
  8
additional
  6
CENTER2
 48
0.5
100
AcDbLine
 10
608.0364989788765
 20
-2.541891374017069
 30
0.0
 11
608.0364989788765
 21
-21.23382525552805
 31
0.0
  0
LINE
  5
440E
330
17
100
AcDbEntity
  8
0
100
AcDbLine
 10
613.5364989788765
 20
3.074510424578562
 30
0.0
 11
613.5364989788765
 21
1.074510424578562
 31
0.0
  0
LINE
  5
440F
330
17
100
AcDbEntity
  8
0
100
AcDbLine
 10
613.5364989788765
 20
1.074510424578562
 30
0.0
 11
614.3364989788758
 21
1.074510424578562
 31
0.0
  0
LINE
  5
4410
330
17
100
AcDbEntity
  8
0
100
AcDbLine
 10
617.5364989788765
 20
1.074510424578562
 30
0.0
 11
671.5364989788765
 21
1.074510424578562
 31
0.0
  0
LINE
  5
4411
330
17
100
AcDbEntity
  8
0
100
AcDbLine
 10
671.5364989788765
 20
1.074510424578562
 30
0.0
 11
671.5364989788765
 21
-10.42548957542141
 31
0.0
  0
LINE
  5
4412
330
17
100
AcDbEntity
  8
0
100
AcDbLine
 10
671.5364989788765
 20
-13.42548957542138
 30
0.0
 11
671.5364989788765
 21
-24.92548957542144
 31
0.0
  0
LINE
  5
4413
330
17
100
AcDbEntity
  8
0
100
AcDbLine
 10
671.5364989788765
 20
-24.92548957542144
 30
0.0
 11
617.5364989788765
 21
-24.92548957542144
 31
0.0
  0
LINE
  5
4414
330
17
100
AcDbEntity
  8
0
100
AcDbLine
 10
669.8364989788758
 20
-23.42548957542144
 30
0.0
 11
618.8364989788758
 21
-23.42548957542144
 31
0.0
  0
LINE
  5
4415
330
17
100
AcDbEntity
  8
0
100
AcDbLine
 10
614.3364989788758
 20
-24.92548957542144
 30
0.0
 11
613.5364989788765
 21
-24.92548957542144
 31
0.0
  0
LINE
  5
4416
330
17
100
AcDbEntity
  8
0
100
AcDbLine
 10
613.5364989788765
 20
-24.92548957542144
 30
0.0
 11
613.5364989788765
 21
-26.92548957542144
 31
0.0
  0
LINE
  5
4417
330
17
100
AcDbEntity
  8
0
100
AcDbLine
 10
613.5364989788765
 20
-26.92548957542144
 30
0.0
 11
672.0364989788765
 21
-26.92548957542144
 31
0.0
  0
LINE
  5
4418
330
17
100
AcDbEntity
  8
0
100
AcDbLine
 10
673.5364989788766
 20
-25.42548957542144
 30
0.0
 11
673.5364989788766
 21
-12.92548957542146
 31
0.0
  0
LINE
  5
4419
330
17
100
AcDbEntity
  8
0
100
AcDbLine
 10
673.5364989788766
 20
-10.92548957542146
 30
0.0
 11
673.5364989788766
 21
1.574510424578562
 31
0.0
  0
LINE
  5
441A
330
17
100
AcDbEntity
  8
0
100
AcDbLine
 10
672.0364989788765
 20
3.074510424578562
 30
0.0
 11
613.5364989788765
 21
3.074510424578562
 31
0.0
  0
ARC
  5
441B
330
17
100
AcDbEntity
  8
0
100
AcDbCircle
 10
672.0364989788765
 20
1.574510424578562
 30
0.0
 40
1.5
100
AcDbArc
 50
0.0
 51
90.0
  0
ARC
  5
441C
330
17
100
AcDbEntity
  8
0
100
AcDbCircle
 10
672.0364989788765
 20
-25.42548957542144
 30
0.0
 40
1.5
100
AcDbArc
 50
270.0
 51
0.0
  0
LINE
  5
441D
330
17
100
AcDbEntity
  8
additional
100
AcDbLine
 10
626.5364989788765
 20
5.508900408845363
 30
0.0
 11
626.5364989788765
 21
-1.496870421520355
 31
0.0
  0
LINE
  5
441E
330
17
100
AcDbEntity
  8
additional
100
AcDbLine
 10
656.5364989788766
 20
5.508900408845363
 30
0.0
 11
656.5364989788766
 21
-1.496870421520355
 31
0.0
  0
LINE
  5
441F
330
17
100
AcDbEntity
  8
additional
100
AcDbLine
 10
626.5364989788765
 20
-29.35987955968821
 30
0.0
 11
626.5364989788765
 21
-22.35410872932252
 31
0.0
  0
LINE
  5
4420
330
17
100
AcDbEntity
  8
additional
100
AcDbLine
 10
656.5364989788766
 20
-29.35987955968821
 30
0.0
 11
656.5364989788766
 21
-22.35410872932252
 31
0.0
  0
LINE
  5
4421
330
17
100
AcDbEntity
  8
0
100
AcDbLine
 10
617.5364989788765
 20
3.074510424578562
 30
0.0
 11
617.5364989788765
 21
-26.92548957542144
 31
0.0
  0
LINE
  5
4422
330
17
100
AcDbEntity
  8
0
100
AcDbLine
 10
615.9364989788762
 20
3.074510424578562
 30
0.0
 11
615.9364989788762
 21
-26.92548957542144
 31
0.0
  0
LINE
  5
4423
330
17
100
AcDbEntity
  8
0
100
AcDbLine
 10
614.3364989788758
 20
3.074510424578562
 30
0.0
 11
614.3364989788758
 21
-26.92548957542144
 31
0.0
  0
LINE
  5
4424
330
17
100
AcDbEntity
  8
0
100
AcDbLine
 10
543.3317691638483
 20
-114.9059585849524
 30
0.0
 11
543.3317691638483
 21
-87.90595858495237
 31
0.0
  0
LINE
  5
4425
330
17
100
AcDbEntity
  8
0
100
AcDbLine
 10
541.3317691638483
 20
-107.3702085849524
 30
0.0
 11
541.3317691638483
 21
-95.44170858495233
 31
0.0
  0
LINE
  5
4426
330
17
100
AcDbEntity
  8
0
100
AcDbLine
 10
543.3317691638483
 20
-87.90595858495237
 30
0.0
 11
513.3317691638483
 21
-87.90595858495237
 31
0.0
  0
LINE
  5
4427
330
17
100
AcDbEntity
  8
0
100
AcDbLine
 10
513.3317691638483
 20
-87.90595858495237
 30
0.0
 11
513.3317691638483
 21
-114.9059585849524
 31
0.0
  0
LINE
  5
4428
330
17
100
AcDbEntity
  8
0
100
AcDbLine
 10
513.3317691638483
 20
-114.9059585849524
 30
0.0
 11
543.3317691638483
 21
-114.9059585849524
 31
0.0
  0
LINE
  5
4429
330
17
100
AcDbEntity
  8
0
100
AcDbLine
 10
613.5364989788765
 20
-106.4309585849523
 30
0.0
 11
617.5364989788765
 21
-106.4309585849523
 31
0.0
  0
LINE
  5
442A
330
17
100
AcDbEntity
  8
0
100
AcDbLine
 10
617.5364989788765
 20
-106.4309585849523
 30
0.0
 11
617.5364989788765
 21
-114.9059585849523
 31
0.0
  0
LINE
  5
442B
330
17
100
AcDbEntity
  8
0
100
AcDbLine
 10
614.3364989788758
 20
-114.9059585849523
 30
0.0
 11
673.5364989788766
 21
-114.9059585849523
 31
0.0
  0
LINE
  5
442C
330
17
100
AcDbEntity
  8
0
100
AcDbLine
 10
673.5364989788766
 20
-114.9059585849523
 30
0.0
 11
673.5364989788766
 21
-87.90595858495231
 31
0.0
  0
LINE
  5
442D
330
17
100
AcDbEntity
  8
0
100
AcDbLine
 10
673.5364989788766
 20
-87.90595858495231
 30
0.0
 11
614.3364989788758
 21
-87.90595858495231
 31
0.0
  0
LINE
  5
442E
330
17
100
AcDbEntity
  8
0
100
AcDbLine
 10
613.5364989788765
 20
-96.38095858495233
 30
0.0
 11
617.5364989788765
 21
-96.38095858495233
 31
0.0
  0
LINE
  5
442F
330
17
100
AcDbEntity
  8
0
100
AcDbLine
 10
617.5364989788765
 20
-96.38095858495232
 30
0.0
 11
617.5364989788765
 21
-87.90595858495231
 31
0.0
  0
LINE
  5
4430
330
17
100
AcDbEntity
  8
0
100
AcDbLine
 10
613.5364989788765
 20
-106.4309585849523
 30
0.0
 11
613.5364989788765
 21
-96.38095858495233
 31
0.0
  0
CIRCLE
  5
4431
330
17
100
AcDbEntity
  8
0
100
AcDbCircle
 10
656.5364989788766
 20
-91.40595858495229
 30
0.0
 40
1.25
  0
CIRCLE
  5
4432
330
17
100
AcDbEntity
  8
additional
  6
HIDDEN2
 48
0.5
100
AcDbCircle
 10
656.5364989788766
 20
-91.40595858495229
 30
0.0
 40
1.5
  0
CIRCLE
  5
4433
330
17
100
AcDbEntity
  8
0
100
AcDbCircle
 10
656.5364989788766
 20
-111.4059585849523
 30
0.0
 40
1.25
  0
CIRCLE
  5
4434
330
17
100
AcDbEntity
  8
additional
  6
HIDDEN2
 48
0.5
100
AcDbCircle
 10
656.5364989788766
 20
-111.4059585849523
 30
0.0
 40
1.5
  0
CIRCLE
  5
4435
330
17
100
AcDbEntity
  8
0
100
AcDbCircle
 10
626.5364989788765
 20
-111.4059585849523
 30
0.0
 40
1.25
  0
CIRCLE
  5
4436
330
17
100
AcDbEntity
  8
additional
  6
HIDDEN2
 48
0.5
100
AcDbCircle
 10
626.5364989788765
 20
-111.4059585849523
 30
0.0
 40
1.5
  0
CIRCLE
  5
4437
330
17
100
AcDbEntity
  8
0
100
AcDbCircle
 10
626.5364989788765
 20
-91.40595858495229
 30
0.0
 40
1.25
  0
CIRCLE
  5
4438
330
17
100
AcDbEntity
  8
additional
  6
HIDDEN2
 48
0.5
100
AcDbCircle
 10
626.5364989788765
 20
-91.40595858495229
 30
0.0
 40
1.5
  0
LINE
  5
4439
330
17
100
AcDbEntity
  8
0
100
AcDbLine
 10
605.5364989788765
 20
-5.961239575421444
 30
0.0
 11
613.0364989788765
 21
-5.961239575421444
 31
0.0
  0
LINE
  5
443A
330
17
100
AcDbEntity
  8
0
100
AcDbLine
 10
613.0364989788765
 20
-17.88973957542146
 30
0.0
 11
605.5364989788765
 21
-17.88973957542143
 31
0.0
  0
LINE
  5
443B
330
17
100
AcDbEntity
  8
0
100
AcDbLine
 10
605.0364989788765
 20
-17.38973957542143
 30
0.0
 11
605.0364989788765
 21
-13.47548957542145
 31
0.0
  0
LINE
  5
443C
330
17
100
AcDbEntity
  8
0
100
AcDbLine
 10
605.0364989788765
 20
-13.47548957542145
 30
0.0
 11
611.5364989788766
 21
-13.47548957542145
 31
0.0
  0
LINE
  5
443D
330
17
100
AcDbEntity
  8
additional
  6
HIDDEN2
100
AcDbLine
 10
609.5589989788757
 20
-17.38973957542143
 30
0.0
 11
610.0589989788756
 21
-17.88973957542146
 31
0.0
  0
LINE
  5
443E
330
17
100
AcDbEntity
  8
additional
  6
HIDDEN2
 48
0.5
100
AcDbLine
 10
609.5589989788765
 20
-13.47548957542147
 30
0.0
 11
609.5589989788757
 21
-17.38973957542143
 31
0.0
  0
LINE
  5
443F
330
17
100
AcDbEntity
  8
additional
  6
HIDDEN2
 48
0.5
100
AcDbLine
 10
606.5139989788765
 20
-17.38973957542143
 30
0.0
 11
606.0139989788766
 21
-17.88973957542143
 31
0.0
  0
LINE
  5
4440
330
17
100
AcDbEntity
  8
additional
  6
HIDDEN2
 48
0.5
100
AcDbLine
 10
606.5139989788765
 20
-13.47548957542145
 30
0.0
 11
606.5139989788765
 21
-17.38973957542143
 31
0.0
  0
LINE
  5
4441
330
17
100
AcDbEntity
  8
0
100
AcDbLine
 10
605.0364989788765
 20
-17.38973957542143
 30
0.0
 11
605.5364989788765
 21
-17.88973957542143
 31
0.0
  0
LINE
  5
4442
330
17
100
AcDbEntity
  8
0
100
AcDbLine
 10
613.0364989788765
 20
-5.961239575421444
 30
0.0
 11
613.0364989788765
 21
-17.88973957542146
 31
0.0
  0
LINE
  5
4443
330
17
100
AcDbEntity
  8
0
100
AcDbLine
 10
614.3364989788758
 20
-20.92548957542144
 30
0.0
 11
614.3364989788758
 21
-2.925489575421437
 31
0.0
  0
LINE
  5
4444
330
17
100
AcDbEntity
  8
0
100
AcDbLine
 10
615.9364989788762
 20
-87.90595858495231
 30
0.0
 11
615.9364989788762
 21
-96.38095858495233
 31
0.0
  0
LINE
  5
4445
330
17
100
AcDbEntity
  8
0
100
AcDbLine
 10
615.9364989788762
 20
-106.4309585849523
 30
0.0
 11
615.9364989788762
 21
-114.9059585849523
 31
0.0
  0
LINE
  5
4446
330
17
100
AcDbEntity
  8
0
100
AcDbLine
 10
614.3364989788758
 20
-87.90595858495231
 30
0.0
 11
614.3364989788758
 21
-96.38095858495233
 31
0.0
  0
LINE
  5
4447
330
17
100
AcDbEntity
  8
0
100
AcDbLine
 10
614.3364989788758
 20
-106.4309585849523
 30
0.0
 11
614.3364989788758
 21
-114.9059585849523
 31
0.0
  0
LINE
  5
4448
330
17
100
AcDbEntity
  8
0
100
AcDbLine
 10
605.5364989788765
 20
-95.44170858495229
 30
0.0
 11
613.0364989788765
 21
-95.44170858495229
 31
0.0
  0
LINE
  5
4449
330
17
100
AcDbEntity
  8
0
100
AcDbLine
 10
613.0364989788765
 20
-107.3702085849523
 30
0.0
 11
605.5364989788765
 21
-107.3702085849522
 31
0.0
  0
LINE
  5
444A
330
17
100
AcDbEntity
  8
0
100
AcDbLine
 10
605.0364989788765
 20
-106.8702085849523
 30
0.0
 11
605.0364989788765
 21
-95.9417085849523
 31
0.0
  0
LINE
  5
444B
330
17
100
AcDbEntity
  8
0
100
AcDbLine
 10
605.0364989788765
 20
-95.9417085849523
 30
0.0
 11
605.5364989788765
 21
-95.44170858495229
 31
0.0
  0
LINE
  5
444C
330
17
100
AcDbEntity
  8
0
100
AcDbLine
 10
605.0364989788765
 20
-106.8702085849523
 30
0.0
 11
605.5364989788765
 21
-107.3702085849522
 31
0.0
  0
LINE
  5
444D
330
17
100
AcDbEntity
  8
0
100
AcDbLine
 10
613.0364989788765
 20
-95.44170858495229
 30
0.0
 11
613.0364989788765
 21
-107.3702085849523
 31
0.0
  0
LINE
  5
444E
330
17
100
AcDbEntity
  8
0
100
AcDbLine
 10
614.3364989788758
 20
-110.4059585849523
 30
0.0
 11
614.3364989788758
 21
-106.4309585849523
 31
0.0
  0
LINE
  5
444F
330
17
100
AcDbEntity
  8
0
100
AcDbLine
 10
614.3364989788758
 20
-96.38095858495233
 30
0.0
 11
614.3364989788758
 21
-92.40595858495229
 31
0.0
  0
CIRCLE
  5
4450
330
17
100
AcDbEntity
  8
0
100
AcDbCircle
 10
608.0364989788765
 20
-101.4059585849523
 30
0.0
 40
1.522500000000036
  0
LINE
  5
4451
330
17
100
AcDbEntity
  8
additional
  6
CENTER2
 48
0.5
100
AcDbLine
 10
608.0364989788765
 20
-92.02236038354795
 30
0.0
 11
608.0364989788765
 21
-110.7142942650589
 31
0.0
  0
LINE
  5
4452
330
17
100
AcDbEntity
  8
0
100
AcDbLine
 10
617.5364989788765
 20
-24.67548957542144
 30
0.0
 11
618.5364989788766
 21
-24.67548957542144
 31
0.0
  0
LINE
  5
4453
330
17
100
AcDbEntity
  8
0
100
AcDbLine
 10
618.8364989788758
 20
-24.37548957542143
 30
0.0
 11
618.8364989788758
 21
0.5245104245785513
 31
0.0
  0
LINE
  5
4454
330
17
100
AcDbEntity
  8
0
100
AcDbLine
 10
618.5364989788766
 20
0.8245104245785626
 30
0.0
 11
617.5364989788765
 21
0.8245104245785626
 31
0.0
  0
LINE
  5
4455
330
17
100
AcDbEntity
  8
0
100
AcDbLine
 10
617.5364989788765
 20
0.8245104245785626
 30
0.0
 11
617.5364989788765
 21
-24.67548957542144
 31
0.0
  0
LINE
  5
4456
330
17
100
AcDbEntity
  8
0
100
AcDbLine
 10
670.136498978876
 20
-24.42548957542144
 30
0.0
 11
671.5364989788765
 21
-24.42548957542144
 31
0.0
  0
LINE
  5
4457
330
17
100
AcDbEntity
  8
0
100
AcDbLine
 10
671.5364989788765
 20
-24.42548957542144
 30
0.0
 11
671.5364989788765
 21
-12.92548957542146
 31
0.0
  0
LINE
  5
4458
330
17
100
AcDbEntity
  8
0
100
AcDbLine
 10
671.5364989788765
 20
-10.92548957542146
 30
0.0
 11
671.5364989788765
 21
0.5745104245785626
 31
0.0
  0
LINE
  5
4459
330
17
100
AcDbEntity
  8
0
100
AcDbLine
 10
671.5364989788765
 20
0.5745104245785626
 30
0.0
 11
670.136498978876
 21
0.5745104245785626
 31
0.0
  0
LINE
  5
445A
330
17
100
AcDbEntity
  8
0
100
AcDbLine
 10
669.8364989788758
 20
0.2745104245785512
 30
0.0
 11
669.8364989788758
 21
-24.12548957542143
 31
0.0
  0
ARC
  5
445B
330
17
100
AcDbEntity
  8
0
100
AcDbCircle
 10
618.5364989788766
 20
-24.37548957542143
 30
0.0
 40
0.3
100
AcDbArc
 50
270.0
 51
0.0
  0
ARC
  5
445C
330
17
100
AcDbEntity
  8
0
100
AcDbCircle
 10
618.5364989788756
 20
0.5245104245785513
 30
0.0
 40
0.3
100
AcDbArc
 50
0.0
 51
90.0
  0
ARC
  5
445D
330
17
100
AcDbEntity
  8
0
100
AcDbCircle
 10
670.136498978876
 20
-24.12548957542143
 30
0.0
 40
0.3
100
AcDbArc
 50
180.0
 51
270.0
  0
ARC
  5
445E
330
17
100
AcDbEntity
  8
0
100
AcDbCircle
 10
670.136498978876
 20
0.2745104245785512
 30
0.0
 40
0.3
100
AcDbArc
 50
90.0
 51
180.0
  0
LINE
  5
445F
330
17
100
AcDbEntity
  8
0
100
AcDbLine
 10
669.8364989788758
 20
-0.425489575421409
 30
0.0
 11
618.8364989788758
 21
-0.425489575421409
 31
0.0
  0
LINE
  5
4464
330
17
100
AcDbEntity
  8
0
 48
0.5
100
AcDbLine
 10
618.8364989788758
 20
-87.90595858495231
 30
0.0
 11
638.9502135311784
 21
-85.90595858495243
 31
0.0
  0
LINE
  5
4465
330
17
100
AcDbEntity
  8
0
 48
0.5
100
AcDbLine
 10
684.5847748084635
 20
-87.90595858495231
 30
0.0
 11
673.5364989788766
 21
-87.90595858495228
 31
0.0
  0
LINE
  5
4466
330
17
100
AcDbEntity
  8
0
 48
0.5
100
AcDbLine
 10
685.2351404848114
 20
-86.40595858495235
 30
0.0
 11
669.8364989788758
 21
-86.40595858495229
 31
0.0
  0
LINE
  5
4467
330
17
100
AcDbEntity
  8
0
 48
0.5
100
AcDbLine
 10
638.9502135311784
 20
-85.90595858495243
 30
0.0
 11
669.8364989788758
 21
-85.90595858495225
 31
0.0
  0
LINE
  5
4468
330
17
100
AcDbEntity
  8
0
 48
0.5
100
AcDbLine
 10
669.8364989788758
 20
-87.90595858495231
 30
0.0
 11
669.8364989788758
 21
-85.90595858495225
 31
0.0
  0
LINE
  5
446A
330
17
100
AcDbEntity
  8
0
 48
0.5
100
AcDbLine
 10
541.3317691638483
 20
-87.9059585849524
 30
0.0
 11
532.3317691638483
 21
-85.90204240599584
 31
0.0
  0
LINE
  5
446B
330
17
100
AcDbEntity
  8
0
 48
0.5
100
AcDbLine
 10
524.3711536166817
 20
-85.90204240599538
 30
0.0
 11
532.3711536166817
 21
-85.90204240599584
 31
0.0
  0
LINE
  5
446C
330
17
100
AcDbEntity
  8
0
100
AcDbLine
 10
543.3317691638483
 20
-95.44170858495229
 30
0.0
 11
541.3317691638483
 21
-95.44170858495229
 31
0.0
  0
LINE
  5
446D
330
17
100
AcDbEntity
  8
0
100
AcDbLine
 10
543.3317691638483
 20
-107.3702085849523
 30
0.0
 11
541.3317691638483
 21
-107.3702085849524
 31
0.0
  0
LINE
  5
446E
330
17
100
AcDbEntity
  8
0
100
AcDbLine
 10
515.3317691638483
 20
-107.3702085849524
 30
0.0
 11
515.3317691638483
 21
-95.44170858495233
 31
0.0
  0
LINE
  5
446F
330
17
100
AcDbEntity
  8
0
100
AcDbLine
 10
513.3317691638483
 20
-95.44170858495229
 30
0.0
 11
515.3317691638483
 21
-95.44170858495229
 31
0.0
  0
LINE
  5
4470
330
17
100
AcDbEntity
  8
0
100
AcDbLine
 10
513.3317691638483
 20
-107.3702085849523
 30
0.0
 11
515.3317691638483
 21
-107.3702085849524
 31
0.0
  0
CIRCLE
  5
4471
330
17
100
AcDbEntity
  8
0
100
AcDbCircle
 10
528.3317691638483
 20
-101.4059585849524
 30
0.0
 40
5.964250000000077
  0
LINE
  5
4472
330
17
100
AcDbEntity
  8
0
 48
0.5
100
AcDbLine
 10
515.3317691638483
 20
-87.9059585849524
 30
0.0
 11
524.3317691638483
 21
-85.90204240599584
 31
0.0
  0
ARC
  5
4473
330
17
100
AcDbEntity
  8
0
380
     1
100
AcDbCircle
 10
528.3317691638483
 20
-101.4059585849524
 30
0.0
 40
6.5
100
AcDbArc
 50
10.47568169640005
 51
57.66299832063935
  0
ARC
  5
4474
330
17
100
AcDbEntity
  8
0
380
     1
100
AcDbCircle
 10
528.3317691638483
 20
-101.4059585849524
 30
0.0
 40
6.5
100
AcDbArc
 50
122.3370016793606
 51
169.5243183035999
  0
ARC
  5
4475
330
17
100
AcDbEntity
  8
0
380
     1
100
AcDbCircle
 10
528.3317691638483
 20
-101.4059585849524
 30
0.0
 40
9.0
100
AcDbArc
 50
319.1515274681356
 51
220.8484725318644
  0
LINE
  5
4476
330
17
100
AcDbEntity
  8
0
380
     1
100
AcDbLine
 10
523.2199258843309
 20
-106.9804650634097
 30
0.0
 11
523.8264116389752
 21
-105.3141591473042
 31
0.0
  0
ARC
  5
4477
330
17
100
AcDbEntity
  8
0
380
     1
100
AcDbCircle
 10
522.2802332635445
 20
-106.638444920084
 30
0.0
 40
1.0
100
AcDbArc
 50
220.8484725318644
 51
339.9999999999727
  0
ARC
  5
4478
330
17
100
AcDbEntity
  8
0
380
     1
100
AcDbCircle
 10
522.9234422506522
 20
-100.4059585849524
 30
0.0
 40
1.0
100
AcDbArc
 50
169.5243183035999
 51
236.3871102122945
  0
LINE
  5
4479
330
17
100
AcDbEntity
  8
0
380
     1
100
AcDbLine
 10
533.4436124433666
 20
-106.9804650634092
 30
0.0
 11
532.8371266887223
 21
-105.3141591473037
 31
0.0
  0
ARC
  5
447A
330
17
100
AcDbEntity
  8
0
380
     1
100
AcDbCircle
 10
534.3833050641522
 20
-106.6384449200835
 30
0.0
 40
1.0
100
AcDbArc
 50
200.0000000000274
 51
319.1515274681356
  0
ARC
  5
447B
330
17
100
AcDbEntity
  8
0
380
     1
100
AcDbCircle
 10
533.7400960770444
 20
-100.4059585849524
 30
0.0
 40
1.0
100
AcDbArc
 50
303.6128897877056
 51
10.47568169640005
  0
ARC
  5
447C
330
17
100
AcDbEntity
  8
0
380
     1
100
AcDbCircle
 10
525.3898295644947
 20
-96.75891744098159
 30
0.0
 40
1.0
100
AcDbArc
 50
55.47420977068479
 51
122.3370016793606
  0
ARC
  5
447D
330
17
100
AcDbEntity
  8
0
380
     1
100
AcDbCircle
 10
531.273708763201
 20
-96.75891744098146
 30
0.0
 40
1.0
100
AcDbArc
 50
57.66299832063935
 51
124.5257902293152
  0
CIRCLE
  5
447E
330
17
100
AcDbEntity
  8
0
100
AcDbCircle
 10
528.3317691638483
 20
-101.4059585849524
 30
0.0
 40
9.999999999999886
  0
LINE
  5
447F
330
17
100
AcDbEntity
  8
0
100
AcDbLine
 10
673.5364989788766
 20
-8.925489575421437
 30
0.0
 11
674.0364989788766
 21
-8.925489575421437
 31
0.0
  0
LINE
  5
4480
330
17
100
AcDbEntity
  8
0
100
AcDbLine
 10
674.0364989788766
 20
-8.925489575421437
 30
0.0
 11
674.0364989788766
 21
-10.92548957542146
 31
0.0
  0
LINE
  5
4481
330
17
100
AcDbEntity
  8
0
100
AcDbLine
 10
674.0364989788766
 20
-12.92548957542146
 30
0.0
 11
674.0364989788766
 21
-14.92548957542144
 31
0.0
  0
LINE
  5
4482
330
17
100
AcDbEntity
  8
0
100
AcDbLine
 10
674.0364989788766
 20
-14.92548957542144
 30
0.0
 11
673.5364989788766
 21
-14.92548957542144
 31
0.0
  0
LINE
  5
4483
330
17
100
AcDbEntity
  8
0
100
AcDbLine
 10
673.5364989788766
 20
-98.40595858495234
 30
0.0
 11
674.0364989788766
 21
-98.40595858495234
 31
0.0
  0
LINE
  5
4484
330
17
100
AcDbEntity
  8
0
100
AcDbLine
 10
674.0364989788766
 20
-98.40595858495234
 30
0.0
 11
674.0364989788766
 21
-104.4059585849523
 31
0.0
  0
LINE
  5
4485
330
17
100
AcDbEntity
  8
0
100
AcDbLine
 10
674.0364989788766
 20
-104.4059585849523
 30
0.0
 11
673.5364989788766
 21
-104.4059585849523
 31
0.0
  0
LINE
  5
4486
330
17
100
AcDbEntity
  8
additional
100
AcDbLine
 10
540.2248913710762
 20
-91.40595858495231
 30
0.0
 11
546.5876264334371
 21
-91.40595858495231
 31
0.0
  0
LINE
  5
4487
330
17
100
AcDbEntity
  8
additional
100
AcDbLine
 10
540.2248913710752
 20
-111.4059585849522
 30
0.0
 11
546.5876264334363
 21
-111.4059585849526
 31
0.0
  0
LINE
  5
4488
330
17
100
AcDbEntity
  8
additional
100
AcDbLine
 10
516.4386469566204
 20
-91.40595858495231
 30
0.0
 11
510.0759118942595
 21
-91.40595858495231
 31
0.0
  0
LINE
  5
4489
330
17
100
AcDbEntity
  8
additional
100
AcDbLine
 10
516.4386469566213
 20
-111.4059585849522
 30
0.0
 11
510.0759118942604
 21
-111.4059585849526
 31
0.0
  0
LINE
  5
448A
330
17
100
AcDbEntity
  8
0
100
AcDbLine
 10
529.8817691638484
 20
-95.64663761260669
 30
0.0
 11
529.8817691638484
 21
-107.1652795572981
 31
0.0
  0
LINE
  5
448B
330
17
100
AcDbEntity
  8
0
100
AcDbLine
 10
526.7817691638481
 20
-95.64663761260669
 30
0.0
 11
526.7817691638481
 21
-107.1652795572981
 31
0.0
  0
LINE
  5
448C
330
17
100
AcDbEntity
  8
additional
  6
HIDDEN2
 48
0.5
100
AcDbLine
 10
534.0984208624083
 20
-99.88345858495229
 30
0.0
 11
529.8817691638484
 21
-99.88345858495229
 31
0.0
  0
LINE
  5
448D
330
17
100
AcDbEntity
  8
additional
  6
HIDDEN2
 48
0.5
100
AcDbLine
 10
526.7817691638481
 20
-99.88345858495229
 30
0.0
 11
522.5651174652882
 21
-99.88345858495229
 31
0.0
  0
LINE
  5
448E
330
17
100
AcDbEntity
  8
additional
  6
HIDDEN2
 48
0.5
100
AcDbLine
 10
534.0984208624083
 20
-102.9284585849524
 30
0.0
 11
529.8817691638484
 21
-102.9284585849524
 31
0.0
  0
LINE
  5
448F
330
17
100
AcDbEntity
  8
additional
  6
HIDDEN2
 48
0.5
100
AcDbLine
 10
526.7817691638481
 20
-102.9284585849524
 30
0.0
 11
522.5651174652882
 21
-102.9284585849524
 31
0.0
  0
LINE
  5
4490
330
17
100
AcDbEntity
  8
0
100
AcDbLine
 10
613.0364989788765
 20
-5.961239575421416
 30
0.0
 11
605.5364989788765
 21
-5.961239575421444
 31
0.0
  0
LINE
  5
4491
330
17
100
AcDbEntity
  8
0
100
AcDbLine
 10
605.0364989788765
 20
-6.461239575421444
 30
0.0
 11
605.0364989788765
 21
-10.37548957542142
 31
0.0
  0
LINE
  5
4492
330
17
100
AcDbEntity
  8
additional
  6
HIDDEN2
100
AcDbLine
 10
609.5589989788757
 20
-6.461239575421444
 30
0.0
 11
610.0589989788756
 21
-5.961239575421416
 31
0.0
  0
LINE
  5
4493
330
17
100
AcDbEntity
  8
additional
  6
HIDDEN2
 48
0.5
100
AcDbLine
 10
609.5589989788765
 20
-10.37548957542139
 30
0.0
 11
609.5589989788757
 21
-6.461239575421444
 31
0.0
  0
LINE
  5
4494
330
17
100
AcDbEntity
  8
additional
  6
HIDDEN2
 48
0.5
100
AcDbLine
 10
606.5139989788765
 20
-6.461239575421444
 30
0.0
 11
606.0139989788766
 21
-5.961239575421444
 31
0.0
  0
LINE
  5
4495
330
17
100
AcDbEntity
  8
additional
  6
HIDDEN2
 48
0.5
100
AcDbLine
 10
606.5139989788765
 20
-10.37548957542142
 30
0.0
 11
606.5139989788765
 21
-6.461239575421444
 31
0.0
  0
LINE
  5
4496
330
17
100
AcDbEntity
  8
0
100
AcDbLine
 10
605.0364989788765
 20
-6.461239575421444
 30
0.0
 11
605.5364989788765
 21
-5.961239575421444
 31
0.0
  0
LINE
  5
4497
330
17
100
AcDbEntity
  8
0
100
AcDbLine
 10
605.0364989788765
 20
-10.37548957542139
 30
0.0
 11
611.5364989788766
 21
-10.37548957542145
 31
0.0
  0
LINE
  5
4498
330
17
100
AcDbEntity
  8
0
100
AcDbLine
 10
611.5364989788766
 20
-10.37548957542139
 30
0.0
 11
611.5364989788766
 21
-13.47548957542145
 31
0.0
  0
LINE
  5
4499
330
17
100
AcDbEntity
  8
0
100
AcDbLine
 10
605.5364989788765
 20
-5.961239575421444
 30
0.0
 11
605.5364989788765
 21
-10.37548957542139
 31
0.0
  0
LINE
  5
449A
330
17
100
AcDbEntity
  8
additional
  6
HIDDEN2
 48
0.5
100
AcDbLine
 10
606.5139989788765
 20
-6.461239575421444
 30
0.0
 11
609.5589989788757
 21
-6.461239575421387
 31
0.0
  0
LINE
  5
449B
330
17
100
AcDbEntity
  8
0
100
AcDbLine
 10
605.5364989788765
 20
-17.88973957542143
 30
0.0
 11
605.5364989788765
 21
-13.47548957542142
 31
0.0
  0
LINE
  5
449C
330
17
100
AcDbEntity
  8
additional
  6
HIDDEN2
 48
0.5
100
AcDbLine
 10
606.5139989788765
 20
-17.38973957542143
 30
0.0
 11
609.5589989788757
 21
-17.38973957542143
 31
0.0
  0
LINE
  5
449D
330
17
100
AcDbEntity
  8
0
100
AcDbLine
 10
605.5364989788765
 20
-95.44170858495229
 30
0.0
 11
605.5364989788765
 21
-107.3702085849522
 31
0.0
  0
ARC
  5
449E
330
17
100
AcDbEntity
  8
0
100
AcDbCircle
 10
528.3317691638483
 20
-101.4059585849523
 30
0.0
 40
5.464250000000049
100
AcDbArc
 50
286.478885570903
 51
73.52111442909702
  0
ARC
  5
449F
330
17
100
AcDbEntity
  8
0
100
AcDbCircle
 10
528.3317691638483
 20
-101.4059585849523
 30
0.0
 40
5.464250000000049
100
AcDbArc
 50
106.4788855709029
 51
253.521114429097
  0
LINE
  5
44A0
330
17
100
AcDbEntity
  8
additional
  6
CENTER2
 48
0.5
100
AcDbLine
 10
509.9714800020818
 20
-101.4059585849524
 30
0.0
 11
546.8592883502767
 21
-101.4059585849524
 31
0.0
  0
LINE
  5
44A1
330
17
100
AcDbEntity
  8
additional
  6
CENTER2
 48
0.5
100
AcDbLine
 10
528.3317691638483
 20
-82.64727152413579
 30
0.0
 11
528.3317691638483
 21
-118.1623784453336
 31
0.0
  0
LINE
  5
44A2
330
17
100
AcDbEntity
  8
additional
  6
CENTER2
 48
0.5
100
AcDbLine
 10
601.3138774240281
 20
-101.4059585849523
 30
0.0
 11
678.0482214685092
 21
-101.4059585849523
 31
0.0
  0
LINE
  5
44A3
330
17
100
AcDbEntity
  8
additional
  6
CENTER2
 48
0.5
100
AcDbLine
 10
626.5364989788765
 20
-114.535216008235
 30
0.0
 11
626.5364989788765
 21
-88.40595858495234
 31
0.0
  0
LINE
  5
44A4
330
17
100
AcDbEntity
  8
additional
  6
CENTER2
 48
0.5
100
AcDbLine
 10
623.5364989788766
 20
-91.40595858495229
 30
0.0
 11
659.3005877970187
 21
-91.40595858495229
 31
0.0
  0
LINE
  5
44A5
330
17
100
AcDbEntity
  8
additional
  6
CENTER2
 48
0.5
100
AcDbLine
 10
623.5364989788766
 20
-111.4059585849523
 30
0.0
 11
659.3005877970187
 21
-111.4059585849523
 31
0.0
  0
LINE
  5
44A6
330
17
100
AcDbEntity
  8
additional
  6
CENTER2
 48
0.5
100
AcDbLine
 10
656.5364989788766
 20
-114.535216008235
 30
0.0
 11
656.5364989788766
 21
-88.40595858495234
 31
0.0
  0
LINE
  5
44A7
330
17
100
AcDbEntity
  8
additional
  6
CENTER2
 48
0.5
100
AcDbLine
 10
601.3138774240281
 20
-11.92548957542143
 30
0.0
 11
669.8364989788758
 21
-11.92548957542146
 31
0.0
  0
SPLINE
  5
44C6
330
17
100
AcDbEntity
  8
additional
 48
0.5
100
AcDbSpline
210
0.0
220
0.0
230
1.0
 70
     8
 71
     3
 72
    18
 73
    14
 74
    12
 42
0.0000000001
 43
0.0000000001
 44
0.0000000001
 40
0.0
 40
0.0
 40
0.0
 40
0.0
 40
0.3913118960624632
 40
0.7826237921249391
 40
1.482623792124899
 40
1.873935688187413
 40
2.265247584249787
 40
2.656559480312326
 40
3.047871376374789
 40
4.097871376374829
 40
4.489183272437254
 40
4.880495168499806
 40
5.271807064562244
 40
5.271807064562244
 40
5.271807064562244
 40
5.271807064562244
 10
685.0248643255834
 20
-84.71982739608209
 30
0.0
 10
685.0811491672296
 20
-84.8374671294365
 30
0.0
 10
685.1937188505224
 20
-85.07274659614536
 30
0.0
 10
685.4535425396628
 20
-85.49634556745944
 30
0.0
 10
685.4536200276267
 20
-86.04332818598928
 30
0.0
 10
685.1935888992561
 20
-86.46686454617499
 30
0.0
 10
685.0253498323475
 20
-86.81999607005588
 30
0.0
 10
684.8541977248539
 20
-87.17211555009381
 30
0.0
 10
684.5464241632132
 20
-87.70037496850621
 30
0.0
 10
684.546027375966
 20
-88.38942519236605
 30
0.0
 10
684.8546413464825
 20
-88.91733633471687
 30
0.0
 10
685.0236700703585
 20
-89.27045016142328
 30
0.0
 10
685.1411329071749
 20
-89.50336831786247
 30
0.0
 10
685.1998643255833
 20
-89.61982739608204
 30
0.0
 11
685.0248643255834
 21
-84.71982739608209
 31
0.0
 11
685.1998643255833
 21
-85.06982739608211
 31
0.0
 11
685.3748643255833
 21
-85.4198273960821
 31
0.0
 11
685.3748643255833
 21
-86.11982739608206
 31
0.0
 11
685.1998643255833
 21
-86.46982739608208
 31
0.0
 11
685.0248643255834
 21
-86.819827396082
 31
0.0
 11
684.8498643255831
 21
-87.169827396082
 31
0.0
 11
684.6748643255832
 21
-87.51982739608202
 31
0.0
 11
684.6748643255832
 21
-88.56982739608206
 31
0.0
 11
684.8498643255831
 21
-88.91982739608204
 31
0.0
 11
685.0248643255834
 21
-89.26982739608204
 31
0.0
 11
685.1998643255833
 21
-89.61982739608204
 31
0.0
  0
DIMENSION
  5
44C7
330
17
100
AcDbEntity
  8
Z_OM_DIM
100
AcDbDimension
  2
*D2
 10
626.5364989788765
 20
-73.87370823233158
 30
0.0
 11
641.5364989788765
 21
-71.99870823233158
 31
0.0
 70
    32
 71
     5
 42
30.0
  3
CatalogDxf
100
AcDbAlignedDimension
 13
656.5364989788766
 23
-88.40595858495234
 33
0.0
 14
626.5364989788765
 24
-88.40595858495234
 34
0.0
100
AcDbRotatedDimension
  0
DIMENSION
  5
44D4
330
17
100
AcDbEntity
  8
Z_OM_DIM
100
AcDbDimension
  2
*D3
 10
608.0364989788765
 20
-73.87370823233158
 30
0.0
 11
617.2864989788766
 21
-71.99870823233158
 31
0.0
 70
    32
 71
     5
 42
18.5
  3
CatalogDxf
100
AcDbAlignedDimension
 13
626.5364989788765
 23
-88.40595858495234
 33
0.0
 14
608.0364989788765
 24
-92.02236038354795
 34
0.0
100
AcDbRotatedDimension
1001
ACAD
1000
DSTYLE
1002
{
1070
   279
1070
     1
1002
}
  0
DIMENSION
  5
44E1
330
17
100
AcDbEntity
  8
Z_OM_DIM
100
AcDbDimension
  2
*D4
 10
605.0364989788765
 20
-73.87370823233158
 30
0.0
 11
598.5781656455432
 21
-73.87370823233158
 31
0.0
 70
   160
 71
     5
 42
3.0
  3
CatalogDxf
100
AcDbAlignedDimension
 13
608.0364989788765
 23
-92.02236038354795
 33
0.0
 14
605.0364989788765
 24
-95.9417085849523
 34
0.0
100
AcDbRotatedDimension
  0
DIMENSION
  5
44F0
330
17
100
AcDbEntity
  8
Z_OM_DIM
100
AcDbDimension
  2
*D5
 10
690.1781880011029
 20
-111.4059585849523
 30
0.0
 11
688.3031880011028
 21
-101.4059585849522
 31
0.0
 70
    32
 71
     5
 42
20.0
  3
CatalogDxf
100
AcDbAlignedDimension
 13
659.3005877970187
 23
-91.40595858495229
 33
0.0
 14
659.3005877970187
 24
-111.4059585849523
 34
0.0
 50
90.0
100
AcDbRotatedDimension
  0
DIMENSION
  5
44FD
330
17
100
AcDbEntity
  8
Z_OM_DIM
100
AcDbDimension
  2
*D6
 10
592.2098465142722
 20
-13.47548957542144
 30
0.0
 11
592.2098465142722
 21
-2.458822908754661
 31
0.0
 70
   160
 71
     5
 42
3.100000000000022
  3
CatalogDxf
100
AcDbAlignedDimension
 13
605.0364989788765
 23
-10.37548957542142
 33
0.0
 14
605.0364989788765
 24
-13.47548957542145
 34
0.0
 50
90.0
100
AcDbRotatedDimension
  0
DIMENSION
  5
450C
330
17
100
AcDbEntity
  8
Z_OM_DIM
100
AcDbDimension
  2
*D7
 10
560.2741247876772
 20
-114.9059585849524
 30
0.0
 11
558.3991247876772
 21
-101.4059585849523
 31
0.0
 70
    32
 71
     5
 42
27.0
  3
CatalogDxf
100
AcDbAlignedDimension
 13
543.3317691638483
 23
-87.90595858495237
 33
0.0
 14
543.3317691638483
 24
-114.9059585849524
 34
0.0
 50
90.0
100
AcDbRotatedDimension
  0
DIMENSION
  5
4519
330
17
100
AcDbEntity
  8
Z_OM_DIM
100
AcDbDimension
  2
*D8
 10
543.3317691638483
 20
-130.8653505762362
 30
0.0
 11
528.3317691638483
 21
-128.9903505762362
 31
0.0
 70
    32
 71
     5
 42
30.0
  3
CatalogDxf
100
AcDbAlignedDimension
 13
513.3317691638483
 23
-114.9059585849524
 33
0.0
 14
543.3317691638483
 24
-114.9059585849524
 34
0.0
100
AcDbRotatedDimension
  0
DIMENSION
  5
4526
330
17
100
AcDbEntity
  8
Z_OM_DIM
100
AcDbDimension
  2
*D9
 10
592.2098465142722
 20
-107.3702085849522
 30
0.0
 11
590.3348465142722
 21
-101.4059585849522
 31
0.0
 70
    32
  1
%%c12
 71
     5
 42
11.92849999999998
  3
CatalogDxf
100
AcDbAlignedDimension
 13
605.5364989788765
 23
-95.44170858495229
 33
0.0
 14
605.5364989788765
 24
-107.3702085849522
 34
0.0
 50
90.0
100
AcDbRotatedDimension
  0
LEADER
  5
4563
330
17
100
AcDbEntity
  8
Z_OM_DIM
100
AcDbLeader
  3
ISO-25
 76
     3
 10
657.2258027782615
 20
-112.4487242691564
 30
0.0
 10
666.1373389618935
 20
-125.9299268015193
 30
0.0
 10
691.307112678982
 20
-125.9299268015193
 30
0.0
1001
ACAD
1000
DSTYLE
1002
{
1070
   341
1005
977
1070
   147
1040
0.625
1070
    77
1070
     0
1002
}
  0
MTEXT
  5
4564
330
17
100
AcDbEntity
  8
Z_OM_DIM
100
AcDbMText
 10
667.3113369658632
 20
-125.9704237162054
 30
0.0
 40
2.5
 41
24.05930144544266
 71
     4
 72
     1
  1
4-M3\Pboth faces
  7
CatalogDxf
 73
     1
 44
1.0
1001
ACAD
1000
MTEXTBEGIN
1070
    73
1070
     1
1070
    44
1040
1.0
1070
    74
1070
     0
1000
MTEXTEND
  0
MTEXT
  5
456C
330
17
100
AcDbEntity
  8
Z_OM_DIM
100
AcDbMText
 10
597.4494480466928
 20
-117.8668876970521
 30
0.0
 40
2.5
 41
4.580851048175645
 71
     7
 72
     1
  1
%%C3
  7
CatalogDxf
 73
     1
 44
1.0
1001
ACAD
1000
MTEXTBEGIN
1070
    73
1070
     1
1070
    44
1040
1.0
1070
    74
1070
     0
1000
MTEXTEND
  0
LEADER
  5
456D
330
17
100
AcDbEntity
  8
Z_OM_DIM
100
AcDbLeader
  3
ISO-25
 76
     3
 10
607.5952028393232
 20
-102.8631009826662
 30
0.0
 10
602.837911765165
 20
-118.5714879389594
 30
0.0
 10
596.3104231956338
 20
-118.5714879389594
 30
0.0
211
-1.0
221
0.0
231
0.0
1001
ACAD
1000
DSTYLE
1002
{
1070
   341
1005
977
1070
   147
1040
0.625
1070
    77
1070
     0
1002
}
  0
MTEXT
  5
4575
330
17
100
AcDbEntity
  8
Z_OM_DIM
100
AcDbMText
 10
694.2523785485563
 20
0.7992616636027279
 30
0.0
 40
2.5
 41
42.8494883882687
 71
     7
 72
     1
  1
UL1007 AWG20 white
  7
CatalogDxf
 73
     1
 44
1.0
1001
ACAD
1000
ACAD_MTEXT_DEFINED_HEIGHT_BEGIN
1070
    46
1040
2.500000000000005
1000
ACAD_MTEXT_DEFINED_HEIGHT_END
1000
MTEXTBEGIN
1070
    73
1070
     1
1070
    44
1040
1.0
1070
    74
1070
     0
1000
MTEXTEND
  0
LEADER
  5
4576
330
17
100
AcDbEntity
  8
Z_OM_DIM
100
AcDbLeader
  3
ISO-25
 76
     3
 10
687.1447647364515
 20
-10.92548957542146
 30
0.0
 10
693.6882690547967
 20
0.174261663602735
 30
0.0
 10
735.0465591269149
 20
0.174261663602735
 30
0.0
1001
ACAD
1000
DSTYLE
1002
{
1070
   341
1005
977
1070
   147
1040
0.625
1070
    77
1070
     0
1002
}
  0
DIMENSION
  5
461C
330
17
100
AcDbEntity
  8
Z_OM_DIM
100
AcDbDimension
  2
*D10
 10
626.5364989788765
 20
-38.20876713417431
 30
0.0
 11
620.0364989788766
 21
-36.33376713417431
 31
0.0
 70
    32
 71
     5
 42
13.0
  3
CatalogDxf
100
AcDbAlignedDimension
 13
613.5364989788765
 23
-26.92548957542144
 33
0.0
 14
626.5364989788765
 24
-29.35987955968821
 34
0.0
100
AcDbRotatedDimension
  0
DIMENSION
  5
4629
330
17
100
AcDbEntity
  8
Z_OM_DIM
100
AcDbDimension
  2
*D11
 10
673.5364989788766
 20
-44.51875348469167
 30
0.0
 11
643.5364989788766
 21
-42.64375348469167
 31
0.0
 70
    32
 71
     5
 42
60.0
  3
CatalogDxf
100
AcDbAlignedDimension
 13
613.5364989788765
 23
-26.92548957542144
 33
0.0
 14
673.5364989788766
 24
-25.42548957542144
 34
0.0
100
AcDbRotatedDimension
  0
DIMENSION
  5
4672
330
17
100
AcDbEntity
  8
Z_OM_DIM
100
AcDbDimension
  2
*D12
 10
605.0364989788765
 20
-27.57372648520402
 30
0.0
 11
599.4114989788766
 21
-27.57372648520402
 31
0.0
 70
   160
 71
     5
 42
6.5
  3
CatalogDxf
100
AcDbAlignedDimension
 13
611.5364989788766
 23
-13.47548957542145
 33
0.0
 14
605.0364989788765
 24
-17.38973957542143
 34
0.0
100
AcDbRotatedDimension
  0
ENDSEC
  0
SECTION
  2
OBJECTS
  0
DICTIONARY
  5
C
330
0
100
AcDbDictionary
281
     1
  3
ACAD_2007HEADERVARS_RT
350
4546
  3
ACAD_COLOR
350
3D57
  3
ACAD_GROUP
350
D
  3
ACAD_LAYOUT
350
3D5A
  3
ACAD_MATERIAL
350
3D42
  3
ACAD_MLINESTYLE
350
1A
  3
ACAD_PLOTSETTINGS
350
957
  3
ACAD_PLOTSTYLENAME
350
3D40
  3
ACAD_TABLESTYLE
350
3D58
  3
ACAD_VISUALSTYLE
350
3D46
  3
ACADDIM
350
1BB8
  3
ACDBHEADERROUNDTRIPXREC
350
47B6
  3
AcDbVariableDictionary
350
4116
  3
DWGPROPS
350
47B5
1001
ACAD
1000
TREAT_AS_HARD
1070
     0
  0
DICTIONARY
  5
454A
330
8
100
AcDbDictionary
280
     1
281
     1
  3
ACAD_XREC_ROUNDTRIP
360
454B
  0
DICTIONARY
  5
3DBA
330
2
100
AcDbDictionary
280
     1
281
     1
  3
ACAD_LAYERFILTERS
360
421C
  3
ACAD_LAYERSTATES
360
3DBB
  3
ACLYDICTIONARY
360
421B
  0
DICTIONARY
  5
454C
330
E
100
AcDbDictionary
280
     1
281
     1
  3
ACAD_XREC_ROUNDTRIP
360
454D
  0
DICTIONARY
  5
454E
330
27
100
AcDbDictionary
280
     1
281
     1
  3
ACAD_XREC_ROUNDTRIP
360
454F
  0
DICTIONARY
  5
4550
330
2B
100
AcDbDictionary
280
     1
281
     1
  3
ACAD_XREC_ROUNDTRIP
360
4551
  0
DICTIONARY
  5
4554
330
3DB5
100
AcDbDictionary
280
     1
281
     1
  3
ACAD_XREC_ROUNDTRIP
360
4555
  0
DICTIONARY
  5
1808
330
17
100
AcDbDictionary
280
     1
281
     1
  3
ACAD_LAYOUTSELFREF
360
3D3B
  3
ACAD_SORTENTS
360
461A
1001
ACAD
1000
TREAT_AS_HARD
1070
     1
  0
DICTIONARY
  5
1806
330
14
100
AcDbDictionary
280
     1
281
     1
  3
ACAD_LAYOUTSELFREF
360
3D3A
1001
ACAD
1000
TREAT_AS_HARD
1070
     1
  0
DICTIONARY
  5
4546
102
{ACAD_REACTORS
330
C
102
}
330
C
100
AcDbDictionary
281
     1
  3
DIMLTEX1
350
4548
  3
DIMLTEX2
350
4549
  3
DIMLTYPE
350
4547
  0
DICTIONARY
  5
3D57
102
{ACAD_REACTORS
330
C
102
}
330
C
100
AcDbDictionary
281
     1
  0
DICTIONARY
  5
D
102
{ACAD_REACTORS
330
C
102
}
330
C
100
AcDbDictionary
281
     1
1001
ACAD
1000
TREAT_AS_HARD
1070
     0
  0
DICTIONARY
  5
3D5A
102
{ACAD_REACTORS
330
C
102
}
330
C
100
AcDbDictionary
281
     1
  3
Model
350
3D5B
  3
レイアウト1
350
3D5C
  0
DICTIONARY
  5
3D42
102
{ACAD_REACTORS
330
C
102
}
330
C
100
AcDbDictionary
281
     1
  3
ByBlock
350
3D44
  3
ByLayer
350
3D43
  3
Global
350
3D45
  0
DICTIONARY
  5
1A
102
{ACAD_REACTORS
330
C
102
}
330
C
100
AcDbDictionary
281
     1
  3
STANDARD
350
1B
1001
ACAD
1000
TREAT_AS_HARD
1070
     0
  0
DICTIONARY
  5
957
102
{ACAD_REACTORS
330
C
102
}
330
C
100
AcDbDictionary
281
     1
1001
ACAD
1000
TREAT_AS_HARD
1070
     0
  0
ACDBDICTIONARYWDFLT
  5
3D40
102
{ACAD_REACTORS
330
C
102
}
330
C
100
AcDbDictionary
281
     1
  3
Normal
350
3D41
100
AcDbDictionaryWithDefault
340
3D41
  0
DICTIONARY
  5
3D58
102
{ACAD_REACTORS
330
C
102
}
330
C
100
AcDbDictionary
281
     1
  3
Standard
350
3D59
  0
DICTIONARY
  5
3D46
102
{ACAD_REACTORS
330
C
102
}
330
C
100
AcDbDictionary
281
     1
  3
2dWireframe
350
3D4C
  3
3D Hidden
350
3D4E
  3
3dWireframe
350
3D4D
  3
Basic
350
3D4B
  3
Brighten
350
3D52
  3
ColorChange
350
3D56
  3
Conceptual
350
3D4F
  3
Dim
350
3D51
  3
Facepattern
350
3D55
  3
Flat
350
3D47
  3
FlatWithEdges
350
3D48
  3
Gouraud
350
3D49
  3
GouraudWithEdges
350
3D4A
  3
Linepattern
350
3D54
  3
Realistic
350
3D50
  3
Thicken
350
3D53
  0
XRECORD
  5
1BB8
102
{ACAD_REACTORS
330
C
102
}
330
C
100
AcDbXrecord
280
     1
 90
   990106
  3

 60
     0
 61
     0
 62
     4
 63
     4
 64
     1
 65
     0
 66
     0
 67
     2
 68
     1
 69
     0
 70
     0
 71
     0
 72
     0
 40
39.58432595825036
170
     2
340
0
  0
DICTIONARY
  5
47B6
102
{ACAD_REACTORS
330
C
102
}
330
C
100
AcDbDictionary
281
     1
  0
DICTIONARY
  5
4116
102
{ACAD_REACTORS
330
C
102
}
330
C
100
AcDbDictionary
281
     1
  3
CTABLESTYLE
350
4117
  3
DIMASSOC
350
47B2
  3
PROJECTNAME
350
47B3
  0
XRECORD
  5
47B5
102
{ACAD_REACTORS
330
C
102
}
330
C
100
AcDbXrecord
280
     1
  1
DWGPROPS COOKIE
  2

  3

  4

  6

  7

  8
yakata
  9

300
=
301
=
302
=
303
=
304
=
305
=
306
=
307
=
308
=
309
=
 40
0.5450669907407408
 41
2455090.761732894
 42
2455678.57640632
  1

 90
        0
  0
XRECORD
  5
454B
102
{ACAD_REACTORS
330
454A
102
}
330
454A
100
AcDbXrecord
280
     1
102
VTR_0.000_0.000_1.000_1.000_VISUALSTYLE
340
3D4C
102
VTR_0.000_0.000_1.000_1.000_GRIDDISPLAY
 70
     3
102
VTR_0.000_0.000_1.000_1.000_GRIDMAJOR
 70
     5
102
VTR_0.000_0.000_1.000_1.000_DEFAULTLIGHTING
280
     1
102
VTR_0.000_0.000_1.000_1.000_DEFAULTLIGHTINGTYPE
 70
     1
102
VTR_0.000_0.000_1.000_1.000_BRIGHTNESS
141
0.0
102
VTR_0.000_0.000_1.000_1.000_CONTRAST
142
0.0
  0
DICTIONARY
  5
421C
102
{ACAD_REACTORS
330
3DBA
102
}
330
3DBA
100
AcDbDictionary
281
     1
  0
DICTIONARY
  5
3DBB
102
{ACAD_REACTORS
330
3DBA
102
}
330
3DBA
100
AcDbDictionary
281
     1
  0
DICTIONARY
  5
421B
102
{ACAD_REACTORS
330
3DBA
102
}
330
3DBA
100
AcDbDictionary
281
     1
1001
ACAD
1000
<All
  0
XRECORD
  5
454D
102
{ACAD_REACTORS
330
454C
102
}
330
454C
100
AcDbXrecord
280
     1
102
MATERIAL
340
3D45
  0
XRECORD
  5
454F
102
{ACAD_REACTORS
330
454E
102
}
330
454E
100
AcDbXrecord
280
     1
102
MATERIAL
340
3D45
  0
XRECORD
  5
4551
102
{ACAD_REACTORS
330
4550
102
}
330
4550
100
AcDbXrecord
280
     1
102
MATERIAL
340
3D45
  0
XRECORD
  5
4555
102
{ACAD_REACTORS
330
4554
102
}
330
4554
100
AcDbXrecord
280
     1
102
MATERIAL
340
3D45
  0
XRECORD
  5
3D3B
102
{ACAD_REACTORS
330
1808
102
}
330
1808
100
AcDbXrecord
280
     1
340
17
  0
SORTENTSTABLE
  5
461A
102
{ACAD_REACTORS
330
1808
102
}
330
1808
100
AcDbSortentsTable
330
17
331
4301
  5
4301
331
4410
  5
4410
331
4457
  5
4457
331
448E
  5
448F
331
4309
  5
4309
331
4418
  5
4418
331
445F
  5
445F
331
4496
  5
4497
331
4311
  5
4311
331
4420
  5
4420
331
4428
  5
4428
331
4467
  5
4468
331
449E
  5
449F
331
44A6
  5
44A7
331
4430
  5
4430
331
44FD
  5
450C
331
44C6
  5
44C7
331
4438
  5
4438
331
446F
  5
4470
331
4477
  5
4478
331
4564
  5
456C
331
4401
  5
4401
331
4440
  5
4440
331
456C
  5
456D
331
4448
  5
4448
331
447F
  5
4480
331
42AA
  5
42AA
331
4409
  5
4409
331
4487
  5
4488
331
4450
  5
4450
331
4302
  5
4302
331
4411
  5
4411
331
4419
  5
4419
331
4458
  5
4458
331
430A
  5
430A
331
448F
  5
4490
331
4497
  5
4498
331
4312
  5
4312
331
4421
  5
4421
331
449F
  5
44A0
331
4429
  5
4429
331
44A7
  5
44C6
331
4468
  5
446A
331
4431
  5
4431
331
44C7
  5
44D4
331
4439
  5
4439
331
4470
  5
4471
331
4402
  5
4402
331
4441
  5
4441
331
4478
  5
4479
331
456D
  5
4575
331
440A
  5
440A
331
4449
  5
4449
331
4480
  5
4481
331
4575
  5
4576
331
4488
  5
4489
331
4303
  5
4303
331
4412
  5
4412
331
4451
  5
4451
331
4459
  5
4459
331
4490
  5
4491
331
430B
  5
430B
331
441A
  5
441A
331
4526
  5
4563
331
4498
  5
4499
331
4313
  5
4313
331
4422
  5
4422
331
442A
  5
442A
331
44A0
  5
44A1
331
4432
  5
4432
331
4471
  5
4472
331
443A
  5
443A
331
4479
  5
447A
331
4403
  5
4403
331
4442
  5
4442
331
444A
  5
444A
331
4481
  5
4482
331
440B
  5
440B
331
4576
  5
4619
331
4413
  5
4413
331
4452
  5
4452
331
4304
  5
4304
331
4489
  5
448A
331
441B
  5
441B
331
445A
  5
445A
331
430C
  5
430C
331
4491
  5
4492
331
4499
  5
449A
331
44F0
  5
44FD
331
4423
  5
4423
331
44A1
  5
44A2
331
442B
  5
442B
331
446A
  5
446B
331
4433
  5
4433
331
443B
  5
443B
331
4472
  5
4473
331
4404
  5
4404
331
4443
  5
4443
331
447A
  5
447B
331
4482
  5
4483
331
440C
  5
440C
331
444B
  5
444B
331
44E1
  5
44F0
331
448A
  5
448B
331
4305
  5
4305
331
4414
  5
4414
331
4453
  5
4453
331
445B
  5
445B
331
4492
  5
4493
331
430D
  5
430D
331
441C
  5
441C
331
4424
  5
4424
331
449A
  5
449B
331
442C
  5
442C
331
44A2
  5
44A3
331
4434
  5
4434
331
446B
  5
446C
331
4473
  5
4474
331
443C
  5
443C
331
447B
  5
447C
331
4405
  5
4405
331
4444
  5
4444
331
444C
  5
444C
331
4483
  5
4484
331
440D
  5
440D
331
4519
  5
4526
331
4415
  5
4415
331
4454
  5
4454
331
4306
  5
4306
331
448B
  5
448C
331
4493
  5
4494
331
441D
  5
441D
331
445C
  5
445C
331
430E
  5
430E
331
449B
  5
449C
331
4425
  5
4425
331
4464
  5
4464
331
44A3
  5
44A4
331
442D
  5
442D
331
4435
  5
4435
331
446C
  5
446D
331
443D
  5
443D
331
4474
  5
4475
331
4406
  5
4406
331
4445
  5
4445
331
447C
  5
447D
331
4484
  5
4485
331
440E
  5
440E
331
444D
  5
444D
331
448C
  5
448D
331
4307
  5
4307
331
4416
  5
4416
331
4455
  5
4455
331
445D
  5
445D
331
4494
  5
4495
331
4130
  5
4130
331
430F
  5
430F
331
441E
  5
441E
331
4426
  5
4426
331
4465
  5
4465
331
449C
  5
449D
331
44A4
  5
44A5
331
442E
  5
442E
331
4436
  5
4436
331
446D
  5
446E
331
4475
  5
4476
331
443E
  5
443E
331
44D4
  5
44E1
331
4446
  5
4446
331
447D
  5
447E
331
4407
  5
4407
331
444E
  5
444E
331
4485
  5
4486
331
440F
  5
440F
331
4417
  5
4417
331
4456
  5
4456
331
4308
  5
4308
331
448D
  5
448E
331
4495
  5
4496
331
4310
  5
4310
331
441F
  5
441F
331
445E
  5
445E
331
449D
  5
449E
331
4427
  5
4427
331
4466
  5
4466
331
44A5
  5
44A6
331
442F
  5
442F
331
4437
  5
4437
331
446E
  5
446F
331
450C
  5
4519
331
443F
  5
443F
331
4476
  5
4477
331
4563
  5
4564
331
4400
  5
4400
331
4408
  5
4408
331
4447
  5
4447
331
447E
  5
447F
331
4486
  5
4487
331
444F
  5
444F
  0
XRECORD
  5
3D3A
102
{ACAD_REACTORS
330
1806
102
}
330
1806
100
AcDbXrecord
280
     1
340
14
  0
XRECORD
  5
4548
102
{ACAD_REACTORS
330
4546
102
}
330
4546
100
AcDbXrecord
280
     1
340
12
  0
XRECORD
  5
4549
102
{ACAD_REACTORS
330
4546
102
}
330
4546
100
AcDbXrecord
280
     1
340
12
  0
XRECORD
  5
4547
102
{ACAD_REACTORS
330
4546
102
}
330
4546
100
AcDbXrecord
280
     1
340
12
  0
LAYOUT
  5
3D5B
102
{ACAD_XDICTIONARY
360
47B7
102
}
102
{ACAD_REACTORS
330
3D5A
102
}
330
3D5A
100
AcDbPlotSettings
  1

  2
none_device
  4
Letter_(8.50_x_11.00_Inches)
  6

 40
6.349999904632568
 41
6.349999904632568
 42
6.350006103515625
 43
6.350006103515625
 44
215.8999938964844
 45
279.3999938964844
 46
15.76214073254637
 47
-63.13056739954399
 48
0.0
 49
0.0
140
0.0
141
0.0
142
1.0
143
28.8544
 70
 11940
 72
     0
 73
     1
 74
     0
  7
monochrome.ctb
 75
     0
147
0.034656759454364
148
-10936.40799454974
149
4043.757307839014
100
AcDbLayout
  1
Model
 70
     1
 71
     0
 10
0.0
 20
0.0
 11
12.0
 21
9.0
 12
0.0
 22
0.0
 32
0.0
 14
0.0
 24
0.0
 34
0.0
 15
0.0
 25
0.0
 35
0.0
146
0.0
 13
0.0
 23
0.0
 33
0.0
 16
1.0
 26
0.0
 36
0.0
 17
0.0
 27
1.0
 37
0.0
 76
     0
330
17
1001
ACAD_PSEXT
1000
なし
1000
なし
1000
適切ではありません
1000
新しいプロッタ環境設定名を選択しない限り、レイアウトは印刷されません。
1070
     0
  0
LAYOUT
  5
3D5C
102
{ACAD_XDICTIONARY
360
47B9
102
}
102
{ACAD_REACTORS
330
3D5A
102
}
330
3D5A
100
AcDbPlotSettings
  1

  2
Microsoft XPS Document Writer
  4

  6

 40
0.0
 41
0.0
 42
0.0
 43
0.0
 44
0.0
 45
0.0
 46
0.0
 47
0.0
 48
0.0
 49
0.0
140
0.0
141
0.0
142
1.0
143
1.0
 70
   688
 72
     0
 73
     0
 74
     5
  7
monochrome.ctb
 75
    16
147
1.0
148
0.0
149
0.0
100
AcDbLayout
  1
レイアウト1
 70
     1
 71
     1
 10
0.0
 20
0.0
 11
12.0
 21
9.0
 12
0.0
 22
0.0
 32
0.0
 14
1.000000000000000E+20
 24
1.000000000000000E+20
 34
1.000000000000000E+20
 15
-1.000000000000000E+20
 25
-1.000000000000000E+20
 35
-1.000000000000000E+20
146
0.0
 13
0.0
 23
0.0
 33
0.0
 16
1.0
 26
0.0
 36
0.0
 17
0.0
 27
1.0
 37
0.0
 76
     0
330
14
  0
MATERIAL
  5
3D44
102
{ACAD_XDICTIONARY
360
419D
102
}
102
{ACAD_REACTORS
330
3D42
102
}
330
3D42
100
AcDbMaterial
  1
ByBlock
  0
MATERIAL
  5
3D43
102
{ACAD_XDICTIONARY
360
419B
102
}
102
{ACAD_REACTORS
330
3D42
102
}
330
3D42
100
AcDbMaterial
  1
ByLayer
  0
MATERIAL
  5
3D45
102
{ACAD_XDICTIONARY
360
419F
102
}
102
{ACAD_REACTORS
330
3D42
102
}
330
3D42
100
AcDbMaterial
  1
Global
  0
MLINESTYLE
  5
1B
102
{ACAD_REACTORS
330
1A
102
}
330
1A
100
AcDbMlineStyle
  2
STANDARD
 70
     0
  3

 62
   256
 51
90.0
 52
90.0
 71
     2
 49
0.5
 62
   256
  6
BYLAYER
 49
-0.5
 62
   256
  6
BYLAYER
  0
ACDBPLACEHOLDER
  5
3D41
102
{ACAD_REACTORS
330
3D40
102
}
330
3D40
  0
TABLESTYLE
  5
3D59
102
{ACAD_XDICTIONARY
360
4552
102
}
102
{ACAD_REACTORS
330
3D58
102
}
330
3D58
100
AcDbTableStyle
  3
Standard
 70
     0
 71
     0
 40
0.06
 41
0.06
280
     0
281
     0
  7
STANDARD
140
0.18
170
     2
 62
     0
 63
     7
283
     0
274
    -2
284
     1
 64
     0
275
    -2
285
     1
 65
     0
276
    -2
286
     1
 66
     0
277
    -2
287
     1
 67
     0
278
    -2
288
     1
 68
     0
279
    -2
289
     1
 69
     0
  7
STANDARD
140
0.25
170
     5
 62
     0
 63
     7
283
     0
274
    -2
284
     1
 64
     0
275
    -2
285
     1
 65
     0
276
    -2
286
     1
 66
     0
277
    -2
287
     1
 67
     0
278
    -2
288
     1
 68
     0
279
    -2
289
     1
 69
     0
  7
STANDARD
140
0.18
170
     5
 62
     0
 63
     7
283
     0
274
    -2
284
     1
 64
     0
275
    -2
285
     1
 65
     0
276
    -2
286
     1
 66
     0
277
    -2
287
     1
 67
     0
278
    -2
288
     1
 68
     0
279
    -2
289
     1
 69
     0
  0
ACAD_PROXY_OBJECT
  5
3D4C
102
{ACAD_REACTORS
330
3D46
102
}
330
3D46
100
AcDbProxyObject
 90
      499
 91
      503
 95
  2555929
 70
     0
 93
      598
310
430C9915DA5C99599C985B59401049028333333333333E3BF0000000000000FB023FFFFFF0802405048070000C3008000000C800405A000000320014050640A01C00030C010500920280D3
 94
        0
1001
ACAD
1000
AcDbSavedByObjectVersion
1070
     0
1000
AcDbSavedByObjectVersion
1070
     0
1000
AcDbSavedByObjectVersion
1070
     0
1000
AcDbSavedByObjectVersion
1070
     0
1000
AcDbSavedByObjectVersion
1070
     0
1000
AcDbSavedByObjectVersion
1070
     0
1000
AcDbSavedByObjectVersion
1070
     0
1000
AcDbSavedByObjectVersion
1070
     0
1000
AcDbSavedByObjectVersion
1070
     0
1000
AcRTDxfName
1000
VISUALSTYLE
  0
ACAD_PROXY_OBJECT
  5
3D4E
102
{ACAD_REACTORS
330
3D46
102
}
330
3D46
100
AcDbProxyObject
 90
      499
 91
      503
 95
  2555929
 70
     0
 93
      662
310
428CD108121A5919195B8010640502408333333333333E3BF0000000000000FB023FFFFFF0802409028070000C3008000000C8004080000000000004440A000000320014050640A01C00030C010300920280D0
 94
        0
1001
ACAD
1000
AcDbSavedByObjectVersion
1070
     0
1000
AcDbSavedByObjectVersion
1070
     0
1000
AcDbSavedByObjectVersion
1070
     0
1000
AcDbSavedByObjectVersion
1070
     0
1000
AcDbSavedByObjectVersion
1070
     0
1000
AcDbSavedByObjectVersion
1070
     0
1000
AcDbSavedByObjectVersion
1070
     0
1000
AcDbSavedByObjectVersion
1070
     0
1000
AcDbSavedByObjectVersion
1070
     0
1000
AcRTDxfName
1000
VISUALSTYLE
  0
ACAD_PROXY_OBJECT
  5
3D4D
102
{ACAD_REACTORS
330
3D46
102
}
330
3D46
100
AcDbProxyObject
 90
      499
 91
      503
 95
  2555929
 70
     0
 93
      598
310
430CD915DA5C99599C985B59401059028333333333333E3BF0000000000000FB023FFFFFF0802405048070000C3008000000C800405A000000320014050640A01C00030C010500920280D0
 94
        0
1001
ACAD
1000
AcDbSavedByObjectVersion
1070
     0
1000
AcDbSavedByObjectVersion
1070
     0
1000
AcDbSavedByObjectVersion
1070
     0
1000
AcDbSavedByObjectVersion
1070
     0
1000
AcDbSavedByObjectVersion
1070
     0
1000
AcDbSavedByObjectVersion
1070
     0
1000
AcDbSavedByObjectVersion
1070
     0
1000
AcDbSavedByObjectVersion
1070
     0
1000
AcDbSavedByObjectVersion
1070
     0
1000
AcRTDxfName
1000
VISUALSTYLE
  0
ACAD_PROXY_OBJECT
  5
3D4B
102
{ACAD_REACTORS
330
3D46
102
}
330
3D46
100
AcDbProxyObject
 90
      499
 91
      503
 95
  2555929
 70
     0
 93
      558
310
4190985CDA58C0107406404333333333333E3BF0000000000000FB023FFFFFF08029048070000C3008000000C80040542201C00030C014050640A01C00030C010500920280D6
 94
        0
1001
ACAD
1000
AcDbSavedByObjectVersion
1070
     0
1000
AcDbSavedByObjectVersion
1070
     0
1000
AcDbSavedByObjectVersion
1070
     0
1000
AcDbSavedByObjectVersion
1070
     0
1000
AcDbSavedByObjectVersion
1070
     0
1000
AcDbSavedByObjectVersion
1070
     0
1000
AcDbSavedByObjectVersion
1070
     0
1000
AcDbSavedByObjectVersion
1070
     0
1000
AcDbSavedByObjectVersion
1070
     0
1000
AcRTDxfName
1000
VISUALSTYLE
  0
ACAD_PROXY_OBJECT
  5
3D52
102
{ACAD_REACTORS
330
3D46
102
}
330
3D46
100
AcDbProxyObject
 90
      499
 91
      503
 95
  2555929
 70
     0
 93
      598
310
42509C9A59DA1D195B8010C409028333333333333E3BF0000000000000FB023FFFFFF0802405048070000C3008000000C80040542201C00030C014050640A01C00030C010500920280A657
 94
        0
1001
ACAD
1000
AcDbSavedByObjectVersion
1070
     0
1000
AcDbSavedByObjectVersion
1070
     0
1000
AcDbSavedByObjectVersion
1070
     0
1000
AcDbSavedByObjectVersion
1070
     0
1000
AcDbSavedByObjectVersion
1070
     0
1000
AcDbSavedByObjectVersion
1070
     0
1000
AcDbSavedByObjectVersion
1070
     0
1000
AcDbSavedByObjectVersion
1070
     0
1000
AcDbSavedByObjectVersion
1070
     0
1000
AcRTDxfName
1000
VISUALSTYLE
  0
ACAD_PROXY_OBJECT
  5
3D56
102
{ACAD_REACTORS
330
3D46
102
}
330
3D46
100
AcDbProxyObject
 90
      499
 91
      503
 95
  2555929
 70
     0
 93
      622
310
4310DBDB1BDC90DA185B99D9401104090240C333333333333E3BF0000000000000FB0220202030802405048070000C3008000000C800405422202020308014050640A01C00030C010500920280D7
 94
        0
1001
ACAD
1000
AcDbSavedByObjectVersion
1070
     0
1000
AcDbSavedByObjectVersion
1070
     0
1000
AcDbSavedByObjectVersion
1070
     0
1000
AcDbSavedByObjectVersion
1070
     0
1000
AcDbSavedByObjectVersion
1070
     0
1000
AcDbSavedByObjectVersion
1070
     0
1000
AcDbSavedByObjectVersion
1070
     0
1000
AcDbSavedByObjectVersion
1070
     0
1000
AcDbSavedByObjectVersion
1070
     0
1000
AcRTDxfName
1000
VISUALSTYLE
  0
ACAD_PROXY_OBJECT
  5
3D4F
102
{ACAD_REACTORS
330
3D46
102
}
330
3D46
100
AcDbProxyObject
 90
      499
 91
      503
 95
  2555929
 70
     0
 93
      670
310
42D0DBDB98D95C1D1D585B0010940D028333333333333E3BF0000000000000FB023FFFFFF0802409028070000C3008000000C800404000000000000444042201C00030C014050640A01C00030C010300920280D0
 94
        0
1001
ACAD
1000
AcDbSavedByObjectVersion
1070
     0
1000
AcDbSavedByObjectVersion
1070
     0
1000
AcDbSavedByObjectVersion
1070
     0
1000
AcDbSavedByObjectVersion
1070
     0
1000
AcDbSavedByObjectVersion
1070
     0
1000
AcDbSavedByObjectVersion
1070
     0
1000
AcDbSavedByObjectVersion
1070
     0
1000
AcDbSavedByObjectVersion
1070
     0
1000
AcDbSavedByObjectVersion
1070
     0
1000
AcRTDxfName
1000
VISUALSTYLE
  0
ACAD_PROXY_OBJECT
  5
3D51
102
{ACAD_REACTORS
330
3D46
102
}
330
3D46
100
AcDbProxyObject
 90
      499
 91
      503
 95
  2555929
 70
     0
 93
      582
310
41111A5B4010B409028333333333333E3BF0000000000000FB023FFFFFF0802405048070000C3008000000C80040542201C00030C014050640A01C00030C01050092028099DFFFFFF4
 94
        0
1001
ACAD
1000
AcDbSavedByObjectVersion
1070
     0
1000
AcDbSavedByObjectVersion
1070
     0
1000
AcDbSavedByObjectVersion
1070
     0
1000
AcDbSavedByObjectVersion
1070
     0
1000
AcDbSavedByObjectVersion
1070
     0
1000
AcDbSavedByObjectVersion
1070
     0
1000
AcDbSavedByObjectVersion
1070
     0
1000
AcDbSavedByObjectVersion
1070
     0
1000
AcDbSavedByObjectVersion
1070
     0
1000
AcRTDxfName
1000
VISUALSTYLE
  0
ACAD_PROXY_OBJECT
  5
3D55
102
{ACAD_REACTORS
330
3D46
102
}
330
3D46
100
AcDbProxyObject
 90
      499
 91
      503
 95
  2555929
 70
     0
 93
      614
310
43119858D95C185D1D195C9B8010F409028333333333333E3BF0000000000000FB023FFFFFF0802405048070000C3008000000C80040542201C00030C014050640A01C00030C010500920280D4
 94
        0
1001
ACAD
1000
AcDbSavedByObjectVersion
1070
     0
1000
AcDbSavedByObjectVersion
1070
     0
1000
AcDbSavedByObjectVersion
1070
     0
1000
AcDbSavedByObjectVersion
1070
     0
1000
AcDbSavedByObjectVersion
1070
     0
1000
AcDbSavedByObjectVersion
1070
     0
1000
AcDbSavedByObjectVersion
1070
     0
1000
AcDbSavedByObjectVersion
1070
     0
1000
AcDbSavedByObjectVersion
1070
     0
1000
AcRTDxfName
1000
VISUALSTYLE
  0
ACAD_PROXY_OBJECT
  5
3D47
102
{ACAD_REACTORS
330
3D46
102
}
330
3D46
100
AcDbProxyObject
 90
      499
 91
      503
 95
  2555929
 70
     0
 93
      558
310
41519B185D00240901404333333333333E3BF0000000000000F9023FFFFFF0801029048070000C3008000000C80040542201C00030C014050640A01C00030C010500920286D4
 94
        0
1001
ACAD
1000
AcDbSavedByObjectVersion
1070
     0
1000
AcDbSavedByObjectVersion
1070
     0
1000
AcDbSavedByObjectVersion
1070
     0
1000
AcDbSavedByObjectVersion
1070
     0
1000
AcDbSavedByObjectVersion
1070
     0
1000
AcDbSavedByObjectVersion
1070
     0
1000
AcDbSavedByObjectVersion
1070
     0
1000
AcDbSavedByObjectVersion
1070
     0
1000
AcDbSavedByObjectVersion
1070
     0
1000
AcRTDxfName
1000
VISUALSTYLE
  0
ACAD_PROXY_OBJECT
  5
3D48
102
{ACAD_REACTORS
330
3D46
102
}
330
3D46
100
AcDbProxyObject
 90
      499
 91
      503
 95
  2555929
 70
     0
 93
      638
310
43919B185D15DA5D1A115919D95CC010140901404333333333333E3BF0000000000000F9023FFFFFF080102405048070000C3008000000C800405A000000320014050640A01C00030C010500920286D4
 94
        0
1001
ACAD
1000
AcDbSavedByObjectVersion
1070
     0
1000
AcDbSavedByObjectVersion
1070
     0
1000
AcDbSavedByObjectVersion
1070
     0
1000
AcDbSavedByObjectVersion
1070
     0
1000
AcDbSavedByObjectVersion
1070
     0
1000
AcDbSavedByObjectVersion
1070
     0
1000
AcDbSavedByObjectVersion
1070
     0
1000
AcDbSavedByObjectVersion
1070
     0
1000
AcDbSavedByObjectVersion
1070
     0
1000
AcRTDxfName
1000
VISUALSTYLE
  0
ACAD_PROXY_OBJECT
  5
3D49
102
{ACAD_REACTORS
330
3D46
102
}
330
3D46
100
AcDbProxyObject
 90
      499
 91
      503
 95
  2555929
 70
     0
 93
      582
310
4211DBDD5C985D590010240902404333333333333E3BF0000000000000F9023FFFFFF0801029048070000C3008000000C800405A01C00030C014050640A01C00030C010500920286D4
 94
        0
1001
ACAD
1000
AcDbSavedByObjectVersion
1070
     0
1000
AcDbSavedByObjectVersion
1070
     0
1000
AcDbSavedByObjectVersion
1070
     0
1000
AcDbSavedByObjectVersion
1070
     0
1000
AcDbSavedByObjectVersion
1070
     0
1000
AcDbSavedByObjectVersion
1070
     0
1000
AcDbSavedByObjectVersion
1070
     0
1000
AcDbSavedByObjectVersion
1070
     0
1000
AcDbSavedByObjectVersion
1070
     0
1000
AcRTDxfName
1000
VISUALSTYLE
  0
ACAD_PROXY_OBJECT
  5
3D4A
102
{ACAD_REACTORS
330
3D46
102
}
330
3D46
100
AcDbProxyObject
 90
      499
 91
      503
 95
  2555929
 70
     0
 93
      662
310
4451DBDD5C985D5915DA5D1A115919D95CC010340902404333333333333E3BF0000000000000F9023FFFFFF080102405048070000C3008000000C800405A000000320014050640A01C00030C010500920286D4
 94
        0
1001
ACAD
1000
AcDbSavedByObjectVersion
1070
     0
1000
AcDbSavedByObjectVersion
1070
     0
1000
AcDbSavedByObjectVersion
1070
     0
1000
AcDbSavedByObjectVersion
1070
     0
1000
AcDbSavedByObjectVersion
1070
     0
1000
AcDbSavedByObjectVersion
1070
     0
1000
AcDbSavedByObjectVersion
1070
     0
1000
AcDbSavedByObjectVersion
1070
     0
1000
AcDbSavedByObjectVersion
1070
     0
1000
AcRTDxfName
1000
VISUALSTYLE
  0
ACAD_PROXY_OBJECT
  5
3D54
102
{ACAD_REACTORS
330
3D46
102
}
330
3D46
100
AcDbProxyObject
 90
      499
 91
      503
 95
  2555929
 70
     0
 93
      614
310
43131A5B995C185D1D195C9B8010E409028333333333333E3BF0000000000000FB023FFFFFF0802405048070000C3008000000C80041D42201C00030C014050640A01C00030C010500920E80D5
 94
        0
1001
ACAD
1000
AcDbSavedByObjectVersion
1070
     0
1000
AcDbSavedByObjectVersion
1070
     0
1000
AcDbSavedByObjectVersion
1070
     0
1000
AcDbSavedByObjectVersion
1070
     0
1000
AcDbSavedByObjectVersion
1070
     0
1000
AcDbSavedByObjectVersion
1070
     0
1000
AcDbSavedByObjectVersion
1070
     0
1000
AcDbSavedByObjectVersion
1070
     0
1000
AcDbSavedByObjectVersion
1070
     0
1000
AcRTDxfName
1000
VISUALSTYLE
  0
ACAD_PROXY_OBJECT
  5
3D50
102
{ACAD_REACTORS
330
3D46
102
}
330
3D46
100
AcDbProxyObject
 90
      499
 91
      503
 95
  2555929
 70
     0
 93
      590
310
429499585B1A5CDD1A58C0108409028333333333333E3BF0000000000000FB023FFFFFF08024068070000C3008000000C8004054221E1E1E308014050640A01C00030C010500920286D0
 94
        0
1001
ACAD
1000
AcDbSavedByObjectVersion
1070
     0
1000
AcDbSavedByObjectVersion
1070
     0
1000
AcDbSavedByObjectVersion
1070
     0
1000
AcDbSavedByObjectVersion
1070
     0
1000
AcDbSavedByObjectVersion
1070
     0
1000
AcDbSavedByObjectVersion
1070
     0
1000
AcDbSavedByObjectVersion
1070
     0
1000
AcDbSavedByObjectVersion
1070
     0
1000
AcDbSavedByObjectVersion
1070
     0
1000
AcRTDxfName
1000
VISUALSTYLE
  0
ACAD_PROXY_OBJECT
  5
3D53
102
{ACAD_REACTORS
330
3D46
102
}
330
3D46
100
AcDbProxyObject
 90
      499
 91
      503
 95
  2555929
 70
     0
 93
      582
310
42151A1A58DAD95B8010D409028333333333333E3BF0000000000000FB023FFFFFF0802405048070000C3008000000C80040543201C00030C014050640A01C00030C010500920280D4
 94
        0
1001
ACAD
1000
AcDbSavedByObjectVersion
1070
     0
1000
AcDbSavedByObjectVersion
1070
     0
1000
AcDbSavedByObjectVersion
1070
     0
1000
AcDbSavedByObjectVersion
1070
     0
1000
AcDbSavedByObjectVersion
1070
     0
1000
AcDbSavedByObjectVersion
1070
     0
1000
AcDbSavedByObjectVersion
1070
     0
1000
AcDbSavedByObjectVersion
1070
     0
1000
AcDbSavedByObjectVersion
1070
     0
1000
AcRTDxfName
1000
VISUALSTYLE
  0
DICTIONARYVAR
  5
4117
102
{ACAD_REACTORS
330
4116
102
}
330
4116
100
DictionaryVariables
280
     0
  1
STANDARD
  0
DICTIONARYVAR
  5
47B2
102
{ACAD_REACTORS
330
4116
102
}
330
4116
100
DictionaryVariables
280
     0
  1
1
  0
DICTIONARYVAR
  5
47B3
102
{ACAD_REACTORS
330
4116
102
}
330
4116
100
DictionaryVariables
280
     0
  1

  0
DICTIONARY
  5
47B7
330
3D5B
100
AcDbDictionary
280
     1
281
     1
  3
ACAD_XREC_ROUNDTRIP
360
47B8
  0
DICTIONARY
  5
47B9
330
3D5C
100
AcDbDictionary
280
     1
281
     1
  3
ACAD_XREC_ROUNDTRIP
360
47BA
  0
DICTIONARY
  5
419D
330
3D44
100
AcDbDictionary
280
     1
281
     1
  3
ACAD_XREC_ROUNDTRIP
360
419E
  0
DICTIONARY
  5
419B
330
3D43
100
AcDbDictionary
280
     1
281
     1
  3
ACAD_XREC_ROUNDTRIP
360
419C
  0
DICTIONARY
  5
419F
330
3D45
100
AcDbDictionary
280
     1
281
     1
  3
ACAD_XREC_ROUNDTRIP
360
41A0
  0
DICTIONARY
  5
4552
330
3D59
100
AcDbDictionary
280
     1
281
     1
  3
ACAD_XREC_ROUNDTRIP
360
4553
  0
XRECORD
  5
47B8
102
{ACAD_REACTORS
330
47B7
102
}
330
47B7
100
AcDbXrecord
280
     1
102
SHADEPLOT
 70
     0
102
SHADEPLOTRESLEVEL
 70
     2
102
SHADEPLOTCUSTOMDPI
 70
   300
  0
XRECORD
  5
47BA
102
{ACAD_REACTORS
330
47B9
102
}
330
47B9
100
AcDbXrecord
280
     1
102
SHADEPLOT
 70
     0
102
SHADEPLOTRESLEVEL
 70
     2
102
SHADEPLOTCUSTOMDPI
 70
   300
  0
XRECORD
  5
419E
102
{ACAD_REACTORS
330
419D
102
}
330
419D
100
AcDbXrecord
280
     1
102
MATERIAL
148
0.0
149
0.0
149
0.0
 93
        0
 94
       63
282
     0
 72
     1
 77
     1
171
     1
175
     1
179
     1
273
     0
  0
XRECORD
  5
419C
102
{ACAD_REACTORS
330
419B
102
}
330
419B
100
AcDbXrecord
280
     1
102
MATERIAL
148
0.0
149
0.0
149
0.0
 93
        0
 94
       63
282
     0
 72
     1
 77
     1
171
     1
175
     1
179
     1
273
     0
  0
XRECORD
  5
41A0
102
{ACAD_REACTORS
330
419F
102
}
330
419F
100
AcDbXrecord
280
     1
102
MATERIAL
148
0.0
149
0.0
149
0.0
 93
        0
 94
       63
282
     0
 72
     1
 77
     1
171
     1
175
     1
179
     1
273
     0
  0
XRECORD
  5
4553
102
{ACAD_REACTORS
330
4552
102
}
330
4552
100
AcDbXrecord
280
     1
102
ACAD_ROUNDTRIP_PRE2007_TABLESTYLE
 90
      512
 91
        0
  1

 92
      512
 93
        0
  2

 94
      512
 95
        0
  3

  0
ENDSEC
  0
EOF
