  0
SECTION
  2
HEADER
  9
$ACADVER
  1
AC1015
  9
$ACADMAINTVER
 70
    20
  9
$DWGCODEPAGE
  3
ANSI_932
  9
$INSBASE
 10
0.0
 20
0.0
 30
0.0
  9
$EXTMIN
 10
496.5339738418074
 20
-140.7568955259887
 30
-0.0000000349181948
  9
$EXTMAX
 10
730.7354883799771
 20
15.14623110365994
 30
0.0000000814935746
  9
$LIMMIN
 10
0.0
 20
0.0
  9
$LIMMAX
 10
12.0
 20
9.0
  9
$ORTHOMODE
 70
     1
  9
$REGENMODE
 70
     1
  9
$FILLMODE
 70
     1
  9
$QTEXTMODE
 70
     0
  9
$MIRRTEXT
 70
     1
  9
$LTSCALE
 40
0.5
  9
$ATTMODE
 70
     1
  9
$TEXTSIZE
 40
2.5
  9
$TRACEWID
 40
0.05
  9
$TEXTSTYLE
  7
CatalogDxf
  9
$CLAYER
  8
Z_OM_DIM
  9
$CELTYPE
  6
BYLAYER
  9
$CECOLOR
 62
   256
  9
$CELTSCALE
 40
1.0
  9
$DISPSILH
 70
     0
  9
$DIMSCALE
 40
1.0
  9
$DIMASZ
 40
2.5
  9
$DIMEXO
 40
0.625
  9
$DIMDLI
 40
3.75
  9
$DIMRND
 40
0.0
  9
$DIMDLE
 40
0.0
  9
$DIMEXE
 40
1.25
  9
$DIMTP
 40
0.0
  9
$DIMTM
 40
0.0
  9
$DIMTXT
 40
2.5
  9
$DIMCEN
 40
2.5
  9
$DIMTSZ
 40
0.0
  9
$DIMTOL
 70
     0
  9
$DIMLIM
 70
     0
  9
$DIMTIH
 70
     0
  9
$DIMTOH
 70
     0
  9
$DIMSE1
 70
     0
  9
$DIMSE2
 70
     0
  9
$DIMTAD
 70
     1
  9
$DIMZIN
 70
     8
  9
$DIMBLK
  1
OPEN30
  9
$DIMASO
 70
     1
  9
$DIMSHO
 70
     1
  9
$DIMPOST
  1

  9
$DIMAPOST
  1

  9
$DIMALT
 70
     0
  9
$DIMALTD
 70
     3
  9
$DIMALTF
 40
0.03937007874016
  9
$DIMLFAC
 40
1.0
  9
$DIMTOFL
 70
     1
  9
$DIMTVP
 40
0.0
  9
$DIMTIX
 70
     0
  9
$DIMSOXD
 70
     0
  9
$DIMSAH
 70
     0
  9
$DIMBLK1
  1

  9
$DIMBLK2
  1

  9
$DIMSTYLE
  2
CatalogDxf
  9
$DIMCLRD
 70
   256
  9
$DIMCLRE
 70
   256
  9
$DIMCLRT
 70
   256
  9
$DIMTFAC
 40
1.0
  9
$DIMGAP
 40
0.625
  9
$DIMJUST
 70
     0
  9
$DIMSD1
 70
     0
  9
$DIMSD2
 70
     0
  9
$DIMTOLJ
 70
     0
  9
$DIMTZIN
 70
     8
  9
$DIMALTZ
 70
     0
  9
$DIMALTTZ
 70
     0
  9
$DIMUPT
 70
     0
  9
$DIMDEC
 70
     1
  9
$DIMTDEC
 70
     1
  9
$DIMALTU
 70
     2
  9
$DIMALTTD
 70
     3
  9
$DIMTXSTY
  7
CatalogDxf
  9
$DIMAUNIT
 70
     0
  9
$DIMADEC
 70
     0
  9
$DIMALTRND
 40
0.0
  9
$DIMAZIN
 70
     0
  9
$DIMDSEP
 70
    46
  9
$DIMATFIT
 70
     3
  9
$DIMFRAC
 70
     0
  9
$DIMLDRBLK
  1
OPEN30
  9
$DIMLUNIT
 70
     2
  9
$DIMLWD
 70
    -1
  9
$DIMLWE
 70
    -1
  9
$DIMTMOVE
 70
     0
  9
$LUNITS
 70
     2
  9
$LUPREC
 70
     2
  9
$SKETCHINC
 40
0.1
  9
$FILLETRAD
 40
0.0
  9
$AUNITS
 70
     0
  9
$AUPREC
 70
     2
  9
$MENU
  1
acad
  9
$ELEVATION
 40
0.0
  9
$PELEVATION
 40
0.0
  9
$THICKNESS
 40
0.0
  9
$LIMCHECK
 70
     0
  9
$CHAMFERA
 40
0.0
  9
$CHAMFERB
 40
0.0
  9
$CHAMFERC
 40
0.0
  9
$CHAMFERD
 40
0.0
  9
$SKPOLY
 70
     0
  9
$TDCREATE
 40
2455090.761732894
  9
$TDUCREATE
 40
2455090.386732893
  9
$TDUPDATE
 40
2455678.575795451
  9
$TDUUPDATE
 40
2455678.200795451
  9
$TDINDWG
 40
0.5488236690
  9
$TDUSRTIMER
 40
0.5488169676
  9
$USRTIMER
 70
     1
  9
$ANGBASE
 50
0.0
  9
$ANGDIR
 70
     0
  9
$PDMODE
 70
     0
  9
$PDSIZE
 40
0.0
  9
$PLINEWID
 40
0.0
  9
$SPLFRAME
 70
     0
  9
$SPLINETYPE
 70
     6
  9
$SPLINESEGS
 70
     8
  9
$HANDSEED
  5
4818
  9
$SURFTAB1
 70
     6
  9
$SURFTAB2
 70
     6
  9
$SURFTYPE
 70
     6
  9
$SURFU
 70
     6
  9
$SURFV
 70
     6
  9
$UCSBASE
  2

  9
$UCSNAME
  2

  9
$UCSORG
 10
0.0
 20
0.0
 30
0.0
  9
$UCSXDIR
 10
1.0
 20
0.0
 30
0.0
  9
$UCSYDIR
 10
0.0
 20
1.0
 30
0.0
  9
$UCSORTHOREF
  2

  9
$UCSORTHOVIEW
 70
     1
  9
$UCSORGTOP
 10
0.0
 20
0.0
 30
0.0
  9
$UCSORGBOTTOM
 10
0.0
 20
0.0
 30
0.0
  9
$UCSORGLEFT
 10
0.0
 20
0.0
 30
0.0
  9
$UCSORGRIGHT
 10
0.0
 20
0.0
 30
0.0
  9
$UCSORGFRONT
 10
0.0
 20
0.0
 30
0.0
  9
$UCSORGBACK
 10
0.0
 20
0.0
 30
0.0
  9
$PUCSBASE
  2

  9
$PUCSNAME
  2

  9
$PUCSORG
 10
0.0
 20
0.0
 30
0.0
  9
$PUCSXDIR
 10
1.0
 20
0.0
 30
0.0
  9
$PUCSYDIR
 10
0.0
 20
1.0
 30
0.0
  9
$PUCSORTHOREF
  2

  9
$PUCSORTHOVIEW
 70
     0
  9
$PUCSORGTOP
 10
0.0
 20
0.0
 30
0.0
  9
$PUCSORGBOTTOM
 10
0.0
 20
0.0
 30
0.0
  9
$PUCSORGLEFT
 10
0.0
 20
0.0
 30
0.0
  9
$PUCSORGRIGHT
 10
0.0
 20
0.0
 30
0.0
  9
$PUCSORGFRONT
 10
0.0
 20
0.0
 30
0.0
  9
$PUCSORGBACK
 10
0.0
 20
0.0
 30
0.0
  9
$USERI1
 70
     0
  9
$USERI2
 70
     0
  9
$USERI3
 70
     0
  9
$USERI4
 70
     0
  9
$USERI5
 70
     0
  9
$USERR1
 40
0.0
  9
$USERR2
 40
0.0
  9
$USERR3
 40
0.0
  9
$USERR4
 40
0.0
  9
$USERR5
 40
0.0
  9
$WORLDVIEW
 70
     1
  9
$SHADEDGE
 70
     3
  9
$SHADEDIF
 70
    70
  9
$TILEMODE
 70
     1
  9
$MAXACTVP
 70
    16
  9
$PINSBASE
 10
0.0
 20
0.0
 30
0.0
  9
$PLIMCHECK
 70
     0
  9
$PEXTMIN
 10
1.000000000000000E+20
 20
1.000000000000000E+20
 30
1.000000000000000E+20
  9
$PEXTMAX
 10
-1.000000000000000E+20
 20
-1.000000000000000E+20
 30
-1.000000000000000E+20
  9
$PLIMMIN
 10
0.0
 20
0.0
  9
$PLIMMAX
 10
12.0
 20
9.0
  9
$UNITMODE
 70
     0
  9
$VISRETAIN
 70
     0
  9
$PLINEGEN
 70
     0
  9
$PSLTSCALE
 70
     1
  9
$TREEDEPTH
 70
  3020
  9
$CMLSTYLE
  2
STANDARD
  9
$CMLJUST
 70
     0
  9
$CMLSCALE
 40
1.0
  9
$PROXYGRAPHICS
 70
     1
  9
$MEASUREMENT
 70
     0
  9
$CELWEIGHT
370
    -1
  9
$ENDCAPS
280
     0
  9
$JOINSTYLE
280
     0
  9
$LWDISPLAY
290
     0
  9
$INSUNITS
 70
     0
  9
$HYPERLINKBASE
  1

  9
$STYLESHEET
  1
monochrome.ctb
  9
$XEDIT
290
     1
  9
$CEPSNTYPE
380
     0
  9
$PSTYLEMODE
290
     1
  9
$FINGERPRINTGUID
  2
{AFC0AA2D-B3CD-48CF-B830-EF9C44F122D3}
  9
$VERSIONGUID
  2
{033CEA57-DB49-4809-9AF6-4990FE098E02}
  9
$EXTNAMES
290
     1
  9
$PSVPSCALE
 40
0.0
  9
$OLESTARTUP
290
     0
  0
ENDSEC
  0
SECTION
  2
CLASSES
  0
CLASS
  1
ACDBDICTIONARYWDFLT
  2
AcDbDictionaryWithDefault
  3
ObjectDBX Classes
 90
        0
280
     0
281
     0
  0
CLASS
  1
DICTIONARYVAR
  2
AcDbDictionaryVar
  3
ObjectDBX Classes
 90
        0
280
     0
281
     0
  0
CLASS
  1
MATERIAL
  2
AcDbMaterial
  3
ObjectDBX Classes
 90
        0
280
     0
281
     0
  0
CLASS
  1
VISUALSTYLE
  2
AcDbVisualStyle
  3
ObjectDBX Classes
 90
     4095
280
     0
281
     0
  0
CLASS
  1
TABLESTYLE
  2
AcDbTableStyle
  3
ObjectDBX Classes
 90
     2047
280
     0
281
     0
  0
CLASS
  1
DIMASSOC
  2
AcDbDimAssoc
  3
"AcDbDimAssoc|Product Desc:     AcDim ARX App For Dimension|Company:          Autodesk, Inc.|WEB Address:      www.autodesk.com"
 90
    32768
280
     0
281
     0
  0
CLASS
  1
SORTENTSTABLE
  2
AcDbSortentsTable
  3
ObjectDBX Classes
 90
    32768
280
     0
281
     0
  0
CLASS
  1
ACDBPLACEHOLDER
  2
AcDbPlaceHolder
  3
ObjectDBX Classes
 90
        0
280
     0
281
     0
  0
CLASS
  1
LAYOUT
  2
AcDbLayout
  3
ObjectDBX Classes
 90
        0
280
     0
281
     0
  0
ENDSEC
  0
SECTION
  2
TABLES
  0
TABLE
  2
VPORT
  5
8
102
{ACAD_XDICTIONARY
360
45D0
102
}
330
0
100
AcDbSymbolTable
 70
     2
  0
VPORT
  5
4811
330
8
100
AcDbSymbolTableRecord
100
AcDbViewportTableRecord
  2
*Active
 70
     0
 10
0.0
 20
0.0
 11
1.0
 21
1.0
 12
637.1590518319824
 22
-62.72274473740442
 13
0.0
 23
0.0
 14
1.0
 24
1.0
 15
0.0
 25
0.0
 16
0.0
 26
0.0
 36
1.0
 17
0.0
 27
0.0
 37
0.0
 40
215.5075882155546
 41
2.288973384030418
 42
50.0
 43
0.0
 44
0.0
 50
0.0
 51
0.0
 71
     0
 72
   100
 73
     1
 74
     1
 75
     0
 76
     0
 77
     0
 78
     0
281
     0
 65
     1
110
0.0
120
0.0
130
0.0
111
1.0
121
0.0
131
0.0
112
0.0
122
1.0
132
0.0
 79
     0
146
0.0
  0
ENDTAB
  0
TABLE
  2
LTYPE
  5
5
330
0
100
AcDbSymbolTable
 70
     3
  0
LTYPE
  5
11
330
5
100
AcDbSymbolTableRecord
100
AcDbLinetypeTableRecord
  2
BYBLOCK
 70
     0
  3

 72
    65
 73
     0
 40
0.0
  0
LTYPE
  5
12
330
5
100
AcDbSymbolTableRecord
100
AcDbLinetypeTableRecord
  2
BYLAYER
 70
     0
  3

 72
    65
 73
     0
 40
0.0
  0
LTYPE
  5
13
330
5
100
AcDbSymbolTableRecord
100
AcDbLinetypeTableRecord
  2
CONTINUOUS
 70
     0
  3
Solid line
 72
    65
 73
     0
 40
0.0
  0
LTYPE
  5
3DB3
330
5
100
AcDbSymbolTableRecord
100
AcDbLinetypeTableRecord
  2
CENTER2
 70
     0
  3
Center (.5x) ___ _ ___ _ ___ _ ___ _ ___ _ ___
 72
    65
 73
     4
 40
28.575
 49
19.05
 74
     0
 49
-3.174999999999998
 74
     0
 49
3.174999999999998
 74
     0
 49
-3.174999999999998
 74
     0
  0
LTYPE
  5
3DB4
330
5
100
AcDbSymbolTableRecord
100
AcDbLinetypeTableRecord
  2
HIDDEN2
 70
     0
  3
Hidden (.5x) _ _ _ _ _ _ _ _ _ _ _ _ _ _ _ _ _
 72
    65
 73
     2
 40
4.762499999999998
 49
3.174999999999998
 74
     0
 49
-1.587499999999999
 74
     0
  0
ENDTAB
  0
TABLE
  2
LAYER
  5
2
102
{ACAD_XDICTIONARY
360
3DBA
102
}
330
0
100
AcDbSymbolTable
 70
     4
  0
LAYER
  5
E
102
{ACAD_XDICTIONARY
360
45D2
102
}
330
2
100
AcDbSymbolTableRecord
100
AcDbLayerTableRecord
  2
0
 70
     0
 62
     7
  6
CONTINUOUS
370
    -3
390
3D41
  0
LAYER
  5
27
102
{ACAD_XDICTIONARY
360
45D4
102
}
330
2
100
AcDbSymbolTableRecord
100
AcDbLayerTableRecord
  2
Z_OM_DIM
 70
     0
 62
     4
  6
CONTINUOUS
370
    -3
390
3D41
  0
LAYER
  5
2B
102
{ACAD_XDICTIONARY
360
45D6
102
}
330
2
100
AcDbSymbolTableRecord
100
AcDbLayerTableRecord
  2
DEFPOINTS
 70
     0
 62
     7
  6
CONTINUOUS
290
     0
370
    -3
390
3D41
  0
LAYER
  5
3DB5
102
{ACAD_XDICTIONARY
360
45DA
102
}
330
2
100
AcDbSymbolTableRecord
100
AcDbLayerTableRecord
  2
additional
 70
     0
 62
    50
  6
CONTINUOUS
370
    -3
390
3D41
1001
AcAecLayerStandard
1000

1000

  0
ENDTAB
  0
TABLE
  2
STYLE
  5
3
330
0
100
AcDbSymbolTable
 70
     4
  0
STYLE
  5
F
330
3
100
AcDbSymbolTableRecord
100
AcDbTextStyleTableRecord
  2
STANDARD
 70
     0
 40
0.0
 41
1.08
 50
0.0
 71
     0
 42
3.0
  3
txt.shx
  4
bigfont.shx
  0
STYLE
  5
3DB6
330
3
100
AcDbSymbolTableRecord
100
AcDbTextStyleTableRecord
  2
CatalogDxf
 70
     0
 40
0.0
 41
1.0
 50
0.0
 71
     0
 42
2.5
  3
txt.shx
  4
bigfont.shx
  0
STYLE
  5
4196
330
3
100
AcDbSymbolTableRecord
100
AcDbTextStyleTableRecord
  2

 70
     1
 40
0.0
 41
1.0
 50
0.0
 71
     0
 42
3.0
  3
ltypeshp.shx
  4

  0
ENDTAB
  0
TABLE
  2
VIEW
  5
6
330
0
100
AcDbSymbolTable
 70
     0
  0
ENDTAB
  0
TABLE
  2
UCS
  5
7
330
0
100
AcDbSymbolTable
 70
     0
  0
ENDTAB
  0
TABLE
  2
APPID
  5
9
330
0
100
AcDbSymbolTable
 70
     7
  0
APPID
  5
10
330
9
100
AcDbSymbolTableRecord
100
AcDbRegAppTableRecord
  2
ACAD
 70
     0
  0
APPID
  5
3D5E
330
9
100
AcDbSymbolTableRecord
100
AcDbRegAppTableRecord
  2
ACAD_PSEXT
 70
     0
  0
APPID
  5
3DB9
330
9
100
AcDbSymbolTableRecord
100
AcDbRegAppTableRecord
  2
AcAecLayerStandard
 70
     0
  0
APPID
  5
41A3
330
9
100
AcDbSymbolTableRecord
100
AcDbRegAppTableRecord
  2
ACAD_DSTYLE_DIM_LINETYPE
 70
     0
  0
APPID
  5
41A4
330
9
100
AcDbSymbolTableRecord
100
AcDbRegAppTableRecord
  2
ACAD_DSTYLE_DIM_EXT1_LINETYPE
 70
     0
  0
APPID
  5
41A5
330
9
100
AcDbSymbolTableRecord
100
AcDbRegAppTableRecord
  2
ACAD_DSTYLE_DIM_EXT2_LINETYPE
 70
     0
  0
APPID
  5
4736
330
9
100
AcDbSymbolTableRecord
100
AcDbRegAppTableRecord
  2
ACAD_DSTYLE_DIMTEXT_FILL
 70
     0
  0
ENDTAB
  0
TABLE
  2
DIMSTYLE
  5
A
330
0
100
AcDbSymbolTable
 70
     4
100
AcDbDimStyleTable
 71
     2
340
3DB8
340
30
  0
DIMSTYLE
105
30
330
A
100
AcDbSymbolTableRecord
100
AcDbDimStyleTableRecord
  2
STANDARD
 70
     0
 41
6.0
 42
1.0
 43
16.0
 44
3.0
 73
     0
 74
     0
 77
     1
 78
     8
140
4.4
141
10.0
147
1.6
172
     1
176
   256
177
   256
178
   256
340
F
341
977
342
977
  0
DIMSTYLE
105
3DB8
102
{ACAD_REACTORS
330
4313
330
451F
330
4539
330
455C
330
4569
330
4576
330
4585
330
4592
330
45A8
330
45B5
330
46B1
330
4729
102
}
330
A
100
AcDbSymbolTableRecord
100
AcDbDimStyleTableRecord
  2
CatalogDxf
 70
     0
 41
2.5
 42
0.625
 43
3.75
 44
1.25
 73
     0
 74
     0
 77
     1
 78
     8
140
2.5
141
2.5
143
0.03937007874016
147
0.625
171
     3
172
     1
176
   256
177
   256
178
   256
271
     1
272
     1
274
     3
283
     0
284
     8
340
3DB6
341
977
342
977
371
    -1
372
    -1
1001
ACAD_DSTYLE_DIM_LINETYPE
1070
   380
1005
12
1001
ACAD_DSTYLE_DIM_EXT1_LINETYPE
1070
   381
1005
12
1001
ACAD_DSTYLE_DIM_EXT2_LINETYPE
1070
   382
1005
12
  0
DIMSTYLE
105
4353
330
A
100
AcDbSymbolTableRecord
100
AcDbDimStyleTableRecord
  2
ISO-25
 70
     0
 41
2.5
 42
0.625
 43
3.75
 44
1.25
 73
     0
 74
     0
 77
     1
 78
     8
140
2.5
141
2.5
143
0.03937007874016
147
0.625
171
     3
172
     1
271
     2
272
     2
274
     3
278
    44
283
     0
284
     8
340
F
  0
ENDTAB
  0
TABLE
  2
BLOCK_RECORD
  5
1
330
0
100
AcDbSymbolTable
 70
    14
  0
BLOCK_RECORD
  5
17
102
{ACAD_XDICTIONARY
360
1808
102
}
330
1
100
AcDbSymbolTableRecord
100
AcDbBlockTableRecord
  2
*MODEL_SPACE
340
3D5B
  0
BLOCK_RECORD
  5
14
102
{ACAD_XDICTIONARY
360
1806
102
}
330
1
100
AcDbSymbolTableRecord
100
AcDbBlockTableRecord
  2
*PAPER_SPACE
340
3D5C
  0
BLOCK_RECORD
  5
977
330
1
100
AcDbSymbolTableRecord
100
AcDbBlockTableRecord
  2
_OPEN30
340
0
102
{BLKREFS
331
4782
331
4783
331
478D
331
478E
331
4796
331
4797
331
479F
331
47A0
331
47A8
331
47A9
331
47B3
331
47B4
331
47BC
331
47BD
331
47C5
331
47C6
331
47CE
331
47CF
331
47D7
331
47D8
331
47E0
331
47E1
331
47E9
331
47EA
102
}
  0
BLOCK_RECORD
  5
4314
330
1
100
AcDbSymbolTableRecord
100
AcDbBlockTableRecord
  2
*D1
340
0
  0
BLOCK_RECORD
  5
4520
330
1
100
AcDbSymbolTableRecord
100
AcDbBlockTableRecord
  2
*D2
340
0
  0
BLOCK_RECORD
  5
453A
330
1
100
AcDbSymbolTableRecord
100
AcDbBlockTableRecord
  2
*D3
340
0
  0
BLOCK_RECORD
  5
455D
330
1
100
AcDbSymbolTableRecord
100
AcDbBlockTableRecord
  2
*D4
340
0
  0
BLOCK_RECORD
  5
456A
330
1
100
AcDbSymbolTableRecord
100
AcDbBlockTableRecord
  2
*D5
340
0
  0
BLOCK_RECORD
  5
4577
330
1
100
AcDbSymbolTableRecord
100
AcDbBlockTableRecord
  2
*D6
340
0
  0
BLOCK_RECORD
  5
4586
330
1
100
AcDbSymbolTableRecord
100
AcDbBlockTableRecord
  2
*D7
340
0
  0
BLOCK_RECORD
  5
4593
330
1
100
AcDbSymbolTableRecord
100
AcDbBlockTableRecord
  2
*D8
340
0
  0
BLOCK_RECORD
  5
45A9
330
1
100
AcDbSymbolTableRecord
100
AcDbBlockTableRecord
  2
*D9
340
0
  0
BLOCK_RECORD
  5
45B6
330
1
100
AcDbSymbolTableRecord
100
AcDbBlockTableRecord
  2
*D10
340
0
  0
BLOCK_RECORD
  5
46B2
330
1
100
AcDbSymbolTableRecord
100
AcDbBlockTableRecord
  2
*D11
340
0
  0
BLOCK_RECORD
  5
472A
330
1
100
AcDbSymbolTableRecord
100
AcDbBlockTableRecord
  2
*D12
340
0
  0
ENDTAB
  0
ENDSEC
  0
SECTION
  2
BLOCKS
  0
BLOCK
  5
2E
330
17
100
AcDbEntity
  8
0
100
AcDbBlockBegin
  2
*MODEL_SPACE
 70
     0
 10
0.0
 20
0.0
 30
0.0
  3
*MODEL_SPACE
  1

  0
ENDBLK
  5
2F
330
17
100
AcDbEntity
  8
0
100
AcDbBlockEnd
  0
BLOCK
  5
2C
330
14
100
AcDbEntity
 67
     1
  8
0
100
AcDbBlockBegin
  2
*PAPER_SPACE
 70
     0
 10
0.0
 20
0.0
 30
0.0
  3
*PAPER_SPACE
  1

  0
ENDBLK
  5
2D
330
14
100
AcDbEntity
 67
     1
  8
0
100
AcDbBlockEnd
  0
BLOCK
  5
97B
330
977
100
AcDbEntity
  8
0
100
AcDbBlockBegin
  2
_OPEN30
 70
     0
 10
0.0
 20
0.0
 30
0.0
  3
_OPEN30
  1

  0
LINE
  5
978
330
977
100
AcDbEntity
  8
0
  6
ByBlock
 62
     0
100
AcDbLine
 10
-1.0
 20
0.26794919
 30
0.0
 11
0.0
 21
0.0
 31
0.0
  0
LINE
  5
979
330
977
100
AcDbEntity
  8
0
  6
ByBlock
 62
     0
100
AcDbLine
 10
0.0
 20
0.0
 30
0.0
 11
-1.0
 21
-0.26794919
 31
0.0
  0
LINE
  5
97A
330
977
100
AcDbEntity
  8
0
  6
ByBlock
 62
     0
100
AcDbLine
 10
0.0
 20
0.0
 30
0.0
 11
-1.0
 21
0.0
 31
0.0
  0
ENDBLK
  5
97C
330
977
100
AcDbEntity
  8
0
100
AcDbBlockEnd
  0
BLOCK
  5
431E
330
4314
100
AcDbEntity
  8
0
100
AcDbBlockBegin
  2
*D1
 70
     1
 10
0.0
 20
0.0
 30
0.0
  3
*D1
  1

  0
LINE
  5
477F
330
4314
100
AcDbEntity
  8
Z_OM_DIM
100
AcDbLine
 10
668.701814375439
 20
-18.75424014524461
 30
0.0
 11
668.701814375439
 21
-38.93649849960366
 31
0.0
  0
LINE
  5
4780
330
4314
100
AcDbEntity
  8
Z_OM_DIM
100
AcDbLine
 10
699.9664178747527
 20
-5.004240145244551
 30
0.0
 11
699.9664178747527
 21
-38.93649849960366
 31
0.0
  0
LINE
  5
4781
330
4314
100
AcDbEntity
  8
Z_OM_DIM
100
AcDbLine
 10
671.2018143754391
 20
-37.68649849960366
 30
0.0
 11
697.4664178747527
 21
-37.68649849960366
 31
0.0
  0
INSERT
  5
4782
330
4314
100
AcDbEntity
  8
Z_OM_DIM
100
AcDbBlockReference
  2
_OPEN30
 10
668.701814375439
 20
-37.68649849960366
 30
0.0
 41
2.5
 42
2.5
 43
2.5
 50
180.0
  0
INSERT
  5
4783
330
4314
100
AcDbEntity
  8
Z_OM_DIM
100
AcDbBlockReference
  2
_OPEN30
 10
699.9664178747527
 20
-37.68649849960366
 30
0.0
 41
2.5
 42
2.5
 43
2.5
  0
MTEXT
  5
4784
330
4314
100
AcDbEntity
  8
Z_OM_DIM
100
AcDbMText
 10
684.3341161250959
 20
-35.81149849960366
 30
0.0
 40
2.5
 41
0.0
 71
     5
 72
     1
  1
180 - 200
  7
CatalogDxf
 73
     1
 44
1.0
1001
ACAD
1000
MTEXTBEGIN
1070
    73
1070
     1
1070
    44
1040
1.0
1070
    74
1070
     0
1000
MTEXTEND
  0
POINT
  5
4785
330
4314
100
AcDbEntity
  8
DEFPOINTS
 62
     0
100
AcDbPoint
 10
668.701814375439
 20
-18.12924014524461
 30
0.0
  0
POINT
  5
4786
330
4314
100
AcDbEntity
  8
DEFPOINTS
 62
     0
100
AcDbPoint
 10
699.9664178747527
 20
-4.379240145244551
 30
0.0
  0
POINT
  5
4787
330
4314
100
AcDbEntity
  8
DEFPOINTS
 62
     0
100
AcDbPoint
 10
699.9664178747527
 20
-37.68649849960366
 30
0.0
  0
ENDBLK
  5
431F
330
4314
100
AcDbEntity
  8
0
100
AcDbBlockEnd
  0
BLOCK
  5
452C
330
4520
100
AcDbEntity
  8
0
100
AcDbBlockBegin
  2
*D2
 70
     1
 10
0.0
 20
0.0
 30
0.0
  3
*D2
  1

  0
LINE
  5
4788
330
4520
100
AcDbEntity
  8
Z_OM_DIM
100
AcDbLine
 10
599.2768143754389
 20
-1.829240145244568
 30
0.0
 11
587.0228519370808
 21
-1.829240145244565
 31
0.0
  0
LINE
  5
4789
330
4520
100
AcDbEntity
  8
Z_OM_DIM
100
AcDbLine
 10
599.2768143754389
 20
-5.429240145244591
 30
0.0
 11
587.0228519370808
 21
-5.429240145244587
 31
0.0
  0
LINE
  5
478A
330
4520
100
AcDbEntity
  8
Z_OM_DIM
100
AcDbLine
 10
588.2728519370808
 20
-7.929240145244587
 30
0.0
 11
588.2728519370808
 21
-10.42924014524459
 31
0.0
  0
LINE
  5
478B
330
4520
100
AcDbEntity
  8
Z_OM_DIM
100
AcDbLine
 10
588.2728519370808
 20
0.6707598547554344
 30
0.0
 11
588.2728519370808
 21
9.420759854755434
 31
0.0
  0
LINE
  5
478C
330
4520
100
AcDbEntity
  8
Z_OM_DIM
100
AcDbLine
 10
588.2728519370808
 20
-5.429240145244587
 30
0.0
 11
588.2728519370808
 21
-1.829240145244565
 31
0.0
  0
INSERT
  5
478D
330
4520
100
AcDbEntity
  8
Z_OM_DIM
100
AcDbBlockReference
  2
_OPEN30
 10
588.2728519370808
 20
-5.429240145244587
 30
0.0
 41
2.5
 42
2.5
 43
2.5
 50
90.0
  0
INSERT
  5
478E
330
4520
100
AcDbEntity
  8
Z_OM_DIM
100
AcDbBlockReference
  2
_OPEN30
 10
588.2728519370808
 20
-1.829240145244565
 30
0.0
 41
2.5
 42
2.5
 43
2.5
 50
270.0
  0
MTEXT
  5
478F
330
4520
100
AcDbEntity
  8
Z_OM_DIM
100
AcDbMText
 10
586.3978519370808
 20
6.295759854755529
 30
0.0
 40
2.5
 41
0.0
 71
     5
 72
     1
  1
3.5
  7
CatalogDxf
 11
0.0000000000000001
 21
1.0
 31
0.0
 73
     1
 44
1.0
1001
ACAD
1000
MTEXTBEGIN
1070
    73
1070
     1
1070
    44
1040
1.0
1070
    74
1070
     0
1000
MTEXTEND
  0
POINT
  5
4790
330
4520
100
AcDbEntity
  8
DEFPOINTS
 62
     0
100
AcDbPoint
 10
599.9018143754389
 20
-1.829240145244568
 30
0.0
  0
POINT
  5
4791
330
4520
100
AcDbEntity
  8
DEFPOINTS
 62
     0
100
AcDbPoint
 10
599.9018143754389
 20
-5.429240145244591
 30
0.0
  0
POINT
  5
4792
330
4520
100
AcDbEntity
  8
DEFPOINTS
 62
     0
100
AcDbPoint
 10
588.2728519370808
 20
-5.429240145244587
 30
0.0
  0
ENDBLK
  5
452D
330
4520
100
AcDbEntity
  8
0
100
AcDbBlockEnd
  0
BLOCK
  5
4544
330
453A
100
AcDbEntity
  8
0
100
AcDbBlockBegin
  2
*D3
 70
     1
 10
0.0
 20
0.0
 30
0.0
  3
*D3
  1

  0
LINE
  5
4793
330
453A
100
AcDbEntity
  8
Z_OM_DIM
100
AcDbLine
 10
608.0018143754387
 20
-6.054240145244591
 30
0.0
 11
608.0018143754387
 21
-21.68713916799033
 31
0.0
  0
LINE
  5
4794
330
453A
100
AcDbEntity
  8
Z_OM_DIM
100
AcDbLine
 10
599.9018143754389
 20
-9.74349014524455
 30
0.0
 11
599.9018143754389
 21
-21.68713916799033
 31
0.0
  0
LINE
  5
4795
330
453A
100
AcDbEntity
  8
Z_OM_DIM
100
AcDbLine
 10
605.5018143754388
 20
-20.43713916799033
 30
0.0
 11
602.4018143754389
 21
-20.43713916799033
 31
0.0
  0
INSERT
  5
4796
330
453A
100
AcDbEntity
  8
Z_OM_DIM
100
AcDbBlockReference
  2
_OPEN30
 10
608.0018143754387
 20
-20.43713916799033
 30
0.0
 41
2.5
 42
2.5
 43
2.5
  0
INSERT
  5
4797
330
453A
100
AcDbEntity
  8
Z_OM_DIM
100
AcDbBlockReference
  2
_OPEN30
 10
599.9018143754389
 20
-20.43713916799033
 30
0.0
 41
2.5
 42
2.5
 43
2.5
 50
180.0
  0
MTEXT
  5
4798
330
453A
100
AcDbEntity
  8
Z_OM_DIM
100
AcDbMText
 10
603.9518143754389
 20
-18.56213916799033
 30
0.0
 40
2.5
 41
0.0
 71
     5
 72
     1
  1
8
  7
CatalogDxf
 73
     1
 44
1.0
1001
ACAD
1000
MTEXTBEGIN
1070
    73
1070
     1
1070
    44
1040
1.0
1070
    74
1070
     0
1000
MTEXTEND
  0
POINT
  5
4799
330
453A
100
AcDbEntity
  8
DEFPOINTS
 62
     0
100
AcDbPoint
 10
608.0018143754387
 20
-5.429240145244591
 30
0.0
  0
POINT
  5
479A
330
453A
100
AcDbEntity
  8
DEFPOINTS
 62
     0
100
AcDbPoint
 10
599.9018143754389
 20
-9.11849014524455
 30
0.0
  0
POINT
  5
479B
330
453A
100
AcDbEntity
  8
DEFPOINTS
 62
     0
100
AcDbPoint
 10
599.9018143754389
 20
-20.43713916799033
 30
0.0
  0
ENDBLK
  5
4545
330
453A
100
AcDbEntity
  8
0
100
AcDbBlockEnd
  0
BLOCK
  5
4567
330
455D
100
AcDbEntity
  8
0
100
AcDbBlockBegin
  2
*D4
 70
     1
 10
0.0
 20
0.0
 30
0.0
  3
*D4
  1

  0
LINE
  5
479C
330
455D
100
AcDbEntity
  8
Z_OM_DIM
100
AcDbLine
 10
651.9018143754388
 20
-80.58470915477512
 30
0.0
 11
651.9018143754388
 21
-63.40724303773487
 31
0.0
  0
LINE
  5
479D
330
455D
100
AcDbEntity
  8
Z_OM_DIM
100
AcDbLine
 10
621.9018143754388
 20
-80.58470915477512
 30
0.0
 11
621.9018143754388
 21
-63.40724303773487
 31
0.0
  0
LINE
  5
479E
330
455D
100
AcDbEntity
  8
Z_OM_DIM
100
AcDbLine
 10
649.4018143754389
 20
-64.65724303773487
 30
0.0
 11
624.4018143754389
 21
-64.65724303773487
 31
0.0
  0
INSERT
  5
479F
330
455D
100
AcDbEntity
  8
Z_OM_DIM
100
AcDbBlockReference
  2
_OPEN30
 10
651.9018143754388
 20
-64.65724303773487
 30
0.0
 41
2.5
 42
2.5
 43
2.5
  0
INSERT
  5
47A0
330
455D
100
AcDbEntity
  8
Z_OM_DIM
100
AcDbBlockReference
  2
_OPEN30
 10
621.9018143754388
 20
-64.65724303773487
 30
0.0
 41
2.5
 42
2.5
 43
2.5
 50
180.0
  0
MTEXT
  5
47A1
330
455D
100
AcDbEntity
  8
Z_OM_DIM
100
AcDbMText
 10
636.9018143754389
 20
-62.78224303773487
 30
0.0
 40
2.5
 41
0.0
 71
     5
 72
     1
  1
30
  7
CatalogDxf
 73
     1
 44
1.0
1001
ACAD
1000
MTEXTBEGIN
1070
    73
1070
     1
1070
    44
1040
1.0
1070
    74
1070
     0
1000
MTEXTEND
  0
POINT
  5
47A2
330
455D
100
AcDbEntity
  8
DEFPOINTS
 62
     0
100
AcDbPoint
 10
651.9018143754388
 20
-81.20970915477512
 30
0.0
  0
POINT
  5
47A3
330
455D
100
AcDbEntity
  8
DEFPOINTS
 62
     0
100
AcDbPoint
 10
621.9018143754388
 20
-81.20970915477512
 30
0.0
  0
POINT
  5
47A4
330
455D
100
AcDbEntity
  8
DEFPOINTS
 62
     0
100
AcDbPoint
 10
621.9018143754388
 20
-64.65724303773487
 30
0.0
  0
ENDBLK
  5
4568
330
455D
100
AcDbEntity
  8
0
100
AcDbBlockEnd
  0
BLOCK
  5
4574
330
456A
100
AcDbEntity
  8
0
100
AcDbBlockBegin
  2
*D5
 70
     1
 10
0.0
 20
0.0
 30
0.0
  3
*D5
  1

  0
LINE
  5
47A5
330
456A
100
AcDbEntity
  8
Z_OM_DIM
100
AcDbLine
 10
621.9018143754388
 20
-80.58470915477512
 30
0.0
 11
621.9018143754388
 21
-63.40724303773487
 31
0.0
  0
LINE
  5
47A6
330
456A
100
AcDbEntity
  8
Z_OM_DIM
100
AcDbLine
 10
603.9018143754389
 20
-84.82672781914642
 30
0.0
 11
603.9018143754389
 21
-63.40724303773487
 31
0.0
  0
LINE
  5
47A7
330
456A
100
AcDbEntity
  8
Z_OM_DIM
100
AcDbLine
 10
619.4018143754389
 20
-64.65724303773487
 30
0.0
 11
606.4018143754388
 21
-64.65724303773487
 31
0.0
  0
INSERT
  5
47A8
330
456A
100
AcDbEntity
  8
Z_OM_DIM
100
AcDbBlockReference
  2
_OPEN30
 10
621.9018143754388
 20
-64.65724303773487
 30
0.0
 41
2.5
 42
2.5
 43
2.5
  0
INSERT
  5
47A9
330
456A
100
AcDbEntity
  8
Z_OM_DIM
100
AcDbBlockReference
  2
_OPEN30
 10
603.9018143754389
 20
-64.65724303773487
 30
0.0
 41
2.5
 42
2.5
 43
2.5
 50
180.0
  0
MTEXT
  5
47AA
330
456A
100
AcDbEntity
  8
Z_OM_DIM
100
AcDbMText
 10
612.9018143754389
 20
-62.78224303773487
 30
0.0
 40
2.5
 41
0.0
 71
     5
 72
     1
  1
18
  7
CatalogDxf
 73
     1
 44
1.0
1001
ACAD
1000
MTEXTBEGIN
1070
    73
1070
     1
1070
    44
1040
1.0
1070
    74
1070
     0
1000
MTEXTEND
  0
POINT
  5
47AB
330
456A
100
AcDbEntity
  8
DEFPOINTS
 62
     0
100
AcDbPoint
 10
621.9018143754388
 20
-81.20970915477512
 30
0.0
  0
POINT
  5
47AC
330
456A
100
AcDbEntity
  8
DEFPOINTS
 62
     0
100
AcDbPoint
 10
603.9018143754389
 20
-85.45172781914642
 30
0.0
  0
POINT
  5
47AD
330
456A
100
AcDbEntity
  8
DEFPOINTS
 62
     0
100
AcDbPoint
 10
603.9018143754389
 20
-64.65724303773487
 30
0.0
  0
ENDBLK
  5
4575
330
456A
100
AcDbEntity
  8
0
100
AcDbBlockEnd
  0
BLOCK
  5
4583
330
4577
100
AcDbEntity
  8
0
100
AcDbBlockBegin
  2
*D6
 70
     1
 10
0.0
 20
0.0
 30
0.0
  3
*D6
  1

  0
LINE
  5
47AE
330
4577
100
AcDbEntity
  8
Z_OM_DIM
100
AcDbLine
 10
603.9018143754389
 20
-84.82672781914642
 30
0.0
 11
603.9018143754389
 21
-63.40724303773487
 31
0.0
  0
LINE
  5
47AF
330
4577
100
AcDbEntity
  8
Z_OM_DIM
100
AcDbLine
 10
599.9018143754389
 20
-88.09545915477508
 30
0.0
 11
599.9018143754389
 21
-63.40724303773487
 31
0.0
  0
LINE
  5
47B0
330
4577
100
AcDbEntity
  8
Z_OM_DIM
100
AcDbLine
 10
606.4018143754388
 20
-64.65724303773487
 30
0.0
 11
608.9018143754389
 21
-64.65724303773487
 31
0.0
  0
LINE
  5
47B1
330
4577
100
AcDbEntity
  8
Z_OM_DIM
100
AcDbLine
 10
597.4018143754388
 20
-64.65724303773487
 30
0.0
 11
591.9851477087722
 21
-64.65724303773487
 31
0.0
  0
LINE
  5
47B2
330
4577
100
AcDbEntity
  8
Z_OM_DIM
100
AcDbLine
 10
603.9018143754389
 20
-64.65724303773487
 30
0.0
 11
599.9018143754389
 21
-64.65724303773487
 31
0.0
  0
INSERT
  5
47B3
330
4577
100
AcDbEntity
  8
Z_OM_DIM
100
AcDbBlockReference
  2
_OPEN30
 10
603.9018143754389
 20
-64.65724303773487
 30
0.0
 41
2.5
 42
2.5
 43
2.5
 50
180.0
  0
INSERT
  5
47B4
330
4577
100
AcDbEntity
  8
Z_OM_DIM
100
AcDbBlockReference
  2
_OPEN30
 10
599.9018143754389
 20
-64.65724303773487
 30
0.0
 41
2.5
 42
2.5
 43
2.5
  0
MTEXT
  5
47B5
330
4577
100
AcDbEntity
  8
Z_OM_DIM
100
AcDbMText
 10
593.4434810421055
 20
-62.78224303773487
 30
0.0
 40
2.5
 41
0.0
 71
     5
 72
     1
  1
4
  7
CatalogDxf
 73
     1
 44
1.0
1001
ACAD
1000
MTEXTBEGIN
1070
    73
1070
     1
1070
    44
1040
1.0
1070
    74
1070
     0
1000
MTEXTEND
  0
POINT
  5
47B6
330
4577
100
AcDbEntity
  8
DEFPOINTS
 62
     0
100
AcDbPoint
 10
603.9018143754389
 20
-85.45172781914642
 30
0.0
  0
POINT
  5
47B7
330
4577
100
AcDbEntity
  8
DEFPOINTS
 62
     0
100
AcDbPoint
 10
599.9018143754389
 20
-88.72045915477508
 30
0.0
  0
POINT
  5
47B8
330
4577
100
AcDbEntity
  8
DEFPOINTS
 62
     0
100
AcDbPoint
 10
599.9018143754389
 20
-64.65724303773487
 30
0.0
  0
ENDBLK
  5
4584
330
4577
100
AcDbEntity
  8
0
100
AcDbBlockEnd
  0
BLOCK
  5
4590
330
4586
100
AcDbEntity
  8
0
100
AcDbBlockBegin
  2
*D7
 70
     1
 10
0.0
 20
0.0
 30
0.0
  3
*D7
  1

  0
LINE
  5
47B9
330
4586
100
AcDbEntity
  8
Z_OM_DIM
100
AcDbLine
 10
655.2909031935813
 20
-84.20970915477505
 30
0.0
 11
688.0288129765603
 21
-84.20970915477507
 31
0.0
  0
LINE
  5
47BA
330
4586
100
AcDbEntity
  8
Z_OM_DIM
100
AcDbLine
 10
655.2909031935813
 20
-104.209709154775
 30
0.0
 11
688.0288129765603
 21
-104.209709154775
 31
0.0
  0
LINE
  5
47BB
330
4586
100
AcDbEntity
  8
Z_OM_DIM
100
AcDbLine
 10
686.7788129765604
 20
-86.70970915477507
 30
0.0
 11
686.7788129765604
 21
-101.709709154775
 31
0.0
  0
INSERT
  5
47BC
330
4586
100
AcDbEntity
  8
Z_OM_DIM
100
AcDbBlockReference
  2
_OPEN30
 10
686.7788129765604
 20
-84.20970915477507
 30
0.0
 41
2.5
 42
2.5
 43
2.5
 50
90.0
  0
INSERT
  5
47BD
330
4586
100
AcDbEntity
  8
Z_OM_DIM
100
AcDbBlockReference
  2
_OPEN30
 10
686.7788129765604
 20
-104.209709154775
 30
0.0
 41
2.5
 42
2.5
 43
2.5
 50
270.0
  0
MTEXT
  5
47BE
330
4586
100
AcDbEntity
  8
Z_OM_DIM
100
AcDbMText
 10
684.9038129765603
 20
-94.20970915477495
 30
0.0
 40
2.5
 41
0.0
 71
     5
 72
     1
  1
20
  7
CatalogDxf
 11
0.0000000000000001
 21
1.0
 31
0.0
 73
     1
 44
1.0
1001
ACAD
1000
MTEXTBEGIN
1070
    73
1070
     1
1070
    44
1040
1.0
1070
    74
1070
     0
1000
MTEXTEND
  0
POINT
  5
47BF
330
4586
100
AcDbEntity
  8
DEFPOINTS
 62
     0
100
AcDbPoint
 10
654.6659031935813
 20
-84.20970915477505
 30
0.0
  0
POINT
  5
47C0
330
4586
100
AcDbEntity
  8
DEFPOINTS
 62
     0
100
AcDbPoint
 10
654.6659031935813
 20
-104.209709154775
 30
0.0
  0
POINT
  5
47C1
330
4586
100
AcDbEntity
  8
DEFPOINTS
 62
     0
100
AcDbPoint
 10
686.7788129765604
 20
-104.209709154775
 30
0.0
  0
ENDBLK
  5
4591
330
4586
100
AcDbEntity
  8
0
100
AcDbBlockEnd
  0
BLOCK
  5
459D
330
4593
100
AcDbEntity
  8
0
100
AcDbBlockBegin
  2
*D8
 70
     1
 10
0.0
 20
0.0
 30
0.0
  3
*D8
  1

  0
LINE
  5
47C2
330
4593
100
AcDbEntity
  8
Z_OM_DIM
100
AcDbLine
 10
599.7768143754389
 20
-88.22045915477508
 30
0.0
 11
587.0228519370808
 21
-88.22045915477508
 31
0.0
  0
LINE
  5
47C3
330
4593
100
AcDbEntity
  8
Z_OM_DIM
100
AcDbLine
 10
599.7768143754389
 20
-100.198959154775
 30
0.0
 11
587.0228519370808
 21
-100.198959154775
 31
0.0
  0
LINE
  5
47C4
330
4593
100
AcDbEntity
  8
Z_OM_DIM
100
AcDbLine
 10
588.2728519370808
 20
-90.72045915477508
 30
0.0
 11
588.2728519370808
 21
-97.69895915477503
 31
0.0
  0
INSERT
  5
47C5
330
4593
100
AcDbEntity
  8
Z_OM_DIM
100
AcDbBlockReference
  2
_OPEN30
 10
588.2728519370808
 20
-88.22045915477508
 30
0.0
 41
2.5
 42
2.5
 43
2.5
 50
90.0
  0
INSERT
  5
47C6
330
4593
100
AcDbEntity
  8
Z_OM_DIM
100
AcDbBlockReference
  2
_OPEN30
 10
588.2728519370808
 20
-100.198959154775
 30
0.0
 41
2.5
 42
2.5
 43
2.5
 50
270.0
  0
MTEXT
  5
47C7
330
4593
100
AcDbEntity
  8
Z_OM_DIM
100
AcDbMText
 10
586.3978519370808
 20
-94.20970915477496
 30
0.0
 40
2.5
 41
0.0
 71
     5
 72
     1
  1
%%C12
  7
CatalogDxf
 11
0.0000000000000001
 21
1.0
 31
0.0
 73
     1
 44
1.0
1001
ACAD
1000
MTEXTBEGIN
1070
    73
1070
     1
1070
    44
1040
1.0
1070
    74
1070
     0
1000
MTEXTEND
  0
POINT
  5
47C8
330
4593
100
AcDbEntity
  8
DEFPOINTS
 62
     0
100
AcDbPoint
 10
600.4018143754389
 20
-88.22045915477508
 30
0.0
  0
POINT
  5
47C9
330
4593
100
AcDbEntity
  8
DEFPOINTS
 62
     0
100
AcDbPoint
 10
600.4018143754389
 20
-100.198959154775
 30
0.0
  0
POINT
  5
47CA
330
4593
100
AcDbEntity
  8
DEFPOINTS
 62
     0
100
AcDbPoint
 10
588.2728519370808
 20
-100.198959154775
 30
0.0
  0
ENDBLK
  5
459E
330
4593
100
AcDbEntity
  8
0
100
AcDbBlockEnd
  0
BLOCK
  5
45B3
330
45A9
100
AcDbEntity
  8
0
100
AcDbBlockBegin
  2
*D9
 70
     1
 10
0.0
 20
0.0
 30
0.0
  3
*D9
  1

  0
LINE
  5
47CB
330
45A9
100
AcDbEntity
  8
Z_OM_DIM
100
AcDbLine
 10
540.8637349564911
 20
-80.20970915477505
 30
0.0
 11
557.9402096185169
 21
-80.20970915477507
 31
0.0
  0
LINE
  5
47CC
330
45A9
100
AcDbEntity
  8
Z_OM_DIM
100
AcDbLine
 10
540.8637349564911
 20
-108.209709154775
 30
0.0
 11
557.9402096185169
 21
-108.2097091547751
 31
0.0
  0
LINE
  5
47CD
330
45A9
100
AcDbEntity
  8
Z_OM_DIM
100
AcDbLine
 10
556.6902096185168
 20
-82.70970915477507
 30
0.0
 11
556.6902096185168
 21
-105.709709154775
 31
0.0
  0
INSERT
  5
47CE
330
45A9
100
AcDbEntity
  8
Z_OM_DIM
100
AcDbBlockReference
  2
_OPEN30
 10
556.6902096185168
 20
-80.20970915477507
 30
0.0
 41
2.5
 42
2.5
 43
2.5
 50
90.0
  0
INSERT
  5
47CF
330
45A9
100
AcDbEntity
  8
Z_OM_DIM
100
AcDbBlockReference
  2
_OPEN30
 10
556.6902096185168
 20
-108.2097091547751
 30
0.0
 41
2.5
 42
2.5
 43
2.5
 50
270.0
  0
MTEXT
  5
47D0
330
45A9
100
AcDbEntity
  8
Z_OM_DIM
100
AcDbMText
 10
554.8152096185169
 20
-94.20970915477496
 30
0.0
 40
2.5
 41
0.0
 71
     5
 72
     1
  1
28
  7
CatalogDxf
 11
0.0000000000000001
 21
1.0
 31
0.0
 73
     1
 44
1.0
1001
ACAD
1000
MTEXTBEGIN
1070
    73
1070
     1
1070
    44
1040
1.0
1070
    74
1070
     0
1000
MTEXTEND
  0
POINT
  5
47D1
330
45A9
100
AcDbEntity
  8
DEFPOINTS
 62
     0
100
AcDbPoint
 10
540.2387349564911
 20
-80.20970915477505
 30
0.0
  0
POINT
  5
47D2
330
45A9
100
AcDbEntity
  8
DEFPOINTS
 62
     0
100
AcDbPoint
 10
540.2387349564911
 20
-108.209709154775
 30
0.0
  0
POINT
  5
47D3
330
45A9
100
AcDbEntity
  8
DEFPOINTS
 62
     0
100
AcDbPoint
 10
556.6902096185168
 20
-108.2097091547751
 30
0.0
  0
ENDBLK
  5
45B4
330
45A9
100
AcDbEntity
  8
0
100
AcDbBlockEnd
  0
BLOCK
  5
45C0
330
45B6
100
AcDbEntity
  8
0
100
AcDbBlockBegin
  2
*D10
 70
     1
 10
0.0
 20
0.0
 30
0.0
  3
*D10
  1

  0
LINE
  5
47D4
330
45B6
100
AcDbEntity
  8
Z_OM_DIM
100
AcDbLine
 10
506.2387349564911
 20
-108.834709154775
 30
0.0
 11
506.2387349564911
 21
-125.4532709347743
 31
0.0
  0
LINE
  5
47D5
330
45B6
100
AcDbEntity
  8
Z_OM_DIM
100
AcDbLine
 10
540.2387349564911
 20
-108.834709154775
 30
0.0
 11
540.2387349564911
 21
-125.4532709347743
 31
0.0
  0
LINE
  5
47D6
330
45B6
100
AcDbEntity
  8
Z_OM_DIM
100
AcDbLine
 10
508.7387349564911
 20
-124.2032709347743
 30
0.0
 11
537.7387349564911
 21
-124.2032709347743
 31
0.0
  0
INSERT
  5
47D7
330
45B6
100
AcDbEntity
  8
Z_OM_DIM
100
AcDbBlockReference
  2
_OPEN30
 10
506.2387349564911
 20
-124.2032709347743
 30
0.0
 41
2.5
 42
2.5
 43
2.5
 50
180.0
  0
INSERT
  5
47D8
330
45B6
100
AcDbEntity
  8
Z_OM_DIM
100
AcDbBlockReference
  2
_OPEN30
 10
540.2387349564911
 20
-124.2032709347743
 30
0.0
 41
2.5
 42
2.5
 43
2.5
  0
MTEXT
  5
47D9
330
45B6
100
AcDbEntity
  8
Z_OM_DIM
100
AcDbMText
 10
523.2387349564911
 20
-122.3282709347743
 30
0.0
 40
2.5
 41
0.0
 71
     5
 72
     1
  1
34
  7
CatalogDxf
 73
     1
 44
1.0
1001
ACAD
1000
MTEXTBEGIN
1070
    73
1070
     1
1070
    44
1040
1.0
1070
    74
1070
     0
1000
MTEXTEND
  0
POINT
  5
47DA
330
45B6
100
AcDbEntity
  8
DEFPOINTS
 62
     0
100
AcDbPoint
 10
506.2387349564911
 20
-108.209709154775
 30
0.0
  0
POINT
  5
47DB
330
45B6
100
AcDbEntity
  8
DEFPOINTS
 62
     0
100
AcDbPoint
 10
540.2387349564911
 20
-108.209709154775
 30
0.0
  0
POINT
  5
47DC
330
45B6
100
AcDbEntity
  8
DEFPOINTS
 62
     0
100
AcDbPoint
 10
540.2387349564911
 20
-124.2032709347743
 30
0.0
  0
ENDBLK
  5
45C1
330
45B6
100
AcDbEntity
  8
0
100
AcDbBlockEnd
  0
BLOCK
  5
46BC
330
46B2
100
AcDbEntity
  8
0
100
AcDbBlockBegin
  2
*D11
 70
     1
 10
0.0
 20
0.0
 30
0.0
  3
*D11
  1

  0
LINE
  5
47DD
330
46B2
100
AcDbEntity
  8
Z_OM_DIM
100
AcDbLine
 10
610.9018143754389
 20
-21.25424014524455
 30
0.0
 11
610.9018143754389
 21
-38.93649849960366
 31
0.0
  0
LINE
  5
47DE
330
46B2
100
AcDbEntity
  8
Z_OM_DIM
100
AcDbLine
 10
668.701814375439
 20
-18.75424014524458
 30
0.0
 11
668.701814375439
 21
-38.93649849960366
 31
0.0
  0
LINE
  5
47DF
330
46B2
100
AcDbEntity
  8
Z_OM_DIM
100
AcDbLine
 10
613.4018143754389
 20
-37.68649849960366
 30
0.0
 11
666.2018143754391
 21
-37.68649849960366
 31
0.0
  0
INSERT
  5
47E0
330
46B2
100
AcDbEntity
  8
Z_OM_DIM
100
AcDbBlockReference
  2
_OPEN30
 10
610.9018143754389
 20
-37.68649849960366
 30
0.0
 41
2.5
 42
2.5
 43
2.5
 50
180.0
  0
INSERT
  5
47E1
330
46B2
100
AcDbEntity
  8
Z_OM_DIM
100
AcDbBlockReference
  2
_OPEN30
 10
668.701814375439
 20
-37.68649849960366
 30
0.0
 41
2.5
 42
2.5
 43
2.5
  0
MTEXT
  5
47E2
330
46B2
100
AcDbEntity
  8
Z_OM_DIM
100
AcDbMText
 10
639.801814375439
 20
-35.81149849960366
 30
0.0
 40
2.5
 41
0.0
 71
     5
 72
     1
  1
57.8
  7
CatalogDxf
 73
     1
 44
1.0
1001
ACAD
1000
MTEXTBEGIN
1070
    73
1070
     1
1070
    44
1040
1.0
1070
    74
1070
     0
1000
MTEXTEND
  0
POINT
  5
47E3
330
46B2
100
AcDbEntity
  8
DEFPOINTS
 62
     0
100
AcDbPoint
 10
610.9018143754389
 20
-20.62924014524455
 30
0.0
  0
POINT
  5
47E4
330
46B2
100
AcDbEntity
  8
DEFPOINTS
 62
     0
100
AcDbPoint
 10
668.701814375439
 20
-18.12924014524458
 30
0.0
  0
POINT
  5
47E5
330
46B2
100
AcDbEntity
  8
DEFPOINTS
 62
     0
100
AcDbPoint
 10
668.701814375439
 20
-37.68649849960366
 30
0.0
  0
ENDBLK
  5
46BD
330
46B2
100
AcDbEntity
  8
0
100
AcDbBlockEnd
  0
BLOCK
  5
4734
330
472A
100
AcDbEntity
  8
0
100
AcDbBlockBegin
  2
*D12
 70
     1
 10
0.0
 20
0.0
 30
0.0
  3
*D12
  1

  0
LINE
  5
47E6
330
472A
100
AcDbEntity
  8
Z_OM_DIM
100
AcDbLine
 10
610.9018143754389
 20
-79.58470915477505
 30
0.0
 11
610.9018143754389
 21
-68.65606642816647
 31
0.0
  0
LINE
  5
47E7
330
472A
100
AcDbEntity
  8
Z_OM_DIM
100
AcDbLine
 10
621.9018143754388
 20
-80.58470915477512
 30
0.0
 11
621.9018143754388
 21
-68.65606642816647
 31
0.0
  0
LINE
  5
47E8
330
472A
100
AcDbEntity
  8
Z_OM_DIM
100
AcDbLine
 10
613.4018143754389
 20
-69.90606642816647
 30
0.0
 11
619.4018143754389
 21
-69.90606642816647
 31
0.0
  0
INSERT
  5
47E9
330
472A
100
AcDbEntity
  8
Z_OM_DIM
100
AcDbBlockReference
  2
_OPEN30
 10
610.9018143754389
 20
-69.90606642816647
 30
0.0
 41
2.5
 42
2.5
 43
2.5
 50
180.0
  0
INSERT
  5
47EA
330
472A
100
AcDbEntity
  8
Z_OM_DIM
100
AcDbBlockReference
  2
_OPEN30
 10
621.9018143754388
 20
-69.90606642816647
 30
0.0
 41
2.5
 42
2.5
 43
2.5
  0
MTEXT
  5
47EB
330
472A
100
AcDbEntity
  8
Z_OM_DIM
100
AcDbMText
 10
616.4018143754389
 20
-68.03106642816647
 30
0.0
 40
2.5
 41
0.0
 71
     5
 72
     1
  1
11
  7
CatalogDxf
 73
     1
 44
1.0
1001
ACAD
1000
MTEXTBEGIN
1070
    73
1070
     1
1070
    44
1040
1.0
1070
    74
1070
     0
1000
MTEXTEND
  0
POINT
  5
47EC
330
472A
100
AcDbEntity
  8
DEFPOINTS
 62
     0
100
AcDbPoint
 10
610.9018143754389
 20
-80.20970915477505
 30
0.0
  0
POINT
  5
47ED
330
472A
100
AcDbEntity
  8
DEFPOINTS
 62
     0
100
AcDbPoint
 10
621.9018143754388
 20
-81.20970915477512
 30
0.0
  0
POINT
  5
47EE
330
472A
100
AcDbEntity
  8
DEFPOINTS
 62
     0
100
AcDbPoint
 10
621.9018143754388
 20
-69.90606642816647
 30
0.0
  0
ENDBLK
  5
4735
330
472A
100
AcDbEntity
  8
0
100
AcDbBlockEnd
  0
ENDSEC
  0
SECTION
  2
ENTITIES
  0
MTEXT
  5
4130
330
17
100
AcDbEntity
  8
Z_OM_DIM
100
AcDbMText
 10
662.501115762133
 20
-132.7473815513037
 30
0.0
 40
3.0
 41
93.92693936784551
 71
     1
 72
     5
  1
TAKAHA KIKO Co., Ltd\PCAD DRAWING No. CA1257
  7
CatalogDxf
 73
     1
 44
1.0
1001
ACAD
1000
MTEXTBEGIN
1070
    73
1070
     1
1070
    44
1040
1.0
1070
    74
1070
     0
1000
MTEXTEND
  0
MTEXT
  5
42AA
330
17
100
AcDbEntity
  8
Z_OM_DIM
100
AcDbMText
 10
496.5671756568651
 20
-4.077668060458908
 30
0.0
 40
3.0
 41
47.03999999999999
 71
     1
 72
     1
  1
Adsorbed position
  7
CatalogDxf
 73
     1
 44
1.0
1001
ACAD
1000
MTEXTBEGIN
1070
    73
1070
     1
1070
    44
1040
1.0
1070
    74
1070
     0
1000
MTEXTEND
  0
LINE
  5
4301
330
17
100
AcDbEntity
  8
0
 48
0.5
100
AcDbLine
 10
692.9664178747527
 20
-3.629240145244551
 30
0.0
 11
692.9664178747523
 21
-4.629240145244551
 31
0.0
  0
SPLINE
  5
4302
330
17
100
AcDbEntity
  8
additional
 48
0.5
100
AcDbSpline
210
0.0
220
0.0
230
1.0
 70
     8
 71
     3
 72
    18
 73
    14
 74
    12
 42
0.0000000001
 43
0.0000000001
 44
0.0000000001
 40
0.0
 40
0.0
 40
0.0
 40
0.0
 40
0.3913118960626157
 40
0.7826237921250917
 40
1.482623792125051
 40
1.873935688187565
 40
2.265247584250092
 40
2.656559480312479
 40
3.047871376374942
 40
4.097871376374982
 40
4.489183272437407
 40
4.880495168499806
 40
5.271807064562397
 40
5.271807064562397
 40
5.271807064562397
 40
5.271807064562397
 10
674.5455881907279
 20
-1.111866931662731
 30
0.0
 10
674.6018730323744
 20
-1.229506665017142
 30
0.0
 10
674.7144427156672
 20
-1.464786131725923
 30
0.0
 10
674.9742664048076
 20
-1.888385103040088
 30
0.0
 10
674.9743438927716
 20
-2.435367721569917
 30
0.0
 10
674.7143127644013
 20
-2.85890408175573
 30
0.0
 10
674.5460736974919
 20
-3.212035605636323
 30
0.0
 10
674.3749215899987
 20
-3.564155085674554
 30
0.0
 10
674.0671480283581
 20
-4.092414504086773
 30
0.0
 10
674.0667512411107
 20
-4.781464727946755
 30
0.0
 10
674.3753652116278
 20
-5.309375870297409
 30
0.0
 10
674.544393935503
 20
-5.662489697004104
 30
0.0
 10
674.6618567723196
 20
-5.895407853443135
 30
0.0
 10
674.7205881907282
 20
-6.01186693166268
 30
0.0
 11
674.5455881907279
 21
-1.111866931662731
 31
0.0
 11
674.7205881907282
 21
-1.461866931662754
 31
0.0
 11
674.8955881907282
 21
-1.811866931662734
 31
0.0
 11
674.8955881907282
 21
-2.511866931662694
 31
0.0
 11
674.7205881907282
 21
-2.861866931662717
 31
0.0
 11
674.5455881907279
 21
-3.21186693166264
 31
0.0
 11
674.370588190728
 21
-3.561866931662635
 31
0.0
 11
674.1955881907281
 21
-3.911866931662657
 31
0.0
 11
674.1955881907281
 21
-4.961866931662697
 31
0.0
 11
674.370588190728
 21
-5.311866931662677
 31
0.0
 11
674.5455881907279
 21
-5.661866931662686
 31
0.0
 11
674.7205881907282
 21
-6.01186693166268
 31
0.0
  0
SPLINE
  5
4303
330
17
100
AcDbEntity
  8
additional
 48
0.5
100
AcDbSpline
210
0.0
220
0.0
230
1.0
 70
     8
 71
     3
 72
    18
 73
    14
 74
    12
 42
0.0000000001
 43
0.0000000001
 44
0.0000000001
 40
0.0
 40
0.0
 40
0.0
 40
0.0
 40
0.3913118960624632
 40
0.7826237921249391
 40
1.482623792124899
 40
1.873935688187413
 40
2.265247584249787
 40
2.656559480312326
 40
3.047871376374789
 40
4.097871376374829
 40
4.489183272437254
 40
4.880495168499806
 40
5.271807064562244
 40
5.271807064562244
 40
5.271807064562244
 40
5.271807064562244
 10
675.4205881907282
 20
-1.111866931662731
 30
0.0
 10
675.4768730323744
 20
-1.229506665017154
 30
0.0
 10
675.5894427156671
 20
-1.464786131726004
 30
0.0
 10
675.8492664048078
 20
-1.888385103040064
 30
0.0
 10
675.8493438927716
 20
-2.435367721569952
 30
0.0
 10
675.5893127644011
 20
-2.858904081755624
 30
0.0
 10
675.4210736974924
 20
-3.212035605636513
 30
0.0
 10
675.2499215899988
 20
-3.564155085674448
 30
0.0
 10
674.9421480283582
 20
-4.092414504086829
 30
0.0
 10
674.9417512411107
 20
-4.781464727946703
 30
0.0
 10
675.2503652116275
 20
-5.30937587029751
 30
0.0
 10
675.4193939355035
 20
-5.662489697003932
 30
0.0
 10
675.5368567723199
 20
-5.895407853443109
 30
0.0
 10
675.5955881907282
 20
-6.01186693166268
 30
0.0
 11
675.4205881907282
 21
-1.111866931662731
 31
0.0
 11
675.5955881907282
 21
-1.461866931662754
 31
0.0
 11
675.7705881907282
 21
-1.811866931662734
 31
0.0
 11
675.7705881907282
 21
-2.511866931662694
 31
0.0
 11
675.5955881907282
 21
-2.861866931662717
 31
0.0
 11
675.4205881907282
 21
-3.21186693166264
 31
0.0
 11
675.245588190728
 21
-3.561866931662635
 31
0.0
 11
675.0705881907281
 21
-3.911866931662657
 31
0.0
 11
675.0705881907281
 21
-4.961866931662697
 31
0.0
 11
675.245588190728
 21
-5.311866931662677
 31
0.0
 11
675.4205881907282
 21
-5.661866931662686
 31
0.0
 11
675.5955881907282
 21
-6.01186693166268
 31
0.0
  0
LINE
  5
4304
330
17
100
AcDbEntity
  8
0
100
AcDbLine
 10
665.551814375439
 20
-4.629240145244551
 30
0.0
 11
674.1113362765389
 21
-4.629240145244551
 31
0.0
  0
LINE
  5
4305
330
17
100
AcDbEntity
  8
0
100
AcDbLine
 10
665.551814375439
 20
-3.629240145244551
 30
0.0
 11
674.3342271259454
 21
-3.629240145244551
 31
0.0
  0
LINE
  5
4306
330
17
100
AcDbEntity
  8
0
100
AcDbLine
 10
665.551814375439
 20
-2.629240145244551
 30
0.0
 11
674.8458417909002
 21
-2.629240145244551
 31
0.0
  0
LINE
  5
4307
330
17
100
AcDbEntity
  8
0
100
AcDbLine
 10
692.9664178747527
 20
-2.629240145244551
 30
0.0
 11
692.9664178747527
 21
-4.629240145244551
 31
0.0
  0
LINE
  5
4308
330
17
100
AcDbEntity
  8
0
100
AcDbLine
 10
675.7208417909002
 20
-2.629240145244551
 30
0.0
 11
692.9664178747523
 21
-2.629240145244551
 31
0.0
  0
LINE
  5
4309
330
17
100
AcDbEntity
  8
0
100
AcDbLine
 10
674.9863362765389
 20
-4.629240145244551
 30
0.0
 11
692.9664178747527
 21
-4.629240145244551
 31
0.0
  0
LINE
  5
430A
330
17
100
AcDbEntity
  8
0
100
AcDbLine
 10
675.2092271259454
 20
-3.629240145244551
 30
0.0
 11
692.9664178747527
 21
-3.629240145244551
 31
0.0
  0
POINT
  5
430B
330
17
100
AcDbEntity
  8
0
100
AcDbPoint
 10
692.9664178747523
 20
-2.629240145244551
 30
0.0
  0
POINT
  5
430C
330
17
100
AcDbEntity
  8
0
100
AcDbPoint
 10
692.9664178747527
 20
-3.129240145244551
 30
0.0
  0
POINT
  5
430D
330
17
100
AcDbEntity
  8
0
100
AcDbPoint
 10
692.9664178747523
 20
-4.629240145244551
 30
0.0
  0
POINT
  5
430E
330
17
100
AcDbEntity
  8
0
100
AcDbPoint
 10
692.9664178747527
 20
-4.129240145244551
 30
0.0
  0
LINE
  5
430F
330
17
100
AcDbEntity
  8
0
100
AcDbLine
 10
692.9664178747527
 20
-4.379240145244551
 30
0.0
 11
699.9664178747527
 21
-4.379240145244551
 31
0.0
  0
LINE
  5
4310
330
17
100
AcDbEntity
  8
0
100
AcDbLine
 10
692.9664178747527
 20
-3.879240145244551
 30
0.0
 11
699.9664178747527
 21
-3.879240145244551
 31
0.0
  0
LINE
  5
4311
330
17
100
AcDbEntity
  8
0
100
AcDbLine
 10
692.9664178747527
 20
-3.379240145244551
 30
0.0
 11
699.9664178747527
 21
-3.379240145244551
 31
0.0
  0
LINE
  5
4312
330
17
100
AcDbEntity
  8
0
100
AcDbLine
 10
692.9664178747527
 20
-2.879240145244551
 30
0.0
 11
699.9664178747527
 21
-2.879240145244551
 31
0.0
  0
DIMENSION
  5
4313
330
17
100
AcDbEntity
  8
Z_OM_DIM
100
AcDbDimension
  2
*D1
 10
699.9664178747527
 20
-37.68649849960366
 30
0.0
 11
684.3341161250959
 21
-35.81149849960366
 31
0.0
 70
    32
  1
180 - 200
 71
     5
 42
31.26460349931369
  3
CatalogDxf
100
AcDbAlignedDimension
 13
668.701814375439
 23
-18.12924014524461
 33
0.0
 14
699.9664178747527
 24
-4.379240145244551
 34
0.0
100
AcDbRotatedDimension
  0
LINE
  5
442C
330
17
100
AcDbEntity
  8
additional
  6
CENTER2
 48
0.5
100
AcDbLine
 10
502.8784457947246
 20
-94.20970915477505
 30
0.0
 11
543.6706278589337
 21
-94.20970915477505
 31
0.0
  0
LINE
  5
442D
330
17
100
AcDbEntity
  8
additional
  6
CENTER2
 48
0.5
100
AcDbLine
 10
621.9018143754388
 20
-107.3389665780578
 30
0.0
 11
621.9018143754388
 21
-81.20970915477512
 31
0.0
  0
LINE
  5
442E
330
17
100
AcDbEntity
  8
additional
  6
CENTER2
 48
0.5
100
AcDbLine
 10
618.9018143754388
 20
-84.20970915477505
 30
0.0
 11
654.6659031935813
 21
-84.20970915477505
 31
0.0
  0
LINE
  5
442F
330
17
100
AcDbEntity
  8
0
 48
0.5
100
AcDbLine
 10
614.9018143754389
 20
-87.25970915477507
 30
0.0
 11
614.9018143754389
 21
-101.159709154775
 31
0.0
  0
LINE
  5
4430
330
17
100
AcDbEntity
  8
0
 48
0.5
100
AcDbLine
 10
614.9018143754389
 20
-99.70970915477506
 30
0.0
 11
614.9268143754389
 21
-99.70970915477506
 31
0.0
  0
LINE
  5
4431
330
17
100
AcDbEntity
  8
0
 48
0.5
100
AcDbLine
 10
614.9268143754389
 20
-101.159709154775
 30
0.0
 11
610.9018143754389
 21
-101.159709154775
 31
0.0
  0
LINE
  5
4432
330
17
100
AcDbEntity
  8
0
 48
0.5
100
AcDbLine
 10
610.9018143754389
 20
-101.159709154775
 30
0.0
 11
610.9018143754389
 21
-108.209709154775
 31
0.0
  0
LINE
  5
4433
330
17
100
AcDbEntity
  8
0
 48
0.5
100
AcDbLine
 10
610.9018143754389
 20
-108.209709154775
 30
0.0
 11
668.701814375439
 21
-108.209709154775
 31
0.0
  0
LINE
  5
4434
330
17
100
AcDbEntity
  8
0
 48
0.5
100
AcDbLine
 10
668.701814375439
 20
-80.20970915477509
 30
0.0
 11
610.9018143754389
 21
-80.20970915477505
 31
0.0
  0
LINE
  5
4435
330
17
100
AcDbEntity
  8
0
 48
0.5
100
AcDbLine
 10
610.9018143754389
 20
-80.20970915477505
 30
0.0
 11
610.9018143754389
 21
-87.25970915477507
 31
0.0
  0
LINE
  5
4436
330
17
100
AcDbEntity
  8
0
 48
0.5
100
AcDbLine
 10
610.9018143754389
 20
-87.25970915477507
 30
0.0
 11
614.9268143754389
 21
-87.25970915477507
 31
0.0
  0
LINE
  5
4437
330
17
100
AcDbEntity
  8
0
 48
0.5
100
AcDbLine
 10
668.701814375439
 20
-80.20970915477509
 30
0.0
 11
668.701814375439
 21
-108.209709154775
 31
0.0
  0
CIRCLE
  5
4438
330
17
100
AcDbEntity
  8
additional
  6
HIDDEN2
 48
0.5
100
AcDbCircle
 10
651.9018143754388
 20
-104.209709154775
 30
0.0
 40
1.5
  0
CIRCLE
  5
4439
330
17
100
AcDbEntity
  8
0
 48
0.5
100
AcDbCircle
 10
651.9018143754388
 20
-104.209709154775
 30
0.0
 40
1.25
  0
CIRCLE
  5
443A
330
17
100
AcDbEntity
  8
additional
  6
HIDDEN2
 48
0.5
100
AcDbCircle
 10
621.9018143754388
 20
-104.209709154775
 30
0.0
 40
1.5
  0
CIRCLE
  5
443B
330
17
100
AcDbEntity
  8
0
 48
0.5
100
AcDbCircle
 10
621.9018143754388
 20
-104.209709154775
 30
0.0
 40
1.25
  0
CIRCLE
  5
443C
330
17
100
AcDbEntity
  8
additional
  6
HIDDEN2
 48
0.5
100
AcDbCircle
 10
621.9018143754388
 20
-84.20970915477505
 30
0.0
 40
1.5
  0
CIRCLE
  5
443D
330
17
100
AcDbEntity
  8
0
 48
0.5
100
AcDbCircle
 10
621.9018143754388
 20
-84.20970915477505
 30
0.0
 40
1.25
  0
CIRCLE
  5
443E
330
17
100
AcDbEntity
  8
additional
  6
HIDDEN2
 48
0.5
100
AcDbCircle
 10
651.9018143754388
 20
-84.20970915477505
 30
0.0
 40
1.5
  0
CIRCLE
  5
443F
330
17
100
AcDbEntity
  8
0
 48
0.5
100
AcDbCircle
 10
651.9018143754388
 20
-84.20970915477505
 30
0.0
 40
1.25
  0
LINE
  5
4440
330
17
100
AcDbEntity
  8
0
 48
0.5
100
AcDbLine
 10
610.9018143754389
 20
13.37075985475545
 30
0.0
 11
610.9018143754389
 21
11.37075985475545
 31
0.0
  0
LINE
  5
4441
330
17
100
AcDbEntity
  8
0
 48
0.5
100
AcDbLine
 10
610.9018143754389
 20
11.37075985475545
 30
0.0
 11
666.7018143754391
 21
11.37075985475545
 31
0.0
  0
LINE
  5
4442
330
17
100
AcDbEntity
  8
0
 48
0.5
100
AcDbLine
 10
616.051814375439
 20
10.37075985475548
 30
0.0
 11
665.551814375439
 21
10.37075985475548
 31
0.0
  0
LINE
  5
4443
330
17
100
AcDbEntity
  8
0
 48
0.5
100
AcDbLine
 10
666.7018143754391
 20
11.37075985475545
 30
0.0
 11
666.7018143754391
 21
-1.628202276227682
 31
0.0
  0
LINE
  5
4444
330
17
100
AcDbEntity
  8
0
 48
0.5
100
AcDbLine
 10
666.7018143754391
 20
-5.628202276227739
 30
0.0
 11
666.7018143754391
 21
-18.62924014524458
 31
0.0
  0
LINE
  5
4445
330
17
100
AcDbEntity
  8
0
 48
0.5
100
AcDbLine
 10
666.7018143754391
 20
-18.62924014524458
 30
0.0
 11
610.9018143754389
 21
-18.62924014524455
 31
0.0
  0
LINE
  5
4446
330
17
100
AcDbEntity
  8
0
 48
0.5
100
AcDbLine
 10
610.9018143754389
 20
-18.62924014524455
 30
0.0
 11
610.9018143754389
 21
-20.62924014524455
 31
0.0
  0
LINE
  5
4447
330
17
100
AcDbEntity
  8
0
 48
0.5
100
AcDbLine
 10
610.9018143754389
 20
-20.62924014524455
 30
0.0
 11
666.2018143754391
 21
-20.62924014524461
 31
0.0
  0
ARC
  5
4448
330
17
100
AcDbEntity
  8
0
 48
0.5
100
AcDbCircle
 10
666.2018143754391
 20
-18.12924014524458
 30
0.0
 40
2.5
100
AcDbArc
 50
270.0
 51
0.0
  0
LINE
  5
4449
330
17
100
AcDbEntity
  8
0
 48
0.5
100
AcDbLine
 10
668.701814375439
 20
-18.12924014524461
 30
0.0
 11
668.701814375439
 21
-4.629240145244551
 31
0.0
  0
LINE
  5
444A
330
17
100
AcDbEntity
  8
0
 48
0.5
100
AcDbLine
 10
668.701814375439
 20
-2.629240145244551
 30
0.0
 11
668.701814375439
 21
10.87075985475545
 31
0.0
  0
ARC
  5
444B
330
17
100
AcDbEntity
  8
0
 48
0.5
100
AcDbCircle
 10
666.2018143754391
 20
10.87075985475542
 30
0.0
 40
2.5
100
AcDbArc
 50
0.0
 51
90.0
  0
LINE
  5
444C
330
17
100
AcDbEntity
  8
0
 48
0.5
100
AcDbLine
 10
666.2018143754391
 20
13.37075985475545
 30
0.0
 11
610.9018143754389
 21
13.37075985475545
 31
0.0
  0
LINE
  5
444D
330
17
100
AcDbEntity
  8
0
 48
0.5
100
AcDbLine
 10
614.9018143754389
 20
-18.62924014524455
 30
0.0
 11
614.9018143754389
 21
11.37075985475542
 31
0.0
  0
LINE
  5
444E
330
17
100
AcDbEntity
  8
0
 48
0.5
100
AcDbLine
 10
611.7018143754391
 20
-18.62924014524455
 30
0.0
 11
611.7018143754391
 21
11.37075985475542
 31
0.0
  0
LINE
  5
444F
330
17
100
AcDbEntity
  8
0
100
AcDbLine
 10
614.9018143754389
 20
-18.52924014524456
 30
0.0
 11
614.9018143754389
 21
11.27075985475545
 31
0.0
  0
LINE
  5
4450
330
17
100
AcDbEntity
  8
0
100
AcDbLine
 10
614.9018143754389
 20
11.27075985475545
 30
0.0
 11
615.5018143754388
 21
11.27075985475545
 31
0.0
  0
LINE
  5
4451
330
17
100
AcDbEntity
  8
0
100
AcDbLine
 10
615.5018143754388
 20
11.27075985475545
 30
0.0
 11
615.5018143754388
 21
11.12075985475545
 31
0.0
  0
LINE
  5
4452
330
17
100
AcDbEntity
  8
0
100
AcDbLine
 10
615.5018143754388
 20
11.12075985475545
 30
0.0
 11
615.7518143754388
 21
11.12075985475545
 31
0.0
  0
LINE
  5
4453
330
17
100
AcDbEntity
  8
0
100
AcDbLine
 10
616.051814375439
 20
10.82075985475546
 30
0.0
 11
616.051814375439
 21
-18.07924014524454
 31
0.0
  0
LINE
  5
4454
330
17
100
AcDbEntity
  8
0
100
AcDbLine
 10
615.7518143754388
 20
-18.37924014524455
 30
0.0
 11
615.5018143754388
 21
-18.37924014524455
 31
0.0
  0
LINE
  5
4455
330
17
100
AcDbEntity
  8
0
100
AcDbLine
 10
615.5018143754388
 20
-18.37924014524455
 30
0.0
 11
615.5018143754388
 21
-18.52924014524456
 31
0.0
  0
LINE
  5
4456
330
17
100
AcDbEntity
  8
0
100
AcDbLine
 10
615.5018143754388
 20
-18.52924014524456
 30
0.0
 11
614.9018143754389
 21
-18.52924014524456
 31
0.0
  0
LINE
  5
4457
330
17
100
AcDbEntity
  8
0
100
AcDbLine
 10
665.8518143754386
 20
-18.37924014524455
 30
0.0
 11
666.7018143754391
 21
-18.37924014524455
 31
0.0
  0
LINE
  5
4458
330
17
100
AcDbEntity
  8
0
100
AcDbLine
 10
666.7018143754391
 20
-18.37924014524455
 30
0.0
 11
666.7018143754391
 21
-4.629240145244551
 31
0.0
  0
LINE
  5
4459
330
17
100
AcDbEntity
  8
0
100
AcDbLine
 10
666.7018143754391
 20
-2.629240145244551
 30
0.0
 11
666.7018143754391
 21
11.12075985475545
 31
0.0
  0
LINE
  5
445A
330
17
100
AcDbEntity
  8
0
100
AcDbLine
 10
666.7018143754391
 20
11.12075985475545
 30
0.0
 11
665.8518143754386
 21
11.12075985475547
 31
0.0
  0
LINE
  5
445B
330
17
100
AcDbEntity
  8
0
100
AcDbLine
 10
665.551814375439
 20
10.82075985475546
 30
0.0
 11
665.551814375439
 21
-18.07924014524454
 31
0.0
  0
ARC
  5
445C
330
17
100
AcDbEntity
  8
0
100
AcDbCircle
 10
665.8518143754386
 20
-18.07924014524454
 30
0.0
 40
0.3
100
AcDbArc
 50
180.0
 51
270.0
  0
ARC
  5
445D
330
17
100
AcDbEntity
  8
0
100
AcDbCircle
 10
665.8518143754386
 20
10.82075985475546
 30
0.0
 40
0.3
100
AcDbArc
 50
90.0
 51
180.0
  0
ARC
  5
445E
330
17
100
AcDbEntity
  8
0
100
AcDbCircle
 10
615.7518143754388
 20
-18.07924014524454
 30
0.0
 40
0.3
100
AcDbArc
 50
270.0
 51
0.0
  0
ARC
  5
445F
330
17
100
AcDbEntity
  8
0
100
AcDbCircle
 10
615.7518143754388
 20
10.82075985475546
 30
0.0
 40
0.3
100
AcDbArc
 50
0.0
 51
90.0
  0
LINE
  5
4460
330
17
100
AcDbEntity
  8
0
 48
0.5
100
AcDbLine
 10
616.051814375439
 20
-17.62924014524458
 30
0.0
 11
665.551814375439
 21
-17.62924014524458
 31
0.0
  0
LINE
  5
4461
330
17
100
AcDbEntity
  8
0
 48
0.5
100
AcDbLine
 10
506.2387349564911
 20
-80.20970915477505
 30
0.0
 11
506.2387349564911
 21
-108.209709154775
 31
0.0
  0
LINE
  5
4462
330
17
100
AcDbEntity
  8
0
 48
0.5
100
AcDbLine
 10
506.2387349564911
 20
-108.209709154775
 30
0.0
 11
540.2387349564911
 21
-108.209709154775
 31
0.0
  0
LINE
  5
4463
330
17
100
AcDbEntity
  8
0
 48
0.5
100
AcDbLine
 10
540.2387349564911
 20
-108.209709154775
 30
0.0
 11
540.2387349564911
 21
-80.20970915477505
 31
0.0
  0
LINE
  5
4464
330
17
100
AcDbEntity
  8
0
 48
0.5
100
AcDbLine
 10
538.2387349564911
 20
-87.25970915477507
 30
0.0
 11
538.2387349564911
 21
-80.20970915477505
 31
0.0
  0
LINE
  5
4465
330
17
100
AcDbEntity
  8
0
 48
0.5
100
AcDbLine
 10
540.2387349564911
 20
-80.20970915477505
 30
0.0
 11
506.2387349564911
 21
-80.20970915477505
 31
0.0
  0
LINE
  5
4467
330
17
100
AcDbEntity
  8
additional
 48
0.5
100
AcDbLine
 10
621.9018143754388
 20
15.13671567714684
 30
0.0
 11
621.9018143754388
 21
8.619515659065854
 31
0.0
  0
LINE
  5
4468
330
17
100
AcDbEntity
  8
additional
 48
0.5
100
AcDbLine
 10
651.9018143754388
 20
15.13671567714681
 30
0.0
 11
651.9018143754388
 21
8.619515659065825
 31
0.0
  0
LINE
  5
4469
330
17
100
AcDbEntity
  8
additional
 48
0.5
100
AcDbLine
 10
621.901814375438
 20
-22.39519596763631
 30
0.0
 11
621.9018143754384
 21
-15.87799594955533
 31
0.0
  0
LINE
  5
446A
330
17
100
AcDbEntity
  8
additional
 48
0.5
100
AcDbLine
 10
651.9018143754379
 20
-22.39519596763776
 30
0.0
 11
651.9018143754384
 21
-15.87799594955678
 31
0.0
  0
LINE
  5
446B
330
17
100
AcDbEntity
  8
0
100
AcDbLine
 10
610.201814375439
 20
-9.604240145244546
 30
0.0
 11
610.201814375439
 21
-8.62924014524458
 31
0.0
  0
LINE
  5
446C
330
17
100
AcDbEntity
  8
0
100
AcDbLine
 10
599.9018143754389
 20
1.860009854755389
 30
0.0
 11
599.9018143754389
 21
-1.829240145244568
 31
0.0
  0
LINE
  5
446D
330
17
100
AcDbEntity
  8
0
100
AcDbLine
 10
610.201814375439
 20
-9.604240145244546
 30
0.0
 11
610.201814375439
 21
-8.62924014524458
 31
0.0
  0
LINE
  5
446E
330
17
100
AcDbEntity
  8
0
100
AcDbLine
 10
610.201814375439
 20
1.370759854755419
 30
0.0
 11
610.201814375439
 21
-8.62924014524458
 31
0.0
  0
LINE
  5
4471
330
17
100
AcDbEntity
  8
additional
  6
HIDDEN2
 48
0.5
100
AcDbLine
 10
605.4018143754388
 20
-5.429240145244591
 30
0.0
 11
605.4018143754388
 21
-9.104240145244602
 31
0.0
  0
LINE
  5
4472
330
17
100
AcDbEntity
  8
additional
  6
HIDDEN2
 48
0.5
100
AcDbLine
 10
602.4018143754389
 20
-5.429240145244591
 30
0.0
 11
602.4018143754389
 21
-9.104240145244602
 31
0.0
  0
LINE
  5
4473
330
17
100
AcDbEntity
  8
0
 48
0.5
100
AcDbLine
 10
601.9018143754388
 20
-9.604240145244602
 30
0.0
 11
602.4018143754389
 21
-9.104240145244602
 31
0.0
  0
LINE
  5
4474
330
17
100
AcDbEntity
  8
additional
  6
HIDDEN2
 48
0.5
100
AcDbLine
 10
601.9018143754388
 20
-9.604240145244602
 30
0.0
 11
602.4018143754389
 21
-9.104240145244602
 31
0.0
  0
LINE
  5
4475
330
17
100
AcDbEntity
  8
0
100
AcDbLine
 10
605.9018143754388
 20
-9.604240145244602
 30
0.0
 11
605.4018143754388
 21
-9.104240145244602
 31
0.0
  0
LINE
  5
4476
330
17
100
AcDbEntity
  8
additional
  6
HIDDEN2
100
AcDbLine
 10
605.9018143754388
 20
-9.604240145244602
 30
0.0
 11
605.4018143754388
 21
-9.104240145244602
 31
0.0
  0
LINE
  5
4479
330
17
100
AcDbEntity
  8
additional
  6
HIDDEN2
 48
0.5
100
AcDbLine
 10
605.4018143754388
 20
1.845759854755556
 30
0.0
 11
605.4018143754388
 21
-1.829240145244625
 31
0.0
  0
LINE
  5
447A
330
17
100
AcDbEntity
  8
additional
  6
HIDDEN2
 48
0.5
100
AcDbLine
 10
602.4018143754389
 20
1.845759854755442
 30
0.0
 11
602.4018143754389
 21
-1.829240145244568
 31
0.0
  0
LINE
  5
447B
330
17
100
AcDbEntity
  8
0
 48
0.5
100
AcDbLine
 10
601.9018143754388
 20
2.345759854755442
 30
0.0
 11
602.4018143754389
 21
1.845759854755442
 31
0.0
  0
LINE
  5
447C
330
17
100
AcDbEntity
  8
additional
  6
HIDDEN2
 48
0.5
100
AcDbLine
 10
601.9018143754388
 20
2.345759854755442
 30
0.0
 11
602.4018143754389
 21
1.845759854755442
 31
0.0
  0
LINE
  5
447D
330
17
100
AcDbEntity
  8
0
100
AcDbLine
 10
605.9018143754388
 20
2.345759854755442
 30
0.0
 11
605.4018143754388
 21
1.845759854755442
 31
0.0
  0
LINE
  5
447E
330
17
100
AcDbEntity
  8
additional
  6
HIDDEN2
100
AcDbLine
 10
605.9018143754388
 20
2.345759854755442
 30
0.0
 11
605.4018143754388
 21
1.845759854755442
 31
0.0
  0
LINE
  5
447F
330
17
100
AcDbEntity
  8
0
 48
0.5
100
AcDbLine
 10
600.4018143754389
 20
-9.61849014524455
 30
0.0
 11
610.201814375439
 21
-9.61849014524455
 31
0.0
  0
LINE
  5
4480
330
17
100
AcDbEntity
  8
0
 48
0.5
100
AcDbLine
 10
610.201814375439
 20
-9.61849014524455
 30
0.0
 11
610.201814375439
 21
-9.560617540790758
 31
0.0
  0
LINE
  5
4481
330
17
100
AcDbEntity
  8
0
 48
0.5
100
AcDbLine
 10
600.4018143754389
 20
2.360009854755389
 30
0.0
 11
610.201814375439
 21
2.360009854755389
 31
0.0
  0
LINE
  5
4482
330
17
100
AcDbEntity
  8
0
 48
0.5
100
AcDbLine
 10
610.201814375439
 20
2.360009854755389
 30
0.0
 11
610.201814375439
 21
1.370759854755419
 31
0.0
  0
LINE
  5
4483
330
17
100
AcDbEntity
  8
0
100
AcDbLine
 10
599.9018143754389
 20
-5.429240145244591
 30
0.0
 11
599.9018143754389
 21
-9.11849014524455
 31
0.0
  0
LINE
  5
4484
330
17
100
AcDbEntity
  8
0
100
AcDbLine
 10
600.4018143754389
 20
-9.61849014524455
 30
0.0
 11
599.9018143754389
 21
-9.11849014524455
 31
0.0
  0
LINE
  5
4485
330
17
100
AcDbEntity
  8
0
 48
0.5
100
AcDbLine
 10
599.9018143754389
 20
1.860009854755389
 30
0.0
 11
600.4018143754389
 21
2.360009854755389
 31
0.0
  0
LINE
  5
4486
330
17
100
AcDbEntity
  8
0
100
AcDbLine
 10
599.9018143754389
 20
-1.829240145244568
 30
0.0
 11
608.0018143754387
 21
-1.829240145244568
 31
0.0
  0
LINE
  5
4487
330
17
100
AcDbEntity
  8
0
100
AcDbLine
 10
608.0018143754387
 20
-1.829240145244142
 30
0.0
 11
608.0018143754387
 21
-5.429240145244165
 31
0.0
  0
LINE
  5
4488
330
17
100
AcDbEntity
  8
0
100
AcDbLine
 10
608.0018143754387
 20
-5.429240145244591
 30
0.0
 11
599.9018143754389
 21
-5.429240145244591
 31
0.0
  0
LINE
  5
4489
330
17
100
AcDbEntity
  8
0
100
AcDbLine
 10
600.4018143754389
 20
2.360009854755389
 30
0.0
 11
600.4018143754389
 21
-1.829240145244568
 31
0.0
  0
LINE
  5
448A
330
17
100
AcDbEntity
  8
0
100
AcDbLine
 10
600.4018143754389
 20
-9.61849014524455
 30
0.0
 11
600.4018143754389
 21
-5.429240145244591
 31
0.0
  0
LINE
  5
448B
330
17
100
AcDbEntity
  8
additional
  6
HIDDEN2
 48
0.5
100
AcDbLine
 10
602.4018143754389
 20
1.845759854755272
 30
0.0
 11
605.4018143754388
 21
1.845759854755272
 31
0.0
  0
LINE
  5
448C
330
17
100
AcDbEntity
  8
additional
  6
HIDDEN2
 48
0.5
100
AcDbLine
 10
602.4018143754389
 20
-9.104240145244602
 30
0.0
 11
605.4018143754388
 21
-9.104240145244489
 31
0.0
  0
LINE
  5
448D
330
17
100
AcDbEntity
  8
0
100
AcDbLine
 10
610.201814375439
 20
-100.184709154775
 30
0.0
 11
610.201814375439
 21
-99.20970915477505
 31
0.0
  0
LINE
  5
448E
330
17
100
AcDbEntity
  8
0
100
AcDbLine
 10
610.201814375439
 20
-100.184709154775
 30
0.0
 11
610.201814375439
 21
-99.20970915477505
 31
0.0
  0
LINE
  5
448F
330
17
100
AcDbEntity
  8
0
100
AcDbLine
 10
610.201814375439
 20
-89.20970915477505
 30
0.0
 11
610.201814375439
 21
-99.20970915477505
 31
0.0
  0
LINE
  5
4490
330
17
100
AcDbEntity
  8
0
 48
0.5
100
AcDbLine
 10
600.4018143754389
 20
-100.198959154775
 30
0.0
 11
610.201814375439
 21
-100.198959154775
 31
0.0
  0
LINE
  5
4491
330
17
100
AcDbEntity
  8
0
 48
0.5
100
AcDbLine
 10
610.201814375439
 20
-100.198959154775
 30
0.0
 11
610.201814375439
 21
-100.1410865503212
 31
0.0
  0
LINE
  5
4492
330
17
100
AcDbEntity
  8
0
 48
0.5
100
AcDbLine
 10
600.4018143754389
 20
-88.22045915477508
 30
0.0
 11
610.201814375439
 21
-88.22045915477508
 31
0.0
  0
LINE
  5
4493
330
17
100
AcDbEntity
  8
0
 48
0.5
100
AcDbLine
 10
610.201814375439
 20
-88.22045915477508
 30
0.0
 11
610.201814375439
 21
-89.20970915477505
 31
0.0
  0
LINE
  5
4494
330
17
100
AcDbEntity
  8
0
100
AcDbLine
 10
599.9018143754389
 20
-88.72045915477508
 30
0.0
 11
599.9018143754389
 21
-99.69895915477508
 31
0.0
  0
LINE
  5
4495
330
17
100
AcDbEntity
  8
0
100
AcDbLine
 10
600.4018143754389
 20
-100.198959154775
 30
0.0
 11
599.9018143754389
 21
-99.69895915477502
 31
0.0
  0
LINE
  5
4496
330
17
100
AcDbEntity
  8
0
 48
0.5
100
AcDbLine
 10
599.9018143754389
 20
-88.72045915477508
 30
0.0
 11
600.4018143754389
 21
-88.22045915477508
 31
0.0
  0
LINE
  5
4497
330
17
100
AcDbEntity
  8
0
100
AcDbLine
 10
600.4018143754389
 20
-88.22045915477508
 30
0.0
 11
600.4018143754389
 21
-100.198959154775
 31
0.0
  0
LINE
  5
4498
330
17
100
AcDbEntity
  8
0
 48
0.5
100
AcDbLine
 10
611.7018143754391
 20
-101.159709154775
 30
0.0
 11
611.7018143754391
 21
-87.25970915477507
 31
0.0
  0
CIRCLE
  5
4499
330
17
100
AcDbEntity
  8
0
 48
0.5
100
AcDbCircle
 10
603.9018143754389
 20
-94.20970915477505
 30
0.0
 40
1.500000000000113
  0
LINE
  5
449A
330
17
100
AcDbEntity
  8
0
 48
0.5
100
AcDbLine
 10
524.9887349564911
 20
-99.93758970193205
 30
0.0
 11
524.9887349564911
 21
-88.48182860761808
 31
0.0
  0
CIRCLE
  5
449B
330
17
100
AcDbEntity
  8
0
 48
0.5
100
AcDbCircle
 10
523.2387349564911
 20
-94.20970915477505
 30
0.0
 40
5.989249999999941
  0
ARC
  5
449C
330
17
100
AcDbEntity
  8
0
 48
0.5
100
AcDbCircle
 10
523.2387349564911
 20
-94.20970915477505
 30
0.0
 40
5.489249999999955
100
AcDbArc
 50
288.5906679277919
 51
71.40933207220784
  0
ARC
  5
449D
330
17
100
AcDbEntity
  8
0
 48
0.5
100
AcDbCircle
 10
523.2387349564911
 20
-94.20970915477505
 30
0.0
 40
5.489249999999955
100
AcDbArc
 50
108.5906679277921
 51
251.4093320722079
  0
CIRCLE
  5
449E
330
17
100
AcDbEntity
  8
0
 48
0.5
100
AcDbCircle
 10
523.2387349564911
 20
-94.20970915477505
 30
0.0
 40
10.0
  0
ARC
  5
449F
330
17
100
AcDbEntity
  8
0
100
AcDbCircle
 10
523.2387349564911
 20
-94.20970915477505
 30
0.0
 40
10.0
100
AcDbArc
 50
308.9155955561984
 51
231.0844044438052
  0
ARC
  5
44A0
330
17
100
AcDbEntity
  8
0
100
AcDbCircle
 10
517.3495955751114
 20
-101.5041359551949
 30
0.0
 40
0.625
100
AcDbArc
 50
231.0844044438052
 51
340.0000000000035
  0
LINE
  5
44A1
330
17
100
AcDbEntity
  8
0
100
AcDbLine
 10
517.9369034631028
 20
-101.7178985447733
 30
0.0
 11
519.095520572756
 21
-98.53462419820756
 31
0.0
  0
ARC
  5
44A2
330
17
100
AcDbEntity
  8
0
100
AcDbCircle
 10
529.1278743378712
 20
-101.5041359551945
 30
0.0
 40
0.625
100
AcDbArc
 50
199.9999999999995
 51
308.9155955561948
  0
LINE
  5
44A3
330
17
100
AcDbEntity
  8
0
100
AcDbLine
 10
527.3819493402267
 20
-98.53462419820722
 30
0.0
 11
528.5405664498799
 21
-101.7178985447732
 31
0.0
  0
ARC
  5
44A4
330
17
100
AcDbEntity
  8
0
100
AcDbCircle
 10
520.2239272046609
 20
-87.75397068272638
 30
0.0
 40
0.625
100
AcDbArc
 50
19.99999999999953
 51
115.0324134954958
  0
ARC
  5
44A5
330
17
100
AcDbEntity
  8
0
100
AcDbCircle
 10
523.2387349564911
 20
-94.20970915477505
 30
0.0
 40
7.75
100
AcDbArc
 50
115.0324134954958
 51
174.967586504503
  0
ARC
  5
44A6
330
17
100
AcDbEntity
  8
0
100
AcDbCircle
 10
516.1412001732029
 20
-93.58470915477505
 30
0.0
 40
0.625
100
AcDbArc
 50
174.967586504503
 51
270.0
  0
LINE
  5
44A7
330
17
100
AcDbEntity
  8
0
100
AcDbLine
 10
516.1412001732029
 20
-94.20970915477505
 30
0.0
 11
517.2494849564911
 21
-94.20970915477505
 31
0.0
  0
ARC
  5
44A8
330
17
100
AcDbEntity
  8
0
100
AcDbCircle
 10
523.2387349564911
 20
-94.20970915477505
 30
0.0
 40
7.75
100
AcDbArc
 50
5.032413495496927
 51
64.96758650450418
  0
ARC
  5
44A9
330
17
100
AcDbEntity
  8
0
100
AcDbCircle
 10
526.2535427083213
 20
-87.75397068272638
 30
0.0
 40
0.625
100
AcDbArc
 50
64.96758650450418
 51
160.0000000000004
  0
LINE
  5
44AA
330
17
100
AcDbEntity
  8
0
100
AcDbLine
 10
525.6662348203304
 20
-87.54020809314772
 30
0.0
 11
525.2871790999043
 21
-88.58165512573311
 31
0.0
  0
LINE
  5
44AB
330
17
100
AcDbEntity
  8
0
100
AcDbLine
 10
520.8112350926518
 20
-87.54020809314772
 30
0.0
 11
521.1902908130779
 21
-88.58165512573311
 31
0.0
  0
LINE
  5
44AC
330
17
100
AcDbEntity
  8
0
100
AcDbLine
 10
529.2279849564912
 20
-94.20970915477511
 30
0.0
 11
530.3362697397793
 21
-94.20970915477516
 31
0.0
  0
ARC
  5
44AD
330
17
100
AcDbEntity
  8
0
100
AcDbCircle
 10
530.3362697397793
 20
-93.58470915477516
 30
0.0
 40
0.625
100
AcDbArc
 50
270.0
 51
5.032413495496927
  0
LINE
  5
44AE
330
17
100
AcDbEntity
  8
0
 48
0.5
100
AcDbLine
 10
540.2387349564911
 20
-87.25970915477507
 30
0.0
 11
538.2387349564911
 21
-87.25970915477507
 31
0.0
  0
LINE
  5
44AF
330
17
100
AcDbEntity
  8
0
 48
0.5
100
AcDbLine
 10
538.2387349564911
 20
-101.159709154775
 30
0.0
 11
538.2387349564911
 21
-108.209709154775
 31
0.0
  0
LINE
  5
44B0
330
17
100
AcDbEntity
  8
0
 48
0.5
100
AcDbLine
 10
540.2387349564911
 20
-101.159709154775
 30
0.0
 11
538.2387349564911
 21
-101.159709154775
 31
0.0
  0
LINE
  5
44B1
330
17
100
AcDbEntity
  8
0
 48
0.5
100
AcDbLine
 10
508.2387349564911
 20
-87.25970915477518
 30
0.0
 11
508.2387349564911
 21
-80.20970915477517
 31
0.0
  0
LINE
  5
44B2
330
17
100
AcDbEntity
  8
0
 48
0.5
100
AcDbLine
 10
506.2387349564911
 20
-87.25970915477518
 30
0.0
 11
508.2387349564911
 21
-87.25970915477518
 31
0.0
  0
LINE
  5
44B3
330
17
100
AcDbEntity
  8
0
 48
0.5
100
AcDbLine
 10
508.2387349564911
 20
-101.1597091547751
 30
0.0
 11
508.2387349564911
 21
-108.2097091547751
 31
0.0
  0
LINE
  5
44B4
330
17
100
AcDbEntity
  8
0
 48
0.5
100
AcDbLine
 10
506.2387349564911
 20
-101.1597091547751
 30
0.0
 11
508.2387349564911
 21
-101.1597091547751
 31
0.0
  0
LINE
  5
44B5
330
17
100
AcDbEntity
  8
0
 48
0.5
100
AcDbLine
 10
680.1377743383509
 20
-79.45970915477508
 30
0.0
 11
665.551814375439
 21
-79.45970915477506
 31
0.0
  0
LINE
  5
44B6
330
17
100
AcDbEntity
  8
0
 48
0.5
100
AcDbLine
 10
681.0037997421354
 20
-77.95970915477511
 30
0.0
 11
665.5518143754388
 21
-77.95970915477505
 31
0.0
  0
LINE
  5
44B7
330
17
100
AcDbEntity
  8
0
 48
0.5
100
AcDbLine
 10
665.551814375439
 20
-80.20970915477509
 30
0.0
 11
665.551814375439
 21
-78.20970915477502
 31
0.0
  0
LINE
  5
44BD
330
17
100
AcDbEntity
  8
0
100
AcDbLine
 10
668.701814375439
 20
-0.6292401452445802
 30
0.0
 11
669.201814375439
 21
-0.6292401452445802
 31
0.0
  0
LINE
  5
44BE
330
17
100
AcDbEntity
  8
0
100
AcDbLine
 10
669.201814375439
 20
-0.6292401452445802
 30
0.0
 11
669.201814375439
 21
-2.629240145244551
 31
0.0
  0
LINE
  5
44BF
330
17
100
AcDbEntity
  8
0
100
AcDbLine
 10
669.201814375439
 20
-4.629240145244551
 30
0.0
 11
669.201814375439
 21
-6.62924014524458
 31
0.0
  0
LINE
  5
44C0
330
17
100
AcDbEntity
  8
0
100
AcDbLine
 10
669.201814375439
 20
-6.62924014524458
 30
0.0
 11
668.701814375439
 21
-6.62924014524458
 31
0.0
  0
LINE
  5
44C1
330
17
100
AcDbEntity
  8
0
100
AcDbLine
 10
668.701814375439
 20
-91.20970915477514
 30
0.0
 11
669.201814375439
 21
-91.20970915477514
 31
0.0
  0
LINE
  5
44C2
330
17
100
AcDbEntity
  8
0
100
AcDbLine
 10
669.201814375439
 20
-91.20970915477514
 30
0.0
 11
669.201814375439
 21
-97.20970915477517
 31
0.0
  0
LINE
  5
44C3
330
17
100
AcDbEntity
  8
0
100
AcDbLine
 10
669.201814375439
 20
-97.20970915477515
 30
0.0
 11
668.701814375439
 21
-97.20970915477515
 31
0.0
  0
LINE
  5
44C4
330
17
100
AcDbEntity
  8
additional
  6
CENTER2
 48
0.5
100
AcDbLine
 10
536.2204950408396
 20
-87.25970915477507
 30
0.0
 11
542.8420197618748
 21
-87.25970915477507
 31
0.0
  0
LINE
  5
44C5
330
17
100
AcDbEntity
  8
additional
  6
CENTER2
 48
0.5
100
AcDbLine
 10
536.2204950408396
 20
-101.159709154775
 30
0.0
 11
542.8420197618748
 21
-101.159709154775
 31
0.0
  0
LINE
  5
44C6
330
17
100
AcDbEntity
  8
additional
  6
CENTER2
 48
0.5
100
AcDbLine
 10
510.2569748721426
 20
-87.25970915477507
 30
0.0
 11
503.6354501511074
 21
-87.25970915477507
 31
0.0
  0
LINE
  5
44C7
330
17
100
AcDbEntity
  8
additional
  6
CENTER2
 48
0.5
100
AcDbLine
 10
510.2569748721426
 20
-101.159709154775
 30
0.0
 11
503.6354501511074
 21
-101.159709154775
 31
0.0
  0
LINE
  5
44C8
330
17
100
AcDbEntity
  8
0
 48
0.5
100
AcDbLine
 10
521.4887349564911
 20
-99.93758970193205
 30
0.0
 11
521.4887349564911
 21
-88.48182860761808
 31
0.0
  0
LINE
  5
44C9
330
17
100
AcDbEntity
  8
additional
  6
HIDDEN2
 48
0.5
100
AcDbLine
 10
517.4403631537781
 20
-92.70970915477496
 30
0.0
 11
521.4887349564911
 21
-92.70970915477496
 31
0.0
  0
LINE
  5
44CA
330
17
100
AcDbEntity
  8
additional
  6
HIDDEN2
 48
0.5
100
AcDbLine
 10
524.9887349564911
 20
-92.70970915477496
 30
0.0
 11
529.0371067592042
 21
-92.70970915477496
 31
0.0
  0
LINE
  5
44CB
330
17
100
AcDbEntity
  8
additional
  6
HIDDEN2
 48
0.5
100
AcDbLine
 10
517.4403631537781
 20
-95.70970915477515
 30
0.0
 11
521.4887349564911
 21
-95.70970915477515
 31
0.0
  0
LINE
  5
44CC
330
17
100
AcDbEntity
  8
additional
  6
HIDDEN2
 48
0.5
100
AcDbLine
 10
524.9887349564911
 20
-95.70970915477515
 30
0.0
 11
529.0371067592042
 21
-95.70970915477515
 31
0.0
  0
LINE
  5
44CD
330
17
100
AcDbEntity
  8
additional
  6
CENTER2
 48
0.5
100
AcDbLine
 10
597.8951578570415
 20
-94.20970915477505
 30
0.0
 11
674.2465196144138
 21
-94.20970915477511
 31
0.0
  0
LINE
  5
44CE
330
17
100
AcDbEntity
  8
additional
  6
CENTER2
 48
0.5
100
AcDbLine
 10
603.9018143754389
 20
-85.45172781914642
 30
0.0
 11
603.9018143754389
 21
-102.9788717918569
 31
0.0
  0
LINE
  5
44CF
330
17
100
AcDbEntity
  8
additional
  6
CENTER2
 48
0.5
100
AcDbLine
 10
618.9018143754388
 20
-104.209709154775
 30
0.0
 11
654.6659031935813
 21
-104.209709154775
 31
0.0
  0
LINE
  5
44D0
330
17
100
AcDbEntity
  8
additional
  6
CENTER2
 48
0.5
100
AcDbLine
 10
651.9018143754388
 20
-107.3389665780578
 30
0.0
 11
651.9018143754388
 21
-81.20970915477512
 31
0.0
  0
LINE
  5
44D1
330
17
100
AcDbEntity
  8
additional
  6
CENTER2
 48
0.5
100
AcDbLine
 10
523.2387349564911
 20
-74.47699205833948
 30
0.0
 11
523.2387349564911
 21
-111.4661290151562
 31
0.0
  0
LINE
  5
44D2
330
17
100
AcDbEntity
  8
additional
  6
CENTER2
 48
0.5
100
AcDbLine
 10
597.8951578570416
 20
-3.629240145244523
 30
0.0
 11
665.551814375439
 21
-3.629240145244549
 31
0.0
  0
LINE
  5
44D3
330
17
100
AcDbEntity
  8
additional
  6
CENTER2
 48
0.5
100
AcDbLine
 10
603.9018143754391
 20
5.128741190384118
 30
0.0
 11
603.9018143754391
 21
-12.39840278232637
 31
0.0
  0
LINE
  5
44D4
330
17
100
AcDbEntity
  8
0
 48
0.5
100
AcDbLine
 10
534.1217962907751
 20
-79.45970915477506
 30
0.0
 11
527.2387349564911
 21
-77.45970915477847
 31
0.0
  0
LINE
  5
44D5
330
17
100
AcDbEntity
  8
0
 48
0.5
100
AcDbLine
 10
519.2781194093243
 20
-77.45970915477801
 30
0.0
 11
527.2781194093243
 21
-77.45970915477847
 31
0.0
  0
LINE
  5
44D6
330
17
100
AcDbEntity
  8
0
 48
0.5
100
AcDbLine
 10
512.3556736222075
 20
-79.45970915477506
 30
0.0
 11
519.2387349564911
 21
-77.45970915477824
 31
0.0
  0
LINE
  5
44D7
330
17
100
AcDbEntity
  8
0
100
AcDbLine
 10
510.4387349564911
 20
-79.45970915477506
 30
0.0
 11
535.9887349564911
 21
-79.45970915477506
 31
0.0
  0
ARC
  5
44D8
330
17
100
AcDbEntity
  8
0
100
AcDbCircle
 10
510.4887349564911
 20
-81.45970915477505
 30
0.0
 40
2.0
100
AcDbArc
 50
90.0
 51
141.317812546511
  0
ARC
  5
44D9
330
17
100
AcDbEntity
  8
0
100
AcDbCircle
 10
535.9887349564911
 20
-81.45970915477505
 30
0.0
 40
2.0
100
AcDbArc
 50
38.68218745348897
 51
90.0
  0
LINE
  5
44DA
330
17
100
AcDbEntity
  8
0
100
AcDbLine
 10
535.9887349564911
 20
-108.9597091547751
 30
0.0
 11
510.4887349564911
 21
-108.9597091547751
 31
0.0
  0
ARC
  5
44DB
330
17
100
AcDbEntity
  8
0
100
AcDbCircle
 10
535.9887349564911
 20
-106.9597091547751
 30
0.0
 40
2.0
100
AcDbArc
 50
270.0
 51
321.317812546511
  0
ARC
  5
44DC
330
17
100
AcDbEntity
  8
0
100
AcDbCircle
 10
510.4887349564911
 20
-106.9597091547751
 30
0.0
 40
2.0
100
AcDbArc
 50
218.6821874534889
 51
270.0
  0
LINE
  5
44DD
330
17
100
AcDbEntity
  8
0
100
AcDbLine
 10
614.9018143754389
 20
-109.109709154775
 30
0.0
 11
614.9018143754387
 21
-108.209709154775
 31
0.0
  0
LINE
  5
44DE
330
17
100
AcDbEntity
  8
0
100
AcDbLine
 10
614.9018143754387
 20
-80.20970915477505
 30
0.0
 11
614.9018143754389
 21
-79.30970915477508
 31
0.0
  0
LINE
  5
44DF
330
17
100
AcDbEntity
  8
0
100
AcDbLine
 10
614.9018143754389
 20
-79.30970915477508
 30
0.0
 11
615.5018143754389
 21
-79.30970915477508
 31
0.0
  0
LINE
  5
44E0
330
17
100
AcDbEntity
  8
0
100
AcDbLine
 10
615.5018143754389
 20
-79.30970915477508
 30
0.0
 11
615.5018143754389
 21
-79.45970915477506
 31
0.0
  0
LINE
  5
44E1
330
17
100
AcDbEntity
  8
0
100
AcDbLine
 10
615.5018143754389
 20
-79.45970915477506
 30
0.0
 11
615.7518143754388
 21
-79.45970915477506
 31
0.0
  0
LINE
  5
44E2
330
17
100
AcDbEntity
  8
0
100
AcDbLine
 10
616.0518143754388
 20
-79.75970915477501
 30
0.0
 11
616.0518143754388
 21
-80.20970915477505
 31
0.0
  0
LINE
  5
44E3
330
17
100
AcDbEntity
  8
0
100
AcDbLine
 10
616.0518143754388
 20
-108.209709154775
 30
0.0
 11
616.0518143754388
 21
-108.6597091547751
 31
0.0
  0
LINE
  5
44E4
330
17
100
AcDbEntity
  8
0
100
AcDbLine
 10
615.7518143754389
 20
-108.959709154775
 30
0.0
 11
615.5018143754389
 21
-108.959709154775
 31
0.0
  0
LINE
  5
44E5
330
17
100
AcDbEntity
  8
0
100
AcDbLine
 10
615.5018143754389
 20
-108.959709154775
 30
0.0
 11
615.5018143754389
 21
-109.109709154775
 31
0.0
  0
LINE
  5
44E6
330
17
100
AcDbEntity
  8
0
100
AcDbLine
 10
615.5018143754389
 20
-109.109709154775
 30
0.0
 11
614.9018143754389
 21
-109.109709154775
 31
0.0
  0
LINE
  5
44E7
330
17
100
AcDbEntity
  8
0
100
AcDbLine
 10
665.8518143754389
 20
-108.9597091547781
 30
0.0
 11
666.701814375439
 21
-108.9597091547781
 31
0.0
  0
LINE
  5
44E8
330
17
100
AcDbEntity
  8
0
100
AcDbLine
 10
666.701814375439
 20
-108.9597091547781
 30
0.0
 11
666.701814375439
 21
-108.209709154775
 31
0.0
  0
LINE
  5
44E9
330
17
100
AcDbEntity
  8
0
100
AcDbLine
 10
666.701814375439
 20
-80.20970915477198
 30
0.0
 11
666.701814375439
 21
-79.45970915477812
 31
0.0
  0
LINE
  5
44EA
330
17
100
AcDbEntity
  8
0
100
AcDbLine
 10
666.701814375439
 20
-79.45970915477812
 30
0.0
 11
665.8518143754389
 21
-79.45970915477812
 31
0.0
  0
LINE
  5
44EB
330
17
100
AcDbEntity
  8
0
100
AcDbLine
 10
665.551814375439
 20
-79.75970915477808
 30
0.0
 11
665.5518143754388
 21
-80.20970915477198
 31
0.0
  0
LINE
  5
44EC
330
17
100
AcDbEntity
  8
0
100
AcDbLine
 10
665.5518143754388
 20
-108.209709154775
 30
0.0
 11
665.551814375439
 21
-108.6597091547782
 31
0.0
  0
ARC
  5
44ED
330
17
100
AcDbEntity
  8
0
100
AcDbCircle
 10
665.8518143754389
 20
-108.6597091547782
 30
0.0
 40
0.3
100
AcDbArc
 50
180.0
 51
270.0
  0
ARC
  5
44EE
330
17
100
AcDbEntity
  8
0
100
AcDbCircle
 10
665.8518143754389
 20
-79.75970915477808
 30
0.0
 40
0.3
100
AcDbArc
 50
90.0
 51
180.0
  0
ARC
  5
44EF
330
17
100
AcDbEntity
  8
0
100
AcDbCircle
 10
615.7518143754388
 20
-108.6597091547751
 30
0.0
 40
0.3
100
AcDbArc
 50
270.0
 51
0.0
  0
ARC
  5
44F0
330
17
100
AcDbEntity
  8
0
100
AcDbCircle
 10
615.7518143754388
 20
-79.75970915477501
 30
0.0
 40
0.3
100
AcDbArc
 50
0.0
 51
90.0
  0
LINE
  5
44F1
330
17
100
AcDbEntity
  8
0
 48
0.5
100
AcDbLine
 10
616.0518143754388
 20
-80.20970915477505
 30
0.0
 11
634.6655289277411
 21
-77.45970915477824
 31
0.0
  0
LINE
  5
44F2
330
17
100
AcDbEntity
  8
0
 48
0.5
100
AcDbLine
 10
634.6655289277411
 20
-77.45970915477824
 30
0.0
 11
665.5518143754388
 21
-77.45970915477801
 31
0.0
  0
LINE
  5
44F3
330
17
100
AcDbEntity
  8
0
 48
0.5
100
AcDbLine
 10
665.5518143754388
 20
-80.20970915477505
 30
0.0
 11
665.5518143754388
 21
-77.45970915477801
 31
0.0
  0
LINE
  5
44F4
330
17
100
AcDbEntity
  8
0
100
AcDbLine
 10
611.7018143754391
 20
6.370759854755448
 30
0.0
 11
610.201814375439
 21
6.370759854755448
 31
0.0
  0
LINE
  5
44F5
330
17
100
AcDbEntity
  8
0
100
AcDbLine
 10
610.201814375439
 20
6.370759854755448
 30
0.0
 11
610.201814375439
 21
-13.62924014524455
 31
0.0
  0
LINE
  5
44F6
330
17
100
AcDbEntity
  8
0
100
AcDbLine
 10
610.201814375439
 20
-13.62924014524455
 30
0.0
 11
611.7018143754391
 21
-13.62924014524455
 31
0.0
  0
POINT
  5
44F7
330
17
100
AcDbEntity
  8
0
100
AcDbPoint
 10
610.201814375439
 20
6.370759854755448
 30
0.0
  0
LINE
  5
44F8
330
17
100
AcDbEntity
  8
0
100
AcDbLine
 10
611.201814375439
 20
6.370759854755448
 30
0.0
 11
611.201814375439
 21
-13.62924014524455
 31
0.0
  0
POINT
  5
44F9
330
17
100
AcDbEntity
  8
0
100
AcDbPoint
 10
610.201814375439
 20
-84.20970915477505
 30
0.0
  0
POINT
  5
44FA
330
17
100
AcDbEntity
  8
0
100
AcDbPoint
 10
610.201814375439
 20
-104.209709154775
 30
0.0
  0
LINE
  5
44FB
330
17
100
AcDbEntity
  8
0
100
AcDbLine
 10
610.201814375439
 20
-84.20970915477505
 30
0.0
 11
610.201814375439
 21
-104.209709154775
 31
0.0
  0
POINT
  5
44FC
330
17
100
AcDbEntity
  8
0
100
AcDbPoint
 10
611.201814375439
 20
-87.25970915477507
 30
0.0
  0
LINE
  5
44FD
330
17
100
AcDbEntity
  8
0
100
AcDbLine
 10
611.201814375439
 20
-87.25970915477507
 30
0.0
 11
611.201814375439
 21
-101.115867016559
 31
0.0
  0
LINE
  5
44FE
330
17
100
AcDbEntity
  8
0
100
AcDbLine
 10
610.201814375439
 20
-84.20970915477505
 30
0.0
 11
610.9018143754389
 21
-84.20970915477505
 31
0.0
  0
LINE
  5
44FF
330
17
100
AcDbEntity
  8
0
100
AcDbLine
 10
610.201814375439
 20
-104.209709154775
 30
0.0
 11
610.9018143754389
 21
-104.209709154775
 31
0.0
  0
SPLINE
  5
451E
330
17
100
AcDbEntity
  8
additional
 48
0.5
100
AcDbSpline
210
0.0
220
0.0
230
1.0
 70
     8
 71
     3
 72
    18
 73
    14
 74
    12
 42
0.0000000001
 43
0.0000000001
 44
0.0000000001
 40
0.0
 40
0.0
 40
0.0
 40
0.0
 40
0.3913118960624632
 40
0.7826237921249391
 40
1.482623792124899
 40
1.873935688187413
 40
2.265247584249787
 40
2.656559480312326
 40
3.047871376374789
 40
4.097871376374829
 40
4.489183272437254
 40
4.880495168499806
 40
5.271807064562244
 40
5.271807064562244
 40
5.271807064562244
 40
5.271807064562244
 10
680.7456029143586
 20
-76.12409091628335
 30
0.0
 10
680.8018877560049
 20
-76.24173064963776
 30
0.0
 10
680.9144574392976
 20
-76.4770101163466
 30
0.0
 10
681.1742811284381
 20
-76.9006090876607
 30
0.0
 10
681.174358616402
 20
-77.44759170619054
 30
0.0
 10
680.9143274880313
 20
-77.87112806637626
 30
0.0
 10
680.7460884211228
 20
-78.22425959025713
 30
0.0
 10
680.5749363136291
 20
-78.57637907029507
 30
0.0
 10
680.2671627519885
 20
-79.10463848870745
 30
0.0
 10
680.2667659647411
 20
-79.79368871256731
 30
0.0
 10
680.5753799352579
 20
-80.32159985491814
 30
0.0
 10
680.7444086591338
 20
-80.67471368162456
 30
0.0
 10
680.8618714959504
 20
-80.90763183806371
 30
0.0
 10
680.9206029143585
 20
-81.02409091628329
 30
0.0
 11
680.7456029143586
 21
-76.12409091628335
 31
0.0
 11
680.9206029143585
 21
-76.47409091628337
 31
0.0
 11
681.0956029143587
 21
-76.82409091628335
 31
0.0
 11
681.0956029143587
 21
-77.52409091628331
 31
0.0
 11
680.9206029143585
 21
-77.87409091628333
 31
0.0
 11
680.7456029143586
 21
-78.22409091628326
 31
0.0
 11
680.5706029143585
 21
-78.57409091628325
 31
0.0
 11
680.3956029143584
 21
-78.92409091628327
 31
0.0
 11
680.3956029143584
 21
-79.97409091628331
 31
0.0
 11
680.5706029143585
 21
-80.32409091628329
 31
0.0
 11
680.7456029143586
 21
-80.67409091628331
 31
0.0
 11
680.9206029143585
 21
-81.02409091628329
 31
0.0
  0
DIMENSION
  5
451F
330
17
100
AcDbEntity
  8
Z_OM_DIM
100
AcDbDimension
  2
*D2
 10
588.2728519370808
 20
-5.429240145244587
 30
0.0
 11
588.2728519370808
 21
6.295759854755528
 31
0.0
 70
   160
  1
3.5
 71
     5
 42
3.600000000000022
  3
CatalogDxf
100
AcDbAlignedDimension
 13
599.9018143754389
 23
-1.829240145244568
 33
0.0
 14
599.9018143754389
 24
-5.429240145244591
 34
0.0
 50
90.0
100
AcDbRotatedDimension
  0
DIMENSION
  5
4539
330
17
100
AcDbEntity
  8
Z_OM_DIM
100
AcDbDimension
  2
*D3
 10
599.9018143754389
 20
-20.43713916799033
 30
0.0
 11
603.9518143754389
 21
-18.56213916799033
 31
0.0
 70
    32
  1
8
 71
     5
 42
8.099999999999909
  3
CatalogDxf
100
AcDbAlignedDimension
 13
608.0018143754387
 23
-5.429240145244591
 33
0.0
 14
599.9018143754389
 24
-9.11849014524455
 34
0.0
100
AcDbRotatedDimension
  0
DIMENSION
  5
455C
330
17
100
AcDbEntity
  8
Z_OM_DIM
100
AcDbDimension
  2
*D4
 10
621.9018143754388
 20
-64.65724303773487
 30
0.0
 11
636.9018143754389
 21
-62.78224303773487
 31
0.0
 70
    32
 71
     5
 42
30.0
  3
CatalogDxf
100
AcDbAlignedDimension
 13
651.9018143754388
 23
-81.20970915477512
 33
0.0
 14
621.9018143754388
 24
-81.20970915477512
 34
0.0
100
AcDbRotatedDimension
  0
DIMENSION
  5
4569
330
17
100
AcDbEntity
  8
Z_OM_DIM
100
AcDbDimension
  2
*D5
 10
603.9018143754389
 20
-64.65724303773487
 30
0.0
 11
612.9018143754389
 21
-62.78224303773487
 31
0.0
 70
    32
 71
     5
 42
18.0
  3
CatalogDxf
100
AcDbAlignedDimension
 13
621.9018143754388
 23
-81.20970915477512
 33
0.0
 14
603.9018143754389
 24
-85.45172781914642
 34
0.0
100
AcDbRotatedDimension
1001
ACAD
1000
DSTYLE
1002
{
1070
   279
1070
     1
1002
}
  0
DIMENSION
  5
4576
330
17
100
AcDbEntity
  8
Z_OM_DIM
100
AcDbDimension
  2
*D6
 10
599.9018143754389
 20
-64.65724303773487
 30
0.0
 11
593.4434810421055
 21
-64.65724303773487
 31
0.0
 70
   160
 71
     5
 42
4.0
  3
CatalogDxf
100
AcDbAlignedDimension
 13
603.9018143754389
 23
-85.45172781914642
 33
0.0
 14
599.9018143754389
 24
-88.72045915477508
 34
0.0
100
AcDbRotatedDimension
  0
DIMENSION
  5
4585
330
17
100
AcDbEntity
  8
Z_OM_DIM
100
AcDbDimension
  2
*D7
 10
686.7788129765604
 20
-104.209709154775
 30
0.0
 11
684.9038129765603
 21
-94.20970915477495
 31
0.0
 70
    32
 71
     5
 42
20.0
  3
CatalogDxf
100
AcDbAlignedDimension
 13
654.6659031935813
 23
-84.20970915477505
 33
0.0
 14
654.6659031935813
 24
-104.209709154775
 34
0.0
 50
90.0
100
AcDbRotatedDimension
  0
DIMENSION
  5
4592
330
17
100
AcDbEntity
  8
Z_OM_DIM
100
AcDbDimension
  2
*D8
 10
588.2728519370808
 20
-100.198959154775
 30
0.0
 11
586.3978519370808
 21
-94.20970915477496
 31
0.0
 70
    32
  1
%%C<>
 71
     5
 42
11.97849999999994
  3
CatalogDxf
100
AcDbAlignedDimension
 13
600.4018143754389
 23
-88.22045915477508
 33
0.0
 14
600.4018143754389
 24
-100.198959154775
 34
0.0
 50
90.0
100
AcDbRotatedDimension
  0
DIMENSION
  5
45A8
330
17
100
AcDbEntity
  8
Z_OM_DIM
100
AcDbDimension
  2
*D9
 10
556.6902096185168
 20
-108.2097091547751
 30
0.0
 11
554.8152096185169
 21
-94.20970915477496
 31
0.0
 70
    32
 71
     5
 42
28.0
  3
CatalogDxf
100
AcDbAlignedDimension
 13
540.2387349564911
 23
-80.20970915477505
 33
0.0
 14
540.2387349564911
 24
-108.209709154775
 34
0.0
 50
90.0
100
AcDbRotatedDimension
  0
DIMENSION
  5
45B5
330
17
100
AcDbEntity
  8
Z_OM_DIM
100
AcDbDimension
  2
*D10
 10
540.2387349564911
 20
-124.2032709347743
 30
0.0
 11
523.2387349564911
 21
-122.3282709347743
 31
0.0
 70
    32
 71
     5
 42
34.0
  3
CatalogDxf
100
AcDbAlignedDimension
 13
506.2387349564911
 23
-108.209709154775
 33
0.0
 14
540.2387349564911
 24
-108.209709154775
 34
0.0
100
AcDbRotatedDimension
  0
MTEXT
  5
45EA
330
17
100
AcDbEntity
  8
Z_OM_DIM
100
AcDbMText
 10
689.8864693283153
 20
9.002385953165379
 30
0.0
 40
2.5
 41
42.8494883882687
 71
     7
 72
     1
  1
UL1007 AWG20 white
  7
CatalogDxf
 73
     1
 44
1.0
1001
ACAD
1000
ACAD_MTEXT_DEFINED_HEIGHT_BEGIN
1070
    46
1040
2.500000000000005
1000
ACAD_MTEXT_DEFINED_HEIGHT_END
1000
MTEXTBEGIN
1070
    73
1070
     1
1070
    44
1040
1.0
1070
    74
1070
     0
1000
MTEXTEND
  0
LEADER
  5
45EB
330
17
100
AcDbEntity
  8
Z_OM_DIM
100
AcDbLeader
  3
ISO-25
 76
     3
 10
682.7788555162105
 20
-2.629240145244551
 30
0.0
 10
689.3223598345557
 20
8.377385953165386
 30
0.0
 10
730.6806499066738
 20
8.377385953165386
 30
0.0
1001
ACAD
1000
DSTYLE
1002
{
1070
   341
1005
977
1070
   147
1040
0.625
1070
    77
1070
     0
1002
}
  0
LEADER
  5
45F4
330
17
100
AcDbEntity
  8
Z_OM_DIM
100
AcDbLeader
  3
ISO-25
 76
     3
 10
652.5779028527011
 20
-105.2610912788922
 30
0.0
 10
661.7954351005232
 20
-119.5952338648977
 30
0.0
 10
686.9652088176118
 20
-119.5952338648977
 30
0.0
1001
ACAD
1000
DSTYLE
1002
{
1070
   341
1005
977
1070
   147
1040
0.625
1070
    77
1070
     0
1002
}
  0
MTEXT
  5
45F5
330
17
100
AcDbEntity
  8
Z_OM_DIM
100
AcDbMText
 10
662.9694331044929
 20
-119.6357307795838
 30
0.0
 40
2.5
 41
24.05930144544266
 71
     4
 72
     1
  1
4-M3\Pboth faces
  7
CatalogDxf
 73
     1
 44
1.0
1001
ACAD
1000
MTEXTBEGIN
1070
    73
1070
     1
1070
    44
1040
1.0
1070
    74
1070
     0
1000
MTEXTEND
  0
MTEXT
  5
45FE
330
17
100
AcDbEntity
  8
Z_OM_DIM
100
AcDbMText
 10
592.7326921888593
 20
-111.4136714257524
 30
0.0
 40
2.5
 41
4.580851048175645
 71
     7
 72
     1
  1
%%C3
  7
CatalogDxf
 73
     1
 44
1.0
1001
ACAD
1000
MTEXTBEGIN
1070
    73
1070
     1
1070
    44
1040
1.0
1070
    74
1070
     0
1000
MTEXTEND
  0
LEADER
  5
45FF
330
17
100
AcDbEntity
  8
Z_OM_DIM
100
AcDbLeader
  3
ISO-25
 76
     3
 10
603.4425476048917
 20
-95.6376706505695
 30
0.0
 10
598.1211559073315
 20
-112.1182716676597
 30
0.0
 10
591.5936673378003
 20
-112.1182716676597
 30
0.0
211
-1.0
221
0.0
231
0.0
1001
ACAD
1000
DSTYLE
1002
{
1070
   341
1005
977
1070
   147
1040
0.625
1070
    77
1070
     0
1002
}
  0
DIMENSION
  5
46B1
330
17
100
AcDbEntity
  8
Z_OM_DIM
100
AcDbDimension
  2
*D11
 10
668.701814375439
 20
-37.68649849960366
 30
0.0
 11
639.801814375439
 21
-35.81149849960366
 31
0.0
 70
    32
 71
     5
 42
57.80000000000018
  3
CatalogDxf
100
AcDbAlignedDimension
 13
610.9018143754389
 23
-20.62924014524455
 33
0.0
 14
668.701814375439
 24
-18.12924014524458
 34
0.0
100
AcDbRotatedDimension
  0
DIMENSION
  5
4729
330
17
100
AcDbEntity
  8
Z_OM_DIM
100
AcDbDimension
  2
*D12
 10
621.9018143754388
 20
-69.90606642816647
 30
0.0
 11
616.4018143754389
 21
-68.03106642816647
 31
0.0
 70
    32
 71
     5
 42
11.0
  3
CatalogDxf
100
AcDbAlignedDimension
 13
610.9018143754389
 23
-80.20970915477505
 33
0.0
 14
621.9018143754388
 24
-81.20970915477512
 34
0.0
100
AcDbRotatedDimension
  0
ENDSEC
  0
SECTION
  2
OBJECTS
  0
DICTIONARY
  5
C
330
0
100
AcDbDictionary
281
     1
  3
ACAD_2007HEADERVARS_RT
350
45CC
  3
ACAD_COLOR
350
3D57
  3
ACAD_GROUP
350
D
  3
ACAD_LAYOUT
350
3D5A
  3
ACAD_MATERIAL
350
3D42
  3
ACAD_MLINESTYLE
350
1A
  3
ACAD_PLOTSETTINGS
350
957
  3
ACAD_PLOTSTYLENAME
350
3D40
  3
ACAD_TABLESTYLE
350
3D58
  3
ACAD_VISUALSTYLE
350
3D46
  3
ACADDIM
350
1BB8
  3
ACDBHEADERROUNDTRIPXREC
350
4813
  3
AcDbVariableDictionary
350
4116
  3
DWGPROPS
350
4812
1001
ACAD
1000
TREAT_AS_HARD
1070
     0
  0
DICTIONARY
  5
45D0
330
8
100
AcDbDictionary
280
     1
281
     1
  3
ACAD_XREC_ROUNDTRIP
360
45D1
  0
DICTIONARY
  5
3DBA
330
2
100
AcDbDictionary
280
     1
281
     1
  3
ACAD_LAYERFILTERS
360
421C
  3
ACAD_LAYERSTATES
360
3DBB
  3
ACLYDICTIONARY
360
421B
  0
DICTIONARY
  5
45D2
330
E
100
AcDbDictionary
280
     1
281
     1
  3
ACAD_XREC_ROUNDTRIP
360
45D3
  0
DICTIONARY
  5
45D4
330
27
100
AcDbDictionary
280
     1
281
     1
  3
ACAD_XREC_ROUNDTRIP
360
45D5
  0
DICTIONARY
  5
45D6
330
2B
100
AcDbDictionary
280
     1
281
     1
  3
ACAD_XREC_ROUNDTRIP
360
45D7
  0
DICTIONARY
  5
45DA
330
3DB5
100
AcDbDictionary
280
     1
281
     1
  3
ACAD_XREC_ROUNDTRIP
360
45DB
  0
DICTIONARY
  5
1808
330
17
100
AcDbDictionary
280
     1
281
     1
  3
ACAD_LAYOUTSELFREF
360
3D3B
1001
ACAD
1000
TREAT_AS_HARD
1070
     1
  0
DICTIONARY
  5
1806
330
14
100
AcDbDictionary
280
     1
281
     1
  3
ACAD_LAYOUTSELFREF
360
3D3A
1001
ACAD
1000
TREAT_AS_HARD
1070
     1
  0
DICTIONARY
  5
45CC
102
{ACAD_REACTORS
330
C
102
}
330
C
100
AcDbDictionary
281
     1
  3
DIMLTEX1
350
45CE
  3
DIMLTEX2
350
45CF
  3
DIMLTYPE
350
45CD
  0
DICTIONARY
  5
3D57
102
{ACAD_REACTORS
330
C
102
}
330
C
100
AcDbDictionary
281
     1
  0
DICTIONARY
  5
D
102
{ACAD_REACTORS
330
C
102
}
330
C
100
AcDbDictionary
281
     1
1001
ACAD
1000
TREAT_AS_HARD
1070
     0
  0
DICTIONARY
  5
3D5A
102
{ACAD_REACTORS
330
C
102
}
330
C
100
AcDbDictionary
281
     1
  3
Model
350
3D5B
  3
レイアウト1
350
3D5C
  0
DICTIONARY
  5
3D42
102
{ACAD_REACTORS
330
C
102
}
330
C
100
AcDbDictionary
281
     1
  3
ByBlock
350
3D44
  3
ByLayer
350
3D43
  3
Global
350
3D45
  0
DICTIONARY
  5
1A
102
{ACAD_REACTORS
330
C
102
}
330
C
100
AcDbDictionary
281
     1
  3
STANDARD
350
1B
1001
ACAD
1000
TREAT_AS_HARD
1070
     0
  0
DICTIONARY
  5
957
102
{ACAD_REACTORS
330
C
102
}
330
C
100
AcDbDictionary
281
     1
1001
ACAD
1000
TREAT_AS_HARD
1070
     0
  0
ACDBDICTIONARYWDFLT
  5
3D40
102
{ACAD_REACTORS
330
C
102
}
330
C
100
AcDbDictionary
281
     1
  3
Normal
350
3D41
100
AcDbDictionaryWithDefault
340
3D41
  0
DICTIONARY
  5
3D58
102
{ACAD_REACTORS
330
C
102
}
330
C
100
AcDbDictionary
281
     1
  3
Standard
350
3D59
  0
DICTIONARY
  5
3D46
102
{ACAD_REACTORS
330
C
102
}
330
C
100
AcDbDictionary
281
     1
  3
2dWireframe
350
3D4C
  3
3D Hidden
350
3D4E
  3
3dWireframe
350
3D4D
  3
Basic
350
3D4B
  3
Brighten
350
3D52
  3
ColorChange
350
3D56
  3
Conceptual
350
3D4F
  3
Dim
350
3D51
  3
Facepattern
350
3D55
  3
Flat
350
3D47
  3
FlatWithEdges
350
3D48
  3
Gouraud
350
3D49
  3
GouraudWithEdges
350
3D4A
  3
Linepattern
350
3D54
  3
Realistic
350
3D50
  3
Thicken
350
3D53
  0
XRECORD
  5
1BB8
102
{ACAD_REACTORS
330
C
102
}
330
C
100
AcDbXrecord
280
     1
 90
   990106
  3

 60
     0
 61
     0
 62
     4
 63
     4
 64
     1
 65
     0
 66
     0
 67
     2
 68
     1
 69
     0
 70
     0
 71
     0
 72
     0
 40
18.03446883421475
170
     2
340
0
  0
DICTIONARY
  5
4813
102
{ACAD_REACTORS
330
C
102
}
330
C
100
AcDbDictionary
281
     1
  0
DICTIONARY
  5
4116
102
{ACAD_REACTORS
330
C
102
}
330
C
100
AcDbDictionary
281
     1
  3
CTABLESTYLE
350
4117
  3
DIMASSOC
350
480F
  3
PROJECTNAME
350
4810
  0
XRECORD
  5
4812
102
{ACAD_REACTORS
330
C
102
}
330
C
100
AcDbXrecord
280
     1
  1
DWGPROPS COOKIE
  2

  3

  4

  6

  7

  8
yakata
  9

300
=
301
=
302
=
303
=
304
=
305
=
306
=
307
=
308
=
309
=
 40
0.5488234953703703
 41
2455090.761732894
 42
2455678.575795451
  1

 90
        0
  0
XRECORD
  5
45D1
102
{ACAD_REACTORS
330
45D0
102
}
330
45D0
100
AcDbXrecord
280
     1
102
VTR_0.000_0.000_1.000_1.000_VISUALSTYLE
340
3D4C
102
VTR_0.000_0.000_1.000_1.000_GRIDDISPLAY
 70
     3
102
VTR_0.000_0.000_1.000_1.000_GRIDMAJOR
 70
     5
102
VTR_0.000_0.000_1.000_1.000_DEFAULTLIGHTING
280
     1
102
VTR_0.000_0.000_1.000_1.000_DEFAULTLIGHTINGTYPE
 70
     1
102
VTR_0.000_0.000_1.000_1.000_BRIGHTNESS
141
0.0
102
VTR_0.000_0.000_1.000_1.000_CONTRAST
142
0.0
  0
DICTIONARY
  5
421C
102
{ACAD_REACTORS
330
3DBA
102
}
330
3DBA
100
AcDbDictionary
281
     1
  0
DICTIONARY
  5
3DBB
102
{ACAD_REACTORS
330
3DBA
102
}
330
3DBA
100
AcDbDictionary
281
     1
  0
DICTIONARY
  5
421B
102
{ACAD_REACTORS
330
3DBA
102
}
330
3DBA
100
AcDbDictionary
281
     1
1001
ACAD
1000
<All
  0
XRECORD
  5
45D3
102
{ACAD_REACTORS
330
45D2
102
}
330
45D2
100
AcDbXrecord
280
     1
102
MATERIAL
340
3D45
  0
XRECORD
  5
45D5
102
{ACAD_REACTORS
330
45D4
102
}
330
45D4
100
AcDbXrecord
280
     1
102
MATERIAL
340
3D45
  0
XRECORD
  5
45D7
102
{ACAD_REACTORS
330
45D6
102
}
330
45D6
100
AcDbXrecord
280
     1
102
MATERIAL
340
3D45
  0
XRECORD
  5
45DB
102
{ACAD_REACTORS
330
45DA
102
}
330
45DA
100
AcDbXrecord
280
     1
102
MATERIAL
340
3D45
  0
XRECORD
  5
3D3B
102
{ACAD_REACTORS
330
1808
102
}
330
1808
100
AcDbXrecord
280
     1
340
17
  0
XRECORD
  5
3D3A
102
{ACAD_REACTORS
330
1806
102
}
330
1806
100
AcDbXrecord
280
     1
340
14
  0
XRECORD
  5
45CE
102
{ACAD_REACTORS
330
45CC
102
}
330
45CC
100
AcDbXrecord
280
     1
340
12
  0
XRECORD
  5
45CF
102
{ACAD_REACTORS
330
45CC
102
}
330
45CC
100
AcDbXrecord
280
     1
340
12
  0
XRECORD
  5
45CD
102
{ACAD_REACTORS
330
45CC
102
}
330
45CC
100
AcDbXrecord
280
     1
340
12
  0
LAYOUT
  5
3D5B
102
{ACAD_XDICTIONARY
360
4814
102
}
102
{ACAD_REACTORS
330
3D5A
102
}
330
3D5A
100
AcDbPlotSettings
  1

  2
none_device
  4
Letter_(8.50_x_11.00_Inches)
  6

 40
6.349999904632568
 41
6.349999904632568
 42
6.350006103515625
 43
6.350006103515625
 44
215.8999938964844
 45
279.3999938964844
 46
2.470468546028897
 47
-93.55485126373988
 48
0.0
 49
0.0
140
0.0
141
0.0
142
1.0
143
27.6098
 70
 11940
 72
     0
 73
     1
 74
     0
  7
monochrome.ctb
 75
     0
147
0.0362190236799977
148
-9919.042521311055
149
4330.104086667616
100
AcDbLayout
  1
Model
 70
     1
 71
     0
 10
0.0
 20
0.0
 11
12.0
 21
9.0
 12
0.0
 22
0.0
 32
0.0
 14
0.0
 24
0.0
 34
0.0
 15
0.0
 25
0.0
 35
0.0
146
0.0
 13
0.0
 23
0.0
 33
0.0
 16
1.0
 26
0.0
 36
0.0
 17
0.0
 27
1.0
 37
0.0
 76
     0
330
17
1001
ACAD_PSEXT
1000
なし
1000
なし
1000
適切ではありません
1000
新しいプロッタ環境設定名を選択しない限り、レイアウトは印刷されません。
1070
     0
  0
LAYOUT
  5
3D5C
102
{ACAD_XDICTIONARY
360
4816
102
}
102
{ACAD_REACTORS
330
3D5A
102
}
330
3D5A
100
AcDbPlotSettings
  1

  2
Microsoft XPS Document Writer
  4

  6

 40
0.0
 41
0.0
 42
0.0
 43
0.0
 44
0.0
 45
0.0
 46
0.0
 47
0.0
 48
0.0
 49
0.0
140
0.0
141
0.0
142
1.0
143
1.0
 70
   688
 72
     0
 73
     0
 74
     5
  7
monochrome.ctb
 75
    16
147
1.0
148
0.0
149
0.0
100
AcDbLayout
  1
レイアウト1
 70
     1
 71
     1
 10
0.0
 20
0.0
 11
12.0
 21
9.0
 12
0.0
 22
0.0
 32
0.0
 14
1.000000000000000E+20
 24
1.000000000000000E+20
 34
1.000000000000000E+20
 15
-1.000000000000000E+20
 25
-1.000000000000000E+20
 35
-1.000000000000000E+20
146
0.0
 13
0.0
 23
0.0
 33
0.0
 16
1.0
 26
0.0
 36
0.0
 17
0.0
 27
1.0
 37
0.0
 76
     0
330
14
  0
MATERIAL
  5
3D44
102
{ACAD_XDICTIONARY
360
419D
102
}
102
{ACAD_REACTORS
330
3D42
102
}
330
3D42
100
AcDbMaterial
  1
ByBlock
  0
MATERIAL
  5
3D43
102
{ACAD_XDICTIONARY
360
419B
102
}
102
{ACAD_REACTORS
330
3D42
102
}
330
3D42
100
AcDbMaterial
  1
ByLayer
  0
MATERIAL
  5
3D45
102
{ACAD_XDICTIONARY
360
419F
102
}
102
{ACAD_REACTORS
330
3D42
102
}
330
3D42
100
AcDbMaterial
  1
Global
  0
MLINESTYLE
  5
1B
102
{ACAD_REACTORS
330
1A
102
}
330
1A
100
AcDbMlineStyle
  2
STANDARD
 70
     0
  3

 62
   256
 51
90.0
 52
90.0
 71
     2
 49
0.5
 62
   256
  6
BYLAYER
 49
-0.5
 62
   256
  6
BYLAYER
  0
ACDBPLACEHOLDER
  5
3D41
102
{ACAD_REACTORS
330
3D40
102
}
330
3D40
  0
TABLESTYLE
  5
3D59
102
{ACAD_XDICTIONARY
360
45D8
102
}
102
{ACAD_REACTORS
330
3D58
102
}
330
3D58
100
AcDbTableStyle
  3
Standard
 70
     0
 71
     0
 40
0.06
 41
0.06
280
     0
281
     0
  7
STANDARD
140
0.18
170
     2
 62
     0
 63
     7
283
     0
274
    -2
284
     1
 64
     0
275
    -2
285
     1
 65
     0
276
    -2
286
     1
 66
     0
277
    -2
287
     1
 67
     0
278
    -2
288
     1
 68
     0
279
    -2
289
     1
 69
     0
  7
STANDARD
140
0.25
170
     5
 62
     0
 63
     7
283
     0
274
    -2
284
     1
 64
     0
275
    -2
285
     1
 65
     0
276
    -2
286
     1
 66
     0
277
    -2
287
     1
 67
     0
278
    -2
288
     1
 68
     0
279
    -2
289
     1
 69
     0
  7
STANDARD
140
0.18
170
     5
 62
     0
 63
     7
283
     0
274
    -2
284
     1
 64
     0
275
    -2
285
     1
 65
     0
276
    -2
286
     1
 66
     0
277
    -2
287
     1
 67
     0
278
    -2
288
     1
 68
     0
279
    -2
289
     1
 69
     0
  0
ACAD_PROXY_OBJECT
  5
3D4C
102
{ACAD_REACTORS
330
3D46
102
}
330
3D46
100
AcDbProxyObject
 90
      499
 91
      503
 95
  2555929
 70
     0
 93
      598
310
430C9915DA5C99599C985B59401049028333333333333E3BF0000000000000FB023FFFFFF0802405048070000C3008000000C800405A000000320014050640A01C00030C010500920280D3
 94
        0
1001
ACAD
1000
AcDbSavedByObjectVersion
1070
     0
1000
AcDbSavedByObjectVersion
1070
     0
1000
AcDbSavedByObjectVersion
1070
     0
1000
AcDbSavedByObjectVersion
1070
     0
1000
AcDbSavedByObjectVersion
1070
     0
1000
AcDbSavedByObjectVersion
1070
     0
1000
AcDbSavedByObjectVersion
1070
     0
1000
AcDbSavedByObjectVersion
1070
     0
1000
AcDbSavedByObjectVersion
1070
     0
1000
AcRTDxfName
1000
VISUALSTYLE
  0
ACAD_PROXY_OBJECT
  5
3D4E
102
{ACAD_REACTORS
330
3D46
102
}
330
3D46
100
AcDbProxyObject
 90
      499
 91
      503
 95
  2555929
 70
     0
 93
      662
310
428CD108121A5919195B8010640502408333333333333E3BF0000000000000FB023FFFFFF0802409028070000C3008000000C8004080000000000004440A000000320014050640A01C00030C010300920280D0
 94
        0
1001
ACAD
1000
AcDbSavedByObjectVersion
1070
     0
1000
AcDbSavedByObjectVersion
1070
     0
1000
AcDbSavedByObjectVersion
1070
     0
1000
AcDbSavedByObjectVersion
1070
     0
1000
AcDbSavedByObjectVersion
1070
     0
1000
AcDbSavedByObjectVersion
1070
     0
1000
AcDbSavedByObjectVersion
1070
     0
1000
AcDbSavedByObjectVersion
1070
     0
1000
AcDbSavedByObjectVersion
1070
     0
1000
AcRTDxfName
1000
VISUALSTYLE
  0
ACAD_PROXY_OBJECT
  5
3D4D
102
{ACAD_REACTORS
330
3D46
102
}
330
3D46
100
AcDbProxyObject
 90
      499
 91
      503
 95
  2555929
 70
     0
 93
      598
310
430CD915DA5C99599C985B59401059028333333333333E3BF0000000000000FB023FFFFFF0802405048070000C3008000000C800405A000000320014050640A01C00030C010500920280D0
 94
        0
1001
ACAD
1000
AcDbSavedByObjectVersion
1070
     0
1000
AcDbSavedByObjectVersion
1070
     0
1000
AcDbSavedByObjectVersion
1070
     0
1000
AcDbSavedByObjectVersion
1070
     0
1000
AcDbSavedByObjectVersion
1070
     0
1000
AcDbSavedByObjectVersion
1070
     0
1000
AcDbSavedByObjectVersion
1070
     0
1000
AcDbSavedByObjectVersion
1070
     0
1000
AcDbSavedByObjectVersion
1070
     0
1000
AcRTDxfName
1000
VISUALSTYLE
  0
ACAD_PROXY_OBJECT
  5
3D4B
102
{ACAD_REACTORS
330
3D46
102
}
330
3D46
100
AcDbProxyObject
 90
      499
 91
      503
 95
  2555929
 70
     0
 93
      558
310
4190985CDA58C0107406404333333333333E3BF0000000000000FB023FFFFFF08029048070000C3008000000C80040542201C00030C014050640A01C00030C010500920280D6
 94
        0
1001
ACAD
1000
AcDbSavedByObjectVersion
1070
     0
1000
AcDbSavedByObjectVersion
1070
     0
1000
AcDbSavedByObjectVersion
1070
     0
1000
AcDbSavedByObjectVersion
1070
     0
1000
AcDbSavedByObjectVersion
1070
     0
1000
AcDbSavedByObjectVersion
1070
     0
1000
AcDbSavedByObjectVersion
1070
     0
1000
AcDbSavedByObjectVersion
1070
     0
1000
AcDbSavedByObjectVersion
1070
     0
1000
AcRTDxfName
1000
VISUALSTYLE
  0
ACAD_PROXY_OBJECT
  5
3D52
102
{ACAD_REACTORS
330
3D46
102
}
330
3D46
100
AcDbProxyObject
 90
      499
 91
      503
 95
  2555929
 70
     0
 93
      598
310
42509C9A59DA1D195B8010C409028333333333333E3BF0000000000000FB023FFFFFF0802405048070000C3008000000C80040542201C00030C014050640A01C00030C010500920280A657
 94
        0
1001
ACAD
1000
AcDbSavedByObjectVersion
1070
     0
1000
AcDbSavedByObjectVersion
1070
     0
1000
AcDbSavedByObjectVersion
1070
     0
1000
AcDbSavedByObjectVersion
1070
     0
1000
AcDbSavedByObjectVersion
1070
     0
1000
AcDbSavedByObjectVersion
1070
     0
1000
AcDbSavedByObjectVersion
1070
     0
1000
AcDbSavedByObjectVersion
1070
     0
1000
AcDbSavedByObjectVersion
1070
     0
1000
AcRTDxfName
1000
VISUALSTYLE
  0
ACAD_PROXY_OBJECT
  5
3D56
102
{ACAD_REACTORS
330
3D46
102
}
330
3D46
100
AcDbProxyObject
 90
      499
 91
      503
 95
  2555929
 70
     0
 93
      622
310
4310DBDB1BDC90DA185B99D9401104090240C333333333333E3BF0000000000000FB0220202030802405048070000C3008000000C800405422202020308014050640A01C00030C010500920280D7
 94
        0
1001
ACAD
1000
AcDbSavedByObjectVersion
1070
     0
1000
AcDbSavedByObjectVersion
1070
     0
1000
AcDbSavedByObjectVersion
1070
     0
1000
AcDbSavedByObjectVersion
1070
     0
1000
AcDbSavedByObjectVersion
1070
     0
1000
AcDbSavedByObjectVersion
1070
     0
1000
AcDbSavedByObjectVersion
1070
     0
1000
AcDbSavedByObjectVersion
1070
     0
1000
AcDbSavedByObjectVersion
1070
     0
1000
AcRTDxfName
1000
VISUALSTYLE
  0
ACAD_PROXY_OBJECT
  5
3D4F
102
{ACAD_REACTORS
330
3D46
102
}
330
3D46
100
AcDbProxyObject
 90
      499
 91
      503
 95
  2555929
 70
     0
 93
      670
310
42D0DBDB98D95C1D1D585B0010940D028333333333333E3BF0000000000000FB023FFFFFF0802409028070000C3008000000C800404000000000000444042201C00030C014050640A01C00030C010300920280D0
 94
        0
1001
ACAD
1000
AcDbSavedByObjectVersion
1070
     0
1000
AcDbSavedByObjectVersion
1070
     0
1000
AcDbSavedByObjectVersion
1070
     0
1000
AcDbSavedByObjectVersion
1070
     0
1000
AcDbSavedByObjectVersion
1070
     0
1000
AcDbSavedByObjectVersion
1070
     0
1000
AcDbSavedByObjectVersion
1070
     0
1000
AcDbSavedByObjectVersion
1070
     0
1000
AcDbSavedByObjectVersion
1070
     0
1000
AcRTDxfName
1000
VISUALSTYLE
  0
ACAD_PROXY_OBJECT
  5
3D51
102
{ACAD_REACTORS
330
3D46
102
}
330
3D46
100
AcDbProxyObject
 90
      499
 91
      503
 95
  2555929
 70
     0
 93
      582
310
41111A5B4010B409028333333333333E3BF0000000000000FB023FFFFFF0802405048070000C3008000000C80040542201C00030C014050640A01C00030C01050092028099DFFFFFF4
 94
        0
1001
ACAD
1000
AcDbSavedByObjectVersion
1070
     0
1000
AcDbSavedByObjectVersion
1070
     0
1000
AcDbSavedByObjectVersion
1070
     0
1000
AcDbSavedByObjectVersion
1070
     0
1000
AcDbSavedByObjectVersion
1070
     0
1000
AcDbSavedByObjectVersion
1070
     0
1000
AcDbSavedByObjectVersion
1070
     0
1000
AcDbSavedByObjectVersion
1070
     0
1000
AcDbSavedByObjectVersion
1070
     0
1000
AcRTDxfName
1000
VISUALSTYLE
  0
ACAD_PROXY_OBJECT
  5
3D55
102
{ACAD_REACTORS
330
3D46
102
}
330
3D46
100
AcDbProxyObject
 90
      499
 91
      503
 95
  2555929
 70
     0
 93
      614
310
43119858D95C185D1D195C9B8010F409028333333333333E3BF0000000000000FB023FFFFFF0802405048070000C3008000000C80040542201C00030C014050640A01C00030C010500920280D4
 94
        0
1001
ACAD
1000
AcDbSavedByObjectVersion
1070
     0
1000
AcDbSavedByObjectVersion
1070
     0
1000
AcDbSavedByObjectVersion
1070
     0
1000
AcDbSavedByObjectVersion
1070
     0
1000
AcDbSavedByObjectVersion
1070
     0
1000
AcDbSavedByObjectVersion
1070
     0
1000
AcDbSavedByObjectVersion
1070
     0
1000
AcDbSavedByObjectVersion
1070
     0
1000
AcDbSavedByObjectVersion
1070
     0
1000
AcRTDxfName
1000
VISUALSTYLE
  0
ACAD_PROXY_OBJECT
  5
3D47
102
{ACAD_REACTORS
330
3D46
102
}
330
3D46
100
AcDbProxyObject
 90
      499
 91
      503
 95
  2555929
 70
     0
 93
      558
310
41519B185D00240901404333333333333E3BF0000000000000F9023FFFFFF0801029048070000C3008000000C80040542201C00030C014050640A01C00030C010500920286D4
 94
        0
1001
ACAD
1000
AcDbSavedByObjectVersion
1070
     0
1000
AcDbSavedByObjectVersion
1070
     0
1000
AcDbSavedByObjectVersion
1070
     0
1000
AcDbSavedByObjectVersion
1070
     0
1000
AcDbSavedByObjectVersion
1070
     0
1000
AcDbSavedByObjectVersion
1070
     0
1000
AcDbSavedByObjectVersion
1070
     0
1000
AcDbSavedByObjectVersion
1070
     0
1000
AcDbSavedByObjectVersion
1070
     0
1000
AcRTDxfName
1000
VISUALSTYLE
  0
ACAD_PROXY_OBJECT
  5
3D48
102
{ACAD_REACTORS
330
3D46
102
}
330
3D46
100
AcDbProxyObject
 90
      499
 91
      503
 95
  2555929
 70
     0
 93
      638
310
43919B185D15DA5D1A115919D95CC010140901404333333333333E3BF0000000000000F9023FFFFFF080102405048070000C3008000000C800405A000000320014050640A01C00030C010500920286D4
 94
        0
1001
ACAD
1000
AcDbSavedByObjectVersion
1070
     0
1000
AcDbSavedByObjectVersion
1070
     0
1000
AcDbSavedByObjectVersion
1070
     0
1000
AcDbSavedByObjectVersion
1070
     0
1000
AcDbSavedByObjectVersion
1070
     0
1000
AcDbSavedByObjectVersion
1070
     0
1000
AcDbSavedByObjectVersion
1070
     0
1000
AcDbSavedByObjectVersion
1070
     0
1000
AcDbSavedByObjectVersion
1070
     0
1000
AcRTDxfName
1000
VISUALSTYLE
  0
ACAD_PROXY_OBJECT
  5
3D49
102
{ACAD_REACTORS
330
3D46
102
}
330
3D46
100
AcDbProxyObject
 90
      499
 91
      503
 95
  2555929
 70
     0
 93
      582
310
4211DBDD5C985D590010240902404333333333333E3BF0000000000000F9023FFFFFF0801029048070000C3008000000C800405A01C00030C014050640A01C00030C010500920286D4
 94
        0
1001
ACAD
1000
AcDbSavedByObjectVersion
1070
     0
1000
AcDbSavedByObjectVersion
1070
     0
1000
AcDbSavedByObjectVersion
1070
     0
1000
AcDbSavedByObjectVersion
1070
     0
1000
AcDbSavedByObjectVersion
1070
     0
1000
AcDbSavedByObjectVersion
1070
     0
1000
AcDbSavedByObjectVersion
1070
     0
1000
AcDbSavedByObjectVersion
1070
     0
1000
AcDbSavedByObjectVersion
1070
     0
1000
AcRTDxfName
1000
VISUALSTYLE
  0
ACAD_PROXY_OBJECT
  5
3D4A
102
{ACAD_REACTORS
330
3D46
102
}
330
3D46
100
AcDbProxyObject
 90
      499
 91
      503
 95
  2555929
 70
     0
 93
      662
310
4451DBDD5C985D5915DA5D1A115919D95CC010340902404333333333333E3BF0000000000000F9023FFFFFF080102405048070000C3008000000C800405A000000320014050640A01C00030C010500920286D4
 94
        0
1001
ACAD
1000
AcDbSavedByObjectVersion
1070
     0
1000
AcDbSavedByObjectVersion
1070
     0
1000
AcDbSavedByObjectVersion
1070
     0
1000
AcDbSavedByObjectVersion
1070
     0
1000
AcDbSavedByObjectVersion
1070
     0
1000
AcDbSavedByObjectVersion
1070
     0
1000
AcDbSavedByObjectVersion
1070
     0
1000
AcDbSavedByObjectVersion
1070
     0
1000
AcDbSavedByObjectVersion
1070
     0
1000
AcRTDxfName
1000
VISUALSTYLE
  0
ACAD_PROXY_OBJECT
  5
3D54
102
{ACAD_REACTORS
330
3D46
102
}
330
3D46
100
AcDbProxyObject
 90
      499
 91
      503
 95
  2555929
 70
     0
 93
      614
310
43131A5B995C185D1D195C9B8010E409028333333333333E3BF0000000000000FB023FFFFFF0802405048070000C3008000000C80041D42201C00030C014050640A01C00030C010500920E80D5
 94
        0
1001
ACAD
1000
AcDbSavedByObjectVersion
1070
     0
1000
AcDbSavedByObjectVersion
1070
     0
1000
AcDbSavedByObjectVersion
1070
     0
1000
AcDbSavedByObjectVersion
1070
     0
1000
AcDbSavedByObjectVersion
1070
     0
1000
AcDbSavedByObjectVersion
1070
     0
1000
AcDbSavedByObjectVersion
1070
     0
1000
AcDbSavedByObjectVersion
1070
     0
1000
AcDbSavedByObjectVersion
1070
     0
1000
AcRTDxfName
1000
VISUALSTYLE
  0
ACAD_PROXY_OBJECT
  5
3D50
102
{ACAD_REACTORS
330
3D46
102
}
330
3D46
100
AcDbProxyObject
 90
      499
 91
      503
 95
  2555929
 70
     0
 93
      590
310
429499585B1A5CDD1A58C0108409028333333333333E3BF0000000000000FB023FFFFFF08024068070000C3008000000C8004054221E1E1E308014050640A01C00030C010500920286D0
 94
        0
1001
ACAD
1000
AcDbSavedByObjectVersion
1070
     0
1000
AcDbSavedByObjectVersion
1070
     0
1000
AcDbSavedByObjectVersion
1070
     0
1000
AcDbSavedByObjectVersion
1070
     0
1000
AcDbSavedByObjectVersion
1070
     0
1000
AcDbSavedByObjectVersion
1070
     0
1000
AcDbSavedByObjectVersion
1070
     0
1000
AcDbSavedByObjectVersion
1070
     0
1000
AcDbSavedByObjectVersion
1070
     0
1000
AcRTDxfName
1000
VISUALSTYLE
  0
ACAD_PROXY_OBJECT
  5
3D53
102
{ACAD_REACTORS
330
3D46
102
}
330
3D46
100
AcDbProxyObject
 90
      499
 91
      503
 95
  2555929
 70
     0
 93
      582
310
42151A1A58DAD95B8010D409028333333333333E3BF0000000000000FB023FFFFFF0802405048070000C3008000000C80040543201C00030C014050640A01C00030C010500920280D4
 94
        0
1001
ACAD
1000
AcDbSavedByObjectVersion
1070
     0
1000
AcDbSavedByObjectVersion
1070
     0
1000
AcDbSavedByObjectVersion
1070
     0
1000
AcDbSavedByObjectVersion
1070
     0
1000
AcDbSavedByObjectVersion
1070
     0
1000
AcDbSavedByObjectVersion
1070
     0
1000
AcDbSavedByObjectVersion
1070
     0
1000
AcDbSavedByObjectVersion
1070
     0
1000
AcDbSavedByObjectVersion
1070
     0
1000
AcRTDxfName
1000
VISUALSTYLE
  0
DICTIONARYVAR
  5
4117
102
{ACAD_REACTORS
330
4116
102
}
330
4116
100
DictionaryVariables
280
     0
  1
STANDARD
  0
DICTIONARYVAR
  5
480F
102
{ACAD_REACTORS
330
4116
102
}
330
4116
100
DictionaryVariables
280
     0
  1
1
  0
DICTIONARYVAR
  5
4810
102
{ACAD_REACTORS
330
4116
102
}
330
4116
100
DictionaryVariables
280
     0
  1

  0
DICTIONARY
  5
4814
330
3D5B
100
AcDbDictionary
280
     1
281
     1
  3
ACAD_XREC_ROUNDTRIP
360
4815
  0
DICTIONARY
  5
4816
330
3D5C
100
AcDbDictionary
280
     1
281
     1
  3
ACAD_XREC_ROUNDTRIP
360
4817
  0
DICTIONARY
  5
419D
330
3D44
100
AcDbDictionary
280
     1
281
     1
  3
ACAD_XREC_ROUNDTRIP
360
419E
  0
DICTIONARY
  5
419B
330
3D43
100
AcDbDictionary
280
     1
281
     1
  3
ACAD_XREC_ROUNDTRIP
360
419C
  0
DICTIONARY
  5
419F
330
3D45
100
AcDbDictionary
280
     1
281
     1
  3
ACAD_XREC_ROUNDTRIP
360
41A0
  0
DICTIONARY
  5
45D8
330
3D59
100
AcDbDictionary
280
     1
281
     1
  3
ACAD_XREC_ROUNDTRIP
360
45D9
  0
XRECORD
  5
4815
102
{ACAD_REACTORS
330
4814
102
}
330
4814
100
AcDbXrecord
280
     1
102
SHADEPLOT
 70
     0
102
SHADEPLOTRESLEVEL
 70
     2
102
SHADEPLOTCUSTOMDPI
 70
   300
  0
XRECORD
  5
4817
102
{ACAD_REACTORS
330
4816
102
}
330
4816
100
AcDbXrecord
280
     1
102
SHADEPLOT
 70
     0
102
SHADEPLOTRESLEVEL
 70
     2
102
SHADEPLOTCUSTOMDPI
 70
   300
  0
XRECORD
  5
419E
102
{ACAD_REACTORS
330
419D
102
}
330
419D
100
AcDbXrecord
280
     1
102
MATERIAL
148
0.0
149
0.0
149
0.0
 93
        0
 94
       63
282
     0
 72
     1
 77
     1
171
     1
175
     1
179
     1
273
     0
  0
XRECORD
  5
419C
102
{ACAD_REACTORS
330
419B
102
}
330
419B
100
AcDbXrecord
280
     1
102
MATERIAL
148
0.0
149
0.0
149
0.0
 93
        0
 94
       63
282
     0
 72
     1
 77
     1
171
     1
175
     1
179
     1
273
     0
  0
XRECORD
  5
41A0
102
{ACAD_REACTORS
330
419F
102
}
330
419F
100
AcDbXrecord
280
     1
102
MATERIAL
148
0.0
149
0.0
149
0.0
 93
        0
 94
       63
282
     0
 72
     1
 77
     1
171
     1
175
     1
179
     1
273
     0
  0
XRECORD
  5
45D9
102
{ACAD_REACTORS
330
45D8
102
}
330
45D8
100
AcDbXrecord
280
     1
102
ACAD_ROUNDTRIP_PRE2007_TABLESTYLE
 90
      512
 91
        0
  1

 92
      512
 93
        0
  2

 94
      512
 95
        0
  3

  0
ENDSEC
  0
EOF
