  0
SECTION
  2
HEADER
  9
$ACADVER
  1
AC1015
  9
$ACADMAINTVER
 70
    20
  9
$DWGCODEPAGE
  3
ANSI_932
  9
$INSBASE
 10
0.0
 20
0.0
 30
0.0
  9
$EXTMIN
 10
478.8994443087321
 20
-108.1040939499565
 30
-0.0720273371595823
  9
$EXTMAX
 10
740.0337613312245
 20
71.6914683936771
 30
0.0000000000000107
  9
$LIMMIN
 10
0.0
 20
0.0
  9
$LIMMAX
 10
12.0
 20
9.0
  9
$ORTHOMODE
 70
     1
  9
$REGENMODE
 70
     1
  9
$FILLMODE
 70
     1
  9
$QTEXTMODE
 70
     0
  9
$MIRRTEXT
 70
     1
  9
$LTSCALE
 40
0.5
  9
$ATTMODE
 70
     1
  9
$TEXTSIZE
 40
2.5
  9
$TRACEWID
 40
0.05
  9
$TEXTSTYLE
  7
CatalogDxf
  9
$CLAYER
  8
Z_OM_DIM
  9
$CELTYPE
  6
BYLAYER
  9
$CECOLOR
 62
   256
  9
$CELTSCALE
 40
1.0
  9
$DISPSILH
 70
     0
  9
$DIMSCALE
 40
1.0
  9
$DIMASZ
 40
2.5
  9
$DIMEXO
 40
0.625
  9
$DIMDLI
 40
3.75
  9
$DIMRND
 40
0.0
  9
$DIMDLE
 40
0.0
  9
$DIMEXE
 40
1.25
  9
$DIMTP
 40
0.0
  9
$DIMTM
 40
0.0
  9
$DIMTXT
 40
2.5
  9
$DIMCEN
 40
2.5
  9
$DIMTSZ
 40
0.0
  9
$DIMTOL
 70
     0
  9
$DIMLIM
 70
     0
  9
$DIMTIH
 70
     0
  9
$DIMTOH
 70
     0
  9
$DIMSE1
 70
     0
  9
$DIMSE2
 70
     0
  9
$DIMTAD
 70
     1
  9
$DIMZIN
 70
     8
  9
$DIMBLK
  1
OPEN30
  9
$DIMASO
 70
     1
  9
$DIMSHO
 70
     1
  9
$DIMPOST
  1

  9
$DIMAPOST
  1

  9
$DIMALT
 70
     0
  9
$DIMALTD
 70
     3
  9
$DIMALTF
 40
0.03937007874016
  9
$DIMLFAC
 40
1.0
  9
$DIMTOFL
 70
     1
  9
$DIMTVP
 40
0.0
  9
$DIMTIX
 70
     0
  9
$DIMSOXD
 70
     0
  9
$DIMSAH
 70
     0
  9
$DIMBLK1
  1

  9
$DIMBLK2
  1

  9
$DIMSTYLE
  2
CatalogDxf
  9
$DIMCLRD
 70
   256
  9
$DIMCLRE
 70
   256
  9
$DIMCLRT
 70
   256
  9
$DIMTFAC
 40
1.0
  9
$DIMGAP
 40
0.625
  9
$DIMJUST
 70
     0
  9
$DIMSD1
 70
     0
  9
$DIMSD2
 70
     0
  9
$DIMTOLJ
 70
     0
  9
$DIMTZIN
 70
     8
  9
$DIMALTZ
 70
     0
  9
$DIMALTTZ
 70
     0
  9
$DIMUPT
 70
     0
  9
$DIMDEC
 70
     1
  9
$DIMTDEC
 70
     1
  9
$DIMALTU
 70
     2
  9
$DIMALTTD
 70
     3
  9
$DIMTXSTY
  7
CatalogDxf
  9
$DIMAUNIT
 70
     0
  9
$DIMADEC
 70
     0
  9
$DIMALTRND
 40
0.0
  9
$DIMAZIN
 70
     0
  9
$DIMDSEP
 70
    46
  9
$DIMATFIT
 70
     3
  9
$DIMFRAC
 70
     0
  9
$DIMLDRBLK
  1
OPEN30
  9
$DIMLUNIT
 70
     2
  9
$DIMLWD
 70
    -1
  9
$DIMLWE
 70
    -1
  9
$DIMTMOVE
 70
     0
  9
$LUNITS
 70
     2
  9
$LUPREC
 70
     2
  9
$SKETCHINC
 40
0.1
  9
$FILLETRAD
 40
0.0
  9
$AUNITS
 70
     0
  9
$AUPREC
 70
     2
  9
$MENU
  1
acad
  9
$ELEVATION
 40
0.0
  9
$PELEVATION
 40
0.0
  9
$THICKNESS
 40
0.0
  9
$LIMCHECK
 70
     0
  9
$CHAMFERA
 40
0.0
  9
$CHAMFERB
 40
0.0
  9
$CHAMFERC
 40
0.0
  9
$CHAMFERD
 40
0.0
  9
$SKPOLY
 70
     0
  9
$TDCREATE
 40
2455090.761732894
  9
$TDUCREATE
 40
2455090.386732893
  9
$TDUPDATE
 40
2455678.618182002
  9
$TDUUPDATE
 40
2455678.243182002
  9
$TDINDWG
 40
0.6087841319
  9
$TDUSRTIMER
 40
0.6087700347
  9
$USRTIMER
 70
     1
  9
$ANGBASE
 50
0.0
  9
$ANGDIR
 70
     0
  9
$PDMODE
 70
     0
  9
$PDSIZE
 40
0.0
  9
$PLINEWID
 40
0.0
  9
$SPLFRAME
 70
     0
  9
$SPLINETYPE
 70
     6
  9
$SPLINESEGS
 70
     8
  9
$HANDSEED
  5
4F0B
  9
$SURFTAB1
 70
     6
  9
$SURFTAB2
 70
     6
  9
$SURFTYPE
 70
     6
  9
$SURFU
 70
     6
  9
$SURFV
 70
     6
  9
$UCSBASE
  2

  9
$UCSNAME
  2

  9
$UCSORG
 10
0.0
 20
0.0
 30
0.0
  9
$UCSXDIR
 10
1.0
 20
0.0
 30
0.0
  9
$UCSYDIR
 10
0.0
 20
1.0
 30
0.0
  9
$UCSORTHOREF
  2

  9
$UCSORTHOVIEW
 70
     1
  9
$UCSORGTOP
 10
0.0
 20
0.0
 30
0.0
  9
$UCSORGBOTTOM
 10
0.0
 20
0.0
 30
0.0
  9
$UCSORGLEFT
 10
0.0
 20
0.0
 30
0.0
  9
$UCSORGRIGHT
 10
0.0
 20
0.0
 30
0.0
  9
$UCSORGFRONT
 10
0.0
 20
0.0
 30
0.0
  9
$UCSORGBACK
 10
0.0
 20
0.0
 30
0.0
  9
$PUCSBASE
  2

  9
$PUCSNAME
  2

  9
$PUCSORG
 10
0.0
 20
0.0
 30
0.0
  9
$PUCSXDIR
 10
1.0
 20
0.0
 30
0.0
  9
$PUCSYDIR
 10
0.0
 20
1.0
 30
0.0
  9
$PUCSORTHOREF
  2

  9
$PUCSORTHOVIEW
 70
     0
  9
$PUCSORGTOP
 10
0.0
 20
0.0
 30
0.0
  9
$PUCSORGBOTTOM
 10
0.0
 20
0.0
 30
0.0
  9
$PUCSORGLEFT
 10
0.0
 20
0.0
 30
0.0
  9
$PUCSORGRIGHT
 10
0.0
 20
0.0
 30
0.0
  9
$PUCSORGFRONT
 10
0.0
 20
0.0
 30
0.0
  9
$PUCSORGBACK
 10
0.0
 20
0.0
 30
0.0
  9
$USERI1
 70
     0
  9
$USERI2
 70
     0
  9
$USERI3
 70
     0
  9
$USERI4
 70
     0
  9
$USERI5
 70
     0
  9
$USERR1
 40
0.0
  9
$USERR2
 40
0.0
  9
$USERR3
 40
0.0
  9
$USERR4
 40
0.0
  9
$USERR5
 40
0.0
  9
$WORLDVIEW
 70
     1
  9
$SHADEDGE
 70
     3
  9
$SHADEDIF
 70
    70
  9
$TILEMODE
 70
     1
  9
$MAXACTVP
 70
    16
  9
$PINSBASE
 10
0.0
 20
0.0
 30
0.0
  9
$PLIMCHECK
 70
     0
  9
$PEXTMIN
 10
1.000000000000000E+20
 20
1.000000000000000E+20
 30
1.000000000000000E+20
  9
$PEXTMAX
 10
-1.000000000000000E+20
 20
-1.000000000000000E+20
 30
-1.000000000000000E+20
  9
$PLIMMIN
 10
-0.1249995194082185
 20
-0.1249999981226884
  9
$PLIMMAX
 10
11.56833318274791
 20
8.143333497009875
  9
$UNITMODE
 70
     0
  9
$VISRETAIN
 70
     0
  9
$PLINEGEN
 70
     0
  9
$PSLTSCALE
 70
     1
  9
$TREEDEPTH
 70
  3020
  9
$CMLSTYLE
  2
STANDARD
  9
$CMLJUST
 70
     0
  9
$CMLSCALE
 40
1.0
  9
$PROXYGRAPHICS
 70
     1
  9
$MEASUREMENT
 70
     0
  9
$CELWEIGHT
370
    -1
  9
$ENDCAPS
280
     0
  9
$JOINSTYLE
280
     0
  9
$LWDISPLAY
290
     0
  9
$INSUNITS
 70
     0
  9
$HYPERLINKBASE
  1

  9
$STYLESHEET
  1
MONOCHROME.CTB
  9
$XEDIT
290
     1
  9
$CEPSNTYPE
380
     0
  9
$PSTYLEMODE
290
     1
  9
$FINGERPRINTGUID
  2
{AFC0AA2D-B3CD-48CF-B830-EF9C44F122D3}
  9
$VERSIONGUID
  2
{647C7608-E3CF-4155-ACDC-A37EA78A8B12}
  9
$EXTNAMES
290
     1
  9
$PSVPSCALE
 40
0.0
  9
$OLESTARTUP
290
     0
  0
ENDSEC
  0
SECTION
  2
CLASSES
  0
CLASS
  1
ACDBDICTIONARYWDFLT
  2
AcDbDictionaryWithDefault
  3
ObjectDBX Classes
 90
        0
280
     0
281
     0
  0
CLASS
  1
DICTIONARYVAR
  2
AcDbDictionaryVar
  3
ObjectDBX Classes
 90
        0
280
     0
281
     0
  0
CLASS
  1
MATERIAL
  2
AcDbMaterial
  3
ObjectDBX Classes
 90
     1024
280
     0
281
     0
  0
CLASS
  1
VISUALSTYLE
  2
AcDbVisualStyle
  3
ObjectDBX Classes
 90
     4095
280
     0
281
     0
  0
CLASS
  1
TABLESTYLE
  2
AcDbTableStyle
  3
ObjectDBX Classes
 90
     4095
280
     0
281
     0
  0
CLASS
  1
DIMASSOC
  2
AcDbDimAssoc
  3
"AcDbDimAssoc|Product Desc:     AcDim ARX App For Dimension|Company:          Autodesk, Inc.|WEB Address:      www.autodesk.com"
 90
    32768
280
     0
281
     0
  0
CLASS
  1
SORTENTSTABLE
  2
AcDbSortentsTable
  3
ObjectDBX Classes
 90
    32768
280
     0
281
     0
  0
CLASS
  1
ACDBPLACEHOLDER
  2
AcDbPlaceHolder
  3
ObjectDBX Classes
 90
        0
280
     0
281
     0
  0
CLASS
  1
LAYOUT
  2
AcDbLayout
  3
ObjectDBX Classes
 90
        0
280
     0
281
     0
  0
ENDSEC
  0
SECTION
  2
TABLES
  0
TABLE
  2
VPORT
  5
8
330
0
100
AcDbSymbolTable
 70
     1
  0
VPORT
  5
4E7D
330
8
100
AcDbSymbolTableRecord
100
AcDbViewportTableRecord
  2
*Active
 70
     0
 10
0.0
 20
0.0
 11
1.0
 21
1.0
 12
609.4666028199783
 22
-18.20631277813969
 13
0.0
 23
0.0
 14
1.0
 24
1.0
 15
0.0
 25
0.0
 16
0.0
 26
0.0
 36
1.0
 17
0.0
 27
0.0
 37
0.0
 40
181.1628289774255
 41
1.552030456852791
 42
50.0
 43
0.0
 44
0.0
 50
0.0
 51
0.0
 71
     0
 72
   100
 73
     1
 74
     1
 75
     0
 76
     0
 77
     0
 78
     0
281
     0
 65
     1
110
0.0
120
0.0
130
0.0
111
1.0
121
0.0
131
0.0
112
0.0
122
1.0
132
0.0
 79
     0
146
0.0
  0
ENDTAB
  0
TABLE
  2
LTYPE
  5
5
330
0
100
AcDbSymbolTable
 70
     6
  0
LTYPE
  5
11
330
5
100
AcDbSymbolTableRecord
100
AcDbLinetypeTableRecord
  2
BYBLOCK
 70
     0
  3

 72
    65
 73
     0
 40
0.0
  0
LTYPE
  5
12
330
5
100
AcDbSymbolTableRecord
100
AcDbLinetypeTableRecord
  2
BYLAYER
 70
     0
  3

 72
    65
 73
     0
 40
0.0
  0
LTYPE
  5
13
330
5
100
AcDbSymbolTableRecord
100
AcDbLinetypeTableRecord
  2
CONTINUOUS
 70
     0
  3
Solid line
 72
    65
 73
     0
 40
0.0
  0
LTYPE
  5
1D
330
5
100
AcDbSymbolTableRecord
100
AcDbLinetypeTableRecord
  2
CENTER
 70
     0
  3
____ _ ____ _ ____ _ ____ _ ____ _ ____ _ ____ 
 72
    65
 73
     4
 40
2.0
 49
1.25
 74
     0
 49
-0.25
 74
     0
 49
0.25
 74
     0
 49
-0.25
 74
     0
  0
LTYPE
  5
1E
330
5
100
AcDbSymbolTableRecord
100
AcDbLinetypeTableRecord
  2
PHANTOM
 70
     0
  3
______  __  __  ______  __  __  ______  __  __ 
 72
    65
 73
     6
 40
2.5
 49
1.25
 74
     0
 49
-0.25
 74
     0
 49
0.25
 74
     0
 49
-0.25
 74
     0
 49
0.25
 74
     0
 49
-0.25
 74
     0
  0
LTYPE
  5
1F
330
5
100
AcDbSymbolTableRecord
100
AcDbLinetypeTableRecord
  2
DASHED
 70
     0
  3
__ __ __ __ __ __ __ __ __ __ __ __ __ __ __ __
 72
    65
 73
     2
 40
0.75
 49
0.5
 74
     0
 49
-0.25
 74
     0
  0
LTYPE
  5
3DB3
330
5
100
AcDbSymbolTableRecord
100
AcDbLinetypeTableRecord
  2
CENTER2
 70
     0
  3
Center (.5x) ___ _ ___ _ ___ _ ___ _ ___ _ ___
 72
    65
 73
     4
 40
28.575
 49
19.05
 74
     0
 49
-3.174999999999998
 74
     0
 49
3.174999999999998
 74
     0
 49
-3.174999999999998
 74
     0
  0
LTYPE
  5
3DB4
330
5
100
AcDbSymbolTableRecord
100
AcDbLinetypeTableRecord
  2
HIDDEN2
 70
     0
  3
Hidden (.5x) _ _ _ _ _ _ _ _ _ _ _ _ _ _ _ _ _
 72
    65
 73
     2
 40
4.762499999999998
 49
3.174999999999998
 74
     0
 49
-1.587499999999999
 74
     0
  0
ENDTAB
  0
TABLE
  2
LAYER
  5
2
102
{ACAD_XDICTIONARY
360
3DBA
102
}
330
0
100
AcDbSymbolTable
 70
     4
  0
LAYER
  5
E
330
2
100
AcDbSymbolTableRecord
100
AcDbLayerTableRecord
  2
0
 70
     0
 62
     7
  6
CONTINUOUS
370
    -3
390
3D41
  0
LAYER
  5
27
330
2
100
AcDbSymbolTableRecord
100
AcDbLayerTableRecord
  2
Z_OM_DIM
 70
     0
 62
     4
  6
CONTINUOUS
370
    -3
390
3D41
  0
LAYER
  5
2B
330
2
100
AcDbSymbolTableRecord
100
AcDbLayerTableRecord
  2
DEFPOINTS
 70
     0
 62
     7
  6
CONTINUOUS
290
     0
370
    -3
390
3D41
  0
LAYER
  5
3DB5
330
2
100
AcDbSymbolTableRecord
100
AcDbLayerTableRecord
  2
additional
 70
     0
 62
    50
  6
CONTINUOUS
370
    -3
390
3D41
1001
AcAecLayerStandard
1000

1000

  0
ENDTAB
  0
TABLE
  2
STYLE
  5
3
330
0
100
AcDbSymbolTable
 70
     3
  0
STYLE
  5
F
330
3
100
AcDbSymbolTableRecord
100
AcDbTextStyleTableRecord
  2
STANDARD
 70
     0
 40
0.0
 41
1.08
 50
0.0
 71
     0
 42
3.0
  3
txt.shx
  4
bigfont.shx
  0
STYLE
  5
3DB6
330
3
100
AcDbSymbolTableRecord
100
AcDbTextStyleTableRecord
  2
CatalogDxf
 70
     0
 40
0.0
 41
1.0
 50
0.0
 71
     0
 42
2.5
  3
txt.shx
  4
bigfont.shx
  0
STYLE
  5
4196
330
3
100
AcDbSymbolTableRecord
100
AcDbTextStyleTableRecord
  2

 70
     1
 40
0.0
 41
1.0
 50
0.0
 71
     0
 42
3.0
  3
ltypeshp.shx
  4

  0
ENDTAB
  0
TABLE
  2
VIEW
  5
6
330
0
100
AcDbSymbolTable
 70
     0
  0
ENDTAB
  0
TABLE
  2
UCS
  5
7
330
0
100
AcDbSymbolTable
 70
     0
  0
ENDTAB
  0
TABLE
  2
APPID
  5
9
330
0
100
AcDbSymbolTable
 70
     7
  0
APPID
  5
10
330
9
100
AcDbSymbolTableRecord
100
AcDbRegAppTableRecord
  2
ACAD
 70
     0
  0
APPID
  5
3D5E
330
9
100
AcDbSymbolTableRecord
100
AcDbRegAppTableRecord
  2
ACAD_PSEXT
 70
     0
  0
APPID
  5
3DB9
330
9
100
AcDbSymbolTableRecord
100
AcDbRegAppTableRecord
  2
AcAecLayerStandard
 70
     0
  0
APPID
  5
41A3
330
9
100
AcDbSymbolTableRecord
100
AcDbRegAppTableRecord
  2
ACAD_DSTYLE_DIM_LINETYPE
 70
     0
  0
APPID
  5
41A4
330
9
100
AcDbSymbolTableRecord
100
AcDbRegAppTableRecord
  2
ACAD_DSTYLE_DIM_EXT1_LINETYPE
 70
     0
  0
APPID
  5
41A5
330
9
100
AcDbSymbolTableRecord
100
AcDbRegAppTableRecord
  2
ACAD_DSTYLE_DIM_EXT2_LINETYPE
 70
     0
  0
APPID
  5
4C76
330
9
100
AcDbSymbolTableRecord
100
AcDbRegAppTableRecord
  2
ACAD_DSTYLE_DIMTEXT_FILL
 70
     0
  0
ENDTAB
  0
TABLE
  2
DIMSTYLE
  5
A
330
0
100
AcDbSymbolTable
 70
     3
100
AcDbDimStyleTable
 71
     1
340
3DB8
  0
DIMSTYLE
105
3DB8
102
{ACAD_REACTORS
330
4429
330
4436
330
4468
330
4477
330
4484
330
449A
330
44A7
330
44B4
330
44C1
330
462B
330
4C36
330
4D58
102
}
330
A
100
AcDbSymbolTableRecord
100
AcDbDimStyleTableRecord
  2
CatalogDxf
 70
     0
 41
2.5
 42
0.625
 43
3.75
 44
1.25
 73
     0
 74
     0
 77
     1
 78
     8
140
2.5
141
2.5
143
0.03937007874016
147
0.625
171
     3
172
     1
176
   256
177
   256
178
   256
271
     1
272
     1
274
     3
283
     0
284
     8
340
3DB6
341
977
342
977
371
    -1
372
    -1
1001
ACAD_DSTYLE_DIM_LINETYPE
1070
   380
1005
12
1001
ACAD_DSTYLE_DIM_EXT1_LINETYPE
1070
   381
1005
12
1001
ACAD_DSTYLE_DIM_EXT2_LINETYPE
1070
   382
1005
12
  0
DIMSTYLE
105
4C16
330
A
100
AcDbSymbolTableRecord
100
AcDbDimStyleTableRecord
  2
STANDARD
 70
     0
 41
6.0
 42
1.0
 43
16.0
 44
3.0
 73
     0
 74
     0
 77
     1
 78
     8
140
4.4
141
10.0
147
1.6
172
     1
176
   256
177
   256
178
   256
340
F
341
977
342
977
  0
DIMSTYLE
105
4C17
330
A
100
AcDbSymbolTableRecord
100
AcDbDimStyleTableRecord
  2
ISO-25
 70
     0
 41
2.5
 42
0.625
 43
3.75
 44
1.25
 73
     0
 74
     0
 77
     1
 78
     8
140
2.5
141
2.5
143
0.03937007874016
147
0.625
171
     3
172
     1
271
     2
272
     2
274
     3
278
    44
283
     0
284
     8
340
F
  0
ENDTAB
  0
TABLE
  2
BLOCK_RECORD
  5
1
330
0
100
AcDbSymbolTable
 70
    14
  0
BLOCK_RECORD
  5
17
102
{ACAD_XDICTIONARY
360
1808
102
}
330
1
100
AcDbSymbolTableRecord
100
AcDbBlockTableRecord
  2
*MODEL_SPACE
340
3D5B
  0
BLOCK_RECORD
  5
14
102
{ACAD_XDICTIONARY
360
1806
102
}
330
1
100
AcDbSymbolTableRecord
100
AcDbBlockTableRecord
  2
*PAPER_SPACE
340
3D5C
  0
BLOCK_RECORD
  5
977
330
1
100
AcDbSymbolTableRecord
100
AcDbBlockTableRecord
  2
_OPEN30
340
0
102
{BLKREFS
331
4E8C
331
4E8D
331
4E95
331
4E96
331
4EA0
331
4EA1
331
4EA9
331
4EAA
331
4EB2
331
4EB3
331
4EBB
331
4EBC
331
4EC4
331
4EC5
331
4ECD
331
4ECE
331
4ED6
331
4ED7
331
4EDF
331
4EE0
331
4EE8
331
4EE9
331
4EF3
331
4EF4
102
}
  0
BLOCK_RECORD
  5
42A2
330
1
100
AcDbSymbolTableRecord
100
AcDbBlockTableRecord
  2
_OPEN
340
0
  0
BLOCK_RECORD
  5
442A
330
1
100
AcDbSymbolTableRecord
100
AcDbBlockTableRecord
  2
*D2
340
0
  0
BLOCK_RECORD
  5
4437
330
1
100
AcDbSymbolTableRecord
100
AcDbBlockTableRecord
  2
*D3
340
0
  0
BLOCK_RECORD
  5
4469
330
1
100
AcDbSymbolTableRecord
100
AcDbBlockTableRecord
  2
*D4
340
0
  0
BLOCK_RECORD
  5
4478
330
1
100
AcDbSymbolTableRecord
100
AcDbBlockTableRecord
  2
*D5
340
0
  0
BLOCK_RECORD
  5
4485
330
1
100
AcDbSymbolTableRecord
100
AcDbBlockTableRecord
  2
*D6
340
0
  0
BLOCK_RECORD
  5
449B
330
1
100
AcDbSymbolTableRecord
100
AcDbBlockTableRecord
  2
*D7
340
0
  0
BLOCK_RECORD
  5
44A8
330
1
100
AcDbSymbolTableRecord
100
AcDbBlockTableRecord
  2
*D8
340
0
  0
BLOCK_RECORD
  5
44B5
330
1
100
AcDbSymbolTableRecord
100
AcDbBlockTableRecord
  2
*D9
340
0
  0
BLOCK_RECORD
  5
44C2
330
1
100
AcDbSymbolTableRecord
100
AcDbBlockTableRecord
  2
*D10
340
0
  0
BLOCK_RECORD
  5
462C
330
1
100
AcDbSymbolTableRecord
100
AcDbBlockTableRecord
  2
*D11
340
0
  0
BLOCK_RECORD
  5
4C37
330
1
100
AcDbSymbolTableRecord
100
AcDbBlockTableRecord
  2
*D12
340
0
  0
BLOCK_RECORD
  5
4D59
330
1
100
AcDbSymbolTableRecord
100
AcDbBlockTableRecord
  2
*D13
340
0
  0
ENDTAB
  0
ENDSEC
  0
SECTION
  2
BLOCKS
  0
BLOCK
  5
2E
330
17
100
AcDbEntity
  8
0
100
AcDbBlockBegin
  2
*MODEL_SPACE
 70
     0
 10
0.0
 20
0.0
 30
0.0
  3
*MODEL_SPACE
  1

  0
ENDBLK
  5
2F
330
17
100
AcDbEntity
  8
0
100
AcDbBlockEnd
  0
BLOCK
  5
2C
330
14
100
AcDbEntity
 67
     1
  8
0
100
AcDbBlockBegin
  2
*PAPER_SPACE
 70
     0
 10
0.0
 20
0.0
 30
0.0
  3
*PAPER_SPACE
  1

  0
ENDBLK
  5
2D
330
14
100
AcDbEntity
 67
     1
  8
0
100
AcDbBlockEnd
  0
BLOCK
  5
97B
330
977
100
AcDbEntity
  8
0
100
AcDbBlockBegin
  2
_OPEN30
 70
     0
 10
0.0
 20
0.0
 30
0.0
  3
_OPEN30
  1

  0
LINE
  5
978
330
977
100
AcDbEntity
  8
0
  6
ByBlock
 62
     0
100
AcDbLine
 10
-1.0
 20
0.26794919
 30
0.0
 11
0.0
 21
0.0
 31
0.0
  0
LINE
  5
979
330
977
100
AcDbEntity
  8
0
  6
ByBlock
 62
     0
100
AcDbLine
 10
0.0
 20
0.0
 30
0.0
 11
-1.0
 21
-0.26794919
 31
0.0
  0
LINE
  5
97A
330
977
100
AcDbEntity
  8
0
  6
ByBlock
 62
     0
100
AcDbLine
 10
0.0
 20
0.0
 30
0.0
 11
-1.0
 21
0.0
 31
0.0
  0
ENDBLK
  5
97C
330
977
100
AcDbEntity
  8
0
100
AcDbBlockEnd
  0
BLOCK
  5
42A3
330
42A2
100
AcDbEntity
  8
0
100
AcDbBlockBegin
  2
_OPEN
 70
     0
 10
0.0
 20
0.0
 30
0.0
  3
_OPEN
  1

  0
LINE
  5
42A4
330
42A2
100
AcDbEntity
  8
0
  6
ByBlock
 62
     0
100
AcDbLine
 10
-1.0
 20
0.1666666666666666
 30
0.0
 11
0.0
 21
0.0
 31
0.0
  0
LINE
  5
42A5
330
42A2
100
AcDbEntity
  8
0
  6
ByBlock
 62
     0
100
AcDbLine
 10
0.0
 20
0.0
 30
0.0
 11
-1.0
 21
-0.1666666666666666
 31
0.0
  0
LINE
  5
42A6
330
42A2
100
AcDbEntity
  8
0
  6
ByBlock
 62
     0
100
AcDbLine
 10
0.0
 20
0.0
 30
0.0
 11
-1.0
 21
0.0
 31
0.0
  0
ENDBLK
  5
42A7
330
42A2
100
AcDbEntity
  8
0
100
AcDbBlockEnd
  0
BLOCK
  5
4434
330
442A
100
AcDbEntity
  8
0
100
AcDbBlockBegin
  2
*D2
 70
     1
 10
0.0
 20
0.0
 30
0.0
  3
*D2
  1

  0
LINE
  5
4E89
330
442A
100
AcDbEntity
  8
Z_OM_DIM
100
AcDbLine
 10
620.7179275774882
 20
46.18885842240074
 30
0.0
 11
620.7179275774882
 21
28.63918247279224
 31
0.0
  0
LINE
  5
4E8A
330
442A
100
AcDbEntity
  8
Z_OM_DIM
100
AcDbLine
 10
610.7179275774882
 20
42.47460842240076
 30
0.0
 11
610.7179275774882
 21
28.63918247279224
 31
0.0
  0
LINE
  5
4E8B
330
442A
100
AcDbEntity
  8
Z_OM_DIM
100
AcDbLine
 10
618.2179275774882
 20
29.88918247279224
 30
0.0
 11
613.2179275774882
 21
29.88918247279224
 31
0.0
  0
INSERT
  5
4E8C
330
442A
100
AcDbEntity
  8
Z_OM_DIM
100
AcDbBlockReference
  2
_OPEN30
 10
620.7179275774882
 20
29.88918247279224
 30
0.0
 41
2.5
 42
2.5
 43
2.5
  0
INSERT
  5
4E8D
330
442A
100
AcDbEntity
  8
Z_OM_DIM
100
AcDbBlockReference
  2
_OPEN30
 10
610.7179275774882
 20
29.88918247279224
 30
0.0
 41
2.5
 42
2.5
 43
2.5
 50
180.0
  0
MTEXT
  5
4E8E
330
442A
100
AcDbEntity
  8
Z_OM_DIM
100
AcDbMText
 10
615.7179275774882
 20
31.76418247279224
 30
0.0
 40
2.5
 41
0.0
 71
     5
 72
     1
  1
10
  7
CatalogDxf
 73
     1
 44
1.0
1001
ACAD
1000
MTEXTBEGIN
1070
    73
1070
     1
1070
    44
1040
1.0
1070
    74
1070
     0
1000
MTEXTEND
  0
POINT
  5
4E8F
330
442A
100
AcDbEntity
  8
DEFPOINTS
 62
     0
100
AcDbPoint
 10
620.7179275774882
 20
46.81385842240074
 30
0.0
  0
POINT
  5
4E90
330
442A
100
AcDbEntity
  8
DEFPOINTS
 62
     0
100
AcDbPoint
 10
610.7179275774882
 20
43.09960842240076
 30
0.0
  0
POINT
  5
4E91
330
442A
100
AcDbEntity
  8
DEFPOINTS
 62
     0
100
AcDbPoint
 10
610.7179275774882
 20
29.88918247279224
 30
0.0
  0
ENDBLK
  5
4435
330
442A
100
AcDbEntity
  8
0
100
AcDbBlockEnd
  0
BLOCK
  5
4441
330
4437
100
AcDbEntity
  8
0
100
AcDbBlockBegin
  2
*D3
 70
     1
 10
0.0
 20
0.0
 30
0.0
  3
*D3
  1

  0
LINE
  5
4E92
330
4437
100
AcDbEntity
  8
Z_OM_DIM
100
AcDbLine
 10
622.6379275774884
 20
27.93885842240076
 30
0.0
 11
622.6379275774884
 21
11.99034372058934
 31
0.0
  0
LINE
  5
4E93
330
4437
100
AcDbEntity
  8
Z_OM_DIM
100
AcDbLine
 10
672.6379275774884
 20
30.28885842240078
 30
0.0
 11
672.6379275774884
 21
11.99034372058935
 31
0.0
  0
LINE
  5
4E94
330
4437
100
AcDbEntity
  8
Z_OM_DIM
100
AcDbLine
 10
625.1379275774884
 20
13.24034372058935
 30
0.0
 11
670.1379275774884
 21
13.24034372058935
 31
0.0
  0
INSERT
  5
4E95
330
4437
100
AcDbEntity
  8
Z_OM_DIM
100
AcDbBlockReference
  2
_OPEN30
 10
622.6379275774884
 20
13.24034372058935
 30
0.0
 41
2.5
 42
2.5
 43
2.5
 50
180.0
  0
INSERT
  5
4E96
330
4437
100
AcDbEntity
  8
Z_OM_DIM
100
AcDbBlockReference
  2
_OPEN30
 10
672.6379275774884
 20
13.24034372058935
 30
0.0
 41
2.5
 42
2.5
 43
2.5
  0
MTEXT
  5
4E97
330
4437
100
AcDbEntity
  8
Z_OM_DIM
100
AcDbMText
 10
647.6379275774884
 20
15.11534372058935
 30
0.0
 40
2.5
 41
0.0
 71
     5
 72
     1
  1
50
  7
CatalogDxf
 73
     1
 44
1.0
1001
ACAD
1000
MTEXTBEGIN
1070
    73
1070
     1
1070
    44
1040
1.0
1070
    74
1070
     0
1000
MTEXTEND
  0
POINT
  5
4E98
330
4437
100
AcDbEntity
  8
DEFPOINTS
 62
     0
100
AcDbPoint
 10
622.6379275774884
 20
28.56385842240076
 30
0.0
  0
POINT
  5
4E99
330
4437
100
AcDbEntity
  8
DEFPOINTS
 62
     0
100
AcDbPoint
 10
672.6379275774884
 20
30.91385842240078
 30
0.0
  0
POINT
  5
4E9A
330
4437
100
AcDbEntity
  8
DEFPOINTS
 62
     0
100
AcDbPoint
 10
672.6379275774884
 20
13.24034372058935
 30
0.0
  0
ENDBLK
  5
4442
330
4437
100
AcDbEntity
  8
0
100
AcDbBlockEnd
  0
BLOCK
  5
4475
330
4469
100
AcDbEntity
  8
0
100
AcDbBlockBegin
  2
*D4
 70
     1
 10
0.0
 20
0.0
 30
0.0
  3
*D4
  1

  0
LINE
  5
4E9B
330
4469
100
AcDbEntity
  8
Z_OM_DIM
100
AcDbLine
 10
610.7179275774882
 20
-44.19532757115399
 30
0.0
 11
610.7179275774882
 21
-13.31351952553416
 31
0.0
  0
LINE
  5
4E9C
330
4469
100
AcDbEntity
  8
Z_OM_DIM
100
AcDbLine
 10
613.7179275774879
 20
-39.86648043077771
 30
0.0
 11
613.7179275774879
 21
-13.31351952553416
 31
0.0
  0
LINE
  5
4E9D
330
4469
100
AcDbEntity
  8
Z_OM_DIM
100
AcDbLine
 10
616.2179275774879
 20
-14.56351952553416
 30
0.0
 11
618.7179275774878
 21
-14.56351952553416
 31
0.0
  0
LINE
  5
4E9E
330
4469
100
AcDbEntity
  8
Z_OM_DIM
100
AcDbLine
 10
608.2179275774882
 20
-14.56351952553416
 30
0.0
 11
602.8012609108216
 21
-14.56351952553416
 31
0.0
  0
LINE
  5
4E9F
330
4469
100
AcDbEntity
  8
Z_OM_DIM
100
AcDbLine
 10
613.7179275774879
 20
-14.56351952553416
 30
0.0
 11
610.7179275774882
 21
-14.56351952553416
 31
0.0
  0
INSERT
  5
4EA0
330
4469
100
AcDbEntity
  8
Z_OM_DIM
100
AcDbBlockReference
  2
_OPEN30
 10
613.7179275774879
 20
-14.56351952553416
 30
0.0
 41
2.5
 42
2.5
 43
2.5
 50
180.0
  0
INSERT
  5
4EA1
330
4469
100
AcDbEntity
  8
Z_OM_DIM
100
AcDbBlockReference
  2
_OPEN30
 10
610.7179275774882
 20
-14.56351952553416
 30
0.0
 41
2.5
 42
2.5
 43
2.5
  0
MTEXT
  5
4EA2
330
4469
100
AcDbEntity
  8
Z_OM_DIM
100
AcDbMText
 10
604.2595942441549
 20
-12.68851952553416
 30
0.0
 40
2.5
 41
0.0
 71
     5
 72
     1
  1
3
  7
CatalogDxf
 73
     1
 44
1.0
1001
ACAD
1000
MTEXTBEGIN
1070
    73
1070
     1
1070
    44
1040
1.0
1070
    74
1070
     0
1000
MTEXTEND
  0
POINT
  5
4EA3
330
4469
100
AcDbEntity
  8
DEFPOINTS
 62
     0
100
AcDbPoint
 10
610.7179275774882
 20
-44.82032757115399
 30
0.0
  0
POINT
  5
4EA4
330
4469
100
AcDbEntity
  8
DEFPOINTS
 62
     0
100
AcDbPoint
 10
613.7179275774879
 20
-40.49148043077771
 30
0.0000000000000107
  0
POINT
  5
4EA5
330
4469
100
AcDbEntity
  8
DEFPOINTS
 62
     0
100
AcDbPoint
 10
613.7179275774879
 20
-14.56351952553416
 30
0.0
  0
ENDBLK
  5
4476
330
4469
100
AcDbEntity
  8
0
100
AcDbBlockEnd
  0
BLOCK
  5
4482
330
4478
100
AcDbEntity
  8
0
100
AcDbBlockBegin
  2
*D5
 70
     1
 10
0.0
 20
0.0
 30
0.0
  3
*D5
  1

  0
LINE
  5
4EA6
330
4478
100
AcDbEntity
  8
Z_OM_DIM
100
AcDbLine
 10
613.7179275774879
 20
-39.86648043077771
 30
0.0
 11
613.7179275774879
 21
-13.31351952553416
 31
0.0
  0
LINE
  5
4EA7
330
4478
100
AcDbEntity
  8
Z_OM_DIM
100
AcDbLine
 10
634.6379275774884
 20
-35.65957757115385
 30
0.0
 11
634.6379275774884
 21
-13.31351952553416
 31
0.0
  0
LINE
  5
4EA8
330
4478
100
AcDbEntity
  8
Z_OM_DIM
100
AcDbLine
 10
616.2179275774879
 20
-14.56351952553416
 30
0.0
 11
632.1379275774884
 21
-14.56351952553416
 31
0.0
  0
INSERT
  5
4EA9
330
4478
100
AcDbEntity
  8
Z_OM_DIM
100
AcDbBlockReference
  2
_OPEN30
 10
613.7179275774879
 20
-14.56351952553416
 30
0.0
 41
2.5
 42
2.5
 43
2.5
 50
180.0
  0
INSERT
  5
4EAA
330
4478
100
AcDbEntity
  8
Z_OM_DIM
100
AcDbBlockReference
  2
_OPEN30
 10
634.6379275774884
 20
-14.56351952553416
 30
0.0
 41
2.5
 42
2.5
 43
2.5
  0
MTEXT
  5
4EAB
330
4478
100
AcDbEntity
  8
Z_OM_DIM
100
AcDbMText
 10
624.1779275774881
 20
-12.68851952553416
 30
0.0
 40
2.5
 41
0.0
 71
     5
 72
     1
  1
21
  7
CatalogDxf
 73
     1
 44
1.0
1001
ACAD
1000
MTEXTBEGIN
1070
    73
1070
     1
1070
    44
1040
1.0
1070
    74
1070
     0
1000
MTEXTEND
  0
POINT
  5
4EAC
330
4478
100
AcDbEntity
  8
DEFPOINTS
 62
     0
100
AcDbPoint
 10
613.7179275774879
 20
-40.49148043077771
 30
0.0000000000000107
  0
POINT
  5
4EAD
330
4478
100
AcDbEntity
  8
DEFPOINTS
 62
     0
100
AcDbPoint
 10
634.6379275774884
 20
-36.28457757115385
 30
0.0
  0
POINT
  5
4EAE
330
4478
100
AcDbEntity
  8
DEFPOINTS
 62
     0
100
AcDbPoint
 10
634.6379275774884
 20
-14.56351952553416
 30
0.0
  0
ENDBLK
  5
4483
330
4478
100
AcDbEntity
  8
0
100
AcDbBlockEnd
  0
BLOCK
  5
448F
330
4485
100
AcDbEntity
  8
0
100
AcDbBlockBegin
  2
*D6
 70
     1
 10
0.0
 20
0.0
 30
0.0
  3
*D6
  1

  0
LINE
  5
4EAF
330
4485
100
AcDbEntity
  8
Z_OM_DIM
100
AcDbLine
 10
634.6379275774884
 20
-35.65957757115385
 30
0.0
 11
634.6379275774884
 21
-13.31351952553416
 31
0.0
  0
LINE
  5
4EB0
330
4485
100
AcDbEntity
  8
Z_OM_DIM
100
AcDbLine
 10
664.6379275774884
 20
-35.65957757115385
 30
0.0
 11
664.6379275774884
 21
-13.31351952553416
 31
0.0
  0
LINE
  5
4EB1
330
4485
100
AcDbEntity
  8
Z_OM_DIM
100
AcDbLine
 10
637.1379275774884
 20
-14.56351952553416
 30
0.0
 11
662.1379275774884
 21
-14.56351952553416
 31
0.0
  0
INSERT
  5
4EB2
330
4485
100
AcDbEntity
  8
Z_OM_DIM
100
AcDbBlockReference
  2
_OPEN30
 10
634.6379275774884
 20
-14.56351952553416
 30
0.0
 41
2.5
 42
2.5
 43
2.5
 50
180.0
  0
INSERT
  5
4EB3
330
4485
100
AcDbEntity
  8
Z_OM_DIM
100
AcDbBlockReference
  2
_OPEN30
 10
664.6379275774884
 20
-14.56351952553416
 30
0.0
 41
2.5
 42
2.5
 43
2.5
  0
MTEXT
  5
4EB4
330
4485
100
AcDbEntity
  8
Z_OM_DIM
100
AcDbMText
 10
649.6379275774884
 20
-12.68851952553416
 30
0.0
 40
2.5
 41
0.0
 71
     5
 72
     1
  1
30
  7
CatalogDxf
 73
     1
 44
1.0
1001
ACAD
1000
MTEXTBEGIN
1070
    73
1070
     1
1070
    44
1040
1.0
1070
    74
1070
     0
1000
MTEXTEND
  0
POINT
  5
4EB5
330
4485
100
AcDbEntity
  8
DEFPOINTS
 62
     0
100
AcDbPoint
 10
634.6379275774884
 20
-36.28457757115385
 30
0.0
  0
POINT
  5
4EB6
330
4485
100
AcDbEntity
  8
DEFPOINTS
 62
     0
100
AcDbPoint
 10
664.6379275774884
 20
-36.28457757115385
 30
0.0
  0
POINT
  5
4EB7
330
4485
100
AcDbEntity
  8
DEFPOINTS
 62
     0
100
AcDbPoint
 10
664.6379275774884
 20
-14.56351952553416
 30
0.0
  0
ENDBLK
  5
4490
330
4485
100
AcDbEntity
  8
0
100
AcDbBlockEnd
  0
BLOCK
  5
44A5
330
449B
100
AcDbEntity
  8
0
100
AcDbBlockBegin
  2
*D7
 70
     1
 10
0.0
 20
0.0
 30
0.0
  3
*D7
  1

  0
LINE
  5
4EB8
330
449B
100
AcDbEntity
  8
Z_OM_DIM
100
AcDbLine
 10
669.7233947362503
 20
-40.28457757115385
 30
0.0
 11
691.4386582439286
 21
-40.28457757115385
 31
0.0
  0
LINE
  5
4EB9
330
449B
100
AcDbEntity
  8
Z_OM_DIM
100
AcDbLine
 10
669.7233947362503
 20
-60.2845775711539
 30
0.0
 11
691.4386582439286
 21
-60.2845775711539
 31
0.0
  0
LINE
  5
4EBA
330
449B
100
AcDbEntity
  8
Z_OM_DIM
100
AcDbLine
 10
690.1886582439287
 20
-42.78457757115385
 30
0.0
 11
690.1886582439287
 21
-57.7845775711539
 31
0.0
  0
INSERT
  5
4EBB
330
449B
100
AcDbEntity
  8
Z_OM_DIM
100
AcDbBlockReference
  2
_OPEN30
 10
690.1886582439287
 20
-40.28457757115385
 30
0.0
 41
2.5
 42
2.5
 43
2.5
 50
90.0
  0
INSERT
  5
4EBC
330
449B
100
AcDbEntity
  8
Z_OM_DIM
100
AcDbBlockReference
  2
_OPEN30
 10
690.1886582439287
 20
-60.2845775711539
 30
0.0
 41
2.5
 42
2.5
 43
2.5
 50
270.0
  0
MTEXT
  5
4EBD
330
449B
100
AcDbEntity
  8
Z_OM_DIM
100
AcDbMText
 10
688.3136582439286
 20
-50.28457757115377
 30
0.0
 40
2.5
 41
0.0
 71
     5
 72
     1
  1
20
  7
CatalogDxf
 11
0.0000000000000001
 21
1.0
 31
0.0
 73
     1
 44
1.0
1001
ACAD
1000
MTEXTBEGIN
1070
    73
1070
     1
1070
    44
1040
1.0
1070
    74
1070
     0
1000
MTEXTEND
  0
POINT
  5
4EBE
330
449B
100
AcDbEntity
  8
DEFPOINTS
 62
     0
100
AcDbPoint
 10
669.0983947362504
 20
-40.28457757115385
 30
0.0
  0
POINT
  5
4EBF
330
449B
100
AcDbEntity
  8
DEFPOINTS
 62
     0
100
AcDbPoint
 10
669.0983947362504
 20
-60.2845775711539
 30
0.0
  0
POINT
  5
4EC0
330
449B
100
AcDbEntity
  8
DEFPOINTS
 62
     0
100
AcDbPoint
 10
690.1886582439287
 20
-60.2845775711539
 30
0.0
  0
ENDBLK
  5
44A6
330
449B
100
AcDbEntity
  8
0
100
AcDbBlockEnd
  0
BLOCK
  5
44B2
330
44A8
100
AcDbEntity
  8
0
100
AcDbBlockBegin
  2
*D8
 70
     1
 10
0.0
 20
0.0
 30
0.0
  3
*D8
  1

  0
LINE
  5
4EC1
330
44A8
100
AcDbEntity
  8
Z_OM_DIM
100
AcDbLine
 10
634.6379275774884
 20
-35.65957757115385
 30
0.0
 11
634.6379275774884
 21
-21.5551189331415
 31
0.0
  0
LINE
  5
4EC2
330
44A8
100
AcDbEntity
  8
Z_OM_DIM
100
AcDbLine
 10
622.6379275774884
 20
-31.65957757115388
 30
0.0
 11
622.6379275774884
 21
-21.5551189331415
 31
0.0
  0
LINE
  5
4EC3
330
44A8
100
AcDbEntity
  8
Z_OM_DIM
100
AcDbLine
 10
632.1379275774884
 20
-22.8051189331415
 30
0.0
 11
625.1379275774884
 21
-22.8051189331415
 31
0.0
  0
INSERT
  5
4EC4
330
44A8
100
AcDbEntity
  8
Z_OM_DIM
100
AcDbBlockReference
  2
_OPEN30
 10
634.6379275774884
 20
-22.8051189331415
 30
0.0
 41
2.5
 42
2.5
 43
2.5
  0
INSERT
  5
4EC5
330
44A8
100
AcDbEntity
  8
Z_OM_DIM
100
AcDbBlockReference
  2
_OPEN30
 10
622.6379275774884
 20
-22.8051189331415
 30
0.0
 41
2.5
 42
2.5
 43
2.5
 50
180.0
  0
MTEXT
  5
4EC6
330
44A8
100
AcDbEntity
  8
Z_OM_DIM
100
AcDbMText
 10
628.6379275774883
 20
-20.9301189331415
 30
0.0
 40
2.5
 41
0.0
 71
     5
 72
     1
  1
12
  7
CatalogDxf
 73
     1
 44
1.0
1001
ACAD
1000
MTEXTBEGIN
1070
    73
1070
     1
1070
    44
1040
1.0
1070
    74
1070
     0
1000
MTEXTEND
  0
POINT
  5
4EC7
330
44A8
100
AcDbEntity
  8
DEFPOINTS
 62
     0
100
AcDbPoint
 10
634.6379275774884
 20
-36.28457757115385
 30
0.0
  0
POINT
  5
4EC8
330
44A8
100
AcDbEntity
  8
DEFPOINTS
 62
     0
100
AcDbPoint
 10
622.6379275774884
 20
-32.28457757115388
 30
0.0
  0
POINT
  5
4EC9
330
44A8
100
AcDbEntity
  8
DEFPOINTS
 62
     0
100
AcDbPoint
 10
622.6379275774884
 20
-22.8051189331415
 30
0.0
  0
ENDBLK
  5
44B3
330
44A8
100
AcDbEntity
  8
0
100
AcDbBlockEnd
  0
BLOCK
  5
44BF
330
44B5
100
AcDbEntity
  8
0
100
AcDbBlockBegin
  2
*D9
 70
     1
 10
0.0
 20
0.0
 30
0.0
  3
*D9
  1

  0
LINE
  5
4ECA
330
44B5
100
AcDbEntity
  8
Z_OM_DIM
100
AcDbLine
 10
535.0629275774888
 20
-32.28457757115388
 30
0.0
 11
555.5475260634275
 21
-32.28457757115388
 31
0.0
  0
LINE
  5
4ECB
330
44B5
100
AcDbEntity
  8
Z_OM_DIM
100
AcDbLine
 10
535.0629275774888
 20
-68.28457757115387
 30
0.0
 11
555.5475260634275
 21
-68.28457757115389
 31
0.0
  0
LINE
  5
4ECC
330
44B5
100
AcDbEntity
  8
Z_OM_DIM
100
AcDbLine
 10
554.2975260634275
 20
-34.78457757115388
 30
0.0
 11
554.2975260634275
 21
-65.78457757115389
 31
0.0
  0
INSERT
  5
4ECD
330
44B5
100
AcDbEntity
  8
Z_OM_DIM
100
AcDbBlockReference
  2
_OPEN30
 10
554.2975260634275
 20
-32.28457757115388
 30
0.0
 41
2.5
 42
2.5
 43
2.5
 50
90.0
  0
INSERT
  5
4ECE
330
44B5
100
AcDbEntity
  8
Z_OM_DIM
100
AcDbBlockReference
  2
_OPEN30
 10
554.2975260634275
 20
-68.28457757115389
 30
0.0
 41
2.5
 42
2.5
 43
2.5
 50
270.0
  0
MTEXT
  5
4ECF
330
44B5
100
AcDbEntity
  8
Z_OM_DIM
100
AcDbMText
 10
552.4225260634275
 20
-50.28457757115379
 30
0.0
 40
2.5
 41
0.0
 71
     5
 72
     1
  1
36
  7
CatalogDxf
 11
0.0000000000000001
 21
1.0
 31
0.0
 73
     1
 44
1.0
1001
ACAD
1000
MTEXTBEGIN
1070
    73
1070
     1
1070
    44
1040
1.0
1070
    74
1070
     0
1000
MTEXTEND
  0
POINT
  5
4ED0
330
44B5
100
AcDbEntity
  8
DEFPOINTS
 62
     0
100
AcDbPoint
 10
534.4379275774888
 20
-32.28457757115388
 30
0.0
  0
POINT
  5
4ED1
330
44B5
100
AcDbEntity
  8
DEFPOINTS
 62
     0
100
AcDbPoint
 10
534.4379275774888
 20
-68.28457757115387
 30
0.0
  0
POINT
  5
4ED2
330
44B5
100
AcDbEntity
  8
DEFPOINTS
 62
     0
100
AcDbPoint
 10
554.2975260634275
 20
-68.28457757115389
 30
0.0
  0
ENDBLK
  5
44C0
330
44B5
100
AcDbEntity
  8
0
100
AcDbBlockEnd
  0
BLOCK
  5
44CC
330
44C2
100
AcDbEntity
  8
0
100
AcDbBlockBegin
  2
*D10
 70
     1
 10
0.0
 20
0.0
 30
0.0
  3
*D10
  1

  0
LINE
  5
4ED3
330
44C2
100
AcDbEntity
  8
Z_OM_DIM
100
AcDbLine
 10
494.4379275774887
 20
-68.43513868528117
 30
0.0
 11
494.4379275774887
 21
-86.93959559037017
 31
0.0
  0
LINE
  5
4ED4
330
44C2
100
AcDbEntity
  8
Z_OM_DIM
100
AcDbLine
 10
534.4379275774888
 20
-68.43513868528126
 30
0.0
 11
534.4379275774888
 21
-86.93959559037017
 31
0.0
  0
LINE
  5
4ED5
330
44C2
100
AcDbEntity
  8
Z_OM_DIM
100
AcDbLine
 10
496.9379275774887
 20
-85.68959559037017
 30
0.0
 11
531.9379275774888
 21
-85.68959559037017
 31
0.0
  0
INSERT
  5
4ED6
330
44C2
100
AcDbEntity
  8
Z_OM_DIM
100
AcDbBlockReference
  2
_OPEN30
 10
494.4379275774887
 20
-85.68959559037017
 30
0.0
 41
2.5
 42
2.5
 43
2.5
 50
180.0
  0
INSERT
  5
4ED7
330
44C2
100
AcDbEntity
  8
Z_OM_DIM
100
AcDbBlockReference
  2
_OPEN30
 10
534.4379275774888
 20
-85.68959559037017
 30
0.0
 41
2.5
 42
2.5
 43
2.5
  0
MTEXT
  5
4ED8
330
44C2
100
AcDbEntity
  8
Z_OM_DIM
100
AcDbMText
 10
514.4379275774888
 20
-83.81459559037017
 30
0.0
 40
2.5
 41
0.0
 71
     5
 72
     1
  1
40
  7
CatalogDxf
 73
     1
 44
1.0
1001
ACAD
1000
MTEXTBEGIN
1070
    73
1070
     1
1070
    44
1040
1.0
1070
    74
1070
     0
1000
MTEXTEND
  0
POINT
  5
4ED9
330
44C2
100
AcDbEntity
  8
DEFPOINTS
 62
     0
100
AcDbPoint
 10
494.4379275774887
 20
-67.81013868528117
 30
0.0
  0
POINT
  5
4EDA
330
44C2
100
AcDbEntity
  8
DEFPOINTS
 62
     0
100
AcDbPoint
 10
534.4379275774888
 20
-67.81013868528126
 30
0.0
  0
POINT
  5
4EDB
330
44C2
100
AcDbEntity
  8
DEFPOINTS
 62
     0
100
AcDbPoint
 10
534.4379275774888
 20
-85.68959559037017
 30
0.0
  0
ENDBLK
  5
44CD
330
44C2
100
AcDbEntity
  8
0
100
AcDbBlockEnd
  0
BLOCK
  5
4636
330
462C
100
AcDbEntity
  8
0
100
AcDbBlockBegin
  2
*D11
 70
     1
 10
0.0
 20
0.0
 30
0.0
  3
*D11
  1

  0
LINE
  5
4EDC
330
462C
100
AcDbEntity
  8
Z_OM_DIM
100
AcDbLine
 10
610.5929275774883
 20
-44.320327571154
 30
0.0
 11
596.4567213609946
 21
-44.320327571154
 31
0.0
  0
LINE
  5
4EDD
330
462C
100
AcDbEntity
  8
Z_OM_DIM
100
AcDbLine
 10
610.5929275774883
 20
-56.24882757115397
 30
0.0
 11
596.4567213609946
 21
-56.24882757115397
 31
0.0
  0
LINE
  5
4EDE
330
462C
100
AcDbEntity
  8
Z_OM_DIM
100
AcDbLine
 10
597.7067213609946
 20
-46.820327571154
 30
0.0
 11
597.7067213609946
 21
-53.74882757115397
 31
0.0
  0
INSERT
  5
4EDF
330
462C
100
AcDbEntity
  8
Z_OM_DIM
100
AcDbBlockReference
  2
_OPEN30
 10
597.7067213609946
 20
-44.320327571154
 30
0.0
 41
2.5
 42
2.5
 43
2.5
 50
90.0
  0
INSERT
  5
4EE0
330
462C
100
AcDbEntity
  8
Z_OM_DIM
100
AcDbBlockReference
  2
_OPEN30
 10
597.7067213609946
 20
-56.24882757115397
 30
0.0
 41
2.5
 42
2.5
 43
2.5
 50
270.0
  0
MTEXT
  5
4EE1
330
462C
100
AcDbEntity
  8
Z_OM_DIM
100
AcDbMText
 10
595.8317213609945
 20
-50.28457757115388
 30
0.0
 40
2.5
 41
0.0
 71
     5
 72
     1
  1
%%c12
  7
CatalogDxf
 11
0.0000000000000001
 21
1.0
 31
0.0
 73
     1
 44
1.0
1001
ACAD
1000
MTEXTBEGIN
1070
    73
1070
     1
1070
    44
1040
1.0
1070
    74
1070
     0
1000
MTEXTEND
  0
POINT
  5
4EE2
330
462C
100
AcDbEntity
  8
DEFPOINTS
 62
     0
100
AcDbPoint
 10
611.2179275774884
 20
-44.320327571154
 30
0.0
  0
POINT
  5
4EE3
330
462C
100
AcDbEntity
  8
DEFPOINTS
 62
     0
100
AcDbPoint
 10
611.2179275774884
 20
-56.24882757115397
 30
0.0
  0
POINT
  5
4EE4
330
462C
100
AcDbEntity
  8
DEFPOINTS
 62
     0
100
AcDbPoint
 10
597.7067213609946
 20
-56.24882757115397
 30
0.0
  0
ENDBLK
  5
4637
330
462C
100
AcDbEntity
  8
0
100
AcDbBlockEnd
  0
BLOCK
  5
4C41
330
4C37
100
AcDbEntity
  8
0
100
AcDbBlockBegin
  2
*D12
 70
     1
 10
0.0
 20
0.0
 30
0.0
  3
*D12
  1

  0
LINE
  5
4EE5
330
4C37
100
AcDbEntity
  8
Z_OM_DIM
100
AcDbLine
 10
672.637927577488
 20
29.93885842240004
 30
0.0
 11
672.637927577488
 21
11.99034372058878
 31
0.0
  0
LINE
  5
4EE6
330
4C37
100
AcDbEntity
  8
Z_OM_DIM
100
AcDbLine
 10
712.354987996025
 20
46.81385842239953
 30
0.0
 11
712.354987996025
 21
11.99034372058877
 31
0.0
  0
LINE
  5
4EE7
330
4C37
100
AcDbEntity
  8
Z_OM_DIM
100
AcDbLine
 10
675.1379275774881
 20
13.24034372058878
 30
0.0
 11
709.8549879960249
 21
13.24034372058878
 31
0.0
  0
INSERT
  5
4EE8
330
4C37
100
AcDbEntity
  8
Z_OM_DIM
100
AcDbBlockReference
  2
_OPEN30
 10
672.637927577488
 20
13.24034372058878
 30
0.0
 41
2.5
 42
2.5
 43
2.5
 50
180.0
  0
INSERT
  5
4EE9
330
4C37
100
AcDbEntity
  8
Z_OM_DIM
100
AcDbBlockReference
  2
_OPEN30
 10
712.354987996025
 20
13.24034372058878
 30
0.0
 41
2.5
 42
2.5
 43
2.5
  0
MTEXT
  5
4EEA
330
4C37
100
AcDbEntity
  8
Z_OM_DIM
100
AcDbMText
 10
692.4964577867565
 20
15.11534372058878
 30
0.0
 40
2.5
 41
0.0
 71
     5
 72
     1
  1
180 - 200
  7
CatalogDxf
 73
     1
 44
1.0
1001
ACAD
1000
MTEXTBEGIN
1070
    73
1070
     1
1070
    44
1040
1.0
1070
    74
1070
     0
1000
MTEXTEND
  0
POINT
  5
4EEB
330
4C37
100
AcDbEntity
  8
DEFPOINTS
 62
     0
100
AcDbPoint
 10
672.637927577488
 20
30.56385842240004
 30
0.0
  0
POINT
  5
4EEC
330
4C37
100
AcDbEntity
  8
DEFPOINTS
 62
     0
100
AcDbPoint
 10
712.354987996025
 20
47.43885842239953
 30
0.0
  0
POINT
  5
4EED
330
4C37
100
AcDbEntity
  8
DEFPOINTS
 62
     0
100
AcDbPoint
 10
712.354987996025
 20
13.24034372058878
 30
0.0
  0
ENDBLK
  5
4C42
330
4C37
100
AcDbEntity
  8
0
100
AcDbBlockEnd
  0
BLOCK
  5
4D65
330
4D59
100
AcDbEntity
  8
0
100
AcDbBlockBegin
  2
*D13
 70
     1
 10
0.0
 20
0.0
 30
0.0
  3
*D13
  1

  0
LINE
  5
4EEE
330
4D59
100
AcDbEntity
  8
Z_OM_DIM
100
AcDbLine
 10
610.0929275774882
 20
46.81385842240074
 30
0.0
 11
596.4567213609946
 21
46.81385842240074
 31
0.0
  0
LINE
  5
4EEF
330
4D59
100
AcDbEntity
  8
Z_OM_DIM
100
AcDbLine
 10
610.0929275774882
 20
50.31385842240077
 30
0.0
 11
596.4567213609946
 21
50.31385842240077
 31
0.0
  0
LINE
  5
4EF0
330
4D59
100
AcDbEntity
  8
Z_OM_DIM
100
AcDbLine
 10
597.7067213609946
 20
44.31385842240074
 30
0.0
 11
597.7067213609946
 21
41.81385842240074
 31
0.0
  0
LINE
  5
4EF1
330
4D59
100
AcDbEntity
  8
Z_OM_DIM
100
AcDbLine
 10
597.7067213609946
 20
52.81385842240077
 30
0.0
 11
597.7067213609946
 21
61.56385842240077
 31
0.0
  0
LINE
  5
4EF2
330
4D59
100
AcDbEntity
  8
Z_OM_DIM
100
AcDbLine
 10
597.7067213609946
 20
46.81385842240074
 30
0.0
 11
597.7067213609946
 21
50.31385842240077
 31
0.0
  0
INSERT
  5
4EF3
330
4D59
100
AcDbEntity
  8
Z_OM_DIM
100
AcDbBlockReference
  2
_OPEN30
 10
597.7067213609946
 20
46.81385842240074
 30
0.0
 41
2.5
 42
2.5
 43
2.5
 50
90.0
  0
INSERT
  5
4EF4
330
4D59
100
AcDbEntity
  8
Z_OM_DIM
100
AcDbBlockReference
  2
_OPEN30
 10
597.7067213609946
 20
50.31385842240077
 30
0.0
 41
2.5
 42
2.5
 43
2.5
 50
270.0
  0
MTEXT
  5
4EF5
330
4D59
100
AcDbEntity
  8
Z_OM_DIM
100
AcDbMText
 10
595.8317213609945
 20
58.43885842240087
 30
0.0
 40
2.5
 41
0.0
 71
     5
 72
     1
  1
3.5
  7
CatalogDxf
 11
0.0000000000000001
 21
1.0
 31
0.0
 73
     1
 44
1.0
1001
ACAD
1000
MTEXTBEGIN
1070
    73
1070
     1
1070
    44
1040
1.0
1070
    74
1070
     0
1000
MTEXTEND
  0
POINT
  5
4EF6
330
4D59
100
AcDbEntity
  8
DEFPOINTS
 62
     0
100
AcDbPoint
 10
610.7179275774882
 20
46.81385842240074
 30
0.0
  0
POINT
  5
4EF7
330
4D59
100
AcDbEntity
  8
DEFPOINTS
 62
     0
100
AcDbPoint
 10
610.7179275774882
 20
50.31385842240077
 30
0.0
  0
POINT
  5
4EF8
330
4D59
100
AcDbEntity
  8
DEFPOINTS
 62
     0
100
AcDbPoint
 10
597.7067213609946
 20
50.31385842240077
 30
0.0
  0
ENDBLK
  5
4D66
330
4D59
100
AcDbEntity
  8
0
100
AcDbBlockEnd
  0
ENDSEC
  0
SECTION
  2
ENTITIES
  0
MTEXT
  5
4130
330
17
100
AcDbEntity
  8
Z_OM_DIM
100
AcDbMText
 10
682.1337613312246
 20
-100.1040939499565
 30
0.0
 40
3.0
 41
62.68854771070344
 71
     1
 72
     5
  1
TAKAHA KIKO Co., Ltd\PCAD DRAWING No. CA1250
  7
CatalogDxf
 73
     1
 44
1.0
1001
ACAD
1000
MTEXTBEGIN
1070
    73
1070
     1
1070
    44
1040
1.0
1070
    74
1070
     0
1000
MTEXTEND
  0
LINE
  5
435D
330
17
100
AcDbEntity
  8
additional
  6
CENTER2
 48
0.5
100
AcDbLine
 10
669.0983947362504
 20
-40.28457757115385
 30
0.0
 11
630.1263786760909
 21
-40.28457757115382
 31
0.0
  0
LINE
  5
435E
330
17
100
AcDbEntity
  8
additional
  6
CENTER2
 48
0.5
100
AcDbLine
 10
634.6379275774884
 20
-36.28457757115385
 30
0.0
 11
634.6379275774884
 21
-64.28457757115385
 31
0.0
  0
LINE
  5
435F
330
17
100
AcDbEntity
  8
additional
  6
CENTER2
 48
0.5
100
AcDbLine
 10
613.7179275774882
 20
58.356955562777
 30
0.0
 11
613.7179275774882
 21
38.77076128202468
 31
0.0
  0
LINE
  5
4360
330
17
100
AcDbEntity
  8
0
 48
0.5
100
AcDbLine
 10
622.6379275774884
 20
28.56385842240076
 30
0.0
 11
670.6379275774884
 21
28.56385842240076
 31
0.0
  0
LINE
  5
4361
330
17
100
AcDbEntity
  8
0
 48
0.5
100
AcDbLine
 10
672.6379275774884
 20
30.56385842240076
 30
0.0
 11
672.6379275774887
 21
47.06385842240075
 31
0.0
  0
LINE
  5
4362
330
17
100
AcDbEntity
  8
0
 48
0.5
100
AcDbLine
 10
670.6379275774884
 20
68.56385842240076
 30
0.0
 11
622.6379275774884
 21
68.56385842240076
 31
0.0
  0
LINE
  5
4363
330
17
100
AcDbEntity
  8
0
 48
0.5
100
AcDbLine
 10
622.6379275774884
 20
68.56385842240076
 30
0.0
 11
622.6379275774884
 21
66.56385842240076
 31
0.0
  0
LINE
  5
4364
330
17
100
AcDbEntity
  8
0
 48
0.5
100
AcDbLine
 10
622.6379275774884
 20
66.56385842240076
 30
0.0
 11
670.6379275774884
 21
66.56385842240076
 31
0.0
  0
LINE
  5
4365
330
17
100
AcDbEntity
  8
0
 48
0.5
100
AcDbLine
 10
670.6379275774884
 20
66.56385842240076
 30
0.0
 11
670.6379275774884
 21
52.31385842240076
 31
0.0
  0
LINE
  5
4366
330
17
100
AcDbEntity
  8
0
 48
0.5
100
AcDbLine
 10
670.6379275774884
 20
30.56385842240076
 30
0.0
 11
622.6379275774884
 21
30.56385842240076
 31
0.0
  0
LINE
  5
4367
330
17
100
AcDbEntity
  8
0
 48
0.5
100
AcDbLine
 10
622.6379275774884
 20
30.56385842240076
 30
0.0
 11
622.6379275774884
 21
28.56385842240076
 31
0.0
  0
LINE
  5
4368
330
17
100
AcDbEntity
  8
0
 48
0.5
100
AcDbLine
 10
622.6379275774884
 20
-68.28457757115387
 30
0.0
 11
672.6379275774884
 21
-68.28457757115387
 31
0.0
  0
LINE
  5
4369
330
17
100
AcDbEntity
  8
0
 48
0.5
100
AcDbLine
 10
672.6379275774884
 20
-68.28457757115387
 30
0.0
 11
672.6379275774884
 21
-32.28457757115388
 31
0.0
  0
LINE
  5
436A
330
17
100
AcDbEntity
  8
0
 48
0.5
100
AcDbLine
 10
672.6379275774884
 20
-32.28457757115388
 30
0.0
 11
622.6379275774884
 21
-32.28457757115388
 31
0.0
  0
LINE
  5
436B
330
17
100
AcDbEntity
  8
0
 48
0.5
100
AcDbLine
 10
622.6379275774884
 20
-32.28457757115388
 30
0.0
 11
622.6379275774884
 21
-41.33457757115382
 31
0.0
  0
LINE
  5
436C
330
17
100
AcDbEntity
  8
0
 48
0.5
100
AcDbLine
 10
622.6379275774884
 20
-41.33457757115382
 30
0.0
 11
626.6379275774884
 21
-41.33457757115382
 31
0.0
  0
LINE
  5
436D
330
17
100
AcDbEntity
  8
0
 48
0.5
100
AcDbLine
 10
626.6379275774884
 20
-41.33457757115382
 30
0.0
 11
626.6379275774884
 21
-59.23457757115392
 31
0.0
  0
LINE
  5
436E
330
17
100
AcDbEntity
  8
0
 48
0.5
100
AcDbLine
 10
626.6379275774884
 20
-59.23457757115392
 30
0.0
 11
622.6379275774884
 21
-59.23457757115392
 31
0.0
  0
LINE
  5
436F
330
17
100
AcDbEntity
  8
0
 48
0.5
100
AcDbLine
 10
622.6379275774884
 20
-59.23457757115392
 30
0.0
 11
622.6379275774884
 21
-68.28457757115387
 31
0.0
  0
CIRCLE
  5
4370
330
17
100
AcDbEntity
  8
0
 48
0.5
100
AcDbCircle
 10
664.6379275774884
 20
-60.28457757115386
 30
0.0
 40
1.25
  0
CIRCLE
  5
4371
330
17
100
AcDbEntity
  8
additional
  6
HIDDEN2
 48
0.5
100
AcDbCircle
 10
664.6379275774884
 20
-60.28457757115386
 30
0.0
 40
1.5
  0
LINE
  5
4372
330
17
100
AcDbEntity
  8
0
100
AcDbLine
 10
626.6379275774884
 20
66.56385842240076
 30
0.0
 11
626.6379275774884
 21
30.56385842240076
 31
0.0
  0
LINE
  5
4373
330
17
100
AcDbEntity
  8
0
100
AcDbLine
 10
623.4379275774886
 20
66.56385842240076
 30
0.0
 11
623.4379275774886
 21
30.56385842240076
 31
0.0
  0
LINE
  5
4374
330
17
100
AcDbEntity
  8
0
 48
0.5
100
AcDbLine
 10
622.0179275774885
 20
38.56385842240076
 30
0.0
 11
623.4379275774886
 21
38.56385842240076
 31
0.0
  0
LINE
  5
4375
330
17
100
AcDbEntity
  8
0
 48
0.5
100
AcDbLine
 10
623.4379275774886
 20
38.56385842240076
 30
0.0
 11
623.4379275774886
 21
58.56385842240076
 31
0.0
  0
LINE
  5
4376
330
17
100
AcDbEntity
  8
0
 48
0.5
100
AcDbLine
 10
623.4379275774886
 20
58.56385842240076
 30
0.0
 11
622.0179275774885
 21
58.56385842240076
 31
0.0
  0
LINE
  5
4377
330
17
100
AcDbEntity
  8
0
 48
0.5
100
AcDbLine
 10
622.0179275774885
 20
58.56385842240076
 30
0.0
 11
622.0179275774885
 21
38.56385842240076
 31
0.0
  0
LINE
  5
4378
330
17
100
AcDbEntity
  8
0
 48
0.5
100
AcDbLine
 10
622.9679275774882
 20
38.56385842240076
 30
0.0
 11
622.9679275774882
 21
58.56385842240076
 31
0.0
  0
LINE
  5
4379
330
17
100
AcDbEntity
  8
0
 48
0.5
100
AcDbLine
 10
668.8379275774882
 20
32.06385842240076
 30
0.0
 11
628.3379275774882
 21
32.06385842240076
 31
0.0
  0
LINE
  5
437A
330
17
100
AcDbEntity
  8
0
 48
0.5
100
AcDbLine
 10
668.8379275774882
 20
65.06385842240075
 30
0.0
 11
628.3379275774882
 21
65.06385842240075
 31
0.0
  0
LINE
  5
437B
330
17
100
AcDbEntity
  8
0
100
AcDbLine
 10
623.4379275774886
 20
-41.33457757115382
 30
0.0
 11
623.4379275774886
 21
-59.23457757115392
 31
0.0
  0
LINE
  5
437C
330
17
100
AcDbEntity
  8
0
 48
0.5
100
AcDbLine
 10
611.2179275774884
 20
-44.320327571154
 30
0.0
 11
622.0179275774885
 21
-44.320327571154
 31
0.0
  0
LINE
  5
437D
330
17
100
AcDbEntity
  8
0
 48
0.5
100
AcDbLine
 10
622.0179275774885
 20
-44.320327571154
 30
0.0
 11
622.0179275774885
 21
-56.24882757115397
 31
0.0
  0
LINE
  5
437E
330
17
100
AcDbEntity
  8
0
 48
0.5
100
AcDbLine
 10
622.0179275774885
 20
-56.24882757115397
 30
0.0
 11
611.2179275774884
 21
-56.24882757115397
 31
0.0
  0
LINE
  5
437F
330
17
100
AcDbEntity
  8
0
 48
0.5
100
AcDbLine
 10
610.7179275774882
 20
-55.74882757115396
 30
0.0
 11
610.7179275774882
 21
-44.82032757115399
 31
0.0
  0
LINE
  5
4380
330
17
100
AcDbEntity
  8
0
 48
0.5
100
AcDbLine
 10
611.2179275774884
 20
-44.320327571154
 30
0.0
 11
610.7179275774882
 21
-44.82032757115399
 31
0.0
  0
LINE
  5
4381
330
17
100
AcDbEntity
  8
0
 48
0.5
100
AcDbLine
 10
611.2179275774884
 20
-56.24882757115397
 30
0.0
 11
610.7179275774882
 21
-55.74882757115396
 31
0.0
  0
LINE
  5
4382
330
17
100
AcDbEntity
  8
0
 48
0.5
100
AcDbLine
 10
611.2179275774884
 20
-44.320327571154
 30
0.0
 11
611.2179275774884
 21
-56.24882757115397
 31
0.0
  0
LINE
  5
4383
330
17
100
AcDbEntity
  8
0
 48
0.5
100
AcDbLine
 10
623.4379275774886
 20
-59.23457757115392
 30
0.0
 11
623.4379275774886
 21
-41.33457757115382
 31
0.0
  0
LINE
  5
4384
330
17
100
AcDbEntity
  8
0
 48
0.5
100
AcDbLine
 10
622.6379275774884
 20
-40.284577571154
 30
0.0
 11
622.0179275774885
 21
-40.284577571154
 31
0.0
  0
LINE
  5
4385
330
17
100
AcDbEntity
  8
0
 48
0.5
100
AcDbLine
 10
622.0179275774885
 20
-40.284577571154
 30
0.0
 11
622.0179275774885
 21
-60.28457757115386
 31
0.0
  0
LINE
  5
4386
330
17
100
AcDbEntity
  8
0
 48
0.5
100
AcDbLine
 10
622.9679275774882
 20
-59.23457757115392
 30
0.0
 11
622.9679275774882
 21
-41.33457757115382
 31
0.0
  0
CIRCLE
  5
4387
330
17
100
AcDbEntity
  8
0
100
AcDbCircle
 10
613.7179275774882
 20
-50.284577571154
 30
0.0
 40
1.522499999999979
  0
LINE
  5
4388
330
17
100
AcDbEntity
  8
0
100
AcDbLine
 10
494.4379275774887
 20
-32.28457757115388
 30
0.0
 11
494.4379275774887
 21
-68.28457757115387
 31
0.0
  0
LINE
  5
4389
330
17
100
AcDbEntity
  8
0
100
AcDbLine
 10
494.4379275774887
 20
-68.28457757115387
 30
0.0
 11
534.4379275774888
 21
-68.28457757115387
 31
0.0
  0
LINE
  5
438A
330
17
100
AcDbEntity
  8
0
100
AcDbLine
 10
534.4379275774888
 20
-68.28457757115387
 30
0.0
 11
534.4379275774888
 21
-32.28457757115388
 31
0.0
  0
LINE
  5
438B
330
17
100
AcDbEntity
  8
0
100
AcDbLine
 10
534.4379275774888
 20
-32.28457757115388
 30
0.0
 11
494.4379275774887
 21
-32.28457757115388
 31
0.0
  0
LINE
  5
438C
330
17
100
AcDbEntity
  8
0
100
AcDbLine
 10
532.4379275774888
 20
-32.28457757115388
 30
0.0
 11
532.4379275774888
 21
-41.33457757115382
 31
0.0
  0
LINE
  5
438D
330
17
100
AcDbEntity
  8
0
100
AcDbLine
 10
532.4379275774888
 20
-41.33457757115382
 30
0.0
 11
534.4379275774888
 21
-41.33457757115382
 31
0.0
  0
LINE
  5
438E
330
17
100
AcDbEntity
  8
0
100
AcDbLine
 10
532.4379275774888
 20
-68.28457757115387
 30
0.0
 11
532.4379275774888
 21
-59.23457757115392
 31
0.0
  0
LINE
  5
438F
330
17
100
AcDbEntity
  8
0
100
AcDbLine
 10
532.4379275774888
 20
-59.23457757115392
 30
0.0
 11
534.4379275774888
 21
-59.23457757115392
 31
0.0
  0
LINE
  5
4390
330
17
100
AcDbEntity
  8
0
100
AcDbLine
 10
494.4379275774887
 20
-68.28457757115387
 30
0.0
 11
494.4379275774887
 21
-32.28457757115388
 31
0.0
  0
LINE
  5
4391
330
17
100
AcDbEntity
  8
0
100
AcDbLine
 10
496.4379275774887
 20
-32.28457757115388
 30
0.0
 11
496.4379275774887
 21
-41.33457757115382
 31
0.0
  0
LINE
  5
4392
330
17
100
AcDbEntity
  8
0
100
AcDbLine
 10
496.4379275774887
 20
-41.33457757115382
 30
0.0
 11
494.4379275774887
 21
-41.33457757115382
 31
0.0
  0
LINE
  5
4393
330
17
100
AcDbEntity
  8
0
100
AcDbLine
 10
496.4379275774887
 20
-68.28457757115387
 30
0.0
 11
496.4379275774887
 21
-59.23457757115392
 31
0.0
  0
LINE
  5
4394
330
17
100
AcDbEntity
  8
0
100
AcDbLine
 10
496.4379275774887
 20
-59.23457757115392
 30
0.0
 11
494.4379275774887
 21
-59.23457757115392
 31
0.0
  0
LINE
  5
4395
330
17
100
AcDbEntity
  8
0
 48
0.5
100
AcDbLine
 10
497.4379275774888
 20
-32.28457757115388
 30
0.0
 11
510.4379275774888
 21
-30.48457757115392
 31
0.0
  0
LINE
  5
4396
330
17
100
AcDbEntity
  8
0
 48
0.5
100
AcDbLine
 10
495.4379275774887
 20
-32.28457757115388
 30
0.0
 11
533.4379275774888
 21
-32.28457757115388
 31
0.0
  0
LINE
  5
4397
330
17
100
AcDbEntity
  8
0
 48
0.5
100
AcDbLine
 10
531.4379275774888
 20
-32.28457757115388
 30
0.0
 11
518.4379275774888
 21
-30.48457757115392
 31
0.0
  0
LINE
  5
4398
330
17
100
AcDbEntity
  8
0
 48
0.5
100
AcDbLine
 10
510.4379275774888
 20
-30.48457757115392
 30
0.0
 11
518.4379275774888
 21
-30.48457757115392
 31
0.0
  0
LINE
  5
4399
330
17
100
AcDbEntity
  8
0
 48
0.5
100
AcDbLine
 10
628.3379275774882
 20
-32.28457757115388
 30
0.0
 11
645.4225995253555
 21
-30.28457757115689
 31
0.0
  0
LINE
  5
439A
330
17
100
AcDbEntity
  8
0
 48
0.5
100
AcDbLine
 10
645.4225995253555
 20
-30.28457757115689
 30
0.0
 11
668.8379275774882
 21
-30.28457757115689
 31
0.0
  0
LINE
  5
439B
330
17
100
AcDbEntity
  8
0
100
AcDbLine
 10
626.6379275774884
 20
30.91385842240078
 30
0.0
 11
626.6379275774884
 21
66.21385842240084
 31
0.0
  0
LINE
  5
439C
330
17
100
AcDbEntity
  8
0
100
AcDbLine
 10
626.6379275774884
 20
66.21385842240084
 30
0.0
 11
628.3379275774882
 21
66.21385842240084
 31
0.0
  0
LINE
  5
439D
330
17
100
AcDbEntity
  8
0
100
AcDbLine
 10
628.3379275774882
 20
66.21385842240084
 30
0.0
 11
628.3379275774882
 21
30.91385842240078
 31
0.0
  0
LINE
  5
439E
330
17
100
AcDbEntity
  8
0
100
AcDbLine
 10
628.3379275774882
 20
30.91385842240078
 30
0.0
 11
626.6379275774884
 21
30.91385842240078
 31
0.0
  0
LINE
  5
439F
330
17
100
AcDbEntity
  8
0
100
AcDbLine
 10
668.8379275774882
 20
30.91385842240078
 30
0.0
 11
670.6379275774884
 21
30.91385842240078
 31
0.0
  0
LINE
  5
43A0
330
17
100
AcDbEntity
  8
0
100
AcDbLine
 10
670.6379275774884
 20
30.91385842240078
 30
0.0
 11
670.6379275774884
 21
44.81385842240075
 31
0.0
  0
LINE
  5
43A1
330
17
100
AcDbEntity
  8
0
100
AcDbLine
 10
670.6379275774884
 20
66.21385842240084
 30
0.0
 11
668.8379275774882
 21
66.21385842240084
 31
0.0
  0
LINE
  5
43A2
330
17
100
AcDbEntity
  8
0
100
AcDbLine
 10
668.8379275774882
 20
66.21385842240084
 30
0.0
 11
668.8379275774882
 21
30.91385842240078
 31
0.0
  0
LINE
  5
43A3
330
17
100
AcDbEntity
  8
0
100
AcDbLine
 10
670.6379275774884
 20
50.06385842240074
 30
0.0
 11
670.6379275774884
 21
66.21385842240084
 31
0.0
  0
LINE
  5
43A4
330
17
100
AcDbEntity
  8
0
 48
0.5
100
AcDbLine
 10
670.6379275774884
 20
47.06385842240075
 30
0.0
 11
670.6379275774884
 21
30.56385842240076
 31
0.0
  0
LINE
  5
43A5
330
17
100
AcDbEntity
  8
0
 48
0.5
100
AcDbLine
 10
672.6379275774884
 20
50.06385842240074
 30
0.0
 11
672.6379275774884
 21
66.56385842240076
 31
0.0
  0
ARC
  5
43A6
330
17
100
AcDbEntity
  8
0
 48
0.5
100
AcDbCircle
 10
670.6379275774884
 20
66.56385842240076
 30
0.0
 40
2.0
100
AcDbArc
 50
0.0
 51
90.0
  0
ARC
  5
43A7
330
17
100
AcDbEntity
  8
0
 48
0.5
100
AcDbCircle
 10
670.6379275774884
 20
30.56385842240076
 30
0.0
 40
2.0
100
AcDbArc
 50
270.0
 51
0.0
  0
LINE
  5
43A8
330
17
100
AcDbEntity
  8
additional
 48
0.5
100
AcDbLine
 10
634.6379275774884
 20
33.7539880627192
 30
0.0
 11
634.6379275774884
 21
25.43624845112442
 31
0.0
  0
LINE
  5
43A9
330
17
100
AcDbEntity
  8
additional
 48
0.5
100
AcDbLine
 10
664.6379275774884
 20
33.7539880627192
 30
0.0
 11
664.6379275774884
 21
25.43624845112442
 31
0.0
  0
LINE
  5
43AA
330
17
100
AcDbEntity
  8
additional
 48
0.5
100
AcDbLine
 10
634.6379275774884
 20
63.37372878208231
 30
0.0
 11
634.6379275774884
 21
71.6914683936771
 31
0.0
  0
LINE
  5
43AB
330
17
100
AcDbEntity
  8
additional
 48
0.5
100
AcDbLine
 10
664.6379275774884
 20
63.37372878208231
 30
0.0
 11
664.6379275774884
 21
71.6914683936771
 31
0.0
  0
LINE
  5
43AC
330
17
100
AcDbEntity
  8
0
 48
0.5
100
AcDbLine
 10
611.2179275774884
 20
54.52810842240075
 30
0.0
 11
622.0179275774885
 21
54.52810842240075
 31
0.0
  0
LINE
  5
43AD
330
17
100
AcDbEntity
  8
0
 48
0.5
100
AcDbLine
 10
622.0179275774885
 20
54.52810842240075
 30
0.0
 11
622.0179275774885
 21
42.59960842240075
 31
0.0
  0
LINE
  5
43AE
330
17
100
AcDbEntity
  8
0
 48
0.5
100
AcDbLine
 10
622.0179275774885
 20
42.59960842240075
 30
0.0
 11
611.2179275774884
 21
42.59960842240075
 31
0.0
  0
LINE
  5
43AF
330
17
100
AcDbEntity
  8
0
 48
0.5
100
AcDbLine
 10
610.7179275774882
 20
43.09960842240076
 30
0.0
 11
610.7179275774882
 21
46.81385842240074
 31
0.0
  0
LINE
  5
43B0
330
17
100
AcDbEntity
  8
0
 48
0.5
100
AcDbLine
 10
610.7179275774882
 20
50.31385842240077
 30
0.0
 11
620.7179275774882
 21
50.31385842240077
 31
0.0
  0
LINE
  5
43B1
330
17
100
AcDbEntity
  8
0
 48
0.5
100
AcDbLine
 10
620.7179275774882
 20
50.31385842240077
 30
0.0
 11
620.7179275774882
 21
46.81385842240074
 31
0.0
  0
LINE
  5
43B2
330
17
100
AcDbEntity
  8
0
 48
0.5
100
AcDbLine
 10
620.7179275774882
 20
46.81385842240074
 30
0.0
 11
610.7179275774882
 21
46.81385842240074
 31
0.0
  0
LINE
  5
43B3
330
17
100
AcDbEntity
  8
0
 48
0.5
100
AcDbLine
 10
610.7179275774882
 20
50.31385842240077
 30
0.0
 11
610.7179275774882
 21
54.02810842240075
 31
0.0
  0
LINE
  5
43B4
330
17
100
AcDbEntity
  8
additional
  6
HIDDEN2
 48
0.5
100
AcDbLine
 10
612.1954275774882
 20
50.31385842240077
 30
0.0
 11
612.1954275774882
 21
54.02810842240075
 31
0.0
  0
LINE
  5
43B5
330
17
100
AcDbEntity
  8
additional
  6
HIDDEN2
 48
0.5
100
AcDbLine
 10
611.695427577488
 20
54.52810842240075
 30
0.0
 11
612.1954275774882
 21
54.02810842240075
 31
0.0
  0
LINE
  5
43B6
330
17
100
AcDbEntity
  8
additional
  6
HIDDEN2
 48
0.5
100
AcDbLine
 10
615.2404275774884
 20
50.31385842240077
 30
0.0
 11
615.2404275774884
 21
54.02810842240075
 31
0.0
  0
LINE
  5
43B7
330
17
100
AcDbEntity
  8
additional
  6
HIDDEN2
 48
0.5
100
AcDbLine
 10
615.7404275774884
 20
54.52810842240075
 30
0.0
 11
615.2404275774884
 21
54.02810842240075
 31
0.0
  0
LINE
  5
43B8
330
17
100
AcDbEntity
  8
additional
  6
HIDDEN2
 48
0.5
100
AcDbLine
 10
612.1954275774882
 20
46.81385842240074
 30
0.0
 11
612.1954275774882
 21
43.09960842240076
 31
0.0
  0
LINE
  5
43B9
330
17
100
AcDbEntity
  8
additional
  6
HIDDEN2
 48
0.5
100
AcDbLine
 10
611.695427577488
 20
42.59960842240075
 30
0.0
 11
612.1954275774882
 21
43.09960842240076
 31
0.0
  0
LINE
  5
43BA
330
17
100
AcDbEntity
  8
additional
  6
HIDDEN2
 48
0.5
100
AcDbLine
 10
615.2404275774884
 20
46.81385842240074
 30
0.0
 11
615.2404275774884
 21
43.09960842240076
 31
0.0
  0
LINE
  5
43BB
330
17
100
AcDbEntity
  8
additional
  6
HIDDEN2
 48
0.5
100
AcDbLine
 10
615.7404275774884
 20
42.59960842240075
 30
0.0
 11
615.2404275774884
 21
43.09960842240076
 31
0.0
  0
LINE
  5
43BC
330
17
100
AcDbEntity
  8
0
 48
0.5
100
AcDbLine
 10
611.2179275774884
 20
54.52810842240075
 30
0.0
 11
610.7179275774882
 21
54.02810842240075
 31
0.0
  0
LINE
  5
43BD
330
17
100
AcDbEntity
  8
0
 48
0.5
100
AcDbLine
 10
611.2179275774884
 20
42.59960842240075
 30
0.0
 11
610.7179275774882
 21
43.09960842240076
 31
0.0
  0
LINE
  5
43BE
330
17
100
AcDbEntity
  8
0
 48
0.5
100
AcDbLine
 10
611.2179275774884
 20
54.52810842240075
 30
0.0
 11
611.2179275774884
 21
50.31385842240077
 31
0.0
  0
LINE
  5
43BF
330
17
100
AcDbEntity
  8
0
 48
0.5
100
AcDbLine
 10
611.2179275774884
 20
42.59960842240075
 30
0.0
 11
611.2179275774884
 21
46.81385842240074
 31
0.0
  0
LINE
  5
43C0
330
17
100
AcDbEntity
  8
additional
 48
0.5
100
AcDbLine
 10
529.2622349652281
 20
-40.28457757115385
 30
0.0
 11
537.9949231560018
 21
-40.28457757115385
 31
0.0
  0
LINE
  5
43C1
330
17
100
AcDbEntity
  8
additional
 48
0.5
100
AcDbLine
 10
499.6136201897495
 20
-40.28457757115385
 30
0.0
 11
490.8809319989756
 21
-40.28457757115385
 31
0.0
  0
LINE
  5
43C2
330
17
100
AcDbEntity
  8
additional
 48
0.5
100
AcDbLine
 10
529.2622349652281
 20
-60.28457757115386
 30
0.0
 11
537.9949231560018
 21
-60.28457757115386
 31
0.0
  0
LINE
  5
43C3
330
17
100
AcDbEntity
  8
additional
 48
0.5
100
AcDbLine
 10
499.6136201897495
 20
-60.28457757115386
 30
0.0
 11
490.8809319989756
 21
-60.28457757115386
 31
0.0
  0
LINE
  5
43C4
330
17
100
AcDbEntity
  8
additional
  6
HIDDEN2
 48
0.5
100
AcDbLine
 10
612.1954275774882
 20
54.02810842240075
 30
0.0
 11
615.2404275774884
 21
54.02810842240075
 31
0.0
  0
LINE
  5
43C5
330
17
100
AcDbEntity
  8
additional
  6
HIDDEN2
 48
0.5
100
AcDbLine
 10
612.1954275774882
 20
43.09960842240076
 30
0.0
 11
615.2404275774884
 21
43.09960842240076
 31
0.0
  0
LINE
  5
43C6
330
17
100
AcDbEntity
  8
additional
  6
CENTER2
 48
0.5
100
AcDbLine
 10
613.7179275774879
 20
-40.49148043077771
 30
0.0000000000000107
 11
613.7179275774879
 21
-60.07767471153004
 31
0.0000000000000107
  0
CIRCLE
  5
43C7
330
17
100
AcDbEntity
  8
0
100
AcDbCircle
 10
514.4379275774888
 20
-50.28457757115386
 30
0.0
 40
5.964249999999932
  0
ARC
  5
43C8
330
17
100
AcDbEntity
  8
0
100
AcDbCircle
 10
514.4379275774888
 20
-50.28457757115386
 30
0.0
 40
5.464249999999933
100
AcDbArc
 50
286.1784124122021
 51
73.82158758779791
  0
ARC
  5
43C9
330
17
100
AcDbEntity
  8
0
100
AcDbCircle
 10
514.4379275774888
 20
-50.28457757115386
 30
0.0
 40
5.464249999999933
100
AcDbArc
 50
106.1784124122021
 51
253.8215875877979
  0
LINE
  5
43CA
330
17
100
AcDbEntity
  8
0
100
AcDbLine
 10
512.9154275774888
 20
-44.51792587259439
 30
0.0
 11
512.9154275774888
 21
-56.05122926971347
 31
0.0
  0
LINE
  5
43CB
330
17
100
AcDbEntity
  8
0
100
AcDbLine
 10
515.9604275774889
 20
-44.51792587259439
 30
0.0
 11
515.9604275774889
 21
-56.05122926971347
 31
0.0
  0
ARC
  5
43CC
330
17
100
AcDbEntity
  8
0
100
AcDbCircle
 10
514.4379275774888
 20
-50.28457757115386
 30
0.0
 40
10.0
100
AcDbArc
 50
299.9999999999997
 51
239.9999999999999
  0
CIRCLE
  5
43CD
330
17
100
AcDbEntity
  8
0
100
AcDbCircle
 10
514.4379275774888
 20
-50.28457757115386
 30
0.0
 40
10.0
  0
ARC
  5
43CE
330
17
100
AcDbEntity
  8
0
100
AcDbCircle
 10
514.4379275774888
 20
-50.28457757115386
 30
0.0
 40
10.0
100
AcDbArc
 50
308.9155955561984
 51
231.0844044438017
  0
ARC
  5
43CF
330
17
100
AcDbEntity
  8
0
100
AcDbCircle
 10
508.5487881961092
 20
-57.57900437157371
 30
0.0
 40
0.625
100
AcDbArc
 50
231.0844044438017
 51
340.000000000005
  0
LINE
  5
43D0
330
17
100
AcDbEntity
  8
0
100
AcDbLine
 10
509.1360960841003
 20
-57.79276696115215
 30
0.0
 11
510.3040601206668
 21
-54.58381214395039
 31
0.0
  0
ARC
  5
43D1
330
17
100
AcDbEntity
  8
0
100
AcDbCircle
 10
520.3270669588687
 20
-57.57900437157349
 30
0.0
 40
0.625
100
AcDbArc
 50
199.9999999999987
 51
308.9155955561984
  0
LINE
  5
43D2
330
17
100
AcDbEntity
  8
0
100
AcDbLine
 10
518.571795034311
 20
-54.58381214395007
 30
0.0
 11
519.7397590708776
 21
-57.79276696115215
 31
0.0
  0
ARC
  5
43D3
330
17
100
AcDbEntity
  8
0
100
AcDbCircle
 10
511.4231198256582
 20
-43.82883909910532
 30
0.0
 40
0.625
100
AcDbArc
 50
19.99999999999877
 51
115.0324134954958
  0
ARC
  5
43D4
330
17
100
AcDbEntity
  8
0
100
AcDbCircle
 10
514.4379275774888
 20
-50.28457757115386
 30
0.0
 40
7.75
100
AcDbArc
 50
115.0324134954958
 51
174.9675865044995
  0
ARC
  5
43D5
330
17
100
AcDbEntity
  8
0
100
AcDbCircle
 10
507.3403927942003
 20
-49.65957757115386
 30
0.0
 40
0.625
100
AcDbArc
 50
174.9675865044995
 51
270.0
  0
LINE
  5
43D6
330
17
100
AcDbEntity
  8
0
100
AcDbLine
 10
507.3403927942003
 20
-50.28457757115386
 30
0.0
 11
508.4736775774888
 21
-50.28457757115386
 31
0.0
  0
ARC
  5
43D7
330
17
100
AcDbEntity
  8
0
100
AcDbCircle
 10
514.4379275774888
 20
-50.28457757115386
 30
0.0
 40
7.75
100
AcDbArc
 50
5.032413495500457
 51
64.96758650450416
  0
ARC
  5
43D8
330
17
100
AcDbEntity
  8
0
100
AcDbCircle
 10
517.4527353293191
 20
-43.82883909910532
 30
0.0
 40
0.625
100
AcDbArc
 50
64.96758650450416
 51
160.0000000000012
  0
LINE
  5
43D9
330
17
100
AcDbEntity
  8
0
100
AcDbLine
 10
516.8654274413279
 20
-43.61507650952664
 30
0.0
 11
516.4778212173189
 21
-44.68001585763164
 31
0.0
  0
LINE
  5
43DA
330
17
100
AcDbEntity
  8
0
100
AcDbLine
 10
512.0104277136496
 20
-43.61507650952664
 30
0.0
 11
512.3980339376587
 21
-44.68001585763164
 31
0.0
  0
LINE
  5
43DB
330
17
100
AcDbEntity
  8
0
100
AcDbLine
 10
520.4021775774888
 20
-50.284577571154
 30
0.0
 11
521.5354623607769
 21
-50.28457757115409
 31
0.0
  0
ARC
  5
43DC
330
17
100
AcDbEntity
  8
0
100
AcDbCircle
 10
521.5354623607769
 20
-49.65957757115409
 30
0.0
 40
0.625
100
AcDbArc
 50
270.0
 51
5.032413495500457
  0
LINE
  5
43DD
330
17
100
AcDbEntity
  8
additional
  6
HIDDEN2
 48
0.5
100
AcDbLine
 10
520.2045792760483
 20
-48.76207757115405
 30
0.0
 11
515.9604275774889
 21
-48.76207757115405
 31
0.0
  0
LINE
  5
43DE
330
17
100
AcDbEntity
  8
additional
  6
HIDDEN2
 48
0.5
100
AcDbLine
 10
512.9154275774888
 20
-48.76207757115405
 30
0.0
 11
508.6712758789292
 21
-48.76207757115405
 31
0.0
  0
LINE
  5
43DF
330
17
100
AcDbEntity
  8
additional
  6
HIDDEN2
 48
0.5
100
AcDbLine
 10
520.2045792760483
 20
-51.80707757115379
 30
0.0
 11
515.9604275774889
 21
-51.80707757115379
 31
0.0
  0
LINE
  5
43E0
330
17
100
AcDbEntity
  8
additional
  6
HIDDEN2
 48
0.5
100
AcDbLine
 10
512.9154275774888
 20
-51.80707757115379
 30
0.0
 11
508.6712758789292
 21
-51.80707757115379
 31
0.0
  0
LINE
  5
43E1
330
17
100
AcDbEntity
  8
additional
  6
CENTER2
 48
0.5
100
AcDbLine
 10
514.4379275774888
 20
-25.70512423904501
 30
0.0
 11
514.4379275774888
 21
-73.53370737948051
 31
0.0
  0
LINE
  5
43E2
330
17
100
AcDbEntity
  8
additional
  6
CENTER2
 48
0.5
100
AcDbLine
 10
606.2418758947504
 20
-50.28457757115386
 30
0.0
 11
677.4276659312762
 21
-50.284577571154
 31
0.0
  0
LINE
  5
43E3
330
17
100
AcDbEntity
  8
0
 48
0.5
100
AcDbLine
 10
622.6379275774884
 20
-60.28457757115386
 30
0.0
 11
622.0179275774885
 21
-60.28457757115386
 31
0.0
  0
LINE
  5
43E4
330
17
100
AcDbEntity
  8
0
 48
0.5
100
AcDbLine
 10
668.8379275774882
 20
48.56385842240076
 30
0.0
 11
693.2358845231798
 21
48.56385842240078
 31
0.0
  0
LINE
  5
43E5
330
17
100
AcDbEntity
  8
0
 48
0.5
100
AcDbLine
 10
705.3549879960248
 20
47.06385842240072
 30
0.0
 11
695.2322462899177
 21
47.06385842240075
 31
0.0
  0
LINE
  5
43E6
330
17
100
AcDbEntity
  8
0
 48
0.5
100
AcDbLine
 10
705.3549879960248
 20
50.06385842240085
 30
0.0
 11
694.0997451026419
 21
50.06385842240081
 31
0.0
  0
LINE
  5
43E7
330
17
100
AcDbEntity
  8
0
 48
0.5
100
AcDbLine
 10
693.9822462899177
 20
47.06385842240075
 30
0.0
 11
668.8379275774882
 21
47.06385842240075
 31
0.0
  0
LINE
  5
43E8
330
17
100
AcDbEntity
  8
0
 48
0.5
100
AcDbLine
 10
694.4858845231798
 20
48.56385842240078
 30
0.0
 11
705.3549879960248
 21
48.56385842240078
 31
0.0
  0
LINE
  5
43E9
330
17
100
AcDbEntity
  8
0
 48
0.5
100
AcDbLine
 10
692.8497451026418
 20
50.06385842240081
 30
0.0
 11
668.8379275774882
 21
50.06385842240081
 31
0.0
  0
SPLINE
  5
43EA
330
17
100
AcDbEntity
  8
additional
 48
0.5
100
AcDbSpline
210
0.0
220
0.0
230
1.0
 70
     8
 71
     3
 72
    18
 73
    14
 74
    12
 42
0.0000000001
 43
0.0000000001
 44
0.0000000001
 40
0.0
 40
0.0
 40
0.0
 40
0.0
 40
0.5590169943749221
 40
1.118033988749894
 40
2.118033988749866
 40
2.677050983124813
 40
3.236067977499684
 40
3.795084971874785
 40
4.354101966249675
 40
5.854101966249654
 40
6.413118960624499
 40
6.972135954999523
 40
7.531152949374535
 40
7.531152949374535
 40
7.531152949374535
 40
7.531152949374535
 10
693.4753548041125
 20
45.08367093012987
 30
0.0
 10
693.55576172075
 20
45.25172769206472
 30
0.0
 10
693.7165755540254
 20
45.58784121593444
 30
0.0
 10
694.0877522527974
 20
46.19298260352621
 30
0.0
 10
694.0878629498889
 20
46.97438634428301
 30
0.0
 10
693.7163899093593
 20
47.5794382874056
 30
0.0
 10
693.4760483852041
 20
48.08391189294967
 30
0.0
 10
693.2315453744987
 20
48.58693972157531
 30
0.0
 10
692.7918688578699
 20
49.34159603359316
 30
0.0
 10
692.7913020189448
 20
50.32595349624986
 30
0.0
 10
693.2321791196832
 20
51.08011227103689
 30
0.0
 10
693.4736487252197
 20
51.58456059490318
 30
0.0
 10
693.6414527778149
 20
51.91730081838772
 30
0.0
 10
693.7253548041125
 20
52.08367093012999
 30
0.0
 11
693.4753548041125
 21
45.08367093012987
 31
0.0
 11
693.7253548041125
 21
45.58367093012984
 31
0.0
 11
693.9753548041124
 21
46.08367093012993
 31
0.0
 11
693.9753548041124
 21
47.0836709301299
 31
0.0
 11
693.7253548041125
 21
47.58367093012995
 31
0.0
 11
693.4753548041125
 21
48.08367093012987
 31
0.0
 11
693.2253548041122
 21
48.58367093012993
 31
0.0
 11
692.9753548041125
 21
49.08367093012998
 31
0.0
 11
692.9753548041125
 21
50.58367093012996
 31
0.0
 11
693.2253548041122
 21
51.08367093012995
 31
0.0
 11
693.4753548041125
 21
51.58367093012993
 31
0.0
 11
693.7253548041125
 21
52.08367093012999
 31
0.0
  0
SPLINE
  5
43EB
330
17
100
AcDbEntity
  8
additional
 48
0.5
100
AcDbSpline
210
0.0
220
0.0
230
1.0
 70
     8
 71
     3
 72
    18
 73
    14
 74
    12
 42
0.0000000001
 43
0.0000000001
 44
0.0000000001
 40
0.0
 40
0.0
 40
0.0
 40
0.0
 40
0.5590169943748204
 40
1.118033988749945
 40
2.118033988749917
 40
2.677050983125017
 40
3.236067977499786
 40
3.795084971874886
 40
4.354101966249777
 40
5.854101966249755
 40
6.413118960624601
 40
6.972135954999624
 40
7.531152949374534
 40
7.531152949374534
 40
7.531152949374534
 40
7.531152949374534
 10
694.7253548041125
 20
45.08367093012987
 30
0.0
 10
694.80576172075
 20
45.25172769206474
 30
0.0
 10
694.9665755540251
 20
45.58784121593459
 30
0.0
 10
695.3377522527975
 20
46.19298260352602
 30
0.0
 10
695.3378629498891
 20
46.9743863442832
 30
0.0
 10
694.9663899093591
 20
47.57943828740545
 30
0.0
 10
694.7260483852042
 20
48.08391189294975
 30
0.0
 10
694.4815453744988
 20
48.58693972157531
 30
0.0
 10
694.0418688578699
 20
49.34159603359316
 30
0.0
 10
694.0413020189451
 20
50.32595349624986
 30
0.0
 10
694.4821791196829
 20
51.08011227103689
 30
0.0
 10
694.7236487252198
 20
51.58456059490312
 30
0.0
 10
694.8914527778148
 20
51.91730081838771
 30
0.0
 10
694.9753548041122
 20
52.08367093012999
 30
0.0
 11
694.7253548041125
 21
45.08367093012987
 31
0.0
 11
694.9753548041122
 21
45.58367093012984
 31
0.0
 11
695.2253548041125
 21
46.08367093012993
 31
0.0
 11
695.2253548041125
 21
47.0836709301299
 31
0.0
 11
694.9753548041122
 21
47.58367093012995
 31
0.0
 11
694.7253548041125
 21
48.08367093012987
 31
0.0
 11
694.4753548041123
 21
48.58367093012993
 31
0.0
 11
694.2253548041125
 21
49.08367093012998
 31
0.0
 11
694.2253548041125
 21
50.58367093012996
 31
0.0
 11
694.4753548041123
 21
51.08367093012995
 31
0.0
 11
694.7253548041125
 21
51.58367093012993
 31
0.0
 11
694.9753548041122
 21
52.08367093012999
 31
0.0
  0
LINE
  5
43EC
330
17
100
AcDbEntity
  8
0
 48
0.5
100
AcDbLine
 10
705.3549879960248
 20
48.56385842240078
 30
0.0
 11
705.3549879960248
 21
47.06385842240072
 31
0.0
  0
LINE
  5
43ED
330
17
100
AcDbEntity
  8
0
 48
0.5
100
AcDbLine
 10
705.3549879960248
 20
48.56385842240078
 30
0.0
 11
705.3549879960248
 21
50.06385842240085
 31
0.0
  0
POINT
  5
43EE
330
17
100
AcDbEntity
  8
0
 48
0.5
100
AcDbPoint
 10
705.3549879960248
 20
50.06385842240085
 30
0.0
  0
POINT
  5
43EF
330
17
100
AcDbEntity
  8
0
 48
0.5
100
AcDbPoint
 10
705.3549879960248
 20
47.06385842240072
 30
0.0
  0
LINE
  5
43F0
330
17
100
AcDbEntity
  8
0
100
AcDbLine
 10
705.3549879960248
 20
47.43885842240072
 30
0.0
 11
712.354987996025
 21
47.43885842240072
 31
0.0
  0
LINE
  5
43F1
330
17
100
AcDbEntity
  8
0
100
AcDbLine
 10
705.3549879960248
 20
48.18885842240072
 30
0.0
 11
712.354987996025
 21
48.18885842240072
 31
0.0
  0
LINE
  5
43F2
330
17
100
AcDbEntity
  8
0
100
AcDbLine
 10
705.3549879960248
 20
48.93885842240072
 30
0.0
 11
712.354987996025
 21
48.93885842240072
 31
0.0
  0
LINE
  5
43F3
330
17
100
AcDbEntity
  8
0
100
AcDbLine
 10
705.3549879960248
 20
49.68885842240072
 30
0.0
 11
712.354987996025
 21
49.68885842240072
 31
0.0
  0
CIRCLE
  5
43F4
330
17
100
AcDbEntity
  8
0
 48
0.5
100
AcDbCircle
 10
664.6379275774884
 20
-40.28457757115389
 30
0.0
 40
1.25
  0
CIRCLE
  5
43F5
330
17
100
AcDbEntity
  8
additional
  6
HIDDEN2
 48
0.5
100
AcDbCircle
 10
664.6379275774884
 20
-40.28457757115389
 30
0.0
 40
1.5
  0
CIRCLE
  5
43F6
330
17
100
AcDbEntity
  8
0
 48
0.5
100
AcDbCircle
 10
634.6379275774884
 20
-40.28457757115385
 30
0.0
 40
1.25
  0
CIRCLE
  5
43F7
330
17
100
AcDbEntity
  8
additional
  6
HIDDEN2
 48
0.5
100
AcDbCircle
 10
634.6379275774884
 20
-40.28457757115385
 30
0.0
 40
1.5
  0
CIRCLE
  5
43F8
330
17
100
AcDbEntity
  8
0
 48
0.5
100
AcDbCircle
 10
634.6379275774884
 20
-60.28457757115386
 30
0.0
 40
1.25
  0
CIRCLE
  5
43F9
330
17
100
AcDbEntity
  8
additional
  6
HIDDEN2
 48
0.5
100
AcDbCircle
 10
634.6379275774884
 20
-60.28457757115386
 30
0.0
 40
1.5
  0
LINE
  5
43FA
330
17
100
AcDbEntity
  8
0
 48
0.5
100
AcDbLine
 10
668.8379275774882
 20
-32.28457757115388
 30
0.0
 11
668.8379275774882
 21
-30.28457757115689
 31
0.0
  0
LINE
  5
43FB
330
17
100
AcDbEntity
  8
0
 48
0.5
100
AcDbLine
 10
687.8082700217537
 20
-32.28457757115386
 30
0.0
 11
668.8379275774882
 21
-32.28457757115388
 31
0.0
  0
SPLINE
  5
43FC
330
17
100
AcDbEntity
  8
additional
 48
0.5
100
AcDbSpline
210
0.0
220
0.0
230
1.0
 70
     8
 71
     3
 72
    18
 73
    14
 74
    12
 42
0.0000000001
 43
0.0000000001
 44
0.0000000001
 40
0.0
 40
0.0
 40
0.0
 40
0.0
 40
0.5590169943749475
 40
1.118033988749894
 40
2.118033988749894
 40
2.677050983124842
 40
3.236067977499789
 40
3.795084971874734
 40
4.354101966249614
 40
5.854101966249632
 40
6.413118960624529
 40
6.972135954999476
 40
7.53115294937443
 40
7.53115294937443
 40
7.53115294937443
 40
7.53115294937443
 10
687.6773015175611
 20
-35.01476506342468
 30
0.0
 10
687.7577084341988
 20
-34.8467083014898
 30
0.0
 10
687.918522267474
 20
-34.51059477762006
 30
0.0
 10
688.2896989662461
 20
-33.90545339002843
 30
0.0
 10
688.2898096633376
 20
-33.12404964927153
 30
0.0
 10
687.9183366228081
 20
-32.51899770614901
 30
0.0
 10
687.6779950986526
 20
-32.01452410060497
 30
0.0
 10
687.433492087948
 20
-31.51149627197919
 30
0.0
 10
686.9938155713182
 20
-30.7568399599616
 30
0.0
 10
686.9932487323938
 20
-29.77248249730466
 30
0.0
 10
687.4341258331318
 20
-29.01832372251784
 30
0.0
 10
687.6755954386687
 20
-28.5138753986514
 30
0.0
 10
687.8433994912635
 20
-28.18113517516691
 30
0.0
 10
687.9273015175612
 20
-28.01476506342467
 30
0.0
 11
687.6773015175611
 21
-35.01476506342468
 31
0.0
 11
687.9273015175612
 21
-34.51476506342468
 31
0.0
 11
688.1773015175611
 21
-34.01476506342468
 31
0.0
 11
688.1773015175611
 21
-33.01476506342468
 31
0.0
 11
687.9273015175612
 21
-32.51476506342468
 31
0.0
 11
687.6773015175611
 21
-32.01476506342468
 31
0.0
 11
687.4273015175612
 21
-31.51476506342468
 31
0.0
 11
687.1773015175612
 21
-31.0147650634247
 31
0.0
 11
687.1773015175612
 21
-29.51476506342468
 31
0.0
 11
687.4273015175612
 21
-29.01476506342468
 31
0.0
 11
687.6773015175611
 21
-28.51476506342468
 31
0.0
 11
687.9273015175612
 21
-28.01476506342467
 31
0.0
  0
LINE
  5
43FD
330
17
100
AcDbEntity
  8
0
 48
0.5
100
AcDbLine
 10
687.1035244008742
 20
-30.78457757115385
 30
0.0
 11
668.8379275774882
 21
-30.78457757115385
 31
0.0
  0
LINE
  5
43FE
330
17
100
AcDbEntity
  8
0
100
AcDbLine
 10
672.6379275774884
 20
-47.53457757115397
 30
0.0
 11
673.1379275774884
 21
-47.53457757115397
 31
0.0
  0
LINE
  5
43FF
330
17
100
AcDbEntity
  8
0
100
AcDbLine
 10
673.1379275774884
 20
-47.53457757115397
 30
-0.0720273371595823
 11
673.1379275774884
 21
-53.03457757115399
 31
-0.0720273371595823
  0
LINE
  5
4400
330
17
100
AcDbEntity
  8
0
100
AcDbLine
 10
673.1379275774884
 20
-53.03457757115399
 30
0.0
 11
672.6379275774884
 21
-53.03457757115399
 31
0.0
  0
LINE
  5
4401
330
17
100
AcDbEntity
  8
0
100
AcDbLine
 10
672.6379275774884
 20
51.31385842240085
 30
0.0
 11
673.1379275774884
 21
51.31385842240085
 31
0.0
  0
LINE
  5
4402
330
17
100
AcDbEntity
  8
0
100
AcDbLine
 10
673.1379275774884
 20
51.31385842240085
 30
0.0
 11
673.1379275774884
 21
50.06385842240081
 31
0.0
  0
LINE
  5
4403
330
17
100
AcDbEntity
  8
0
100
AcDbLine
 10
673.1379275774884
 20
47.06385842240072
 30
0.0
 11
673.1379275774884
 21
45.81385842240083
 31
0.0
  0
LINE
  5
4404
330
17
100
AcDbEntity
  8
0
100
AcDbLine
 10
673.1379275774884
 20
45.81385842240083
 30
0.0
 11
672.6379275774884
 21
45.81385842240083
 31
0.0
  0
LINE
  5
4405
330
17
100
AcDbEntity
  8
additional
  6
CENTER2
 48
0.5
100
AcDbLine
 10
488.53943393198
 20
-50.28457757115383
 30
0.0
 11
540.5024583897711
 21
-50.28457757115388
 31
0.0
  0
LINE
  5
4406
330
17
100
AcDbEntity
  8
additional
  6
CENTER2
 48
0.5
100
AcDbLine
 10
606.2418758947504
 20
48.56385842240086
 30
0.0
 11
668.8379275774882
 21
48.56385842240076
 31
0.0
  0
LINE
  5
4407
330
17
100
AcDbEntity
  8
additional
  6
CENTER2
 48
0.5
100
AcDbLine
 10
669.0983947362504
 20
-60.2845775711539
 30
0.0
 11
630.1263786760909
 21
-60.28457757115386
 31
0.0
  0
LINE
  5
4408
330
17
100
AcDbEntity
  8
additional
  6
CENTER2
 48
0.5
100
AcDbLine
 10
664.6379275774884
 20
-36.28457757115385
 30
0.0
 11
664.6379275774884
 21
-64.28457757115385
 31
0.0
  0
DIMENSION
  5
4429
330
17
100
AcDbEntity
  8
Z_OM_DIM
100
AcDbDimension
  2
*D2
 10
610.7179275774882
 20
29.88918247279224
 30
0.0
 11
615.7179275774882
 21
31.76418247279224
 31
0.0
 70
    32
 71
     5
 42
10.0
  3
CatalogDxf
100
AcDbAlignedDimension
 13
620.7179275774882
 23
46.81385842240074
 33
0.0
 14
610.7179275774882
 24
43.09960842240076
 34
0.0
100
AcDbRotatedDimension
  0
DIMENSION
  5
4436
330
17
100
AcDbEntity
  8
Z_OM_DIM
100
AcDbDimension
  2
*D3
 10
672.6379275774884
 20
13.24034372058935
 30
0.0
 11
647.6379275774884
 21
15.11534372058935
 31
0.0
 70
    32
 71
     5
 42
50.0
  3
CatalogDxf
100
AcDbAlignedDimension
 13
622.6379275774884
 23
28.56385842240076
 33
0.0
 14
672.6379275774884
 24
30.91385842240078
 34
0.0
100
AcDbRotatedDimension
  0
DIMENSION
  5
4468
330
17
100
AcDbEntity
  8
Z_OM_DIM
100
AcDbDimension
  2
*D4
 10
613.7179275774879
 20
-14.56351952553416
 30
0.0
 11
604.2595942441549
 21
-14.56351952553416
 31
0.0
 70
   160
 71
     5
 42
2.999999999999658
  3
CatalogDxf
100
AcDbAlignedDimension
 13
610.7179275774882
 23
-44.82032757115399
 33
0.0
 14
613.7179275774879
 24
-40.49148043077771
 34
0.0000000000000107
100
AcDbRotatedDimension
  0
DIMENSION
  5
4477
330
17
100
AcDbEntity
  8
Z_OM_DIM
100
AcDbDimension
  2
*D5
 10
634.6379275774884
 20
-14.56351952553416
 30
0.0
 11
624.1779275774881
 21
-12.68851952553416
 31
0.0
 70
    32
  1
21
 71
     5
 42
20.92000000000053
  3
CatalogDxf
100
AcDbAlignedDimension
 13
613.7179275774879
 23
-40.49148043077771
 33
0.0000000000000107
 14
634.6379275774884
 24
-36.28457757115385
 34
0.0
100
AcDbRotatedDimension
1001
ACAD
1000
DSTYLE
1002
{
1070
   279
1070
     1
1002
}
  0
DIMENSION
  5
4484
330
17
100
AcDbEntity
  8
Z_OM_DIM
100
AcDbDimension
  2
*D6
 10
664.6379275774884
 20
-14.56351952553416
 30
0.0
 11
649.6379275774884
 21
-12.68851952553416
 31
0.0
 70
    32
 71
     5
 42
30.0
  3
CatalogDxf
100
AcDbAlignedDimension
 13
634.6379275774884
 23
-36.28457757115385
 33
0.0
 14
664.6379275774884
 24
-36.28457757115385
 34
0.0
100
AcDbRotatedDimension
1001
ACAD
1000
DSTYLE
1002
{
1070
   279
1070
     1
1002
}
  0
DIMENSION
  5
449A
330
17
100
AcDbEntity
  8
Z_OM_DIM
100
AcDbDimension
  2
*D7
 10
690.1886582439287
 20
-60.2845775711539
 30
0.0
 11
688.3136582439286
 21
-50.28457757115377
 31
0.0
 70
    32
 71
     5
 42
20.00000000000004
  3
CatalogDxf
100
AcDbAlignedDimension
 13
669.0983947362504
 23
-40.28457757115385
 33
0.0
 14
669.0983947362504
 24
-60.2845775711539
 34
0.0
 50
90.0
100
AcDbRotatedDimension
  0
DIMENSION
  5
44A7
330
17
100
AcDbEntity
  8
Z_OM_DIM
100
AcDbDimension
  2
*D8
 10
622.6379275774884
 20
-22.8051189331415
 30
0.0
 11
628.6379275774883
 21
-20.9301189331415
 31
0.0
 70
    32
 71
     5
 42
12.0
  3
CatalogDxf
100
AcDbAlignedDimension
 13
634.6379275774884
 23
-36.28457757115385
 33
0.0
 14
622.6379275774884
 24
-32.28457757115388
 34
0.0
100
AcDbRotatedDimension
  0
DIMENSION
  5
44B4
330
17
100
AcDbEntity
  8
Z_OM_DIM
100
AcDbDimension
  2
*D9
 10
554.2975260634275
 20
-68.28457757115389
 30
0.0
 11
552.4225260634275
 21
-50.28457757115379
 31
0.0
 70
    32
 71
     5
 42
36.0
  3
CatalogDxf
100
AcDbAlignedDimension
 13
534.4379275774888
 23
-32.28457757115388
 33
0.0
 14
534.4379275774888
 24
-68.28457757115387
 34
0.0
 50
90.0
100
AcDbRotatedDimension
  0
DIMENSION
  5
44C1
330
17
100
AcDbEntity
  8
Z_OM_DIM
100
AcDbDimension
  2
*D10
 10
534.4379275774888
 20
-85.68959559037017
 30
0.0
 11
514.4379275774888
 21
-83.81459559037017
 31
0.0
 70
    32
 71
     5
 42
40.00000000000011
  3
CatalogDxf
100
AcDbAlignedDimension
 13
494.4379275774887
 23
-67.81013868528117
 33
0.0
 14
534.4379275774888
 24
-67.81013868528126
 34
0.0
100
AcDbRotatedDimension
  0
DIMENSION
  5
462B
330
17
100
AcDbEntity
  8
Z_OM_DIM
100
AcDbDimension
  2
*D11
 10
597.7067213609946
 20
-56.24882757115397
 30
0.0
 11
595.8317213609945
 21
-50.28457757115388
 31
0.0
 70
    32
  1
%%c12
 71
     5
 42
11.92849999999996
  3
CatalogDxf
100
AcDbAlignedDimension
 13
611.2179275774884
 23
-44.320327571154
 33
0.0
 14
611.2179275774884
 24
-56.24882757115397
 34
0.0
 50
90.0
100
AcDbRotatedDimension
  0
MTEXT
  5
4880
330
17
100
AcDbEntity
  8
Z_OM_DIM
100
AcDbMText
 10
478.8994443087321
 20
66.26213262823156
 30
0.0
 40
2.5
 41
55.05470222497272
 71
     1
 72
     1
  1
{\H1.2x;Adsorbed position}
  7
CatalogDxf
 73
     1
 44
1.0
1001
ACAD
1000
MTEXTBEGIN
1070
    73
1070
     1
1070
    44
1040
1.0
1070
    74
1070
     0
1000
MTEXTEND
  0
MTEXT
  5
4C20
330
17
100
AcDbEntity
  8
Z_OM_DIM
100
AcDbMText
 10
687.9514501521698
 20
61.49480214316707
 30
0.0
 40
2.5
 41
42.8494883882687
 71
     7
 72
     1
  1
UL1007 AWG22 white
  7
CatalogDxf
 73
     1
 44
1.0
1001
ACAD
1000
MTEXTBEGIN
1070
    73
1070
     1
1070
    44
1040
1.0
1070
    74
1070
     0
1000
MTEXTEND
1000
ACAD_MTEXT_DEFINED_HEIGHT_BEGIN
1070
    46
1040
2.500000000000004
1000
ACAD_MTEXT_DEFINED_HEIGHT_END
  0
LEADER
  5
4C21
330
17
100
AcDbEntity
  8
Z_OM_DIM
100
AcDbLeader
  3
ISO-25
 76
     3
 10
680.8438363400649
 20
50.06385842240081
 30
0.0
 10
687.3873406584102
 20
60.86980214316707
 30
0.0
 10
728.7456307305284
 20
60.86980214316707
 30
0.0
1001
ACAD
1000
DSTYLE
1002
{
1070
   341
1005
977
1070
   147
1040
0.625
1070
    77
1070
     0
1002
}
  0
LEADER
  5
4C2A
330
17
100
AcDbEntity
  8
Z_OM_DIM
100
AcDbLeader
  3
ISO-25
 76
     3
 10
665.4103635792175
 20
-61.57040128505589
 30
0.0
 10
674.5709582439412
 20
-76.81944434749606
 30
0.0
 10
699.7407319610298
 20
-76.81944434749606
 30
0.0
1001
ACAD
1000
DSTYLE
1002
{
1070
   341
1005
977
1070
   147
1040
0.625
1070
    77
1070
     0
1002
}
  0
MTEXT
  5
4C2B
330
17
100
AcDbEntity
  8
Z_OM_DIM
100
AcDbMText
 10
675.7449562479109
 20
-76.85994126218218
 30
0.0
 40
2.5
 41
24.05930144544266
 71
     4
 72
     1
  1
4-M3\Pboth faces
  7
CatalogDxf
 73
     1
 44
1.0
1001
ACAD
1000
MTEXTBEGIN
1070
    73
1070
     1
1070
    44
1040
1.0
1070
    74
1070
     0
1000
MTEXTEND
  0
MTEXT
  5
4C34
330
17
100
AcDbEntity
  8
Z_OM_DIM
100
AcDbMText
 10
602.9657328869116
 20
-67.67457445736456
 30
0.0
 40
2.5
 41
4.580851048175643
 71
     7
 72
     1
  1
%%C3
  7
CatalogDxf
 73
     1
 44
1.0
1001
ACAD
1000
MTEXTBEGIN
1070
    73
1070
     1
1070
    44
1040
1.0
1070
    74
1070
     0
1000
MTEXTEND
  0
LEADER
  5
4C35
330
17
100
AcDbEntity
  8
Z_OM_DIM
100
AcDbLeader
  3
ISO-25
 76
     3
 10
613.2852274221078
 20
-51.74429563486824
 30
0.0
 10
608.3541966053838
 20
-68.37917469927187
 30
0.0
 10
601.8267080358525
 20
-68.37917469927187
 30
0.0
211
-1.0
221
0.0
231
0.0
1001
ACAD
1000
DSTYLE
1002
{
1070
   341
1005
977
1070
   147
1040
0.625
1070
    77
1070
     0
1002
}
  0
DIMENSION
  5
4C36
330
17
100
AcDbEntity
  8
Z_OM_DIM
100
AcDbDimension
  2
*D12
 10
712.354987996025
 20
13.24034372058878
 30
0.0
 11
692.4964577867565
 21
15.11534372058878
 31
0.0
 70
    32
  1
180 - 200
 71
     5
 42
39.71706041853691
  3
CatalogDxf
100
AcDbAlignedDimension
 13
672.637927577488
 23
30.56385842240004
 33
0.0
 14
712.354987996025
 24
47.43885842239953
 34
0.0
 50
359.9999999999992
100
AcDbRotatedDimension
  0
DIMENSION
  5
4D58
330
17
100
AcDbEntity
  8
Z_OM_DIM
100
AcDbDimension
  2
*D13
 10
597.7067213609946
 20
50.31385842240077
 30
0.0
 11
595.8317213609945
 21
58.43885842240087
 31
0.0
 70
    32
 71
     5
 42
3.500000000000028
  3
CatalogDxf
100
AcDbAlignedDimension
 13
610.7179275774882
 23
46.81385842240074
 33
0.0
 14
610.7179275774882
 24
50.31385842240077
 34
0.0
 50
90.0
100
AcDbRotatedDimension
  0
VIEWPORT
  5
4546
102
{ACAD_XDICTIONARY
360
4F09
102
}
330
14
100
AcDbEntity
 67
     1
  8
0
100
AcDbViewport
 10
5.721666831669843
 20
4.009166749443592
 30
0.0
 40
13.44055004106892
 41
8.747896837850252
 68
     1
 69
     1
 12
5.721666831669843
 22
4.009166749443592
 13
0.0
 23
0.0
 14
10.0
 24
10.0
 15
10.0
 25
10.0
 16
0.0
 26
0.0
 36
1.0
 17
0.0
 27
0.0
 37
0.0
 42
50.0
 43
0.0
 44
0.0
 45
8.747896837850252
 50
0.0
 51
0.0
 72
   100
 90
   819232
  1

281
     0
 71
     1
 74
     0
110
0.0
120
0.0
130
0.0
111
1.0
121
0.0
131
0.0
112
0.0
122
1.0
132
0.0
 79
     0
146
0.0
  0
ENDSEC
  0
SECTION
  2
OBJECTS
  0
DICTIONARY
  5
C
330
0
100
AcDbDictionary
281
     1
  3
ACAD_2007HEADERVARS_RT
350
4F00
  3
ACAD_COLOR
350
3D57
  3
ACAD_GROUP
350
D
  3
ACAD_LAYOUT
350
3D5A
  3
ACAD_MATERIAL
350
3D42
  3
ACAD_MLINESTYLE
350
1A
  3
ACAD_PLOTSETTINGS
350
957
  3
ACAD_PLOTSTYLENAME
350
3D40
  3
ACAD_TABLESTYLE
350
3D58
  3
ACAD_VISUALSTYLE
350
3D46
  3
AcadDim
350
45BB
  3
ACDBHEADERROUNDTRIPXREC
350
4E7F
  3
AcDbVariableDictionary
350
4116
  3
DWGPROPS
350
4EFF
1001
ACAD
1000
TREAT_AS_HARD
1070
     0
  0
DICTIONARY
  5
3DBA
330
2
100
AcDbDictionary
280
     1
281
     1
  3
ACAD_LAYERFILTERS
360
46E5
  3
ACAD_LAYERSTATES
360
3DBB
  3
ACLYDICTIONARY
360
46E4
  0
DICTIONARY
  5
1808
330
17
100
AcDbDictionary
280
     1
281
     1
  3
ACAD_LAYOUTSELFREF
360
3D3B
1001
ACAD
1000
TREAT_AS_HARD
1070
     1
  0
DICTIONARY
  5
1806
330
14
100
AcDbDictionary
280
     1
281
     1
  3
ACAD_LAYOUTSELFREF
360
3D3A
1001
ACAD
1000
TREAT_AS_HARD
1070
     1
  0
DICTIONARY
  5
4F09
330
4546
100
AcDbDictionary
280
     1
281
     1
  3
ACAD_XREC_ROUNDTRIP
360
4F0A
  0
DICTIONARY
  5
4F00
102
{ACAD_REACTORS
330
C
102
}
330
C
100
AcDbDictionary
281
     1
  3
DIMLTEX1
350
4F02
  3
DIMLTEX2
350
4F03
  3
DIMLTYPE
350
4F01
  0
DICTIONARY
  5
3D57
102
{ACAD_REACTORS
330
C
102
}
330
C
100
AcDbDictionary
281
     1
  0
DICTIONARY
  5
D
102
{ACAD_REACTORS
330
C
102
}
330
C
100
AcDbDictionary
281
     1
1001
ACAD
1000
TREAT_AS_HARD
1070
     0
  0
DICTIONARY
  5
3D5A
102
{ACAD_REACTORS
330
C
102
}
330
C
100
AcDbDictionary
281
     1
  3
Model
350
3D5B
  3
レイアウト1
350
3D5C
  0
DICTIONARY
  5
3D42
102
{ACAD_REACTORS
330
C
102
}
330
C
100
AcDbDictionary
281
     1
  3
ByBlock
350
3D44
  3
ByLayer
350
3D43
  3
Global
350
3D45
  0
DICTIONARY
  5
1A
102
{ACAD_REACTORS
330
C
102
}
330
C
100
AcDbDictionary
281
     1
  3
STANDARD
350
1B
1001
ACAD
1000
TREAT_AS_HARD
1070
     0
  0
DICTIONARY
  5
957
102
{ACAD_REACTORS
330
C
102
}
330
C
100
AcDbDictionary
281
     1
1001
ACAD
1000
TREAT_AS_HARD
1070
     0
  0
ACDBDICTIONARYWDFLT
  5
3D40
102
{ACAD_REACTORS
330
C
102
}
330
C
100
AcDbDictionary
281
     1
  3
Normal
350
3D41
100
AcDbDictionaryWithDefault
340
3D41
  0
DICTIONARY
  5
3D58
102
{ACAD_REACTORS
330
C
102
}
330
C
100
AcDbDictionary
281
     1
  3
Standard
350
3D59
  0
DICTIONARY
  5
3D46
102
{ACAD_REACTORS
330
C
102
}
330
C
100
AcDbDictionary
281
     1
  3
2dWireframe
350
3D4C
  3
3D Hidden
350
3D4E
  3
3dWireframe
350
3D4D
  3
Basic
350
3D4B
  3
Brighten
350
3D52
  3
ColorChange
350
3D56
  3
Conceptual
350
3D4F
  3
Dim
350
3D51
  3
Facepattern
350
3D55
  3
Flat
350
3D47
  3
FlatWithEdges
350
3D48
  3
Gouraud
350
3D49
  3
GouraudWithEdges
350
3D4A
  3
Linepattern
350
3D54
  3
Realistic
350
3D50
  3
Thicken
350
3D53
  0
XRECORD
  5
45BB
102
{ACAD_REACTORS
330
C
102
}
330
C
100
AcDbXrecord
280
     1
 90
   990106
  3

 60
     0
 61
     0
 62
     4
 63
     4
 64
     1
 65
     0
 66
     0
 67
     2
 68
     1
 69
     0
 70
     0
 71
     0
 72
     0
 40
30.69471811770893
170
     2
340
0
  0
DICTIONARY
  5
4E7F
102
{ACAD_REACTORS
330
C
102
}
330
C
100
AcDbDictionary
281
     1
  0
DICTIONARY
  5
4116
102
{ACAD_REACTORS
330
C
102
}
330
C
100
AcDbDictionary
281
     1
  3
CTABLESTYLE
350
4117
  3
DIMASSOC
350
4E7B
  3
INDEXCTL
350
4EFC
  3
LOFTANG1
350
4EFD
  3
LOFTANG2
350
4EFE
  3
PROJECTNAME
350
4E7C
  3
SORTENTS
350
4EFB
  0
XRECORD
  5
4EFF
102
{ACAD_REACTORS
330
C
102
}
330
C
100
AcDbXrecord
280
     1
  1
DWGPROPS COOKIE
  2

  3

  4

  6

  7

  8
yakata
  9

300
=
301
=
302
=
303
=
304
=
305
=
306
=
307
=
308
=
309
=
 40
0.6087837615740741
 41
2455090.761732894
 42
2455678.618182002
  1

 90
        0
  0
DICTIONARY
  5
46E5
102
{ACAD_REACTORS
330
3DBA
102
}
330
3DBA
100
AcDbDictionary
281
     1
  0
DICTIONARY
  5
3DBB
102
{ACAD_REACTORS
330
3DBA
102
}
330
3DBA
100
AcDbDictionary
281
     1
  0
DICTIONARY
  5
46E4
102
{ACAD_REACTORS
330
3DBA
102
}
330
3DBA
100
AcDbDictionary
281
     1
1001
ACAD
1000
<AllUsed
  0
XRECORD
  5
3D3B
102
{ACAD_REACTORS
330
1808
102
}
330
1808
100
AcDbXrecord
280
     1
340
17
  0
XRECORD
  5
3D3A
102
{ACAD_REACTORS
330
1806
102
}
330
1806
100
AcDbXrecord
280
     1
340
14
  0
XRECORD
  5
4F0A
102
{ACAD_REACTORS
330
4F09
102
}
330
4F09
100
AcDbXrecord
280
     1
102
SHADEPLOT
 70
     0
  0
XRECORD
  5
4F02
102
{ACAD_REACTORS
330
4F00
102
}
330
4F00
100
AcDbXrecord
280
     1
340
12
  0
XRECORD
  5
4F03
102
{ACAD_REACTORS
330
4F00
102
}
330
4F00
100
AcDbXrecord
280
     1
340
12
  0
XRECORD
  5
4F01
102
{ACAD_REACTORS
330
4F00
102
}
330
4F00
100
AcDbXrecord
280
     1
340
12
  0
LAYOUT
  5
3D5B
102
{ACAD_XDICTIONARY
360
4F06
102
}
102
{ACAD_REACTORS
330
3D5A
102
}
330
3D5A
100
AcDbPlotSettings
  1

  2
none_device
  4
Letter_(8.50_x_11.00_Inches)
  6

 40
6.349999904632567
 41
6.349999904632567
 42
6.350006103515625
 43
6.350006103515625
 44
215.8999938964844
 45
279.3999938964844
 46
-8.949461114127784
 47
-119.694766303338
 48
0.0
 49
0.0
140
0.0
141
0.0
142
1.0
143
32.4866
 70
 11940
 72
     0
 73
     1
 74
     0
  7
monochrome.ctb
 75
     0
147
0.0307819223926173
148
-8250.103257834389
149
4220.286516937693
100
AcDbLayout
  1
Model
 70
     1
 71
     0
 10
0.0
 20
0.0
 11
12.0
 21
9.0
 12
0.0
 22
0.0
 32
0.0
 14
0.0
 24
0.0
 34
0.0
 15
0.0
 25
0.0
 35
0.0
146
0.0
 13
0.0
 23
0.0
 33
0.0
 16
1.0
 26
0.0
 36
0.0
 17
0.0
 27
1.0
 37
0.0
 76
     0
330
17
331
4E7D
1001
ACAD_PSEXT
1000
なし
1000
なし
1000
適切ではありません
1000
新しいプロッタ環境設定名を選択しない限り、レイアウトは印刷されません。
1070
     0
  0
LAYOUT
  5
3D5C
102
{ACAD_XDICTIONARY
360
454B
102
}
102
{ACAD_REACTORS
330
3D5A
102
}
330
3D5A
100
AcDbPlotSettings
  1

  2
Microsoft XPS Document Writer
  4
A4
  6

 40
3.174999952316281
 41
3.174999952316281
 42
3.175003051757812
 43
3.17498779296875
 44
210.0156707763672
 45
297.0106506347656
 46
0.0
 47
0.0
 48
0.0
 49
0.0
140
0.0
141
0.0
142
1.0
143
1.0
 70
   688
 72
     0
 73
     1
 74
     5
  7
monochrome.ctb
 75
    16
147
1.0
148
0.0
149
0.0
100
AcDbLayout
  1
レイアウト1
 70
     1
 71
     1
 10
-0.1249995194082185
 20
-0.1249999981226884
 11
11.56833318274791
 21
8.143333497009875
 12
0.0
 22
0.0
 32
0.0
 14
1.000000000000000E+20
 24
1.000000000000000E+20
 34
1.000000000000000E+20
 15
-1.000000000000000E+20
 25
-1.000000000000000E+20
 35
-1.000000000000000E+20
146
0.0
 13
0.0
 23
0.0
 33
0.0
 16
1.0
 26
0.0
 36
0.0
 17
0.0
 27
1.0
 37
0.0
 76
     0
330
14
331
4546
1001
ACAD_PSEXT
1000
Microsoft XPS Document Writer
1000
Microsoft XPS Document Writer
1000
XPSPort:
1000

1070
     0
  0
MATERIAL
  5
3D44
102
{ACAD_XDICTIONARY
360
419D
102
}
102
{ACAD_REACTORS
330
3D42
102
}
330
3D42
100
AcDbMaterial
  1
ByBlock
  0
MATERIAL
  5
3D43
102
{ACAD_XDICTIONARY
360
419B
102
}
102
{ACAD_REACTORS
330
3D42
102
}
330
3D42
100
AcDbMaterial
  1
ByLayer
  0
MATERIAL
  5
3D45
102
{ACAD_XDICTIONARY
360
419F
102
}
102
{ACAD_REACTORS
330
3D42
102
}
330
3D42
100
AcDbMaterial
  1
Global
  0
MLINESTYLE
  5
1B
102
{ACAD_REACTORS
330
1A
102
}
330
1A
100
AcDbMlineStyle
  2
STANDARD
 70
     0
  3

 62
   256
 51
90.0
 52
90.0
 71
     2
 49
0.5
 62
   256
  6
BYLAYER
 49
-0.5
 62
   256
  6
BYLAYER
  0
ACDBPLACEHOLDER
  5
3D41
102
{ACAD_REACTORS
330
3D40
102
}
330
3D40
  0
TABLESTYLE
  5
3D59
102
{ACAD_XDICTIONARY
360
4F04
102
}
102
{ACAD_REACTORS
330
3D58
102
}
330
3D58
100
AcDbTableStyle
  3
Standard
 70
     0
 71
     0
 40
0.06
 41
0.06
280
     0
281
     0
  7
STANDARD
140
0.18
170
     2
 62
     0
 63
     7
283
     0
274
    -2
284
     1
 64
     0
275
    -2
285
     1
 65
     0
276
    -2
286
     1
 66
     0
277
    -2
287
     1
 67
     0
278
    -2
288
     1
 68
     0
279
    -2
289
     1
 69
     0
  7
STANDARD
140
0.25
170
     5
 62
     0
 63
     7
283
     0
274
    -2
284
     1
 64
     0
275
    -2
285
     1
 65
     0
276
    -2
286
     1
 66
     0
277
    -2
287
     1
 67
     0
278
    -2
288
     1
 68
     0
279
    -2
289
     1
 69
     0
  7
STANDARD
140
0.18
170
     5
 62
     0
 63
     7
283
     0
274
    -2
284
     1
 64
     0
275
    -2
285
     1
 65
     0
276
    -2
286
     1
 66
     0
277
    -2
287
     1
 67
     0
278
    -2
288
     1
 68
     0
279
    -2
289
     1
 69
     0
  0
VISUALSTYLE
  5
3D4C
102
{ACAD_REACTORS
330
3D46
102
}
330
3D46
100
AcDbVisualStyle
  2
2dWireframe
 70
     4
 71
     0
 72
     2
 73
     0
 90
        0
 40
-0.6
 41
-30.0
 62
     5
 63
     7
 74
     1
 91
        4
 64
     7
 65
   257
 75
     1
175
     1
 42
1.0
 92
        0
 66
   257
 43
1.0
 76
     1
 77
     6
 78
     2
 67
     7
 79
     5
170
     0
171
     0
290
     0
174
     0
 93
        1
 44
0.0
173
     0
291
     0
 45
0.0
1001
ACAD
1000
AcDbSavedByObjectVersion
1070
     0
1000
AcDbSavedByObjectVersion
1070
     0
1000
AcDbSavedByObjectVersion
1070
     0
1000
AcDbSavedByObjectVersion
1070
     0
1000
AcDbSavedByObjectVersion
1070
     0
1000
AcDbSavedByObjectVersion
1070
     0
1000
AcDbSavedByObjectVersion
1070
     0
1000
AcDbSavedByObjectVersion
1070
     0
1000
AcDbSavedByObjectVersion
1070
     0
1000
AcDbSavedByObjectVersion
1070
     0
1000
AcRTDxfName
1000
VISUALSTYLE
1000
AcDbSavedByObjectVersion
1070
     0
  0
VISUALSTYLE
  5
3D4E
102
{ACAD_REACTORS
330
3D46
102
}
330
3D46
100
AcDbVisualStyle
  2
3D Hidden
 70
     6
 71
     1
 72
     2
 73
     2
 90
        0
 40
-0.6
 41
-30.0
 62
     5
 63
     7
 74
     2
 91
        2
 64
     7
 65
   257
 75
     2
175
     1
 42
40.0
 92
        0
 66
   257
 43
1.0
 76
     1
 77
     6
 78
     2
 67
     7
 79
     3
170
     0
171
     0
290
     0
174
     0
 93
        1
 44
0.0
173
     0
291
     0
 45
0.0
1001
ACAD
1000
AcDbSavedByObjectVersion
1070
     0
1000
AcDbSavedByObjectVersion
1070
     0
1000
AcDbSavedByObjectVersion
1070
     0
1000
AcDbSavedByObjectVersion
1070
     0
1000
AcDbSavedByObjectVersion
1070
     0
1000
AcDbSavedByObjectVersion
1070
     0
1000
AcDbSavedByObjectVersion
1070
     0
1000
AcDbSavedByObjectVersion
1070
     0
1000
AcDbSavedByObjectVersion
1070
     0
1000
AcDbSavedByObjectVersion
1070
     0
1000
AcRTDxfName
1000
VISUALSTYLE
1000
AcDbSavedByObjectVersion
1070
     0
  0
VISUALSTYLE
  5
3D4D
102
{ACAD_REACTORS
330
3D46
102
}
330
3D46
100
AcDbVisualStyle
  2
3dWireframe
 70
     5
 71
     0
 72
     2
 73
     0
 90
        0
 40
-0.6
 41
-30.0
 62
     5
 63
     7
 74
     1
 91
        4
 64
     7
 65
   257
 75
     1
175
     1
 42
1.0
 92
        0
 66
   257
 43
1.0
 76
     1
 77
     6
 78
     2
 67
     7
 79
     5
170
     0
171
     0
290
     0
174
     0
 93
        1
 44
0.0
173
     0
291
     0
 45
0.0
1001
ACAD
1000
AcDbSavedByObjectVersion
1070
     0
1000
AcDbSavedByObjectVersion
1070
     0
1000
AcDbSavedByObjectVersion
1070
     0
1000
AcDbSavedByObjectVersion
1070
     0
1000
AcDbSavedByObjectVersion
1070
     0
1000
AcDbSavedByObjectVersion
1070
     0
1000
AcDbSavedByObjectVersion
1070
     0
1000
AcDbSavedByObjectVersion
1070
     0
1000
AcDbSavedByObjectVersion
1070
     0
1000
AcDbSavedByObjectVersion
1070
     0
1000
AcRTDxfName
1000
VISUALSTYLE
1000
AcDbSavedByObjectVersion
1070
     0
  0
VISUALSTYLE
  5
3D4B
102
{ACAD_REACTORS
330
3D46
102
}
330
3D46
100
AcDbVisualStyle
  2
Basic
 70
     7
 71
     1
 72
     0
 73
     1
 90
        0
 40
-0.6
 41
-30.0
 62
     5
 63
     7
 74
     0
 91
        4
 64
     7
 65
   257
 75
     1
175
     1
 42
1.0
 92
        8
 66
     7
 43
1.0
 76
     1
 77
     6
 78
     2
 67
     7
 79
     5
170
     0
171
     0
290
     0
174
     0
 93
        1
 44
0.0
173
     0
291
     1
 45
0.0
1001
ACAD
1000
AcDbSavedByObjectVersion
1070
     0
1000
AcDbSavedByObjectVersion
1070
     0
1000
AcDbSavedByObjectVersion
1070
     0
1000
AcDbSavedByObjectVersion
1070
     0
1000
AcDbSavedByObjectVersion
1070
     0
1000
AcDbSavedByObjectVersion
1070
     0
1000
AcDbSavedByObjectVersion
1070
     0
1000
AcDbSavedByObjectVersion
1070
     0
1000
AcDbSavedByObjectVersion
1070
     0
1000
AcDbSavedByObjectVersion
1070
     0
1000
AcRTDxfName
1000
VISUALSTYLE
1000
AcDbSavedByObjectVersion
1070
     0
  0
VISUALSTYLE
  5
3D52
102
{ACAD_REACTORS
330
3D46
102
}
330
3D46
100
AcDbVisualStyle
  2
Brighten
 70
    12
 71
     2
 72
     2
 73
     0
 90
        0
 40
-0.6
 41
-30.0
 62
     5
 63
     7
 74
     1
 91
        4
 64
     7
 65
   257
 75
     1
175
     1
 42
1.0
 92
        8
 66
     7
 43
1.0
 76
     1
 77
     6
 78
     2
 67
     7
 79
     5
170
     0
171
     0
290
     0
174
     0
 93
        1
 44
50.0
173
     0
291
     1
 45
0.0
1001
ACAD
1000
AcDbSavedByObjectVersion
1070
     0
1000
AcDbSavedByObjectVersion
1070
     0
1000
AcDbSavedByObjectVersion
1070
     0
1000
AcDbSavedByObjectVersion
1070
     0
1000
AcDbSavedByObjectVersion
1070
     0
1000
AcDbSavedByObjectVersion
1070
     0
1000
AcDbSavedByObjectVersion
1070
     0
1000
AcDbSavedByObjectVersion
1070
     0
1000
AcDbSavedByObjectVersion
1070
     0
1000
AcDbSavedByObjectVersion
1070
     0
1000
AcRTDxfName
1000
VISUALSTYLE
1000
AcDbSavedByObjectVersion
1070
     0
  0
VISUALSTYLE
  5
3D56
102
{ACAD_REACTORS
330
3D46
102
}
330
3D46
100
AcDbVisualStyle
  2
ColorChange
 70
    16
 71
     2
 72
     2
 73
     3
 90
        0
 40
-0.6
 41
-30.0
 62
     5
 63
     8
 74
     1
 91
        4
 64
     7
 65
   257
 75
     1
175
     1
 42
1.0
 92
        8
 66
     8
 43
1.0
 76
     1
 77
     6
 78
     2
 67
     7
 79
     5
170
     0
171
     0
290
     0
174
     0
 93
        1
 44
0.0
173
     0
291
     1
 45
0.0
1001
ACAD
1000
AcDbSavedByObjectVersion
1070
     0
1000
AcDbSavedByObjectVersion
1070
     0
1000
AcDbSavedByObjectVersion
1070
     0
1000
AcDbSavedByObjectVersion
1070
     0
1000
AcDbSavedByObjectVersion
1070
     0
1000
AcDbSavedByObjectVersion
1070
     0
1000
AcDbSavedByObjectVersion
1070
     0
1000
AcDbSavedByObjectVersion
1070
     0
1000
AcDbSavedByObjectVersion
1070
     0
1000
AcDbSavedByObjectVersion
1070
     0
1000
AcRTDxfName
1000
VISUALSTYLE
1000
AcDbSavedByObjectVersion
1070
     0
  0
VISUALSTYLE
  5
3D4F
102
{ACAD_REACTORS
330
3D46
102
}
330
3D46
100
AcDbVisualStyle
  2
Conceptual
 70
     9
 71
     3
 72
     2
 73
     0
 90
        0
 40
-0.6
 41
-30.0
 62
     5
 63
     7
 74
     2
 91
        2
 64
     7
 65
   257
 75
     1
175
     1
 42
40.0
 92
        8
 66
     7
 43
1.0
 76
     1
 77
     6
 78
     2
 67
     7
 79
     3
170
     0
171
     0
290
     0
174
     0
 93
        1
 44
0.0
173
     0
291
     0
 45
0.0
1001
ACAD
1000
AcDbSavedByObjectVersion
1070
     0
1000
AcDbSavedByObjectVersion
1070
     0
1000
AcDbSavedByObjectVersion
1070
     0
1000
AcDbSavedByObjectVersion
1070
     0
1000
AcDbSavedByObjectVersion
1070
     0
1000
AcDbSavedByObjectVersion
1070
     0
1000
AcDbSavedByObjectVersion
1070
     0
1000
AcDbSavedByObjectVersion
1070
     0
1000
AcDbSavedByObjectVersion
1070
     0
1000
AcDbSavedByObjectVersion
1070
     0
1000
AcRTDxfName
1000
VISUALSTYLE
1000
AcDbSavedByObjectVersion
1070
     0
  0
VISUALSTYLE
  5
3D51
102
{ACAD_REACTORS
330
3D46
102
}
330
3D46
100
AcDbVisualStyle
  2
Dim
 70
    11
 71
     2
 72
     2
 73
     0
 90
        0
 40
-0.6
 41
-30.0
 62
     5
 63
     7
 74
     1
 91
        4
 64
     7
 65
   257
 75
     1
175
     1
 42
1.0
 92
        8
 66
     7
 43
1.0
 76
     1
 77
     6
 78
     2
 67
     7
 79
     5
170
     0
171
     0
290
     0
174
     0
 93
        1
 44
-50.0
173
     0
291
     1
 45
0.0
1001
ACAD
1000
AcDbSavedByObjectVersion
1070
     0
1000
AcDbSavedByObjectVersion
1070
     0
1000
AcDbSavedByObjectVersion
1070
     0
1000
AcDbSavedByObjectVersion
1070
     0
1000
AcDbSavedByObjectVersion
1070
     0
1000
AcDbSavedByObjectVersion
1070
     0
1000
AcDbSavedByObjectVersion
1070
     0
1000
AcDbSavedByObjectVersion
1070
     0
1000
AcDbSavedByObjectVersion
1070
     0
1000
AcDbSavedByObjectVersion
1070
     0
1000
AcRTDxfName
1000
VISUALSTYLE
1000
AcDbSavedByObjectVersion
1070
     0
  0
VISUALSTYLE
  5
3D55
102
{ACAD_REACTORS
330
3D46
102
}
330
3D46
100
AcDbVisualStyle
  2
Facepattern
 70
    15
 71
     2
 72
     2
 73
     0
 90
        0
 40
-0.6
 41
-30.0
 62
     5
 63
     7
 74
     1
 91
        4
 64
     7
 65
   257
 75
     1
175
     1
 42
1.0
 92
        8
 66
     7
 43
1.0
 76
     1
 77
     6
 78
     2
 67
     7
 79
     5
170
     0
171
     0
290
     0
174
     0
 93
        1
 44
0.0
173
     0
291
     1
 45
0.0
1001
ACAD
1000
AcDbSavedByObjectVersion
1070
     0
1000
AcDbSavedByObjectVersion
1070
     0
1000
AcDbSavedByObjectVersion
1070
     0
1000
AcDbSavedByObjectVersion
1070
     0
1000
AcDbSavedByObjectVersion
1070
     0
1000
AcDbSavedByObjectVersion
1070
     0
1000
AcDbSavedByObjectVersion
1070
     0
1000
AcDbSavedByObjectVersion
1070
     0
1000
AcDbSavedByObjectVersion
1070
     0
1000
AcDbSavedByObjectVersion
1070
     0
1000
AcRTDxfName
1000
VISUALSTYLE
1000
AcDbSavedByObjectVersion
1070
     0
  0
VISUALSTYLE
  5
3D47
102
{ACAD_REACTORS
330
3D46
102
}
330
3D46
100
AcDbVisualStyle
  2
Flat
 70
     0
 71
     2
 72
     1
 73
     1
 90
        2
 40
-0.6
 41
30.0
 62
     5
 63
     7
 74
     0
 91
        4
 64
     7
 65
   257
 75
     1
175
     1
 42
1.0
 92
        8
 66
     7
 43
1.0
 76
     1
 77
     6
 78
     2
 67
     7
 79
     5
170
     0
171
     0
290
     0
174
     0
 93
       13
 44
0.0
173
     0
291
     1
 45
0.0
1001
ACAD
1000
AcDbSavedByObjectVersion
1070
     0
1000
AcDbSavedByObjectVersion
1070
     0
1000
AcDbSavedByObjectVersion
1070
     0
1000
AcDbSavedByObjectVersion
1070
     0
1000
AcDbSavedByObjectVersion
1070
     0
1000
AcDbSavedByObjectVersion
1070
     0
1000
AcDbSavedByObjectVersion
1070
     0
1000
AcDbSavedByObjectVersion
1070
     0
1000
AcDbSavedByObjectVersion
1070
     0
1000
AcDbSavedByObjectVersion
1070
     0
1000
AcRTDxfName
1000
VISUALSTYLE
1000
AcDbSavedByObjectVersion
1070
     0
  0
VISUALSTYLE
  5
3D48
102
{ACAD_REACTORS
330
3D46
102
}
330
3D46
100
AcDbVisualStyle
  2
FlatWithEdges
 70
     1
 71
     2
 72
     1
 73
     1
 90
        2
 40
-0.6
 41
30.0
 62
     5
 63
     7
 74
     1
 91
        4
 64
     7
 65
   257
 75
     1
175
     1
 42
1.0
 92
        0
 66
   257
 43
1.0
 76
     1
 77
     6
 78
     2
 67
     7
 79
     5
170
     0
171
     0
290
     0
174
     0
 93
       13
 44
0.0
173
     0
291
     1
 45
0.0
1001
ACAD
1000
AcDbSavedByObjectVersion
1070
     0
1000
AcDbSavedByObjectVersion
1070
     0
1000
AcDbSavedByObjectVersion
1070
     0
1000
AcDbSavedByObjectVersion
1070
     0
1000
AcDbSavedByObjectVersion
1070
     0
1000
AcDbSavedByObjectVersion
1070
     0
1000
AcDbSavedByObjectVersion
1070
     0
1000
AcDbSavedByObjectVersion
1070
     0
1000
AcDbSavedByObjectVersion
1070
     0
1000
AcDbSavedByObjectVersion
1070
     0
1000
AcRTDxfName
1000
VISUALSTYLE
1000
AcDbSavedByObjectVersion
1070
     0
  0
VISUALSTYLE
  5
3D49
102
{ACAD_REACTORS
330
3D46
102
}
330
3D46
100
AcDbVisualStyle
  2
Gouraud
 70
     2
 71
     2
 72
     2
 73
     1
 90
        2
 40
-0.6
 41
30.0
 62
     5
 63
     7
 74
     0
 91
        4
 64
     7
 65
   257
 75
     1
175
     1
 42
1.0
 92
        0
 66
     7
 43
1.0
 76
     1
 77
     6
 78
     2
 67
     7
 79
     5
170
     0
171
     0
290
     0
174
     0
 93
       13
 44
0.0
173
     0
291
     1
 45
0.0
1001
ACAD
1000
AcDbSavedByObjectVersion
1070
     0
1000
AcDbSavedByObjectVersion
1070
     0
1000
AcDbSavedByObjectVersion
1070
     0
1000
AcDbSavedByObjectVersion
1070
     0
1000
AcDbSavedByObjectVersion
1070
     0
1000
AcDbSavedByObjectVersion
1070
     0
1000
AcDbSavedByObjectVersion
1070
     0
1000
AcDbSavedByObjectVersion
1070
     0
1000
AcDbSavedByObjectVersion
1070
     0
1000
AcDbSavedByObjectVersion
1070
     0
1000
AcRTDxfName
1000
VISUALSTYLE
1000
AcDbSavedByObjectVersion
1070
     0
  0
VISUALSTYLE
  5
3D4A
102
{ACAD_REACTORS
330
3D46
102
}
330
3D46
100
AcDbVisualStyle
  2
GouraudWithEdges
 70
     3
 71
     2
 72
     2
 73
     1
 90
        2
 40
-0.6
 41
30.0
 62
     5
 63
     7
 74
     1
 91
        4
 64
     7
 65
   257
 75
     1
175
     1
 42
1.0
 92
        0
 66
   257
 43
1.0
 76
     1
 77
     6
 78
     2
 67
     7
 79
     5
170
     0
171
     0
290
     0
174
     0
 93
       13
 44
0.0
173
     0
291
     1
 45
0.0
1001
ACAD
1000
AcDbSavedByObjectVersion
1070
     0
1000
AcDbSavedByObjectVersion
1070
     0
1000
AcDbSavedByObjectVersion
1070
     0
1000
AcDbSavedByObjectVersion
1070
     0
1000
AcDbSavedByObjectVersion
1070
     0
1000
AcDbSavedByObjectVersion
1070
     0
1000
AcDbSavedByObjectVersion
1070
     0
1000
AcDbSavedByObjectVersion
1070
     0
1000
AcDbSavedByObjectVersion
1070
     0
1000
AcDbSavedByObjectVersion
1070
     0
1000
AcRTDxfName
1000
VISUALSTYLE
1000
AcDbSavedByObjectVersion
1070
     0
  0
VISUALSTYLE
  5
3D54
102
{ACAD_REACTORS
330
3D46
102
}
330
3D46
100
AcDbVisualStyle
  2
Linepattern
 70
    14
 71
     2
 72
     2
 73
     0
 90
        0
 40
-0.6
 41
-30.0
 62
     5
 63
     7
 74
     1
 91
        4
 64
     7
 65
   257
 75
     7
175
     7
 42
1.0
 92
        8
 66
     7
 43
1.0
 76
     1
 77
     6
 78
     2
 67
     7
 79
     5
170
     0
171
     0
290
     0
174
     0
 93
        1
 44
0.0
173
     0
291
     1
 45
0.0
1001
ACAD
1000
AcDbSavedByObjectVersion
1070
     0
1000
AcDbSavedByObjectVersion
1070
     0
1000
AcDbSavedByObjectVersion
1070
     0
1000
AcDbSavedByObjectVersion
1070
     0
1000
AcDbSavedByObjectVersion
1070
     0
1000
AcDbSavedByObjectVersion
1070
     0
1000
AcDbSavedByObjectVersion
1070
     0
1000
AcDbSavedByObjectVersion
1070
     0
1000
AcDbSavedByObjectVersion
1070
     0
1000
AcDbSavedByObjectVersion
1070
     0
1000
AcRTDxfName
1000
VISUALSTYLE
1000
AcDbSavedByObjectVersion
1070
     0
  0
VISUALSTYLE
  5
3D50
102
{ACAD_REACTORS
330
3D46
102
}
330
3D46
100
AcDbVisualStyle
  2
Realistic
 70
     8
 71
     2
 72
     2
 73
     0
 90
        0
 40
-0.6
 41
-30.0
 62
     5
 63
     7
 74
     1
 91
        0
 64
     7
 65
   257
 75
     1
175
     1
 42
1.0
 92
        8
 66
     8
 43
1.0
 76
     1
 77
     6
 78
     2
 67
     7
 79
     5
170
     0
171
     0
290
     0
174
     0
 93
       13
 44
0.0
173
     0
291
     0
 45
0.0
1001
ACAD
1000
AcDbSavedByObjectVersion
1070
     0
1000
AcDbSavedByObjectVersion
1070
     0
1000
AcDbSavedByObjectVersion
1070
     0
1000
AcDbSavedByObjectVersion
1070
     0
1000
AcDbSavedByObjectVersion
1070
     0
1000
AcDbSavedByObjectVersion
1070
     0
1000
AcDbSavedByObjectVersion
1070
     0
1000
AcDbSavedByObjectVersion
1070
     0
1000
AcDbSavedByObjectVersion
1070
     0
1000
AcDbSavedByObjectVersion
1070
     0
1000
AcRTDxfName
1000
VISUALSTYLE
1000
AcDbSavedByObjectVersion
1070
     0
  0
VISUALSTYLE
  5
3D53
102
{ACAD_REACTORS
330
3D46
102
}
330
3D46
100
AcDbVisualStyle
  2
Thicken
 70
    13
 71
     2
 72
     2
 73
     0
 90
        0
 40
-0.6
 41
-30.0
 62
     5
 63
     7
 74
     1
 91
        4
 64
     7
 65
   257
 75
     1
175
     1
 42
1.0
 92
       12
 66
     7
 43
1.0
 76
     1
 77
     6
 78
     2
 67
     7
 79
     5
170
     0
171
     0
290
     0
174
     0
 93
        1
 44
0.0
173
     0
291
     1
 45
0.0
1001
ACAD
1000
AcDbSavedByObjectVersion
1070
     0
1000
AcDbSavedByObjectVersion
1070
     0
1000
AcDbSavedByObjectVersion
1070
     0
1000
AcDbSavedByObjectVersion
1070
     0
1000
AcDbSavedByObjectVersion
1070
     0
1000
AcDbSavedByObjectVersion
1070
     0
1000
AcDbSavedByObjectVersion
1070
     0
1000
AcDbSavedByObjectVersion
1070
     0
1000
AcDbSavedByObjectVersion
1070
     0
1000
AcDbSavedByObjectVersion
1070
     0
1000
AcRTDxfName
1000
VISUALSTYLE
1000
AcDbSavedByObjectVersion
1070
     0
  0
DICTIONARYVAR
  5
4117
102
{ACAD_REACTORS
330
4116
102
}
330
4116
100
DictionaryVariables
280
     0
  1
STANDARD
  0
DICTIONARYVAR
  5
4E7B
102
{ACAD_REACTORS
330
4116
102
}
330
4116
100
DictionaryVariables
280
     0
  1
1
  0
DICTIONARYVAR
  5
4EFC
102
{ACAD_REACTORS
330
4116
102
}
330
4116
100
DictionaryVariables
280
     0
  1
0
  0
DICTIONARYVAR
  5
4EFD
102
{ACAD_REACTORS
330
4116
102
}
330
4116
100
DictionaryVariables
280
     0
  1
1.570796
  0
DICTIONARYVAR
  5
4EFE
102
{ACAD_REACTORS
330
4116
102
}
330
4116
100
DictionaryVariables
280
     0
  1
1.570796
  0
DICTIONARYVAR
  5
4E7C
102
{ACAD_REACTORS
330
4116
102
}
330
4116
100
DictionaryVariables
280
     0
  1

  0
DICTIONARYVAR
  5
4EFB
102
{ACAD_REACTORS
330
4116
102
}
330
4116
100
DictionaryVariables
280
     0
  1
127
  0
DICTIONARY
  5
4F06
330
3D5B
100
AcDbDictionary
280
     1
281
     1
  3
ACAD_XREC_ROUNDTRIP
360
4F07
  0
DICTIONARY
  5
454B
330
3D5C
100
AcDbDictionary
280
     1
281
     1
  3
ACAD_XREC_ROUNDTRIP
360
4F08
  3
ADSK_XREC_LAYOUTTHUMBNAIL
360
454C
  0
DICTIONARY
  5
419D
330
3D44
100
AcDbDictionary
280
     1
281
     1
  3
ACAD_XREC_ROUNDTRIP
360
419E
  0
DICTIONARY
  5
419B
330
3D43
100
AcDbDictionary
280
     1
281
     1
  3
ACAD_XREC_ROUNDTRIP
360
419C
  0
DICTIONARY
  5
419F
330
3D45
100
AcDbDictionary
280
     1
281
     1
  3
ACAD_XREC_ROUNDTRIP
360
41A0
  0
DICTIONARY
  5
4F04
330
3D59
100
AcDbDictionary
280
     1
281
     1
  3
ACAD_XREC_ROUNDTRIP
360
4F05
  0
XRECORD
  5
4F07
102
{ACAD_REACTORS
330
4F06
102
}
330
4F06
100
AcDbXrecord
280
     1
102
SHADEPLOT
 70
     0
102
SHADEPLOTRESLEVEL
 70
     2
102
SHADEPLOTCUSTOMDPI
 70
   300
  0
XRECORD
  5
4F08
102
{ACAD_REACTORS
330
454B
102
}
330
454B
100
AcDbXrecord
280
     1
102
SHADEPLOT
 70
     0
102
SHADEPLOTRESLEVEL
 70
     2
102
SHADEPLOTCUSTOMDPI
 70
   300
  0
XRECORD
  5
454C
102
{ACAD_REACTORS
330
454B
102
}
330
454B
100
AcDbXrecord
280
     1
310
28000000B40000007F00000001000800000000004C590000000000000000000000010000000000000000000000000000FFFFFF000000000000000000000000000000000000000000000000000000000000000000330000006600000099000000CC000000FF00000000330000333300006633000099330000CC330000FF3300
310
0000660000336600006666000099660000CC660000FF66000000990000339900006699000099990000CC990000FF99000000CC000033CC000066CC000099CC0000CCCC0000FFCC000000FF000033FF000066FF000099FF0000CCFF0000FFFF000000003300330033006600330099003300CC003300FF003300003333003333
310
33006633330099333300CC333300FF33330000663300336633006666330099663300CC663300FF66330000993300339933006699330099993300CC993300FF99330000CC330033CC330066CC330099CC3300CCCC3300FFCC330000FF330033FF330066FF330099FF3300CCFF3300FFFF330000006600330066006600660099
310
006600CC006600FF00660000336600333366006633660099336600CC336600FF33660000666600336666006666660099666600CC666600FF66660000996600339966006699660099996600CC996600FF99660000CC660033CC660066CC660099CC6600CCCC6600FFCC660000FF660033FF660066FF660099FF6600CCFF6600
310
FFFF660000009900330099006600990099009900CC009900FF00990000339900333399006633990099339900CC339900FF33990000669900336699006666990099669900CC669900FF66990000999900339999006699990099999900CC999900FF99990000CC990033CC990066CC990099CC9900CCCC9900FFCC990000FF99
310
0033FF990066FF990099FF9900CCFF9900FFFF99000000CC003300CC006600CC009900CC00CC00CC00FF00CC000033CC003333CC006633CC009933CC00CC33CC00FF33CC000066CC003366CC006666CC009966CC00CC66CC00FF66CC000099CC003399CC006699CC009999CC00CC99CC00FF99CC0000CCCC0033CCCC0066CC
310
CC0099CCCC00CCCCCC00FFCCCC0000FFCC0033FFCC0066FFCC0099FFCC00CCFFCC00FFFFCC000000FF003300FF006600FF009900FF00CC00FF00FF00FF000033FF003333FF006633FF009933FF00CC33FF00FF33FF000066FF003366FF006666FF009966FF00CC66FF00FF66FF000099FF003399FF006699FF009999FF00CC
310
99FF00FF99FF0000CCFF0033CCFF0066CCFF0099CCFF00CCCCFF00FFCCFF0000FFFF0033FFFF0066FFFF0099FFFF00CCFFFF00FFFFFF00000000000D0D0D001A1A1A00282828003535350043434300505050005D5D5D006B6B6B00787878008686860093939300A1A1A100AEAEAE00BBBBBB00C9C9C900D6D6D600E4E4E400
310
F1F1F100FFFFFF0000000000000000000000000000000000000000000000000000000000000000000000000000000000EFF5F5F5F5F5F5F5F5F5F5F5F5F5F5F5F5F5F5F5F5F5F5F5F5F5F5F5F5F5F5F5F5F5F5F5F5F5F5F5F5F5F5F5F5F5F5F5F5F5F5F5F5F5F5F5F5F5F5F5F5F5F5F5F5F5F5F5F5F5F5F5F5F5F5F5F5F5F5
310
F5F5F5F5F5F5F5F5F5F5F5F5F5F5F5F5F5F5F5F5F5F5F5F5F5F5F5F5F5F5F5F5F5F5F5F5F5F5F5F5F5F5F5F5F5F5F5F5F5F5F5F5F5F5F5F5F5F5F5F5F5F5F5F5F5F5F5F5F5F5F5F5F5F5F5F5F5F5F5F5F5F5F5F5F5F5F5F5F5F5F5F5F5F5F5F5F5F5F5F5F5EFF5E2E2E2E2E2E2E2E2E2E2E2E2E2E2E2E2E2E2E2E2E2E2E2E2
310
E2E2E2E2E2E2E2E2E2E2E2E2E2E2E2E2E2E2E2E2E2E2E2E2E2E2E2E2E2E2E2E2E2E2E2E2E2E2E2E2E2E2E2E2E2E2E2E2E2E2E2E2E2E2E2E2E2E2E2E2E2E2E2E2E2E2E2E2E2E2E2E2E2E2E2E2E2E2E2E2E2E2E2E2E2E2E2E2E2E2E2E2E2E2E2E2E2E2E2E2E2E2E2E2E2E2E2E2E2E2E2E2E2E2E2E2E2E2E2E2E2E2E2E2E2E2E2
310
E2E2E2E2E2E2E2E2E2E2E2E2E2E2E2E2E2E2E2E2E2E2E2E2E2F5F5EFF5F5F5F5F5F5F5F5F5F5E2E2E2E2E2E2E2E2E2F5F5F5F5F5F5F5F5F5F5F5F5F5F5F5F5E2E2E2E2E2E2E2E2E2F5F5F5F5F5F5F5F5F5F5F5F5F5F5F5F5E2E2E2E2E2E2E2E2E2F5F5F5F5F5F5F5F5F5F5F5F5F5F5F5F5E2E2E2E2E2E2E2E2E2F5F5F5F5F5
310
F5F5F5F5F5F5F5F5F5F5F5E2E2E2E2E2E2E2E2E2F5F5F5F5F5F5F5F5F5F5F5F5F5F5F5F5E2E2E2E2E2E2E2E2E2F5F5F5F5F5F5F5F5F5F5F5F5F5F5F5F5E2E2E2E2E2E2E2E2E2F5F5F5F5F5F5F5F5F5F5EFF5F5E2E2E2E2E2E2E2E2E2E2E2E2E2E2E2E2E2E2E2E2E2E2E2E2E2E2E2E2E2E2E2E2E2E2E2E2E2E2E2E2E2E2E2E2
310
E2E2E2E2E2E2E2E2E2E2E2E2E2E2E2E2E2E2E2E2E2E2E2E2E2E2E2E2E2E2E2E2E2E2E2E2E2E2E2E2E2E2E2E2E2E2E2E2E2E2E2E2E2E2E2E2E2E2E2E2E2E2E2E2E2E2E2E2E2E2E2E2E2E2E2E2E2E2E2E2E2E2E2E2E2E2E2E2E2E2E2E2E2E2E2E2E2E2E2E2E2E2E2E2E2E2E2E2E2E2E2E2E2E2E2E2E2E2E2E2E2E2E2E2E2E2E2
310
E2E2E2F5F5F5EFF5F5E2E2E2E2E2E2E2E2E2E2E2E2E2E2E2E2E2E2E2E2E2E2E2E2E2E2E2E2E2E2E2E2E2E2E2E2E2E2E2E2E2E2E2E2E2E2E2E2E2E2E2E2E2E2E2E2E2E2E2E2E2E2E2E2E2E2E2E2E2E2E2E2E2E2E2E2E2E2E2E2E2E2E2E2E2E2E2E2E2E2E2E2E2E2E2E2E2E2E2E2E2E2E2E2E2E2E2E2E2E2E2E2E2E2E2E2E2E2
310
E2E2E2E2E2E2E2E2E2E2E2E2E2E2E2E2E2E2E2E2E2E2E2E2E2E2E2E2E2E2E2E2E2E2E2E2E2E2E2E2E2E2E2E2E2E2E2E2E2E2E2E2E2E2E2E2F5F5F5EFF5F5E2E2E2E2E2E2E2E2E2E2E2E2E2E2E2E2E2E2E2E2E2E2E2E2E2E2E2E2E2E2E2E2E2E2E2E2E2E2E2E2E2E2E2E2E2E2E2E2E2E2E2E2E2E2E2E2E2E2E2E2E2E2E2E2E2
310
E2E2E2E2E2E2E2E2E2E2E2E2E2E2E2E2E2E2E2E2E2E2E2E2E2E2E2E2E2E2E2E2E2E2E2E2E2E2E2E2E2E2E2E2E2E2E2E2E2E2E2E2E2E2E2E2E2E2E2E2E2E2E2E2E2E2E2E2E2E2E2E2E2E2E2E2E2E2E2E2E2E2E2E2E2E2E2E2E2E2E2E2E2E2E2E2E2E2E2E2E2E2E2E2E2E2E2E2E2F5F5F5EFF5F5E2E2E2E2E2E2E2E2E2E2E2E2
310
E2E2E2E2E2E2E2E2E2E2E2E2E2E2E2E2E2E2E2E2E2E2E2E2E2E2E2E2E2E2E2E2E2E2E2E2E2E2E2E2E2E2E2E2E2E2E2E2E2E2E2E2E2E2E2E2E2E2E2E2E2E2E2E2E2E2E2E2E2E2E2E2E2E2E2E2E2E2E2E2E2E2E2E2E2E2E2E2E2E2E2E2E2E2E2E2E2E2E2E2E2E2E2E2E2E2E2E2E2E2E2E2E2E2E2E2E2E2E2E2E2E2E2E2E2E2E2
310
E2E2E2E2E2E2E2E2E2E2E2E2E2E2E2E2E2E2E2E2E2E2E2E2E2E2E2E2E2E2E2E2E2E2E2F5F5F5EFF5F5E2E2E2E2E2E2E2E2E2E2E2E2E2E2E2E2E2E2E2E2E2E2E2E2E2E2E2E2E2E2E2E2E2E2E2E2E2E2E2E2E2E2E2E2E2E2E2E2E2E2E2E2E2E2E2E2E2E2E2E2E2E2E2E2E2E2E2E2E2E2E2E2E2E2E2E2E2E2E2E2E2E2E2E2E2E2
310
E2E2E2E2E2E2E2E2E2E2E2E2E2E2E2E2E2E2E2E2E2E2E2E2E2E2E2E2E2E2E2E2E2E2E2E2E2E2E2E2E2E2E2E2E2E2E2E2E2E2E2E2E2E2E2E2E2E2E2E2E2E2E2E2E2E2E2E2E2E2E2E2E2E2E2E2E2E2E2E2E2E2E2E2E2E2E2E2F5F5F5EFF5F5E2E2E2E2E2E2E2E2E2E2E2E2E2E2E2E2E2E2E2E2E2E2E2E2E2E2E2E2E2E2E2E2E2
310
E2E2E2E2E2E2E2E2E2E2E2E2E2E2E2E2E2E2E2E2E2E2E2E2E2E2E2E2E2E2E2E2E2E2E2E2E2E2E2E2E2E2E2E2E2E2E2E2E2E2E2E2E2E2E2E2E2E2E2E2E2E2E2E2E2E2E2E2E2E2E2E2E2E2E2E2E2E2E2E2E2E2E2E2E2E2E2E2E2E2E2E2E2E2E2E2E2E2E2E2E2E2E2E2E2E2E2E2E2E2E2E2E2E2E2E2E2E2E2E2E2E2E2E2E2E2E2
310
E2E2E2E2E2E2E2E2E2E2E2E2E2E2F5F5F5EFF5F5E2E2E2E2E2E2E2E2E2E2E2E2E2E2E2E2E2E2E2E2E2E2E2E2E2E2E2E2E2E2E2E2E2E2E2E2E2E2E2E2E2E2E2E2E2E2E2E2E2E2E2E2E2E2E2E2E2E2E2E2E2E2E2E2E2E2E2E2E2E2E2E2E2E2E2E2E2E2E2E2E2E2E2E2E2E2E2E2E2E2E2E2E2E2E2E2E2E2E2E2E2E2E2E2E2E2E2
310
E2E2E2E2E2E2E2E2E2E2E2E2E2E2E2E2E2E2E2E2E2E2E2E2E2E2E2E2E2E2E2E2E2E2E2E2E2E2E2E2E2E2E2E2E2E2E2E2E2E2E2E2E2E2E2E2E2E2E2E2E2E2E2E2E2E2E2F5F5F5EFF5E2E2E2E2E2E2E2E2E2E2E2E2E2E2E2E2E2E2E2E2E2E2E2E2E2E2E2E2E2E2E2E2E2E2E2E2E2E2E2E2E2E2E2E2E2E2E2E2E2E2E2E2E2E2E2
310
E2E2E2E2E2E2E2E2E2E2E2E2E2E2E2E2E2E2E2E2E2E2E2E2E2E2E2E2E2E2E2E2E2E2E2E2E2E2E2E2E2E2E2E2E2E2E2E2E2E2E2E2E2E2E2E2E2E2E2E2E2E2E2E2E2E2E2E2E2E2E2E2E2E2E2E2E2E2E2E2E2E2E2E2E2E2E2E2E2E2E2E2E2E2E2E2E2E2E2E2E2E2E2E2E2E2E2E2E2E2E2E2E2E2E2E2E2E2E2E2E2F5F5EFF5E2E2
310
E2E2E2E2E2E2E2E2E2E2E2E2E2E2E2E2E2E2E2E2E2E2E2E2E2E2E2E2E2E2E2E2E2E2E2E2E2E2E2E2E2E2E2E2E2E2E2E2E2E2E2E2E2E2E2E2E2E2E2E2E2E2E2E2E2E2E2E2E2E2E2E2E2E2E2E2E2E2E2E2E2E2E2E2E2E2E2E2E2E2E2E2E2E2E2E2E2E2E2E2E2E2E2E2E2E2E2E2E2E2E2E2E2E2E2E2E2E2E2E2E2E2E2E2E2E2E2
310
E2E2E2E2E2E2E2E2E2E2E2E2E2E2E2E2E2E2E2E2E2E2E2E2E2E2E2E2E2E2E2E2E2E2E2E2E2E2E2E2E2E2E2E2E2E2E2F5F5EFF5E2E2E2E2E2E2E2E2E2E2E2E2E2E2E2E2E2E2E2E2E2E2E2E2E2E2E2E2E2E2E2E2E2E2E2E2E2E2E2E2E2E2E2E2E2E2E2E2E2E2E2E2E2E2E2E2E2E2E2E2E2E2E2E2E2E2E2E2E2E2E2E2E2E2E2E2
310
E2E2E2E2E2E2E2E2E2E2E2E2E2E2E2E2E2E2E2E2E2E2E2E2E2E2E2E2E2E2E2E2E2E2E2E2E2E2E2E2E2E2E2E2E2E2E2E2E2E2E2E2E2E2E2E2E2E2E2E2E2E2E2E2E2E2E2E2E2E2E2E2E2E2E2E2E2E2E2E2E2E2E2E2E2E2E2E2E2E2E2E2E2E2E2E2E2E2E2E2F5F5EFF5E2E2E2E2E2E2E2E2E2E2E2E2E2E2E2E2E2E2E2E2E2E2E2
310
E2E2E2E2E2E2E2E2E2E2E2E2E2E2E2E2E2E2E2E2E2E2E2E2E2E2E2E2E2E2E2E2E2E2E2E2E2E2E2E2E2E2E2E2E2E2E2E2E2E2E2E2E2E2E2E2E2E2E2E2E2E2E2E2E2E2E2E2E2E2E2E2E2E2E2E2E2E2E2E2E2E2E2E2E2E2E2E2E2E2E2E2E2E2E2E2E2E2E2E2E2E2E2E2E2E2E2E2E2E2E2E2E2E2E2E2E2E2E2E2E2E2E2E2E2E2E2
310
E2E2E2E2E2E2E2E2E2E2E2E2E2E2E2E2E2E2E2E2E2E2E2E2E2E2F5F5EFF5E2E2E2E2E2E2E2E2E2E2E2E2E2E2E2E2E2E2E2E2E2E2E2E2E2E2E2E2E2E2E2E2E2E2E2E2E2E2E2E2E2E2E2E2E2E2E2E2E2E2E2E2E2E2E2E2E2E2E2E2E2E2E2E2E2E2E2E2E2E2E2E2E2E2E2E2E2E2E2E2E2E2E2E2E2E2E2E2E2E2E2E2E2E2E2E2E2
310
E2E2E2E2E2E2E2E2E2E2E2E2E2E2E2E2E2E2E2E2E2E2E2E2E2E2E2E2E2E2E2E2E2E2E2E2E2E2E2E2E2E2E2E2E2E2E2E2E2E2E2E2E2E2E2E2E2E2E2E2E2E2E2E2E2E2E2E2E2E2E2E2E2E2E2E2E2E2E2F5F5EFF5E2E2E2E2E2E2E2E2E2E2E2E2E2E2E2E2E2E2E2E2E2E2E2E2E2E2E2E2E2E2E2E2E2E2E2E2E2E2E2E2E2E2E2E2
310
E2E2E2E2E2E2E2E2E2E2E2E2E2E2E2E2E2E2E2E2E2E2E2E2E2E2E2E2E2E2E2E2E2E2E2E2E2E2E2E2E2E2E2E2E2E2E2E2E2E2E2E2E2E2E2E2E2E2E2E2E2E2E2E2E2E2E2E2E2E2E2E2E2E2E2E2E2E2E2E2E2E2E2E2E2E2E2E2E2E2E2E2E2E2E2E2E2E2E2E2E2E2E2E2E2E2E2E2E2E2E2E2E2E2E2E2E2E2E2E2E2E2E2E2E2E2E2
310
E2E2E2E2E2F5F5EFF5E2E2E2E2E2E2E2E2E2E2E2E2E2E2E2E2E2E2E2E2E2E2E2E2E2E2E2E2E2E2E2E2E2E2E2E2E2E2E2E2E2E2E2E2E2E2E2E2E2E2E2E2E2E2E2E2E2E2E2E2E2E2E2E2E2E2E2E2E2E2E2E2E2E2E2E2E2E2E2E2E2E2E2E2E2E2E2E2E2E2E2E2E2E2E2E2E2E2E2E2E2E2E2E2E2E2E2E2E2E2E2E2E2E2E2E2E2E2
310
E2E2E2E2E2E2E2E2E2E2E2E2E2E2E2E2E2E2E2E2E2E2E2E2E2E2E2E2E2E2E2E2E2E2E2E2E2E2E2E2E2E2E2E2E2E2E2E2E2E2E2E2E2E2E2E2E2E2F5F5EFF5E2E2E2E2E2E2E2E2E2E2E2E2E2E2E2E2E2E2E2E2E2E2E2E2E2E2E2E2E2E2E2E2E2E2E2E2E2E2E2E2E2E2E2E2E2E2E2E2E2E2E2E2E2E2E2E2E2E2E2E2E2E2E2E2E2
310
E2E2E2E2E2E2E2E2E2E2E2E2E2E2E2E2E2E2E2E2E2E2E2E2E2E2E2E2E2E2E2E2E2E2E2E2E2E2E2E2E2E2E2E2E2E2E2E2E2E2E2E2E2E2E2E2E2E2E2E2E2E2E2E2E2E2E2E2E2E2E2E2E2E2E2E2E2E2E2E2E2E2E2E2E2E2E2E2E2E2E2E2E2E2E2E2E2E2E2E2E2E2E2E2E2E2E2E2E2E2E2F5F5EFF5E2E2E2E2E2E2E2E2E2E2E2E2
310
E2E2E2E2E2E2E2E2E2E2E2E2E2E2E2E2E2E2E2E2E2E2E2E2E2E2E2E2E2E2E2E2E2E2E2E2E2E2E2E2E2E2E2E2E2E2E2E2E2E2E2E2E2E2E2E2E2E2E2E2E2E2E2E2E2E2E2E2E2E2E2E2E2E2E2E2E2E2E2E2E2E2E2E2E2E2E2E2E2E2E2E2E2E2E2E2E2E2E2E2E2E2E2E2E2E2E2E2E2E2E2E2E2E2E2E2E2E2E2E2E2E2E2E2E2E2E2
310
E2E2E2E2E2E2E2E2E2E2E2E2E2E2E2E2E2E2E2E2E2E2E2E2E2E2E2E2E2E2E2E2E2E2E2E2E2F5F5EFF5F5E2E2E2E2E2E2E2E2E2E2E2E2E2E2E2E2E2E2E2E2E2E2E2E2E2E2E2E2E2E2E2E2E2E2E2E2E2E2E2E2E2E2E2E2E2E2E2E2E2E2E2E2E2E2E2E2E2E2E2E2E2E2E2E2E2E2E2E2E2E2E2E2E2E2E2E2E2E2E2E2E2E2E2E2E2
310
E2E2E2E2E2E2E2E2E2E2E2E2E2E2E2E2E2E2E2E2E2E2E2E2E2E2E2E2E2E2E2E2E2E2E2E2E2E2E2E2E2E2E2E2E2E2E2E2E2E2E2E2E2E2E2E2E2E2E2E2E2E2E2E2E2E2E2E2E2E2E2E2E2E2E2E2E2E2E2E2E2E2E2E2E2E2E2E2E2F5F5F5EFF5F5E2E2E2E2E2E2E2E2E2E2E2E2E2E2E2E2E2E2E2E2E2E2E2E2E2E2E2E2E2E2E2E2
310
E2E2E2E2E2E2E2E2E2E2E2E2E2E2E2E2E2E2E2E2E2E2E2E2E2E2E2E2E2E2E2E2E2E2E2E2E2E2E2E2E2E2E2E2E2E2E2E2E2E2E2E2E2E2E2E2E2E2E2E2E2E2E2E2E2E2E2E2E2E2E2E2E2E2E2E2E2E2E2E2E2E2E2E2E2E2E2E2E2E2E2E2E2E2E2E2E2E2E2E2E2E2E2E2E2E2E2E2E2E2E2E2E2E2E2E2E2E2E2E2E2E2E2E2E2E2E2
310
E2E2E2E2E2E2E2E2E2E2E2E2E2E2E2F5F5F5EFF5F5E2E2E2E2E2E2E2E2E2E2E2E2E2E2E2E2E2E2E2E2E2E2E2E2E2E2E2E2E2E2E2E2E2E2E2E2E2E2E2E2E2E2E2E2E2E2E2E2E2E2E2E2E2E2E2E2E2E2E2E2E2E2E2E2E2E2E2E2E2E2E2E2E2E2E2E2E2E2E2E2E2E2E2E2E2E2E2E2E2E2E2E2E2E2E2E2E2E2E2E2E2E2E2E2E2E2
310
E2E2E2E2E2E2E2E2E2E2E2E2E2E2E2E2E2E2E2E2E2E2E2E2E2E2E2E2E2E2E2E2E2E2E2E2E2E2E2E2E2E2E2E2E2E2E2E2E2E2E2E2E2E2E2E2E2E2E2E2E2E2E2E2E2E2E2E2F5F5F5EFF5F5E2E2E2E2E2E2E2E2E2E2E2E2E2E2E2E2E2E2E2E2E2E2E2E2E2E2E2E2E2E2E2E2E2E2E2E2E2E2E2E2E2E2E2E2E2E2E2E2E2E2E2E2E2
310
E2E2E2E2E2E2E2E2E2E2E2E2E2E2E2E2E2E2E2E2E2E2E2E2E2E2E2E2E2E2E2E2E2E2E2E2E2E2E2E2E2E2E2E2E2E2E2E2E2E2E2E2E2E2E2E2E2E2E2E2E2E2E2E2E2E2E2E2E2E2E2E2E2E2E2E2E2E2E2E2E2E2E2E2E2E2E2E2E2E2E2E2E2E2E2E2E2E2E2E2E2E2E2E2E2E2E2E2E2E2E2E2E2E2E2E2E2E2E2E2E2F5F5F5EFF5F5
310
E2E2E2E2E2E2E2E2E2E2E2E2E2E2E2E2E2E2E2E2E2E2E2E2E2E2E2E2E2E2E2E2E2E2E2E2E2E2E2E2E2E2E2E2E2E2E2E2E2E2E2E2E2E2E2E2E2E2E2E2E2E2E2E2E2E2E2E2E2E2E2E2E2E2E2E2E2E2E2E2E2E2E2E2E2E2E2E2E2E2E2E2E2E2E2E2E2E2E2E2E2E2E2E2E2E2E2E2E2E2E2E2E2E2E2E2E2E2E2E2E2E2E2E2E2E2E2
310
E2E2E2E2E2E2E2E2E2E2E2E2E2E2E2E2E2E2E2E2E2E2E2E2E2E2E2E2E2E2E2E2E2E2E2E2E2E2E2E2E2E2E2E2E2E2E2F5F5F5EFF5F5E2E2E2E2E2E2E2E2E2E2E2E2E2E2E2E2E2E2E2E2E2E2E2E2E2E2E2E2E2E2E2E2E2E2E2E2E2E2E2E2E2E2E2E2E2E2E2E2E2E2E2E2E2E2E2E2E2E2E2E2E2E2E2E2E2E2E2E2E2E2E2E2E2E2
310
E2E2E2E2E2E2E2E2E2E2E2E2E2E2E2E2E2E2E2E2E2E2E2E2E2E2E2E2E2E2E2E2E2E2E2E2E2E2E2E2E2E2E2E2E2E2E2E2E2E2E2E2E2E2E2E2E2E2E2E2E2E2E2E2E2E2E2E2E2E2E2E2E2E2E2E2E2E2E2E2E2E2E2E2E2E2E2E2E2E2E2E2E2E2E2E2E2E2E2E2F5F5F5EFF5F5E2E2E2E2E2E2E2E2E2E2E2E2E2E2E2E2E2E2E2E2E2
310
E2E2E2E2E2E2E2E2E2E2E2E2E2E2E2E2E2E2E2E2E2E2E2E2E2E2E2E2E2E2E2E2E2E2E2E2E2E2E2E2E2E2E2E2E2E2E2E2E2E2E2E2E2E2E2E2E2E2E2E2E2E2E2E2E2E2E2E2E2E2E2E2E2E2E2E2E2E2E2E2E2E2E2E2E2E2E2E2E2E2E2E2E2E2E2E2E2E2E2E2E2E2E2E2E2E2E2E2E2E2E2E2E2E2E2E2E2E2E2E2E2E2E2E2E2E2E2
310
E2E2E2E2E2E2E2E2E2E2E2E2E2E2E2E2E2E2E2E2E2E2E2E2E2E2F5F5F5EFF5F5E2E2E2E2E2E2E2E2E2E2E2E2E2E2E2E2E2E2E2E2E2E2E2E2E2E2E2E2E2E2E2E2E2E2E2E2E2E2E2E2E2E2E2E2E2E2E2E2E2E2E2E2E2E2E2E2E2E2E2E2E2E2E2E2E2E2E2E2E2E2E2E2E2E2E2E2E2E2E2E2E2E2E2E2E2E2E2E2E2E2E2E2E2E2E2
310
E2E2E2E2E2E2E2E2E2E2E2E2E2E2E2E2E2E2E2E2E2E2E2E2E2E2E2E2E2E2E2E2E2E2E2E2E2E2E2E2E2E2E2E2E2E2E2E2E2E2E2E2E2E2E2E2E2E2E2E2E2E2E2E2E2E2E2E2E2E2E2E2E2E2E2E2E2E2E2F5F5F5EFF5F5E2E2E2E2E2E2E2E2E2E2E2E2E2E2E2E2E2E2E2E2E2E2E2E2E2E2E2E2E2E2E2E2E2E2E2E2E2E2E2E2E2E2
310
E2E2E2E2E2E2E2E2E2E2E2E2E2E2E2E2E2E2E2E2E2E2E2E2E2E2E2E2E2E2E2E2E2E2E2E2E2E2E2E2E2E2E2E2E2E2E2E2E2E2E2E2E2E2E2E2E2E2E2E2E2E2E2E2E2E2E2E2E2E2E2E2E2E2E2E2E2E2E2E2E2E2E2E2E2E2E2E2E2E2E2E2E2E2E2E2E2E2E2E2E2E2E2E2E2E2E2E2E2E2E2E2E2E2E2E2E2E2E2E2E2E2E2E2E2E2E2
310
E2E2E2E2E2F5F5F5EFF5F5E2E2E2E2E2E2E2E2E2E2E2E2E2E2E2E2E2E2E2E2E2E2E2E2E2E2E2E2E2E2E2E2E2E2E2E2E2E2E2E2E2E2E2E2E2E2E2E2E2E2E2E2E2E2E2E2E2E2E2E2E2E2E2E2E2E2E2E2E2E2E2E2E2E2E2E2E2E2E2E2E2E2E2E2E2E2E2E2E2E2E2E2E2E2E2E2E2E2E2E2E2E2E2E2E2E2E2E2E2E2E2E2E2E2E2E2
310
E2E2E2E2E2E2E2E2E2E2E2E2E2E2E2E2E2E2E2E2E2E2E2E2E2E2E2E2E2E2E2E2E2E2E2E2E2E2E2E2E2E2E2E2E2E2E2E2E2E2E2E2E2E2E2E2E2E2F5F5F5EFF5F5E2E2E2E2E2E2E2E2E2E2E2E2E2E2E2E2E2E2E2E2E2E2E2E2E2E2E2E2E2E2E2E2E2E2E2E2E2E2E2E2E2E2E2E2E2E2E2E2E2E2E2E2E2E2E2E2E2E2E2E2E2E2E2
310
E2E2E2E2E2E2E2E2E2E2E2E2E2E2E2E2E2E2E2E2E2E2E2E2E2E2E2E2E2E2E2E2E2E2E2E2E2E2E2E2E2E2E2E2E2E2E2E2E2E2E2E2E2E2E2E2E2E2E2E2E2E2E2E2E2E2E2E2E2E2E2E2E2E2E2E2E2E2E2E2E2E2E2E2E2E2E2E2E2E2E2E2E2E2E2E2E2E2E2E2E2E2E2E2E2E2E2E2E2E2E2F5F5F5EFF5F5E2E2E2E2E2E2E2E2E2E2
310
E2E2E2E2E2E2E2E2E2E2E2E2E2E2E2E2E2E2E2E2E2E2E2E2E2E2E2E2E2E2E2E2E2E2E2E2E2E2E2E2E2E2E2E2E2E2E2E2E2E2E2E2E2E2E2E2E2E2E2E2E2E2E2E2E2E2E2E2E2E2E2E2E2E2E2E2E2E2E2E2E2E2E2E2E2E2E2E2E2E2E2E2E2E2E2E2E2E2E2E2E2E2E2E2E2E2E2E2E2E2E2E2E2E2E2E2E2E2E2E2E2E2E2E2E2E2E2
310
E2E2E2E2E2E2E2E2E2E2E2E2E2E2E2E2E2E2E2E2E2E2E2E2E2E2E2E2E2E2E2E2E2E2E2E2E2F5F5F5EFF5F5E2E2E2E2E2E2E2E2E2E2E2E2E2E2E2E2E2E2E2E2E2E2E2E2E2E2E2E2E2E2E2E2E2E2E2E2E2E2E2E2E2E2E2E2E2E2E2E2E2E2E2E2E2E2E2E2E2E2E2E2E2E2E2E2E2E2E2E2E2E2E2E2E2E2E2E2E2E2E2E2E2E2E2E2
310
E2E2E2E2E2E2E2E2E2E2E2E2E2E2E2E2E2E2E2E2E2E2E2E2E2E2E2E2E2E2E2E2E2E2E2E2E2E2E2E2E2E2E2E2E2E2E2E2E2E2E2E2E2E2E2E2E2E2E2E2E2E2E2E2E2E2E2E2E2E2E2E2E2E2E2E2E2E2E2E2E2E2E2E2E2E2E2E2E2E2F5F5F5EFF5F5E2E2E2E2E2E2E2E2E2E2E2E2E2E2E2E2E2E2E2E2E2E2E2E2E2E2E2E2E2E2E2
310
E2E2E2E2E2E2E2E2E2E2E2E2E2E2E2E2E2E2E2E2E2E2E2E2E2E2E2E2E2E2E2E2E2E2E2E2E2E2E2E2E2E2E2E2E2E2E2E2E2E2E2E2E2E2E2E2E2E2E2E2E2E2E2E2E2E2E2E2E2E2E2E2E2E2E2E2E2E2E2E2E2E2E2E2E2E2E2E2E2E2E2E2E2E2E2E2E2E2E2E2E2E2E2E2E2E2E2E2E2E2E2E2E2E2E2E2E2E2E2E2E2E2E2E2E2E2E2
310
E2E2E2E2E2E2E2E2E2E2E2E2E2E2E2E2F5F5F5EFF5F5E2E2E2E2E2E2E2E2E2E2E2E2E2E2E2E2E2E2E2E2E2E2E2E2E2E2E2E2E2E2E2E2E2E2E2E2E2E2E2E2E2E2E2E2E2E2E2E2E2E2E2E2E2E2E2E2E2E2E2E2E2E2E2E2E2E2E2E2E2E2E2E2E2E2E2E2E2E2E2E2E2E2E2E2E2E2E2E2E2E2E2E2E2E2E2E2E2E2E2E2E2E2E2E2E2
310
E2E2E2E2E2E2E2E2E2E2E2E2E2E2E2E2E2E2E2E2E2E2E2E2E2E2E2E2E2E2E2E2E2E2E2E2E2E2E2E2E2E2E2E2E2E2E2E2E2E2E2E2E2E2E2E2E2E2E2E2E2E2E2E2E2E2E2E2E2F5F5F5EFF5F5E2E2E2E2E2E2E2E2E2E2E2E2E2E2E2E2E2E2E2E2E2E2E2E2E2E2E2E2E2E2E2E2E2E2E2E2E2E2E2E2E2E2E2E2E2E2E2E2E2E2E2E2
310
E2E2E2E2E2E2E2E2E2E2E2E2E2E2E2E2E2E2E2E2E2E2E2E2E2E2E2E2E2E2E2E2E2E2E2E2E2E2E2E2E2E2E2E2E2E2E2E2E2E2E2E2E2E2E2E2E2E2E2E2E2E2E2E2E2E2E2E2E2E2E2E2E2E2E2E2E2E2E2E2E2E2E2E2E2E2E2E2E2E2E2E2E2E2E2E2E2E2E2E2E2E2E2E2E2E2E2E2E2E2E2E2E2E2E2E2E2E2E2E2E2E2F5F5F5EFF5
310
E2E2E2E2E2E2E2E2E2E2E2E2E2E2E2E2E2E2E2E2E2E2E2E2E2E2E2E2E2E2E2E2E2E2E2E2E2E2E2E2E2E2E2E2E2E2E2E2E2E2E2E2E2E2E2E2E2E2E2E2E2E2E2E2E2E2E2E2E2E2E2E2E2E2E2E2E2E2E2E2E2E2E2E2E2E2E2E2E2E2E2E2E2E2E2E2E2E2E2E2E2E2E2E2E2E2E2E2E2E2E2E2E2E2E2E2E2E2E2E2E2E2E2E2E2E2E2
310
E2E2E2E2E2E2E2E2E2E2E2E2E2E2E2E2E2E2E2E2E2E2E2E2E2E2E2E2E2E2E2E2E2E2E2E2E2E2E2E2E2E2E2E2E2E2E2E2E2F5F5EFF5E2E2E2E2E2E2E2E2E2E2E2E2E2E2E2E2E2E2E2E2E2E2E2E2E2E2E2E2E2E2E2E2E2E2E2E2E2E2E2E2E2E2E2E2E2E2E2E2E2E2E2E2E2E2E2E2E2E2E2E2E2E2E2E2E2E2E2E2E2E2E2E2E2E2
310
E2E2E2E2E2E2E2E2E2E2E2E2E2E2E2E2E2E2E2E2E2E2E2E2E2E2E2E2E2E2E2E2E2E2E2E2E2E2E2E2E2E2E2E2E2E2E2E2E2E2E2E2E2E2E2E2E2E2E2E2E2E2E2E2E2E2E2E2E2E2E2E2E2E2E2E2E2E2E2E2E2E2E2E2E2E2E2E2E2E2E2E2E2E2E2E2E2E2E2E2E2E2F5F5EFF5E2E2E2E2E2E2E2E2E2E2E2E2E2E2E2E2E2E2E2E2E2
310
E2E2E2E2E2E2E2E2E2E2E2E2E2E2E2E2E2E2E2E2E2E2E2E2E2E2E2E2E2E2E2E2E2E2E2E2E2E2E2E2E2E2E2E2E2E2E2E2E2E2E2E2E2E2E2E2E2E2E2E2E2E2E2E2E2E2E2E2E2E2E2E2E2E2E2E2E2E2E2E2E2E2E2E2E2E2E2E2E2E2E2E2E2E2E2E2E2E2E2E2E2E2E2E2E2E2E2E2E2E2E2E2E2E2E2E2E2E2E2E2E2E2E2E2E2E2E2
310
E2E2E2E2E2E2E2E2E2E2E2E2E2E2E2E2E2E2E2E2E2E2E2E2E2E2E2E2F5F5EFF5E2E2E2E2E2E2E2E2E2E2E2E2E2E2E2E2E2E2E2E2E2E2E2E2E2E2E2E2E2E2E2E2E2E2E2E2E2E2E2E2E2E2E2E2E2E2E2E2E2E2E2E2E2E2E2E2E2E2E2E2E2E2E2E2E2E2E2E2E2E2E2E2E2E2E2E2E2E2E2E2E2E2E2E2E2E2E2E2E2E2E2E2E2E2E2
310
E2E2E2E2E2E2E2E2E2E2E2E2E2E2E2E2E2E2E2E2E2E2E2E2E2E2E2E2E2E2E2E2E2E2E2E2E2E2E2E2E2E2E2E2E2E2E2E2E2E2E2E2E2E2E2E2E2E2E2E2E2E2E2E2E2E2E2E2E2E2E2E2E2E2E2E2E2E2E2E2E2F5F5EFF5E2E2E2E2E2E2E2E2E2E2E2E2E2E2E2E2E2E2E2E2E2E2E2E2E2E2E2E2E2E2E2E2E2E2E2E2E2E2E2E2E2E2
310
E2E2E2E2E2E2E2E2E2E2E2E2E2E2E2E2E2E2E2E2E2E2E2E2E2E2E2E2E2E2E2E2E2E2E2E2E2E2E2E2E2E2E2E2E2E2E2E2E2E2E2E2E2E2E2E2E2E2E2E2E2E2E2E2E2E2E2E2E2E2E2E2E2E2E2E2E2E2E2E2E2E2E2E2E2E2E2E2E2E2E2E2E2E2E2E2E2E2E2E2E2E2E2E2E2E2E2E2E2E2E2E2E2E2E2E2E2E2E2E2E2E2E2E2E2E2E2
310
E2E2E2E2E2E2E2F5F5EFF5E2E2E2E2E2E2E2E2E2E2E2E2E2E2E2E2E2E2E2E2E2E2E2E2E2E2E2E2E2E2E2E2E2E2E2E2E2E2E2E2E2E2E2E2E2E2E2E2E2E2E2E2E2E2E2E2E2E2E2E2E2E2E2E2E2E2E2E2E2E2E2E2E2E2E2E2E2E2E2E2E2E2E2E2E2E2E2E2E2E2E2E2E2E2E2E2E2E2E2E2E2E2E2E2E2E2E2E2E2E2E2E2E2E2E2E2
310
E2E2E2E2E2E2E2E2E2E2E2E2E2E2E2E2E2E2E2E2E2E2E2E2E2E2E2E2E2E2E2E2E2E2E2E2E2E2E2E2E2E2E2E2E2E2E2E2E2E2E2E2E2E2E2E2E2E2E2E2F5F5EFF5E2E2E2E2E2E2E2E2E2E2E2E2E2E2E2E2E2E2E2E2E2E2E2E2E2E2E2E2E2E2E2E2E2E2E2E2E2E2E2E2E2E2E2E2E2E2E2E2E2E2E2E2E2E2E2E2E2E2E2E2E2E2E2
310
E2E2E2E2E2E2E2E2E2E2E2E2E2E2E2E2E2E2E2E2E2E2E2E2E2E2E2E2E2E2E2E2E2E2E2E2E2E2E2E2E2E2E2E2E2E2E2E2E2E2E2E2E2E2E2E2E2E2E2E2E2E2E2E2E2E2E2E2E2E2E2E2E2E2E2E2E2E2E2E2E2E2E2E2E2E2E2E2E2E2E2E2E2E2E2E2E2E2E2E2E2E2E2E2E2E2E2E2E2E2E2E2E2F5F5EFF5E2E2E2E2E2E2E2E2E2E2
310
E2E2E2E2E2E2E2E2E2E2E2E2E2E2E2E2E2E2E2E2E2E2E2E2E2E2E2E2E2E2E2E2E2E2E2E2E2E2E2E2E2E2E2E2E2E2E2E2E2E2E2E2E2E2E2E2E2E2E2E2E2E2E2E2E2E2E2E2E2E2E2E2E2E2E2E2E2E2E2E2E2E2E2E2E2E2E2E2E2E2E2E2E2E2E2E2E2E2E2E2E2E2E2E2E2E2E2E2E2E2E2E2E2E2E2E2E2E2E2E2E2E2E2E2E2E2E2
310
E2E2E2E2E2E2E2E2E2E2E2E2E2E2E2E2E2E2E2E2E2E2E2E2E2E2E2E2E2E2E2E2E2E2E2E2E2E2E2F5F5EFF5F5E2E2E2E2E2E2E2E2E2E2E2E2E2E2E2E2E2E2E2E2E2E2E2E2E2E2E2E2E2E2E2E2E2E2E2E2E2E2E2E2E2E2E2E2E2E2E2E2E2E2E2E2E2E2E2E2E2E2E2E2E2E2E2E2E2E2E2E2E2E2E2E2E2E2E2E2E2E2E2E2E2E2E2
310
E2E2E2E2E2E2E2E2E2E2E2E2E2E2E2E2E2E2E2E2E2E2E2E2E2E2E2E2E2E2E2E2E2E2E2E2E2E2E2E2E2E2E2E2E2E2E2E2E2E2E2E2E2E2E2E2E2E2E2E2E2E2E2E2E2E2E2E2E2E2E2E2E2E2E2E2E2E2E2E2E2E2E2E2E2E2E2E2E2E2E2F5F5F5EFF5F5E2E2E2E2E2E2E2E2E2E2E2E2E2E2E2E2E2E2E2E2E2E2E2E2E2E2E2E2E2E2
310
E2E2E2E2E2E2E2E2E2E2E2E2E2E2E2E2E2E2E2E2E2E2E2E2E2E2E2E2E2E2E2E2E2E2E2E2E2E2E2E2E2E2E2E2E2E2E2E2E2E2E2E2E2E2E2E2E2E2E2E2E2E2E2E2E2E2E2E2E2E2E2E2E2E2E2E2E2E2E2E2E2E2E2E2E2E2E2E2E2E2E2E2E2E2E2E2E2E2E2E2E2E2E2E2E2E2E2E2E2E2E2E2E2E2E2E2E2E2E2E2E2E2E2E2E2E2E2
310
E2E2E2E2E2E2E2E2E2E2E2E2E2E2E2E2E2F5F5F5EFF5F5E2E2E2E2E2E2E2E2E2E2E2E2E2E2E2E2E2E2E2E2E2E2E2E2E2E2E2E2E2E2E2E2E2E2E2E2E2E2E2E2E2E2E2E2E2E2E2E2E2E2E2E2E2E2E2E2E2E2E2E2E2E2E2E2E2E2E2E2E2E2E2E2E2E2E2E2E2E2E2E2E2E2E2E2E2E2E2E2E2E2E2E2E2E2E2E2E2E2E2E2E2E2E2E2
310
E2E2E2E2E2E2E2E2E2E2E2E2E2E2E2E2E2E2E2E2E2E2E2E2E2E2E2E2E2E2E2E2E2E2E2E2E2E2E2E2E2E2E2E2E2E2E2E2E2E2E2E2E2E2E2E2E2E2E2E2E2E2E2E2E2E2E2E2E2E2F5F5F5EFF5F5E2E2E2E2E2E2E2E2E2E2E2E2E2E2E2E2E2E2E2E2E2E2E2E2E2E2E2E2E2E2E2E2E2E2E2E2E2E2E2E2E2E2E2E2E2E2E2E2E2E2E2
310
E2E2E2E2E2E2E2E2E2E2E2E2E2E2E2E2E2E2E2E2E2E2E2E2E2E2E2E2E2E2E2E2E2E2E2E2E2E2E2E2E2E2E2E2E2E2E2E2E2E2E2E2E2E2E2E2E2E2E2E2E2E2E2E2E2E2E2E2E2E2E2E2E2E2E2E2E2E2E2E2E2E2E2E2E2E2E2E2E2E2E2E2E2E2E2E2E2E2E2E2E2E2E2E2E2E2E2E2E2E2E2E2E2E2E2E2E2E2E2E2E2E2E2F5F5F5EF
310
F5F5E2E2E2E2E2E2E2E2E2E2E2E2E2E2E2E2E2E2E2E2E2E2E2E2E2E2E2E2E2E2E2E2E2E2E2E2E2E2E2E2E2E2E2E2E2E2E2E2E2E2E2E2E2E2E2E2E2E2E2E2E2E2E2E2E2E2E2E2E2E2E2E2E2E2E2E2E2E2E2E2E2E2E2E2E2E2E2E2E2E2E2E2E2E2E2E2E2E2E2E2E2E2E2E2E2E2E2E2E2E2E2E2E2E2E2E2E2E2E2E2E2E2E2E2E2
310
E2E2E2E2E2E2E2E2E2E2E2E2E2E2E2E2E2E2E2E2E2E2E2E2E2E2E2E2E2E2E2E2E2E2E2E2E2E2E2E2E2E2E2E2E2E2E2E2E2F5F5F5EFF5F5E2E2E2E2E2E2E2E2E2E2E2E2E2E2E2E2E2E2E2E2E2E2E2E2E2E2E2E2E2E2E2E2E2E2E2E2E2E2E2E2E2E2E2E2E2E2E2E2E2E2E2E2E2E2E2E2E2E2E2E2E2E2E2E2E2E2E2E2E2E2E2E2
310
E2E2E2E2E2E2E2E2E2E2E2E2E2E2E2E2E2E2E2E2E2E2E2E2E2E2E2E2E2E2E2E2E2E2E2E2E2E2E2E2E2E2E2E2E2E2E2E2E2E2E2E2E2E2E2E2E2E2E2E2E2E2E2E2E2E2E2E2E2E2E2E2E2E2E2E2E2E2E2E2E2E2E2E2E2E2E2E2E2E2E2E2E2E2E2E2E2E2E2E2E2E2F5F5F5EFF5F5E2E2E2E2E2E2E2E2E2E2E2E2E2E2E2E2E2E2E2
310
E2E2E2E2E2E2E2E2E2E2E2E2E2E2E2E2E2E2E2E2E2E2E2E2E2E2E2E2E2E2E2E2E2E2E2E2E2E2E2E2E2E2E2E2E2E2E2E2E2E2E2E2E2E2E2E2E2E2E2E2E2E2E2E2E2E2E2E2E2E2E2E2E2E2E2E2E2E2E2E2E2E2E2E2E2E2E2E2E2E2E2E2E2E2E2E2E2E2E2E2E2E2E2E2E2E2E2E2E2E2E2E2E2E2E2E2E2E2E2E2E2E2E2E2E2E2E2
310
E2E2E2E2E2E2E2E2E2E2E2E2E2E2E2E2E2E2E2E2E2E2E2E2E2E2E2E2F5F5F5EFF5F5E2E2E2E2E2E2E2E2E2E2E2E2E2E2E2E2E2E2E2E2E2E2E2E2E2E2E2E2E2E2E2E2E2E2E2E2E2E2E2E2E2E2E2E2E2E2E2E2E2E2E2E2E2E2E2E2E2E2E2E2E2E2E2E2E2E2E2E2E2E2E2E2E2E2E2E2E2E2E2E2E2E2E2E2E2E2E2E2E2E2E2E2E2
310
E2E2E2E2E2E2E2E2E2E2E2E2E2E2E2E2E2E2E2E2E2E2E2E2E2E2E2E2E2E2E2E2E2E2E2E2E2E2E2E2E2E2E2E2E2E2E2E2E2E2E2E2E2E2E2E2E2E2E2E2E2E2E2E2E2E2E2E2E2E2E2E2E2E2E2E2E2E2E2E2E2F5F5F5EFF5F5E2E2E2E2E2E2E2E2E2E2E2E2E2E2E2E2E2E2E2E2E2E2E2E2E2E2E2E2E2E2E2E2E2E2E2E2E2E2E2E2
310
E2E2E2E2E2E2E2E2E2E2E2E2E2E2E2E2E2E2E2E2E2E2E2E2E2E2E2E2E2E2E2E2E2E2E2E2E2E2E2E2E2E2E2E2E2E2E2E2E2E2E2E2E2E2E2E2E2E2E2E2E2E2E2E2E2E2E2E2E2E2E2E2E2E2E2E2E2E2E2E2E2E2E2E2E2E2E2E2E2E2E2E2E2E2E2E2E2E2E2E2E2E2E2E2E2E2E2E2E2E2E2E2E2E2E2E2E2E2E2E2E2E2E2E2E2E2E2
310
E2E2E2E2E2E2E2F5F5F5EFF5F5E2E2E2E2E2E2E2E2E2E2E2E2E2E2E2E2E2E2E2E2E2E2E2E2E2E2E2E2E2E2E2E2E2E2E2E2E2E2E2E2E2E2E2E2E2E2E2E2E2E2E2E2E2E2E2E2E2E2E2E2E2E2E2E2E2E2E2E2E2E2E2E2E2E2E2E2E2E2E2E2E2E2E2E2E2E2E2E2E2E2E2E2E2E2E2E2E2E2E2E2E2E2E2E2E2E2E2E2E2E2E2E2E2E2
310
E2E2E2E2E2E2E2E2E2E2E2E2E2E2E2E2E2E2E2E2E2E2E2E2E2E2E2E2E2E2E2E2E2E2E2E2E2E2E2E2E2E2E2E2E2E2E2E2E2E2E2E2E2E2E2E2E2E2E2E2F5F5F5EFF5F5E2E2E2E2E2E2E2E2E2E2E2E2E2E2E2E2E2E2E2E2E2E2E2E2E2E2E2E2E2E2E2E2E2E2E2E2E2E2E2E2E2E2E2E2E2E2E2E2E2E2E2E2E2E2E2E2E2E2E2E2E2
310
E2E2E2E2E2E2E2E2E2E2E2E2E2E2E2E2E2E2E2E2E2E2E2E2E2E2E2E2E2E2E2E2E2E2E2E2E2E2E2E2E2E2E2E2E2E2E2E2E2E2E2E2E2E2E2E2E2E2E2E2E2E2E2E2E2E2E2E2E2E2E2E2E2E2E2E2E2E2E2E2E2E2E2E2E2E2E2E2E2E2E2E2E2E2E2E2E2E2E2E2E2E2E2E2E2E2E2E2E2E2E2E2E2F5F5F5EFF5F5E2E2E2E2E2E2E2E2
310
E2E2E2E2E2E2E2E2E2E2E2E2E2E2E2E2E2E2E2E2E2E2E2E2E2E2E2E2E2E2E2E2E2E2E2E2E2E2E2E2E2E2E2E2E2E2E2E2E2E2E2E2E2E2E2E2E2E2E2E2E2E2E2E2E2E2E2E2E2E2E2E2E2E2E2E2E2E2E2E2E2E2E2E2E2E2E2E2E2E2E2E2E2E2E2E2E2E2E2E2E2E2E2E2E2E2E2E2E2E2E2E2E2E2E2E2E2E2E2E2E2E2E2E2E2E2E2
310
E2E2E2E2E2E2E2E2E2E2E2E2E2E2E2E2E2E2E2E2E2E2E2E2E2E2E2E2E2E2E2E2E2E2E2E2E2E2E2F5F5F5EFF5F5E2E2E2E2E2E2E2E2E2E2E2E2E2E2E2E2E2E2E2E2E2E2E2E2E2E2E2E2E2E2E2E2E2E2E2E2E2E2E2E2E2E2E2E2E2E2E2E2E2E2E2E2E2E2E2E2E2E2E2E2E2E2E2E2E2E2E2E2E2E2E2E2E2E2E2E2E2E2E2E2E2E2
310
E2E2E2E2E2E2E2E2E2E2E2E2E2E2E2E2E2E2E2E2E2E2E2E2E2E2E2E2E2E2E2E2E2E2E2E2E2E2E2E2E2E2E2E2E2E2E2E2E2E2E2E2E2E2E2E2E2E2E2E2E2E2E2E2E2E2E2E2E2E2E2E2E2E2E2E2E2E2E2E2E2E2E2E2E2E2E2E2E2E2E2E2F5F5F5EFF5F5E2E2E2E2E2E2E2E2E2E2E2E2E2E2E2E2E2E2E2E2E2E2E2E2E2E2E2E2E2
310
E2E2E2E2E2E2E2E2E2E2E2E2E2E2E2E2E2E2E2E2E2E2E2E2E2E2E2E2E2E2E2E2E2E2E2E2E2E2E2E2E2E2E2E2E2E2E2E2E2E2E2E2E2E2E2E2E2E2E2E2E2E2E2E2E2E2E2E2E2E2E2E2E2E2E2E2E2E2E2E2E2E2E2E2E2E2E2E2E2E2E2E2E2E2E2E2E2E2E2E2E2E2E2E2E2E2E2E2E2E2E2E2E2E2E2E2E2E2E2E2E2E2E2E2E2E2E2
310
E2E2E2E2E2E2E2E2E2E2E2E2E2E2E2E2E2E2F5F5F5EFF5F5E2E2E2E2E2E2E2E2E2E2E2E2E2E2E2E2E2E2E2E2E2E2E2E2E2E2E2E2E2E2E2E2E2E2E2E2E2E2E2E2E2E2E2E2E2E2E2E2E2E2E2E2E2E2E2E2E2E2E2E2E2E2E2E2E2E2E2E2E2E2E2E2E2E2E2E2E2E2E2E2E2E2E2E2E2E2E2E2E2E2E2E2E2E2E2E2E2E2E2E2E2E2E2
310
E2E2E2E2E2E2E2E2E2E2E2E2E2E2E2E2E2E2E2E2E2E2E2E2E2E2E2E2E2E2E2E2E2E2E2E2E2E2E2E2E2E2E2E2E2E2E2E2E2E2E2E2E2E2E2E2E2E2E2E2E2E2E2E2E2E2E2E2E2E2E2F5F5F5EFF5F5E2E2E2E2E2E2E2E2E2E2E2E2E2E2E2E2E2E2E2E2E2E2E2E2E2E2E2E2E2E2E2E2E2E2E2E2E2E2E2E2E2E2E2E2E2E2E2E2E2E2
310
E2E2E2E2E2E2E2E2E2E2E2E2E2E2E2E2E2E2E2E2E2E2E2E2E2E2E2E2E2E2E2E2E2E2E2E2E2E2E2E2E2E2E2E2E2E2E2E2E2E2E2E2E2E2E2E2E2E2E2E2E2E2E2E2E2E2E2E2E2E2E2E2E2E2E2E2E2E2E2E2E2E2E2E2E2E2E2E2E2E2E2E2E2E2E2E2E2E2E2E2E2E2E2E2E2E2E2E2E2E2E2E2E2E2E2E2E2E2E2E2E2E2E2E2F5F5F5
310
EFF5E2E2E2E2E2E2E2E2E2E2E2E2E2E2E2E2E2E2E2E2E2E2E2E2E2E2E2E2E2E2E2E2E2E2E2E2E2E2E2E2E2E2E2E2E2E2E2E2E2E2E2E2E2E2E2E2E2E2E2E2E2E2E2E2E2E2E2E2E2E2E2E2E2E2E2E2E2E2E2E2E2E2E2E2E2E2E2E2E2E2E2E2E2E2E2E2E2E2E2E2E2E2E2E2E2E2E2E2E2E2E2E2E2E2E2E2E2E2E2E2E2E2E2E2E2
310
E2E2E2E2E2E2E2E2E2E2E2E2E2E2E2E2E2E2E2E2E2E2E2E2E2E2E2E2E2E2E2E2E2E2E2E2E2E2E2E2E2E2E2E2E2E2E2E2E2E2E2F5F5EFF5E2E2E2E2E2E2E2E2E2E2E2E2E2E2E2E2E2E2E2E2E2E2E2E2E2E2E2E2E2E2E2E2E2E2E2E2E2E2E2E2E2E2E2E2E2E2E2E2E2E2E2E2E2E2E2E2E2E2E2E2E2E2E2E2E2E2E2E2E2E2E2E2
310
E2E2E2E2E2E2E2E2E2E2E2E2E2E2E2E2E2E2E2E2E2E2E2E2E2E2E2E2E2E2E2E2E2E2E2E2E2E2E2E2E2E2E2E2E2E2E2E2E2E2E2E2E2E2E2E2E2E2E2E2E2E2E2E2E2E2E2E2E2E2E2E2E2E2E2E2E2E2E2E2E2E2E2E2E2E2E2E2E2E2E2E2E2E2E2E2E2E2E2E2E2E2E2E2F5F5EFF5E2E2E2E2E2E2E2E2E2E2E2E2E2E2E2E2E2E2E2
310
E2E2E2E2E2E2E2E2E2E2E2E2E2E2E2E2E2E2E2E2E2E2E2E2E2E2E2E2E2E2E2E2E2E2E2E2E2E2E2E2E2E2E2E2E2E2E2E2E2E2E2E2E2E2E2E2E2E2E2E2E2E2E2E2E2E2E2E2E2E2E2E2E2E2E2E2E2E2E2E2E2E2E2E2E2E2E2E2E2E2E2E2E2E2E2E2E2E2E2E2E2E2E2E2E2E2E2E2E2E2E2E2E2E2E2E2E2E2E2E2E2E2E2E2E2E2E2
310
E2E2E2E2E2E2E2E2E2E2E2E2E2E2E2E2E2E2E2E2E2E2E2E2E2E2E2E2E2E2F5F5EFF5E2E2E2E2E2E2E2E2E2E2E2E2E2E2E2E2E2E2E2E2E2E2E2E2E2E2E2E2E2E2E2E2E2E2E2E2E2E2E2E2E2E2E2E2E2E2E2E2E2E2E2E2E2E2E2E2E2E2E2E2E2E2E2E2E2E2E2E2E2E2E2E2E2E2E2E2E2E2E2E2E2E2E2E2E2E2E2E2E2E2E2E2E2
310
E2E2E2E2E2E2E2E2E2E2E2E2E2E2E2E2E2E2E2E2E2E2E2E2E2E2E2E2E2E2E2E2E2E2E2E2E2E2E2E2E2E2E2E2E2E2E2E2E2E2E2E2E2E2E2E2E2E2E2E2E2E2E2E2E2E2E2E2E2E2E2E2E2E2E2E2E2E2E2E2E2E2E2F5F5EFF5E2E2E2E2E2E2E2E2E2E2E2E2E2E2E2E2E2E2E2E2E2E2E2E2E2E2E2E2E2E2E2E2E2E2E2E2E2E2E2E2
310
E2E2E2E2E2E2E2E2E2E2E2E2E2E2E2E2E2E2E2E2E2E2E2E2E2E2E2E2E2E2E2E2E2E2E2E2E2E2E2E2E2E2E2E2E2E2E2E2E2E2E2E2E2E2E2E2E2E2E2E2E2E2E2E2E2E2E2E2E2E2E2E2E2E2E2E2E2E2E2E2E2E2E2E2E2E2E2E2E2E2E2E2E2E2E2E2E2E2E2E2E2E2E2E2E2E2E2E2E2E2E2E2E2E2E2E2E2E2E2E2E2E2E2E2E2E2E2
310
E2E2E2E2E2E2E2E2E2F5F5EFF5E2E2E2E2E2E2E2E2E2E2E2E2E2E2E2E2E2E2E2E2E2E2E2E2E2E2E2E2E2E2E2E2E2E2E2E2E2E2E2E2E2E2E2E2E2E2E2E2E2E2E2E2E2E2E2E2E2E2E2E2E2E2E2E2E2E2E2E2E2E2E2E2E2E2E2E2E2E2E2E2E2E2E2E2E2E2E2E2E2E2E2E2E2E2E2E2E2E2E2E2E2E2E2E2E2E2E2E2E2E2E2E2E2E2
310
E2E2E2E2E2E2E2E2E2E2E2E2E2E2E2E2E2E2E2E2E2E2E2E2E2E2E2E2E2E2E2E2E2E2E2E2E2E2E2E2E2E2E2E2E2E2E2E2E2E2E2E2E2E2E2E2E2E2E2E2E2E2F5F5EFF5E2E2E2E2E2E2E2E2E2E2E2E2E2E2E2E2E2E2E2E2E2E2E2E2E2E2E2E2E2E2E2E2E2E2E2E2E2E2E2E2E2E2E2E2E2E2E2E2E2E2E2E2E2E2E2E2E2E2E2E2E2
310
E2E2E2E2E2E2E2E2E2E2E2E2E2E2E2E2E2E2E2E2E2E2E2E2E2E2E2E2E2E2E2E2E2E2E2E2E2E2E2E2E2E2E2E2E2E2E2E2E2E2E2E2E2E2E2E2E2E2E2E2E2E2E2E2E2E2E2E2E2E2E2E2E2E2E2E2E2E2E2E2E2E2E2E2E2E2E2E2E2E2E2E2E2E2E2E2E2E2E2E2E2E2E2E2E2E2E2E2E2E2E2E2E2E2E2F5F5EFF5E2E2E2E2E2E2E2E2
310
E2E2E2E2E2E2E2E2E2E2E2E2E2E2E2E2E2E2E2E2E2E2E2E2E2E2E2E2E2E2E2E2E2E2E2E2E2E2E2E2E2E2E2E2E2E2E2E2E2E2E2E2E2E2E2E2E2E2E2E2E2E2E2E2E2E2E2E2E2E2E2E2E2E2E2E2E2E2E2E2E2E2E2E2E2E2E2E2E2E2E2E2E2E2E2E2E2E2E2E2E2E2E2E2E2E2E2E2E2E2E2E2E2E2E2E2E2E2E2E2E2E2E2E2E2E2E2
310
E2E2E2E2E2E2E2E2E2E2E2E2E2E2E2E2E2E2E2E2E2E2E2E2E2E2E2E2E2E2E2E2E2E2E2E2E2E2E2E2E2F5F5EFF5E2E2E2E2E2E2E2E2E2E2E2E2E2E2E2E2E2E2E2E2E2E2E2E2E2E2E2E2E2E2E2E2E2E2E2E2E2E2E2E2E2E2E2E2E2E2E2E2E2E2E2E2E2E2E2E2E2E2E2E2E2E2E2E2E2E2E2E2E2E2E2E2E2E2E2E2E2E2E2E2E2E2
310
E2E2E2E2E2E2E2E2E2E2E2E2E2E2E2E2E2E2E2E2E2E2E2E2E2E2E2E2E2E2E2E2E2E2E2E2E2E2E2E2E2E2E2E2E2E2E2E2E2E2E2E2E2E2E2E2E2E2E2E2E2E2E2E2E2E2E2E2E2E2E2E2E2E2E2E2E2E2E2E2E2E2E2E2E2E2E2E2E2E2E2E2E2E2F5F5EFF5F5E2E2E2E2E2E2E2E2E2E2E2E2E2E2E2E2E2E2E2E2E2E2E2E2E2E2E2E2
310
E2E2E2E2E2E2E2E2E2E2E2E2E2E2E2E2E2E2E2E2E2E2E2E2E2E2E2E2E2E2E2E2E2E2E2E2E2E2E2E2E2E2E2E2E2E2E2E2E2E2E2E2E2E2E2E2E2E2E2E2E2E2E2E2E2E2E2E2E2E2E2E2E2E2E2E2E2E2E2E2E2E2E2E2E2E2E2E2E2E2E2E2E2E2E2E2E2E2E2E2E2E2E2E2E2E2E2E2E2E2E2E2E2E2E2E2E2E2E2E2E2E2E2E2E2E2E2
310
E2E2E2E2E2E2E2E2E2E2E2E2E2E2E2E2E2E2E2F5F5F5EFF5F5E2E2E2E2E2E2E2E2E2E2E2E2E2E2E2E2E2E2E2E2E2E2E2E2E2E2E2E2E2E2E2E2E2E2E2E2E2E2E2E2E2E2E2E2E2E2E2E2E2E2E2E2E2E2E2E2E2E2E2E2E2E2E2E2E2E2E2E2E2E2E2E2E2E2E2E2E2E2E2E2E2E2E2E2E2E2E2E2E2E2E2E2E2E2E2E2E2E2E2E2E2E2
310
E2E2E2E2E2E2E2E2E2E2E2E2E2E2E2E2E2E2E2E2E2E2E2E2E2E2E2E2E2E2E2E2E2E2E2E2E2E2E2E2E2E2E2E2E2E2E2E2E2E2E2E2E2E2E2E2E2E2E2E2E2E2E2E2E2E2E2E2E2E2E2E2F5F5F5EFF5F5E2E2E2E2E2E2E2E2E2E2E2E2E2E2E2E2E2E2E2E2E2E2E2E2E2E2E2E2E2E2E2E2E2E2E2E2E2E2E2E2E2E2E2E2E2E2E2E2E2
310
E2E2E2E2E2E2E2E2E2E2E2E2E2E2E2E2E2E2E2E2E2E2E2E2E2E2E2E2E2E2E2E2E2E2E2E2E2E2E2E2E2E2E2E2E2E2E2E2E2E2E2E2E2E2E2E2E2E2E2E2E2E2E2E2E2E2E2E2E2E2E2E2E2E2E2E2E2E2E2E2E2E2E2E2E2E2E2E2E2E2E2E2E2E2E2E2E2E2E2E2E2E2E2E2E2E2E2E2E2E2E2E2E2E2E2E2E2E2E2E2E2E2E2E2E2F5F5
310
F5EFF5F5E2E2E2E2E2E2E2E2E2E2E2E2E2E2E2E2E2E2E2E2E2E2E2E2E2E2E2E2E2E2E2E2E2E2E2E2E2E2E2E2E2E2E2E2E2E2E2E2E2E2E2E2E2E2E2E2E2E2E2E2E2E2E2E2E2E2E2E2E2E2E2E2E2E2E2E2E2E2E2E2E2E2E2E2E2E2E2E2E2E2E2E2E2E2E2E2E2E2E2E2E2E2E2E2E2E2E2E2E2E2E2E2E2E2E2E2E2E2E2E2E2E2E2
310
E2E2E2E2E2E2E2E2E2E2E2E2E2E2E2E2E2E2E2E2E2E2E2E2E2E2E2E2E2E2E2E2E2E2E2E2E2E2E2E2E2E2E2E2E2E2E2E2E2E2E2F5F5F5EFF5F5E2E2E2E2E2E2E2E2E2E2E2E2E2E2E2E2E2E2E2E2E2E2E2E2E2E2E2E2E2E2E2E2E2E2E2E2E2E2E2E2E2E2E2E2E2E2E2E2E2E2E2E2E2E2E2E2E2E2E2E2E2E2E2E2E2E2E2E2E2E2
310
E2E2E2E2E2E2E2E2E2E2E2E2E2E2E2E2E2E2E2E2E2E2E2E2E2E2E2E2E2E2E2E2E2E2E2E2E2E2E2E2E2E2E2E2E2E2E2E2E2E2E2E2E2E2E2E2E2E2E2E2E2E2E2E2E2E2E2E2E2E2E2E2E2E2E2E2E2E2E2E2E2E2E2E2E2E2E2E2E2E2E2E2E2E2E2E2E2E2E2E2E2E2E2E2F5F5F5EFF5F5E2E2E2E2E2E2E2E2E2E2E2E2E2E2E2E2E2
310
E2E2E2E2E2E2E2E2E2E2E2E2E2E2E2E2E2E2E2E2E2E2E2E2E2E2E2E2E2E2E2E2E2E2E2E2E2E2E2E2E2E2E2E2E2E2E2E2E2E2E2E2E2E2E2E2E2E2E2E2E2E2E2E2E2E2E2E2E2E2E2E2E2E2E2E2E2E2E2E2E2E2E2E2E2E2E2E2E2E2E2E2E2E2E2E2E2E2E2E2E2E2E2E2E2E2E2E2E2E2E2E2E2E2E2E2E2E2E2E2E2E2E2E2E2E2E2
310
E2E2E2E2E2E2E2E2E2E2E2E2E2E2E2E2E2E2E2E2E2E2E2E2E2E2E2E2E2E2F5F5F5EFF5F5E2E2E2E2E2E2E2E2E2E2E2E2E2E2E2E2E2E2E2E2E2E2E2E2E2E2E2E2E2E2E2E2E2E2E2E2E2E2E2E2E2E2E2E2E2E2E2E2E2E2E2E2E2E2E2E2E2E2E2E2E2E2E2E2E2E2E2E2E2E2E2E2E2E2E2E2E2E2E2E2E2E2E2E2E2E2E2E2E2E2E2
310
E2E2E2E2E2E2E2E2E2E2E2E2E2E2E2E2E2E2E2E2E2E2E2E2E2E2E2E2E2E2E2E2E2E2E2E2E2E2E2E2E2E2E2E2E2E2E2E2E2E2E2E2E2E2E2E2E2E2E2E2E2E2E2E2E2E2E2E2E2E2E2E2E2E2E2E2E2E2E2E2E2E2E2F5F5F5EFF5F5E2E2E2E2E2E2E2E2E2E2E2E2E2E2E2E2E2E2E2E2E2E2E2E2E2E2E2E2E2E2E2E2E2E2E2E2E2E2
310
E2E2E2E2E2E2E2E2E2E2E2E2E2E2E2E2E2E2E2E2E2E2E2E2E2E2E2E2E2E2E2E2E2E2E2E2E2E2E2E2E2E2E2E2E2E2E2E2E2E2E2E2E2E2E2E2E2E2E2E2E2E2E2E2E2E2E2E2E2E2E2E2E2E2E2E2E2E2E2E2E2E2E2E2E2E2E2E2E2E2E2E2E2E2E2E2E2E2E2E2E2E2E2E2E2E2E2E2E2E2E2E2E2E2E2E2E2E2E2E2E2E2E2E2E2E2E2
310
E2E2E2E2E2E2E2E2E2F5F5F5EFF5F5E2E2E2E2E2E2E2E2E2E2E2E2E2E2E2E2E2E2E2E2E2E2E2E2E2E2E2E2E2E2E2E2E2E2E2E2E2E2E2E2E2E2E2E2E2E2E2E2E2E2E2E2E2E2E2E2E2E2E2E2E2E2E2E2E2E2E2E2E2E2E2E2E2E2E2E2E2E2E2E2E2E2E2E2E2E2E2E2E2E2E2E2E2E2E2E2E2E2E2E2E2E2E2E2E2E2E2E2E2E2E2E2
310
E2E2E2E2E2E2E2E2E2E2E2E2E2E2E2E2E2E2E2E2E2E2E2E2E2E2E2E2E2E2E2E2E2E2E2E2E2E2E2E2E2E2E2E2E2E2E2E2E2E2E2E2E2E2E2E2E2E2E2E2E2E2F5F5F5EFF5F5E2E2E2E2E2E2E2E2E2E2E2E2E2E2E2E2E2E2E2E2E2E2E2E2E2E2E2E2E2E2E2E2E2E2E2E2E2E2E2E2E2E2E2E2E2E2E2E2E2E2E2E2E2E2E2E2E2E2E2
310
E2E2E2E2E2E2E2E2E2E2E2E2E2E2E2E2E2E2E2E2E2E2E2E2E2E2E2E2E2E2E2E2E2E2E2E2E2E2E2E2E2E2E2E2E2E2E2E2E2E2E2E2E2E2E2E2E2E2E2E2E2E2E2E2E2E2E2E2E2E2E2E2E2E2E2E2E2E2E2E2E2E2E2E2E2E2E2E2E2E2E2E2E2E2E2E2E2E2E2E2E2E2E2E2E2E2E2E2E2E2E2E2E2E2E2F5F5F5EFF5F5E2E2E2E2E2E2
310
E2E2E2E2E2E2E2E2E2E2E2E2E2E2E2E2E2E2E2E2E2E2E2E2E2E2E2E2E2E2E2E2E2E2E2E2E2E2E2E2E2E2E2E2E2E2E2E2E2E2E2E2E2E2E2E2E2E2E2E2E2E2E2E2E2E2E2E2E2E2E2E2E2E2E2E2E2E2E2E2E2E2E2E2E2E2E2E2E2E2E2E2E2E2E2E2E2E2E2E2E2E2E2E2E2E2E2E2E2E2E2E2E2E2E2E2E2E2E2E2E2E2E2E2E2E2E2
310
E2E2E2E2E2E2E2E2E2E2E2E2E2E2E2E2E2E2E2E2E2E2E2E2E2E2E2E2E2E2E2E2E2E2E2E2E2E2E2E2E2F5F5F5EFF5F5E2E2E2E2E2E2E2E2E2E2E2E2E2E2E2E2E2E2E2E2E2E2E2E2E2E2E2E2E2E2E2E2E2E2E2E2E2E2E2E2E2E2E2E2E2E2E2E2E2E2E2E2E2E2E2E2E2E2E2E2E2E2E2E2E2E2E2E2E2E2E2E2E2E2E2E2E2E2E2E2
310
E2E2E2E2E2E2E2E2E2E2E2E2E2E2E2E2E2E2E2E2E2E2E2E2E2E2E2E2E2E2E2E2E2E2E2E2E2E2E2E2E2E2E2E2E2E2E2E2E2E2E2E2E2E2E2E2E2E2E2E2E2E2E2E2E2E2E2E2E2E2E2E2E2E2E2E2E2E2E2E2E2E2E2E2E2E2E2E2E2E2E2E2E2E2F5F5F5EFF5F5E2E2E2E2E2E2E2E2E2E2E2E2E2E2E2E2E2E2E2E2E2E2E2E2E2E2E2
310
E2E2E2E2E2E2E2E2E2E2E2E2E2E2E2E2E2E2E2E2E2E2E2E2E2E2E2E2E2E2E2E2E2E2E2E2E2E2E2E2E2E2E2E2E2E2E2E2E2E2E2E2E2E2E2E2E2E2E2E2E2E2E2E2E2E2E2E2E2E2E2E2E2E2E2E2E2E2E2E2E2E2E2E2E2E2E2E2E2E2E2E2E2E2E2E2E2E2E2E2E2E2E2E2E2E2E2E2E2E2E2E2E2E2E2E2E2E2E2E2E2E2E2E2E2E2E2
310
E2E2E2E2E2E2E2E2E2E2E2E2E2E2E2E2E2E2E2E2F5F5F5EFF5F5E2E2E2E2E2E2E2E2E2E2E2E2E2E2E2E2E2E2E2E2E2E2E2E2E2E2E2E2E2E2E2E2E2E2E2E2E2E2E2E2E2E2E2E2E2E2E2E2E2E2E2E2E2E2E2E2E2E2E2E2E2E2E2E2E2E2E2E2E2E2E2E2E2E2E2E2E2E2E2E2E2E2E2E2E2E2E2E2E2E2E2E2E2E2E2E2E2E2E2E2E2
310
E2E2E2E2E2E2E2E2E2E2E2E2E2E2E2E2E2E2E2E2E2E2E2E2E2E2E2E2E2E2E2E2E2E2E2E2E2E2E2E2E2E2E2E2E2E2E2E2E2E2E2E2E2E2E2E2E2E2E2E2E2E2E2E2E2E2E2E2E2E2E2E2E2F5F5F5EFF5F5E2E2E2E2E2E2E2E2E2E2E2E2E2E2E2E2E2E2E2E2E2E2E2E2E2E2E2E2E2E2E2E2E2E2E2E2E2E2E2E2E2E2E2E2E2E2E2E2
310
E2E2E2E2E2E2E2E2E2E2E2E2E2E2E2E2E2E2E2E2E2E2E2E2E2E2E2E2E2E2E2E2E2E2E2E2E2E2E2E2E2E2E2E2E2E2E2E2E2E2E2E2E2E2E2E2E2E2E2E2E2E2E2E2E2E2E2E2E2E2E2E2E2E2E2E2E2E2E2E2E2E2E2E2E2E2E2E2E2E2E2E2E2E2E2E2E2E2E2E2E2E2E2E2E2E2E2E2E2E2E2E2E2E2E2E2E2E2E2E2E2E2E2E2E2E2F5
310
F5F5EFF5F5E2E2E2E2E2E2E2E2E2E2E2E2E2E2E2E2E2E2E2E2E2E2E2E2E2E2E2E2E2E2E2E2E2E2E2E2E2E2E2E2E2E2E2E2E2E2E2E2E2E2E2E2E2E2E2E2E2E2E2E2E2E2E2E2E2E2E2E2E2E2E2E2E2E2E2E2E2E2E2E2E2E2E2E2E2E2E2E2E2E2E2E2E2E2E2E2E2E2E2E2E2E2E2E2E2E2E2E2E2E2E2E2E2E2E2E2E2E2E2E2E2E2
310
E2E2E2E2E2E2E2E2E2E2E2E2E2E2E2E2E2E2E2E2E2E2E2E2E2E2E2E2E2E2E2E2E2E2E2E2E2E2E2E2E2E2E2E2E2E2E2E2E2E2E2E2F5F5F5EFF5E2E2E2E2E2E2E2E2E2E2E2E2E2E2E2E2E2E2E2E2E2E2E2E2E2E2E2E2E2E2E2E2E2E2E2E2E2E2E2E2E2E2E2E2E2E2E2E2E2E2E2E2E2E2E2E2E2E2E2E2E2E2E2E2E2E2E2E2E2E2
310
E2E2E2E2E2E2E2E2E2E2E2E2E2E2E2E2E2E2E2E2E2E2E2E2E2E2E2E2E2E2E2E2E2E2E2E2E2E2E2E2E2E2E2E2E2E2E2E2E2E2E2E2E2E2E2E2E2E2E2E2E2E2E2E2E2E2E2E2E2E2E2E2E2E2E2E2E2E2E2E2E2E2E2E2E2E2E2E2E2E2E2E2E2E2E2E2E2E2E2E2E2E2E2E2E2E2F5F5EFF5E2E2E2E2E2E2E2E2E2E2E2E2E2E2E2E2E2
310
E2E2E2E2E2E2E2E2E2E2E2E2E2E2E2E2E2E2E2E2E2E2E2E2E2E2E2E2E2E2E2E2E2E2E2E2E2E2E2E2E2E2E2E2E2E2E2E2E2E2E2E2E2E2E2E2E2E2E2E2E2E2E2E2E2E2E2E2E2E2E2E2E2E2E2E2E2E2E2E2E2E2E2E2E2E2E2E2E2E2E2E2E2E2E2E2E2E2E2E2E2E2E2E2E2E2E2E2E2E2E2E2E2E2E2E2E2E2E2E2E2E2E2E2E2E2E2
310
E2E2E2E2E2E2E2E2E2E2E2E2E2E2E2E2E2E2E2E2E2E2E2E2E2E2E2E2E2E2E2E2F5F5EFF5E2E2E2E2E2E2E2E2E2E2E2E2E2E2E2E2E2E2E2E2E2E2E2E2E2E2E2E2E2E2E2E2E2E2E2E2E2E2E2E2E2E2E2E2E2E2E2E2E2E2E2E2E2E2E2E2E2E2E2E2E2E2E2E2E2E2E2E2E2E2E2E2E2E2E2E2E2E2E2E2E2E2E2E2E2E2E2E2E2E2E2
310
E2E2E2E2E2E2E2E2E2E2E2E2E2E2E2E2E2E2E2E2E2E2E2E2E2E2E2E2E2E2E2E2E2E2E2E2E2E2E2E2E2E2E2E2E2E2E2E2E2E2E2E2E2E2E2E2E2E2E2E2E2E2E2E2E2E2E2E2E2E2E2E2E2E2E2E2E2E2E2E2E2E2E2E2E2F5F5EFF5E2E2E2E2E2E2E2E2E2E2E2E2E2E2E2E2E2E2E2E2E2E2E2E2E2E2E2E2E2E2E2E2E2E2E2E2E2E2
310
E2E2E2E2E2E2E2E2E2E2E2E2E2E2E2E2E2E2E2E2E2E2E2E2E2E2E2E2E2E2E2E2E2E2E2E2E2E2E2E2E2E2E2E2E2E2E2E2E2E2E2E2E2E2E2E2E2E2E2E2E2E2E2E2E2E2E2E2E2E2E2E2E2E2E2E2E2E2E2E2E2E2E2E2E2E2E2E2E2E2E2E2E2E2E2E2E2E2E2E2E2E2E2E2E2E2E2E2E2E2E2E2E2E2E2E2E2E2E2E2E2E2E2E2E2E2E2
310
E2E2E2E2E2E2E2E2E2E2E2F5F5EFF5E2E2E2E2E2E2E2E2E2E2E2E2E2E2E2E2E2E2E2E2E2E2E2E2E2E2E2E2E2E2E2E2E2E2E2E2E2E2E2E2E2E2E2E2E2E2E2E2E2E2E2E2E2E2E2E2E2E2E2E2E2E2E2E2E2E2E2E2E2E2E2E2E2E2E2E2E2E2E2E2E2E2E2E2E2E2E2E2E2E2E2E2E2E2E2E2E2E2E2E2E2E2E2E2E2E2E2E2E2E2E2E2
310
E2E2E2E2E2E2E2E2E2E2E2E2E2E2E2E2E2E2E2E2E2E2E2E2E2E2E2E2E2E2E2E2E2E2E2E2E2E2E2E2E2E2E2E2E2E2E2E2E2E2E2E2E2E2E2E2E2E2E2E2E2E2E2E2F5F5EFF5E2E2E2E2E2E2E2E2E2E2E2E2E2E2E2E2E2E2E2E2E2E2E2E2E2E2E2E2E2E2E2E2E2E2E2E2E2E2E2E2E2E2E2E2E2E2E2E2E2E2E2E2E2E2E2E2E2E2E2
310
E2E2E2E2E2E2E2E2E2E2E2E2E2E2E2E2E2E2E2E2E2E2E2E2E2E2E2E2E2E2E2E2E2E2E2E2E2E2E2E2E2E2E2E2E2E2E2E2E2E2E2E2E2E2E2E2E2E2E2E2E2E2E2E2E2E2E2E2E2E2E2E2E2E2E2E2E2E2E2E2E2E2E2E2E2E2E2E2E2E2E2E2E2E2E2E2E2E2E2E2E2E2E2E2E2E2E2E2E2E2E2E2E2E2E2E2E2F5F5EFF5E2E2E2E2E2E2
310
E2E2E2E2E2E2E2E2E2E2E2E2E2E2E2E2E2E2E2E2E2E2E2E2E2E2E2E2E2E2E2E2E2E2E2E2E2E2E2E2E2E2E2E2E2E2E2E2E2E2E2E2E2E2E2E2E2E2E2E2E2E2E2E2E2E2E2E2E2E2E2E2E2E2E2E2E2E2E2E2E2E2E2E2E2E2E2E2E2E2E2E2E2E2E2E2E2E2E2E2E2E2E2E2E2E2E2E2E2E2E2E2E2E2E2E2E2E2E2E2E2E2E2E2E2E2E2
310
E2E2E2E2E2E2E2E2E2E2E2E2E2E2E2E2E2E2E2E2E2E2E2E2E2E2E2E2E2E2E2E2E2E2E2E2E2E2E2E2E2E2E2F5F5EFF5E2E2E2E2E2E2E2E2E2E2E2E2E2E2E2E2E2E2E2E2E2E2E2E2E2E2E2E2E2E2E2E2E2E2E2E2E2E2E2E2E2E2E2E2E2E2E2E2E2E2E2E2E2E2E2E2E2E2E2E2E2E2E2E2E2E2E2E2E2E2E2E2E2E2E2E2E2E2E2E2
310
E2E2E2E2E2E2E2E2E2E2E2E2E2E2E2E2E2E2E2E2E2E2E2E2E2E2E2E2E2E2E2E2E2E2E2E2E2E2E2E2E2E2E2E2E2E2E2E2E2E2E2E2E2E2E2E2E2E2E2E2E2E2E2E2E2E2E2E2E2E2E2E2E2E2E2E2E2E2E2E2E2E2E2E2E2E2E2E2E2E2E2E2E2E2E2E2F5F5EFF5F5E2E2E2E2E2E2E2E2E2E2E2E2E2E2E2E2E2E2E2E2E2E2E2E2E2E2
310
E2E2E2E2E2E2E2E2E2E2E2E2E2E2E2E2E2E2E2E2E2E2E2E2E2E2E2E2E2E2E2E2E2E2E2E2E2E2E2E2E2E2E2E2E2E2E2E2E2E2E2E2E2E2E2E2E2E2E2E2E2E2E2E2E2E2E2E2E2E2E2E2E2E2E2E2E2E2E2E2E2E2E2E2E2E2E2E2E2E2E2E2E2E2E2E2E2E2E2E2E2E2E2E2E2E2E2E2E2E2E2E2E2E2E2E2E2E2E2E2E2E2E2E2E2E2E2
310
E2E2E2E2E2E2E2E2E2E2E2E2E2E2E2E2E2E2E2E2E2F5F5F5EFF5F5E2E2E2E2E2E2E2E2E2E2E2E2E2E2E2E2E2E2E2E2E2E2E2E2E2E2E2E2E2E2E2E2E2E2E2E2E2E2E2E2E2E2E2E2E2E2E2E2E2E2E2E2E2E2E2E2E2E2E2E2E2E2E2E2E2E2E2E2E2E2E2E2E2E2E2E2E2E2E2E2E2E2E2E2E2E2E2E2E2E2E2E2E2E2E2E2E2E2E2E2
310
E2E2E2E2E2E2E2E2E2E2E2E2E2E2E2E2E2E2E2E2E2E2E2E2E2E2E2E2E2E2E2E2E2E2E2E2E2E2E2E2E2E2E2E2E2E2E2E2E2E2E2E2E2E2E2E2E2E2E2E2E2E2E2E2E2E2E2E2E2E2E2E2E2E2F5F5F5EFF5F5E2E2E2E2E2E2E2E2E2E2E2E2E2E2E2E2E2E2E2E2E2E2E2E2E2E2E2E2E2E2E2E2E2E2E2E2E2E2E2E2E2E2E2E2E2E2E2
310
E2E2E2E2E2E2E2E2E2E2E2E2E2E2E2E2E2E2E2E2E2E2E2E2E2E2E2E2E2E2E2E2E2E2E2E2E2E2E2E2E2E2E2E2E2E2E2E2E2E2E2E2E2E2E2E2E2E2E2E2E2E2E2E2E2E2E2E2E2E2E2E2E2E2E2E2E2E2E2E2E2E2E2E2E2E2E2E2E2E2E2E2E2E2E2E2E2E2E2E2E2E2E2E2E2E2E2E2E2E2E2E2E2E2E2E2E2E2E2E2E2E2E2E2E2E2E2
310
F5F5F5EFF5F5E2E2E2E2E2E2E2E2E2E2E2E2E2E2E2E2E2E2E2E2E2E2E2E2E2E2E2E2E2E2E2E2E2E2E2E2E2E2E2E2E2E2E2E2E2E2E2E2E2E2E2E2E2E2E2E2E2E2E2E2E2E2E2E2E2E2E2E2E2E2E2E2E2E2E2E2E2E2E2E2E2E2E2E2E2E2E2E2E2E2E2E2E2E2E2E2E2E2E2E2E2E2E2E2E2E2E2E2E2E2E2E2E2E2E2E2E2E2E2E2E2
310
E2E2E2E2E2E2E2E2E2E2E2E2E2E2E2E2E2E2E2E2E2E2E2E2E2E2E2E2E2E2E2E2E2E2E2E2E2E2E2E2E2E2E2E2E2E2E2E2E2E2E2E2E2F5F5F5EFF5F5E2E2E2E2E2E2E2E2E2E2E2E2E2E2E2E2E2E2E2E2E2E2E2E2E2E2E2E2E2E2E2E2E2E2E2E2E2E2E2E2E2E2E2E2E2E2E2E2E2E2E2E2E2E2E2E2E2E2E2E2E2E2E2E2E2E2E2E2
310
E2E2E2E2E2E2E2E2E2E2E2E2E2E2E2E2E2E2E2E2E2E2E2E2E2E2E2E2E2E2E2E2E2E2E2E2E2E2E2E2E2E2E2E2E2E2E2E2E2E2E2E2E2E2E2E2E2E2E2E2E2E2E2E2E2E2E2E2E2E2E2E2E2E2E2E2E2E2E2E2E2E2E2E2E2E2E2E2E2E2E2E2E2E2E2E2E2E2E2E2E2E2E2E2E2E2F5F5F5EFF5F5E2E2E2E2E2E2E2E2E2E2E2E2E2E2E2
310
E2E2E2E2E2E2E2E2E2E2E2E2E2E2E2E2E2E2E2E2E2E2E2E2E2E2E2E2E2E2E2E2E2E2E2E2E2E2E2E2E2E2E2E2E2E2E2E2E2E2E2E2E2E2E2E2E2E2E2E2E2E2E2E2E2E2E2E2E2E2E2E2E2E2E2E2E2E2E2E2E2E2E2E2E2E2E2E2E2E2E2E2E2E2E2E2E2E2E2E2E2E2E2E2E2E2E2E2E2E2E2E2E2E2E2E2E2E2E2E2E2E2E2E2E2E2E2
310
E2E2E2E2E2E2E2E2E2E2E2E2E2E2E2E2E2E2E2E2E2E2E2E2E2E2E2E2E2E2E2E2F5F5F5EFF5F5E2E2E2E2E2E2E2E2E2E2E2E2E2E2E2E2E2E2E2E2E2E2E2E2E2E2E2E2E2E2E2E2E2E2E2E2E2E2E2E2E2E2E2E2E2E2E2E2E2E2E2E2E2E2E2E2E2E2E2E2E2E2E2E2E2E2E2E2E2E2E2E2E2E2E2E2E2E2E2E2E2E2E2E2E2E2E2E2E2
310
E2E2E2E2E2E2E2E2E2E2E2E2E2E2E2E2E2E2E2E2E2E2E2E2E2E2E2E2E2E2E2E2E2E2E2E2E2E2E2E2E2E2E2E2E2E2E2E2E2E2E2E2E2E2E2E2E2E2E2E2E2E2E2E2E2E2E2E2E2E2E2E2E2E2E2E2E2E2E2E2E2E2E2E2E2F5F5F5EFF5F5E2E2E2E2E2E2E2E2E2E2E2E2E2E2E2E2E2E2E2E2E2E2E2E2E2E2E2E2E2E2E2E2E2E2E2E2
310
E2E2E2E2E2E2E2E2E2E2E2E2E2E2E2E2E2E2E2E2E2E2E2E2E2E2E2E2E2E2E2E2E2E2E2E2E2E2E2E2E2E2E2E2E2E2E2E2E2E2E2E2E2E2E2E2E2E2E2E2E2E2E2E2E2E2E2E2E2E2E2E2E2E2E2E2E2E2E2E2E2E2E2E2E2E2E2E2E2E2E2E2E2E2E2E2E2E2E2E2E2E2E2E2E2E2E2E2E2E2E2E2E2E2E2E2E2E2E2E2E2E2E2E2E2E2E2
310
E2E2E2E2E2E2E2E2E2E2E2F5F5F5EFF5F5E2E2E2E2E2E2E2E2E2E2E2E2E2E2E2E2E2E2E2E2E2E2E2E2E2E2E2E2E2E2E2E2E2E2E2E2E2E2E2E2E2E2E2E2E2E2E2E2E2E2E2E2E2E2E2E2E2E2E2E2E2E2E2E2E2E2E2E2E2E2E2E2E2E2E2E2E2E2E2E2E2E2E2E2E2E2E2E2E2E2E2E2E2E2E2E2E2E2E2E2E2E2E2E2E2E2E2E2E2E2
310
E2E2E2E2E2E2E2E2E2E2E2E2E2E2E2E2E2E2E2E2E2E2E2E2E2E2E2E2E2E2E2E2E2E2E2E2E2E2E2E2E2E2E2E2E2E2E2E2E2E2E2E2E2E2E2E2E2E2E2E2E2E2E2E2F5F5F5EFF5F5E2E2E2E2E2E2E2E2E2E2E2E2E2E2E2E2E2E2E2E2E2E2E2E2E2E2E2E2E2E2E2E2E2E2E2E2E2E2E2E2E2E2E2E2E2E2E2E2E2E2E2E2E2E2E2E2E2
310
E2E2E2E2E2E2E2E2E2E2E2E2E2E2E2E2E2E2E2E2E2E2E2E2E2E2E2E2E2E2E2E2E2E2E2E2E2E2E2E2E2E2E2E2E2E2E2E2E2E2E2E2E2E2E2E2E2E2E2E2E2E2E2E2E2E2E2E2E2E2E2E2E2E2E2E2E2E2E2E2E2E2E2E2E2E2E2E2E2E2E2E2E2E2E2E2E2E2E2E2E2E2E2E2E2E2E2E2E2E2E2E2E2E2E2E2E2F5F5F5EFF5F5E2E2E2E2
310
E2E2E2E2E2E2E2E2E2E2E2E2E2E2E2E2E2E2E2E2E2E2E2E2E2E2E2E2E2E2E2E2E2E2E2E2E2E2E2E2E2E2E2E2E2E2E2E2E2E2E2E2E2E2E2E2E2E2E2E2E2E2E2E2E2E2E2E2E2E2E2E2E2E2E2E2E2E2E2E2E2E2E2E2E2E2E2E2E2E2E2E2E2E2E2E2E2E2E2E2E2E2E2E2E2E2E2E2E2E2E2E2E2E2E2E2E2E2E2E2E2E2E2E2E2E2E2
310
E2E2E2E2E2E2E2E2E2E2E2E2E2E2E2E2E2E2E2E2E2E2E2E2E2E2E2E2E2E2E2E2E2E2E2E2E2E2E2E2E2E2E2F5F5F5EFF5F5E2E2E2E2E2E2E2E2E2E2E2E2E2E2E2E2E2E2E2E2E2E2E2E2E2E2E2E2E2E2E2E2E2E2E2E2E2E2E2E2E2E2E2E2E2E2E2E2E2E2E2E2E2E2E2E2E2E2E2E2E2E2E2E2E2E2E2E2E2E2E2E2E2E2E2E2E2E2
310
E2E2E2E2E2E2E2E2E2E2E2E2E2E2E2E2E2E2E2E2E2E2E2E2E2E2E2E2E2E2E2E2E2E2E2E2E2E2E2E2E2E2E2E2E2E2E2E2E2E2E2E2E2E2E2E2E2E2E2E2E2E2E2E2E2E2E2E2E2E2E2E2E2E2E2E2E2E2E2E2E2E2E2E2E2E2E2E2E2E2E2E2E2E2E2E2F5F5F5EFF5F5E2E2E2E2E2E2E2E2E2E2E2E2E2E2E2E2E2E2E2E2E2E2E2E2E2
310
E2E2E2E2E2E2E2E2E2E2E2E2E2E2E2E2E2E2E2E2E2E2E2E2E2E2E2E2E2E2E2E2E2E2E2E2E2E2E2E2E2E2E2E2E2E2E2E2E2E2E2E2E2E2E2E2E2E2E2E2E2E2E2E2E2E2E2E2E2E2E2E2E2E2E2E2E2E2E2E2E2E2E2E2E2E2E2E2E2E2E2E2E2E2E2E2E2E2E2E2E2E2E2E2E2E2E2E2E2E2E2E2E2E2E2E2E2E2E2E2E2E2E2E2E2E2E2
310
E2E2E2E2E2E2E2E2E2E2E2E2E2E2E2E2E2E2E2E2E2E2F5F5F5EFF5F5E2E2E2E2E2E2E2E2E2E2E2E2E2E2E2E2E2E2E2E2E2E2E2E2E2E2E2E2E2E2E2E2E2E2E2E2E2E2E2E2E2E2E2E2E2E2E2E2E2E2E2E2E2E2E2E2E2E2E2E2E2E2E2E2E2E2E2E2E2E2E2E2E2E2E2E2E2E2E2E2E2E2E2E2E2E2E2E2E2E2E2E2E2E2E2E2E2E2E2
310
E2E2E2E2E2E2E2E2E2E2E2E2E2E2E2E2E2E2E2E2E2E2E2E2E2E2E2E2E2E2E2E2E2E2E2E2E2E2E2E2E2E2E2E2E2E2E2E2E2E2E2E2E2E2E2E2E2E2E2E2E2E2E2E2E2E2E2E2E2E2E2E2E2E2E2F5F5F5EFF5F5E2E2E2E2E2E2E2E2E2E2E2E2E2E2E2E2E2E2E2E2E2E2E2E2E2E2E2E2E2E2E2E2E2E2E2E2E2E2E2E2E2E2E2E2E2E2
310
E2E2E2E2E2E2E2E2E2E2E2E2E2E2E2E2E2E2E2E2E2E2E2E2E2E2E2E2E2E2E2E2E2E2E2E2E2E2E2E2E2E2E2E2E2E2E2E2E2E2E2E2E2E2E2E2E2E2E2E2E2E2E2E2E2E2E2E2E2E2E2E2E2E2E2E2E2E2E2E2E2E2E2E2E2E2E2E2E2E2E2E2E2E2E2E2E2E2E2E2E2E2E2E2E2E2E2E2E2E2E2E2E2E2E2E2E2E2E2E2E2E2E2E2E2E2E2
310
E2F5F5F5EFF5F5E2E2E2E2E2E2E2E2E2E2E2E2E2E2E2E2E2E2E2E2E2E2E2E2E2E2E2E2E2E2E2E2E2E2E2E2E2E2E2E2E2E2E2E2E2E2E2E2E2E2E2E2E2E2E2E2E2E2E2E2E2E2E2E2E2E2E2E2E2E2E2E2E2E2E2E2E2E2E2E2E2E2E2E2E2E2E2E2E2E2E2E2E2E2E2E2E2E2E2E2E2E2E2E2E2E2E2E2E2E2E2E2E2E2E2E2E2E2E2E2
310
E2E2E2E2E2E2E2E2E2E2E2E2E2E2E2E2E2E2E2E2E2E2E2E2E2E2E2E2E2E2E2E2E2E2E2E2E2E2E2E2E2E2E2E2E2E2E2E2E2E2E2E2E2E2F5F5F5EFF5E2E2E2E2E2E2E2E2E2E2E2E2E2E2E2E2E2E2E2E2E2E2E2E2E2E2E2E2E2E2E2E2E2E2E2E2E2E2E2E2E2E2E2E2E2E2E2E2E2E2E2E2E2E2E2E2E2E2E2E2E2E2E2E2E2E2E2E2
310
E2E2E2E2E2E2E2E2E2E2E2E2E2E2E2E2E2E2E2E2E2E2E2E2E2E2E2E2E2E2E2E2E2E2E2E2E2E2E2E2E2E2E2E2E2E2E2E2E2E2E2E2E2E2E2E2E2E2E2E2E2E2E2E2E2E2E2E2E2E2E2E2E2E2E2E2E2E2E2E2E2E2E2E2E2E2E2E2E2E2E2E2E2E2E2E2E2E2E2E2E2E2E2E2E2E2E2E2F5F5EFF5E2E2E2E2E2E2E2E2E2E2E2E2E2E2E2
310
E2E2E2E2E2E2E2E2E2E2E2E2E2E2E2E2E2E2E2E2E2E2E2E2E2E2E2E2E2E2E2E2E2E2E2E2E2E2E2E2E2E2E2E2E2E2E2E2E2E2E2E2E2E2E2E2E2E2E2E2E2E2E2E2E2E2E2E2E2E2E2E2E2E2E2E2E2E2E2E2E2E2E2E2E2E2E2E2E2E2E2E2E2E2E2E2E2E2E2E2E2E2E2E2E2E2E2E2E2E2E2E2E2E2E2E2E2E2E2E2E2E2E2E2E2E2E2
310
E2E2E2E2E2E2E2E2E2E2E2E2E2E2E2E2E2E2E2E2E2E2E2E2E2E2E2E2E2E2E2E2E2E2F5F5EFF5E2E2E2E2E2E2E2E2E2E2E2E2E2E2E2E2E2E2E2E2E2E2E2E2E2E2E2E2E2E2E2E2E2E2E2E2E2E2E2E2E2E2E2E2E2E2E2E2E2E2E2E2E2E2E2E2E2E2E2E2E2E2E2E2E2E2E2E2E2E2E2E2E2E2E2E2E2E2E2E2E2E2E2E2E2E2E2E2E2
310
E2E2E2E2E2E2E2E2E2E2E2E2E2E2E2E2E2E2E2E2E2E2E2E2E2E2E2E2E2E2E2E2E2E2E2E2E2E2E2E2E2E2E2E2E2E2E2E2E2E2E2E2E2E2E2E2E2E2E2E2E2E2E2E2E2E2E2E2E2E2E2E2E2E2E2E2E2E2E2E2E2E2E2E2E2E2E2F5F5EFF5E2E2E2E2E2E2E2E2E2E2E2E2E2E2E2E2E2E2E2E2E2E2E2E2E2E2E2E2E2E2E2E2E2E2E2E2
310
E2E2E2E2E2E2E2E2E2E2E2E2E2E2E2E2E2E2E2E2E2E2E2E2E2E2E2E2E2E2E2E2E2E2E2E2E2E2E2E2E2E2E2E2E2E2E2E2E2E2E2E2E2E2E2E2E2E2E2E2E2E2E2E2E2E2E2E2E2E2E2E2E2E2E2E2E2E2E2E2E2E2E2E2E2E2E2E2E2E2E2E2E2E2E2E2E2E2E2E2E2E2E2E2E2E2E2E2E2E2E2E2E2E2E2E2E2E2E2E2E2E2E2E2E2E2E2
310
E2E2E2E2E2E2E2E2E2E2E2E2E2F5F5EFF5E2E2E2E2E2E2E2E2E2E2E2E2E2E2E2E2E2E2E2E2E2E2E2E2E2E2E2E2E2E2E2E2E2E2E2E2E2E2E2E2E2E2E2E2E2E2E2E2E2E2E2E2E2E2E2E2E2E2E2E2E2E2E2E2E2E2E2E2E2E2E2E2E2E2E2E2E2E2E2E2E2E2E2E2E2E2E2E2E2E2E2E2E2E2E2E2E2E2E2E2E2E2E2E2E2E2E2E2E2E2
310
E2E2E2E2E2E2E2E2E2E2E2E2E2E2E2E2E2E2E2E2E2E2E2E2E2E2E2E2E2E2E2E2E2E2E2E2E2E2E2E2E2E2E2E2E2E2E2E2E2E2E2E2E2E2E2E2E2E2E2E2E2E2E2E2E2E2F5F5EFF5E2E2E2E2E2E2E2E2E2E2E2E2E2E2E2E2E2E2E2E2E2E2E2E2E2E2E2E2E2E2E2E2E2E2E2E2E2E2E2E2E2E2E2E2E2E2E2E2E2E2E2E2E2E2E2E2E2
310
E2E2E2E2E2E2E2E2E2E2E2E2E2E2E2E2E2E2E2E2E2E2E2E2E2E2E2E2E2E2E2E2E2E2E2E2E2E2E2E2E2E2E2E2E2E2E2E2E2E2E2E2E2E2E2E2E2E2E2E2E2E2E2E2E2E2E2E2E2E2E2E2E2E2E2E2E2E2E2E2E2E2E2E2E2E2E2E2E2E2E2E2E2E2E2E2E2E2E2E2E2E2E2E2E2E2E2E2E2E2E2E2E2E2E2E2E2E2E2F5F5EFF5E2E2E2E2
310
E2E2E2E2E2E2E2E2E2E2E2E2E2E2E2E2E2E2E2E2E2E2E2E2E2E2E2E2E2E2E2E2E2E2E2E2E2E2E2E2E2E2E2E2E2E2E2E2E2E2E2E2E2E2E2E2E2E2E2E2E2E2E2E2E2E2E2E2E2E2E2E2E2E2E2E2E2E2E2E2E2E2E2E2E2E2E2E2E2E2E2E2E2E2E2E2E2E2E2E2E2E2E2E2E2E2E2E2E2E2E2E2E2E2E2E2E2E2E2E2E2E2E2E2E2E2E2
310
E2E2E2E2E2E2E2E2E2E2E2E2E2E2E2E2E2E2E2E2E2E2E2E2E2E2E2E2E2E2E2E2E2E2E2E2E2E2E2E2E2E2E2E2E2F5F5EFF5E2E2E2E2E2E2E2E2E2E2E2E2E2E2E2E2E2E2E2E2E2E2E2E2E2E2E2E2E2E2E2E2E2E2E2E2E2E2E2E2E2E2E2E2E2E2E2E2E2E2E2E2E2E2E2E2E2E2E2E2E2E2E2E2E2E2E2E2E2E2E2E2E2E2E2E2E2E2
310
E2E2E2E2E2E2E2E2E2E2E2E2E2E2E2E2E2E2E2E2E2E2E2E2E2E2E2E2E2E2E2E2E2E2E2E2E2E2E2E2E2E2E2E2E2E2E2E2E2E2E2E2E2E2E2E2E2E2E2E2E2E2E2E2E2E2E2E2E2E2E2E2E2E2E2E2E2E2E2E2E2E2E2E2E2E2E2E2E2E2E2E2E2E2E2E2E2E2F5F5EFF5E2E2E2E2E2E2E2E2E2E2E2E2E2E2E2E2E2E2E2E2E2E2E2E2E2
310
E2E2E2E2E2E2E2E2E2E2E2E2E2E2E2E2E2E2E2E2E2E2E2E2E2E2E2E2E2E2E2E2E2E2E2E2E2E2E2E2E2E2E2E2E2E2E2E2E2E2E2E2E2E2E2E2E2E2E2E2E2E2E2E2E2E2E2E2E2E2E2E2E2E2E2E2E2E2E2E2E2E2E2E2E2E2E2E2E2E2E2E2E2E2E2E2E2E2E2E2E2E2E2E2E2E2E2E2E2E2E2E2E2E2E2E2E2E2E2E2E2E2E2E2E2E2E2
310
E2E2E2E2E2E2E2E2E2E2E2E2E2E2E2E2E2E2E2E2E2E2E2E2F5F5EFF5F5E2E2E2E2E2E2E2E2E2E2E2E2E2E2E2E2E2E2E2E2E2E2E2E2E2E2E2E2E2E2E2E2E2E2E2E2E2E2E2E2E2E2E2E2E2E2E2E2E2E2E2E2E2E2E2E2E2E2E2E2E2E2E2E2E2E2E2E2E2E2E2E2E2E2E2E2E2E2E2E2E2E2E2E2E2E2E2E2E2E2E2E2E2E2E2E2E2E2
310
E2E2E2E2E2E2E2E2E2E2E2E2E2E2E2E2E2E2E2E2E2E2E2E2E2E2E2E2E2E2E2E2E2E2E2E2E2E2E2E2E2E2E2E2E2E2E2E2E2E2E2E2E2E2E2E2E2E2E2E2E2E2E2E2E2E2E2E2E2E2E2E2E2E2E2E2F5F5F5EFF5F5E2E2E2E2E2E2E2E2E2E2E2E2E2E2E2E2E2E2E2E2E2E2E2E2E2E2E2E2E2E2E2E2E2E2E2E2E2E2E2E2E2E2E2E2E2
310
E2E2E2E2E2E2E2E2E2E2E2E2E2E2E2E2E2E2E2E2E2E2E2E2E2E2E2E2E2E2E2E2E2E2E2E2E2E2E2E2E2E2E2E2E2E2E2E2E2E2E2E2E2E2E2E2E2E2E2E2E2E2E2E2E2E2E2E2E2E2E2E2E2E2E2E2E2E2E2E2E2E2E2E2E2E2E2E2E2E2E2E2E2E2E2E2E2E2E2E2E2E2E2E2E2E2E2E2E2E2E2E2E2E2E2E2E2E2E2E2E2E2E2E2E2E2E2
310
E2E2F5F5F5EFF5F5E2E2E2E2E2E2E2E2E2E2E2E2E2E2E2E2E2E2E2E2E2E2E2E2E2E2E2E2E2E2E2E2E2E2E2E2E2E2E2E2E2E2E2E2E2E2E2E2E2E2E2E2E2E2E2E2E2E2E2E2E2E2E2E2E2E2E2E2E2E2E2E2E2E2E2E2E2E2E2E2E2E2E2E2E2E2E2E2E2E2E2E2E2E2E2E2E2E2E2E2E2E2E2E2E2E2E2E2E2E2E2E2E2E2E2E2E2E2E2
310
E2E2E2E2E2E2E2E2E2E2E2E2E2E2E2E2E2E2E2E2E2E2E2E2E2E2E2E2E2E2E2E2E2E2E2E2E2E2E2E2E2E2E2E2E2E2E2E2E2E2E2E2E2E2E2F5F5F5EFF5F5E2E2E2E2E2E2E2E2E2E2E2E2E2E2E2E2E2E2E2E2E2E2E2E2E2E2E2E2E2E2E2E2E2E2E2E2E2E2E2E2E2E2E2E2E2E2E2E2E2E2E2E2E2E2E2E2E2E2E2E2E2E2E2E2E2E2
310
E2E2E2E2E2E2E2E2E2E2E2E2E2E2E2E2E2E2E2E2E2E2E2E2E2E2E2E2E2E2E2E2E2E2E2E2E2E2E2E2E2E2E2E2E2E2E2E2E2E2E2E2E2E2E2E2E2E2E2E2E2E2E2E2E2E2E2E2E2E2E2E2E2E2E2E2E2E2E2E2E2E2E2E2E2E2E2E2E2E2E2E2E2E2E2E2E2E2E2E2E2E2E2E2E2E2E2E2F5F5F5EFF5F5E2E2E2E2E2E2E2E2E2E2E2E2E2
310
E2E2E2E2E2E2E2E2E2E2E2E2E2E2E2E2E2E2E2E2E2E2E2E2E2E2E2E2E2E2E2E2E2E2E2E2E2E2E2E2E2E2E2E2E2E2E2E2E2E2E2E2E2E2E2E2E2E2E2E2E2E2E2E2E2E2E2E2E2E2E2E2E2E2E2E2E2E2E2E2E2E2E2E2E2E2E2E2E2E2E2E2E2E2E2E2E2E2E2E2E2E2E2E2E2E2E2E2E2E2E2E2E2E2E2E2E2E2E2E2E2E2E2E2E2E2E2
310
E2E2E2E2E2E2E2E2E2E2E2E2E2E2E2E2E2E2E2E2E2E2E2E2E2E2E2E2E2E2E2E2E2E2F5F5F5EFF5F5E2E2E2E2E2E2E2E2E2E2E2E2E2E2E2E2E2E2E2E2E2E2E2E2E2E2E2E2E2E2E2E2E2E2E2E2E2E2E2E2E2E2E2E2E2E2E2E2E2E2E2E2E2E2E2E2E2E2E2E2E2E2E2E2E2E2E2E2E2E2E2E2E2E2E2E2E2E2E2E2E2E2E2E2E2E2E2
310
E2E2E2E2E2E2E2E2E2E2E2E2E2E2E2E2E2E2E2E2E2E2E2E2E2E2E2E2E2E2E2E2E2E2E2E2E2E2E2E2E2E2E2E2E2E2E2E2E2E2E2E2E2E2E2E2E2E2E2E2E2E2E2E2E2E2E2E2E2E2E2E2E2E2E2E2E2E2E2E2E2E2E2E2E2E2E2F5F5F5EFF5F5E2E2E2E2E2E2E2E2E2E2E2E2E2E2E2E2E2E2E2E2E2E2E2E2E2E2E2E2E2E2E2E2E2E2
310
E2E2E2E2E2E2E2E2E2E2E2E2E2E2E2E2E2E2E2E2E2E2E2E2E2E2E2E2E2E2E2E2E2E2E2E2E2E2E2E2E2E2E2E2E2E2E2E2E2E2E2E2E2E2E2E2E2E2E2E2E2E2E2E2E2E2E2E2E2E2E2E2E2E2E2E2E2E2E2E2E2E2E2E2E2E2E2E2E2E2E2E2E2E2E2E2E2E2E2E2E2E2E2E2E2E2E2E2E2E2E2E2E2E2E2E2E2E2E2E2E2E2E2E2E2E2E2
310
E2E2E2E2E2E2E2E2E2E2E2E2E2F5F5F5EFF5F5F5F5F5F5F5F5F5F5E2E2E2E2E2E2E2E2E2F5F5F5F5F5F5F5F5F5F5F5F5F5F5F5F5E2E2E2E2E2E2E2E2E2F5F5F5F5F5F5F5F5F5F5F5F5F5F5F5F5E2E2E2E2E2E2E2E2E2F5F5F5F5F5F5F5F5F5F5F5F5F5F5F5F5E2E2E2E2E2E2E2E2E2F5F5F5F5F5F5F5F5F5F5F5F5F5F5F5F5
310
E2E2E2E2E2E2E2E2E2F5F5F5F5F5F5F5F5F5F5F5F5F5F5F5F5E2E2E2E2E2E2E2E2E2F5F5F5F5F5F5F5F5F5F5F5F5F5F5F5F5E2E2E2E2E2E2E2E2E2F5F5F5F5F5F5F5F5F5F5EFF5E2E2E2E2E2E2E2E2E2E2E2E2E2E2E2E2E2E2E2E2E2E2E2E2E2E2E2E2E2E2E2E2E2E2E2E2E2E2E2E2E2E2E2E2E2E2E2E2E2E2E2E2E2E2E2E2
310
E2E2E2E2E2E2E2E2E2E2E2E2E2E2E2E2E2E2E2E2E2E2E2E2E2E2E2E2E2E2E2E2E2E2E2E2E2E2E2E2E2E2E2E2E2E2E2E2E2E2E2E2E2E2E2E2E2E2E2E2E2E2E2E2E2E2E2E2E2E2E2E2E2E2E2E2E2E2E2E2E2E2E2E2E2E2E2E2E2E2E2E2E2E2E2E2E2E2E2E2E2E2E2E2E2E2E2E2E2E2E2E2E2E2E2E2E2E2E2E2F5EFEFF5F5F5F5
310
F5F5F5F5F5F5F5F5F5F5F5F5F5F5F5F5F5F5F5F5F5F5F5F5F5F5F5F5F5F5F5F5F5F5F5F5F5F5F5F5F5F5F5F5F5F5F5F5F5F5F5F5F5F5F5F5F5F5F5F5F5F5F5F5F5F5F5F5F5F5F5F5F5F5F5F5F5F5F5F5F5F5F5F5F5F5F5F5F5F5F5F5F5F5F5F5F5F5F5F5F5F5F5F5F5F5F5F5F5F5F5F5F5F5F5F5F5F5F5F5F5F5F5F5F5F5F5
310
F5F5F5F5F5F5F5F5F5F5F5F5F5F5F5F5F5F5F5F5F5F5F5F5F5F5F5F5F5F5F5F5F5F5F5F5F5F5F5F5F5F5F5F5F5F5F5EF
  0
XRECORD
  5
419E
102
{ACAD_REACTORS
330
419D
102
}
330
419D
100
AcDbXrecord
280
     1
102
MATERIAL
148
0.0
149
0.0
149
0.0
 93
        0
 94
       63
282
     0
 72
     1
 77
     1
171
     1
175
     1
179
     1
273
     0
  0
XRECORD
  5
419C
102
{ACAD_REACTORS
330
419B
102
}
330
419B
100
AcDbXrecord
280
     1
102
MATERIAL
148
0.0
149
0.0
149
0.0
 93
        0
 94
       63
282
     0
 72
     1
 77
     1
171
     1
175
     1
179
     1
273
     0
  0
XRECORD
  5
41A0
102
{ACAD_REACTORS
330
419F
102
}
330
419F
100
AcDbXrecord
280
     1
102
MATERIAL
148
0.0
149
0.0
149
0.0
 93
        0
 94
       63
282
     0
 72
     1
 77
     1
171
     1
175
     1
179
     1
273
     0
  0
XRECORD
  5
4F05
102
{ACAD_REACTORS
330
4F04
102
}
330
4F04
100
AcDbXrecord
280
     1
102
ACAD_ROUNDTRIP_PRE2007_TABLESTYLE
 90
      512
 91
        0
  1

 92
      512
 93
        0
  2

 94
      512
 95
        0
  3

  0
ENDSEC
  0
EOF
