  0
SECTION
  2
HEADER
  9
$ACADVER
  1
AC1015
  9
$ACADMAINTVER
 70
    20
  9
$DWGCODEPAGE
  3
ANSI_932
  9
$INSBASE
 10
0.0
 20
0.0
 30
0.0
  9
$EXTMIN
 10
496.535245885876
 20
-151.2219739881359
 30
-0.072031733158113
  9
$EXTMAX
 10
736.5259685934911
 20
-4.074355266152451
 30
0.0000043966693579
  9
$LIMMIN
 10
0.0
 20
0.0
  9
$LIMMAX
 10
12.0
 20
9.0
  9
$ORTHOMODE
 70
     1
  9
$REGENMODE
 70
     1
  9
$FILLMODE
 70
     1
  9
$QTEXTMODE
 70
     0
  9
$MIRRTEXT
 70
     1
  9
$LTSCALE
 40
0.5
  9
$ATTMODE
 70
     1
  9
$TEXTSIZE
 40
2.5
  9
$TRACEWID
 40
0.05
  9
$TEXTSTYLE
  7
CatalogDxf
  9
$CLAYER
  8
Z_OM_DIM
  9
$CELTYPE
  6
BYLAYER
  9
$CECOLOR
 62
   256
  9
$CELTSCALE
 40
1.0
  9
$DISPSILH
 70
     0
  9
$DIMSCALE
 40
1.0
  9
$DIMASZ
 40
2.5
  9
$DIMEXO
 40
0.625
  9
$DIMDLI
 40
3.75
  9
$DIMRND
 40
0.0
  9
$DIMDLE
 40
0.0
  9
$DIMEXE
 40
1.25
  9
$DIMTP
 40
0.0
  9
$DIMTM
 40
0.0
  9
$DIMTXT
 40
2.5
  9
$DIMCEN
 40
2.5
  9
$DIMTSZ
 40
0.0
  9
$DIMTOL
 70
     0
  9
$DIMLIM
 70
     0
  9
$DIMTIH
 70
     0
  9
$DIMTOH
 70
     0
  9
$DIMSE1
 70
     0
  9
$DIMSE2
 70
     0
  9
$DIMTAD
 70
     1
  9
$DIMZIN
 70
     8
  9
$DIMBLK
  1
OPEN30
  9
$DIMASO
 70
     1
  9
$DIMSHO
 70
     1
  9
$DIMPOST
  1

  9
$DIMAPOST
  1

  9
$DIMALT
 70
     0
  9
$DIMALTD
 70
     3
  9
$DIMALTF
 40
0.03937007874016
  9
$DIMLFAC
 40
1.0
  9
$DIMTOFL
 70
     1
  9
$DIMTVP
 40
0.0
  9
$DIMTIX
 70
     0
  9
$DIMSOXD
 70
     0
  9
$DIMSAH
 70
     0
  9
$DIMBLK1
  1

  9
$DIMBLK2
  1

  9
$DIMSTYLE
  2
CatalogDxf
  9
$DIMCLRD
 70
   256
  9
$DIMCLRE
 70
   256
  9
$DIMCLRT
 70
   256
  9
$DIMTFAC
 40
1.0
  9
$DIMGAP
 40
0.625
  9
$DIMJUST
 70
     0
  9
$DIMSD1
 70
     0
  9
$DIMSD2
 70
     0
  9
$DIMTOLJ
 70
     0
  9
$DIMTZIN
 70
     8
  9
$DIMALTZ
 70
     0
  9
$DIMALTTZ
 70
     0
  9
$DIMUPT
 70
     0
  9
$DIMDEC
 70
     1
  9
$DIMTDEC
 70
     1
  9
$DIMALTU
 70
     2
  9
$DIMALTTD
 70
     3
  9
$DIMTXSTY
  7
CatalogDxf
  9
$DIMAUNIT
 70
     0
  9
$DIMADEC
 70
     0
  9
$DIMALTRND
 40
0.0
  9
$DIMAZIN
 70
     0
  9
$DIMDSEP
 70
    46
  9
$DIMATFIT
 70
     3
  9
$DIMFRAC
 70
     0
  9
$DIMLDRBLK
  1
OPEN30
  9
$DIMLUNIT
 70
     2
  9
$DIMLWD
 70
    -1
  9
$DIMLWE
 70
    -1
  9
$DIMTMOVE
 70
     0
  9
$LUNITS
 70
     2
  9
$LUPREC
 70
     2
  9
$SKETCHINC
 40
0.1
  9
$FILLETRAD
 40
0.0
  9
$AUNITS
 70
     0
  9
$AUPREC
 70
     2
  9
$MENU
  1
acad
  9
$ELEVATION
 40
0.0
  9
$PELEVATION
 40
0.0
  9
$THICKNESS
 40
0.0
  9
$LIMCHECK
 70
     0
  9
$CHAMFERA
 40
0.0
  9
$CHAMFERB
 40
0.0
  9
$CHAMFERC
 40
0.0
  9
$CHAMFERD
 40
0.0
  9
$SKPOLY
 70
     0
  9
$TDCREATE
 40
2455090.761732894
  9
$TDUCREATE
 40
2455090.386732893
  9
$TDUPDATE
 40
2455678.573901192
  9
$TDUUPDATE
 40
2455678.198901193
  9
$TDINDWG
 40
0.5490534491
  9
$TDUSRTIMER
 40
0.5490467477
  9
$USRTIMER
 70
     1
  9
$ANGBASE
 50
0.0
  9
$ANGDIR
 70
     0
  9
$PDMODE
 70
     0
  9
$PDSIZE
 40
0.0
  9
$PLINEWID
 40
0.0
  9
$SPLFRAME
 70
     0
  9
$SPLINETYPE
 70
     6
  9
$SPLINESEGS
 70
     8
  9
$HANDSEED
  5
478A
  9
$SURFTAB1
 70
     6
  9
$SURFTAB2
 70
     6
  9
$SURFTYPE
 70
     6
  9
$SURFU
 70
     6
  9
$SURFV
 70
     6
  9
$UCSBASE
  2

  9
$UCSNAME
  2

  9
$UCSORG
 10
0.0
 20
0.0
 30
0.0
  9
$UCSXDIR
 10
1.0
 20
0.0
 30
0.0
  9
$UCSYDIR
 10
0.0
 20
1.0
 30
0.0
  9
$UCSORTHOREF
  2

  9
$UCSORTHOVIEW
 70
     1
  9
$UCSORGTOP
 10
0.0
 20
0.0
 30
0.0
  9
$UCSORGBOTTOM
 10
0.0
 20
0.0
 30
0.0
  9
$UCSORGLEFT
 10
0.0
 20
0.0
 30
0.0
  9
$UCSORGRIGHT
 10
0.0
 20
0.0
 30
0.0
  9
$UCSORGFRONT
 10
0.0
 20
0.0
 30
0.0
  9
$UCSORGBACK
 10
0.0
 20
0.0
 30
0.0
  9
$PUCSBASE
  2

  9
$PUCSNAME
  2

  9
$PUCSORG
 10
0.0
 20
0.0
 30
0.0
  9
$PUCSXDIR
 10
1.0
 20
0.0
 30
0.0
  9
$PUCSYDIR
 10
0.0
 20
1.0
 30
0.0
  9
$PUCSORTHOREF
  2

  9
$PUCSORTHOVIEW
 70
     0
  9
$PUCSORGTOP
 10
0.0
 20
0.0
 30
0.0
  9
$PUCSORGBOTTOM
 10
0.0
 20
0.0
 30
0.0
  9
$PUCSORGLEFT
 10
0.0
 20
0.0
 30
0.0
  9
$PUCSORGRIGHT
 10
0.0
 20
0.0
 30
0.0
  9
$PUCSORGFRONT
 10
0.0
 20
0.0
 30
0.0
  9
$PUCSORGBACK
 10
0.0
 20
0.0
 30
0.0
  9
$USERI1
 70
     0
  9
$USERI2
 70
     0
  9
$USERI3
 70
     0
  9
$USERI4
 70
     0
  9
$USERI5
 70
     0
  9
$USERR1
 40
0.0
  9
$USERR2
 40
0.0
  9
$USERR3
 40
0.0
  9
$USERR4
 40
0.0
  9
$USERR5
 40
0.0
  9
$WORLDVIEW
 70
     1
  9
$SHADEDGE
 70
     3
  9
$SHADEDIF
 70
    70
  9
$TILEMODE
 70
     1
  9
$MAXACTVP
 70
    16
  9
$PINSBASE
 10
0.0
 20
0.0
 30
0.0
  9
$PLIMCHECK
 70
     0
  9
$PEXTMIN
 10
1.000000000000000E+20
 20
1.000000000000000E+20
 30
1.000000000000000E+20
  9
$PEXTMAX
 10
-1.000000000000000E+20
 20
-1.000000000000000E+20
 30
-1.000000000000000E+20
  9
$PLIMMIN
 10
0.0
 20
0.0
  9
$PLIMMAX
 10
12.0
 20
9.0
  9
$UNITMODE
 70
     0
  9
$VISRETAIN
 70
     0
  9
$PLINEGEN
 70
     0
  9
$PSLTSCALE
 70
     1
  9
$TREEDEPTH
 70
  3020
  9
$CMLSTYLE
  2
STANDARD
  9
$CMLJUST
 70
     0
  9
$CMLSCALE
 40
1.0
  9
$PROXYGRAPHICS
 70
     1
  9
$MEASUREMENT
 70
     0
  9
$CELWEIGHT
370
    -1
  9
$ENDCAPS
280
     0
  9
$JOINSTYLE
280
     0
  9
$LWDISPLAY
290
     0
  9
$INSUNITS
 70
     0
  9
$HYPERLINKBASE
  1

  9
$STYLESHEET
  1
monochrome.ctb
  9
$XEDIT
290
     1
  9
$CEPSNTYPE
380
     0
  9
$PSTYLEMODE
290
     1
  9
$FINGERPRINTGUID
  2
{AFC0AA2D-B3CD-48CF-B830-EF9C44F122D3}
  9
$VERSIONGUID
  2
{E833EA2D-3557-4E1A-BC89-824387249910}
  9
$EXTNAMES
290
     1
  9
$PSVPSCALE
 40
0.0
  9
$OLESTARTUP
290
     0
  0
ENDSEC
  0
SECTION
  2
CLASSES
  0
CLASS
  1
ACDBDICTIONARYWDFLT
  2
AcDbDictionaryWithDefault
  3
ObjectDBX Classes
 90
        0
280
     0
281
     0
  0
CLASS
  1
DICTIONARYVAR
  2
AcDbDictionaryVar
  3
ObjectDBX Classes
 90
        0
280
     0
281
     0
  0
CLASS
  1
MATERIAL
  2
AcDbMaterial
  3
ObjectDBX Classes
 90
        0
280
     0
281
     0
  0
CLASS
  1
VISUALSTYLE
  2
AcDbVisualStyle
  3
ObjectDBX Classes
 90
     4095
280
     0
281
     0
  0
CLASS
  1
TABLESTYLE
  2
AcDbTableStyle
  3
ObjectDBX Classes
 90
     2047
280
     0
281
     0
  0
CLASS
  1
DIMASSOC
  2
AcDbDimAssoc
  3
"AcDbDimAssoc|Product Desc:     AcDim ARX App For Dimension|Company:          Autodesk, Inc.|WEB Address:      www.autodesk.com"
 90
    32768
280
     0
281
     0
  0
CLASS
  1
SORTENTSTABLE
  2
AcDbSortentsTable
  3
ObjectDBX Classes
 90
        0
280
     0
281
     0
  0
CLASS
  1
ACDBPLACEHOLDER
  2
AcDbPlaceHolder
  3
ObjectDBX Classes
 90
        0
280
     0
281
     0
  0
CLASS
  1
LAYOUT
  2
AcDbLayout
  3
ObjectDBX Classes
 90
        0
280
     0
281
     0
  0
ENDSEC
  0
SECTION
  2
TABLES
  0
TABLE
  2
VPORT
  5
8
102
{ACAD_XDICTIONARY
360
458D
102
}
330
0
100
AcDbSymbolTable
 70
     2
  0
VPORT
  5
4783
330
8
100
AcDbSymbolTableRecord
100
AcDbViewportTableRecord
  2
*Active
 70
     0
 10
0.0
 20
0.0
 11
1.0
 21
1.0
 12
659.6121919718159
 22
-76.66325908612932
 13
0.0
 23
0.0
 14
1.0
 24
1.0
 15
0.0
 25
0.0
 16
0.0
 26
0.0
 36
1.0
 17
0.0
 27
0.0
 37
0.0
 40
177.241212893234
 41
2.288973384030418
 42
50.0
 43
0.0
 44
0.0
 50
0.0
 51
0.0
 71
     0
 72
   100
 73
     1
 74
     1
 75
     0
 76
     0
 77
     0
 78
     0
281
     0
 65
     1
110
0.0
120
0.0
130
0.0
111
1.0
121
0.0
131
0.0
112
0.0
122
1.0
132
0.0
 79
     0
146
0.0
  0
ENDTAB
  0
TABLE
  2
LTYPE
  5
5
330
0
100
AcDbSymbolTable
 70
     3
  0
LTYPE
  5
11
330
5
100
AcDbSymbolTableRecord
100
AcDbLinetypeTableRecord
  2
BYBLOCK
 70
     0
  3

 72
    65
 73
     0
 40
0.0
  0
LTYPE
  5
12
330
5
100
AcDbSymbolTableRecord
100
AcDbLinetypeTableRecord
  2
BYLAYER
 70
     0
  3

 72
    65
 73
     0
 40
0.0
  0
LTYPE
  5
13
330
5
100
AcDbSymbolTableRecord
100
AcDbLinetypeTableRecord
  2
CONTINUOUS
 70
     0
  3
Solid line
 72
    65
 73
     0
 40
0.0
  0
LTYPE
  5
3DB3
330
5
100
AcDbSymbolTableRecord
100
AcDbLinetypeTableRecord
  2
CENTER2
 70
     0
  3
Center (.5x) ___ _ ___ _ ___ _ ___ _ ___ _ ___
 72
    65
 73
     4
 40
28.575
 49
19.05
 74
     0
 49
-3.174999999999998
 74
     0
 49
3.174999999999998
 74
     0
 49
-3.174999999999998
 74
     0
  0
LTYPE
  5
3DB4
330
5
100
AcDbSymbolTableRecord
100
AcDbLinetypeTableRecord
  2
HIDDEN2
 70
     0
  3
Hidden (.5x) _ _ _ _ _ _ _ _ _ _ _ _ _ _ _ _ _
 72
    65
 73
     2
 40
4.762499999999998
 49
3.174999999999998
 74
     0
 49
-1.587499999999999
 74
     0
  0
ENDTAB
  0
TABLE
  2
LAYER
  5
2
102
{ACAD_XDICTIONARY
360
3DBA
102
}
330
0
100
AcDbSymbolTable
 70
     4
  0
LAYER
  5
E
102
{ACAD_XDICTIONARY
360
458F
102
}
330
2
100
AcDbSymbolTableRecord
100
AcDbLayerTableRecord
  2
0
 70
     0
 62
     7
  6
CONTINUOUS
370
    -3
390
3D41
  0
LAYER
  5
27
102
{ACAD_XDICTIONARY
360
4591
102
}
330
2
100
AcDbSymbolTableRecord
100
AcDbLayerTableRecord
  2
Z_OM_DIM
 70
     0
 62
     4
  6
CONTINUOUS
370
    -3
390
3D41
  0
LAYER
  5
2B
102
{ACAD_XDICTIONARY
360
4593
102
}
330
2
100
AcDbSymbolTableRecord
100
AcDbLayerTableRecord
  2
DEFPOINTS
 70
     0
 62
     7
  6
CONTINUOUS
290
     0
370
    -3
390
3D41
  0
LAYER
  5
3DB5
102
{ACAD_XDICTIONARY
360
4597
102
}
330
2
100
AcDbSymbolTableRecord
100
AcDbLayerTableRecord
  2
additional
 70
     0
 62
    50
  6
CONTINUOUS
370
    -3
390
3D41
1001
AcAecLayerStandard
1000

1000

  0
ENDTAB
  0
TABLE
  2
STYLE
  5
3
330
0
100
AcDbSymbolTable
 70
     4
  0
STYLE
  5
F
330
3
100
AcDbSymbolTableRecord
100
AcDbTextStyleTableRecord
  2
STANDARD
 70
     0
 40
0.0
 41
1.08
 50
0.0
 71
     0
 42
3.0
  3
txt.shx
  4
bigfont.shx
  0
STYLE
  5
3DB6
330
3
100
AcDbSymbolTableRecord
100
AcDbTextStyleTableRecord
  2
CatalogDxf
 70
     0
 40
0.0
 41
1.0
 50
0.0
 71
     0
 42
2.5
  3
txt.shx
  4
bigfont.shx
  0
STYLE
  5
4196
330
3
100
AcDbSymbolTableRecord
100
AcDbTextStyleTableRecord
  2

 70
     1
 40
0.0
 41
1.0
 50
0.0
 71
     0
 42
3.0
  3
ltypeshp.shx
  4

  0
ENDTAB
  0
TABLE
  2
VIEW
  5
6
330
0
100
AcDbSymbolTable
 70
     0
  0
ENDTAB
  0
TABLE
  2
UCS
  5
7
330
0
100
AcDbSymbolTable
 70
     0
  0
ENDTAB
  0
TABLE
  2
APPID
  5
9
330
0
100
AcDbSymbolTable
 70
     7
  0
APPID
  5
10
330
9
100
AcDbSymbolTableRecord
100
AcDbRegAppTableRecord
  2
ACAD
 70
     0
  0
APPID
  5
3D5E
330
9
100
AcDbSymbolTableRecord
100
AcDbRegAppTableRecord
  2
ACAD_PSEXT
 70
     0
  0
APPID
  5
3DB9
330
9
100
AcDbSymbolTableRecord
100
AcDbRegAppTableRecord
  2
AcAecLayerStandard
 70
     0
  0
APPID
  5
41A3
330
9
100
AcDbSymbolTableRecord
100
AcDbRegAppTableRecord
  2
ACAD_DSTYLE_DIM_LINETYPE
 70
     0
  0
APPID
  5
41A4
330
9
100
AcDbSymbolTableRecord
100
AcDbRegAppTableRecord
  2
ACAD_DSTYLE_DIM_EXT1_LINETYPE
 70
     0
  0
APPID
  5
41A5
330
9
100
AcDbSymbolTableRecord
100
AcDbRegAppTableRecord
  2
ACAD_DSTYLE_DIM_EXT2_LINETYPE
 70
     0
  0
APPID
  5
45BE
330
9
100
AcDbSymbolTableRecord
100
AcDbRegAppTableRecord
  2
ACAD_DSTYLE_DIMTEXT_FILL
 70
     0
  0
ENDTAB
  0
TABLE
  2
DIMSTYLE
  5
A
330
0
100
AcDbSymbolTable
 70
     4
100
AcDbDimStyleTable
 71
     2
340
3DB8
340
30
  0
DIMSTYLE
105
30
330
A
100
AcDbSymbolTableRecord
100
AcDbDimStyleTableRecord
  2
STANDARD
 70
     0
 41
6.0
 42
1.0
 43
16.0
 44
3.0
 73
     0
 74
     0
 77
     1
 78
     8
140
4.4
141
10.0
147
1.6
172
     1
176
   256
177
   256
178
   256
340
F
341
977
342
977
  0
DIMSTYLE
105
3DB8
102
{ACAD_REACTORS
330
4313
330
44EA
330
44F9
330
4506
330
4513
330
4520
330
452D
330
453A
330
4549
330
4556
330
4563
330
4697
102
}
330
A
100
AcDbSymbolTableRecord
100
AcDbDimStyleTableRecord
  2
CatalogDxf
 70
     0
 41
2.5
 42
0.625
 43
3.75
 44
1.25
 73
     0
 74
     0
 77
     1
 78
     8
140
2.5
141
2.5
143
0.03937007874016
147
0.625
171
     3
172
     1
176
   256
177
   256
178
   256
271
     1
272
     1
274
     3
283
     0
284
     8
340
3DB6
341
977
342
977
371
    -1
372
    -1
1001
ACAD_DSTYLE_DIM_LINETYPE
1070
   380
1005
12
1001
ACAD_DSTYLE_DIM_EXT1_LINETYPE
1070
   381
1005
12
1001
ACAD_DSTYLE_DIM_EXT2_LINETYPE
1070
   382
1005
12
  0
DIMSTYLE
105
4353
330
A
100
AcDbSymbolTableRecord
100
AcDbDimStyleTableRecord
  2
ISO-25
 70
     0
 41
2.5
 42
0.625
 43
3.75
 44
1.25
 73
     0
 74
     0
 77
     1
 78
     8
140
2.5
141
2.5
143
0.03937007874016
147
0.625
171
     3
172
     1
271
     2
272
     2
274
     3
278
    44
283
     0
284
     8
340
F
  0
ENDTAB
  0
TABLE
  2
BLOCK_RECORD
  5
1
330
0
100
AcDbSymbolTable
 70
    14
  0
BLOCK_RECORD
  5
17
102
{ACAD_XDICTIONARY
360
1808
102
}
330
1
100
AcDbSymbolTableRecord
100
AcDbBlockTableRecord
  2
*MODEL_SPACE
340
3D5B
  0
BLOCK_RECORD
  5
14
102
{ACAD_XDICTIONARY
360
1806
102
}
330
1
100
AcDbSymbolTableRecord
100
AcDbBlockTableRecord
  2
*PAPER_SPACE
340
3D5C
  0
BLOCK_RECORD
  5
977
330
1
100
AcDbSymbolTableRecord
100
AcDbBlockTableRecord
  2
_OPEN30
340
0
102
{BLKREFS
331
461F
331
4620
331
4657
331
4658
331
4690
331
4691
331
469C
331
469D
331
46C9
331
46CA
331
46D2
331
46D3
331
46DB
331
46DC
331
46E4
331
46E5
331
46F6
331
46F7
331
4724
331
4725
331
4751
331
4752
331
475B
331
475C
102
}
  0
BLOCK_RECORD
  5
4314
330
1
100
AcDbSymbolTableRecord
100
AcDbBlockTableRecord
  2
*D1
340
0
  0
BLOCK_RECORD
  5
44EB
330
1
100
AcDbSymbolTableRecord
100
AcDbBlockTableRecord
  2
*D2
340
0
  0
BLOCK_RECORD
  5
44FA
330
1
100
AcDbSymbolTableRecord
100
AcDbBlockTableRecord
  2
*D3
340
0
  0
BLOCK_RECORD
  5
4507
330
1
100
AcDbSymbolTableRecord
100
AcDbBlockTableRecord
  2
*D4
340
0
  0
BLOCK_RECORD
  5
4514
330
1
100
AcDbSymbolTableRecord
100
AcDbBlockTableRecord
  2
*D5
340
0
  0
BLOCK_RECORD
  5
4521
330
1
100
AcDbSymbolTableRecord
100
AcDbBlockTableRecord
  2
*D6
340
0
  0
BLOCK_RECORD
  5
452E
330
1
100
AcDbSymbolTableRecord
100
AcDbBlockTableRecord
  2
*D7
340
0
  0
BLOCK_RECORD
  5
453B
330
1
100
AcDbSymbolTableRecord
100
AcDbBlockTableRecord
  2
*D8
340
0
  0
BLOCK_RECORD
  5
454A
330
1
100
AcDbSymbolTableRecord
100
AcDbBlockTableRecord
  2
*D9
340
0
  0
BLOCK_RECORD
  5
4557
330
1
100
AcDbSymbolTableRecord
100
AcDbBlockTableRecord
  2
*D10
340
0
  0
BLOCK_RECORD
  5
4564
330
1
100
AcDbSymbolTableRecord
100
AcDbBlockTableRecord
  2
*D11
340
0
  0
BLOCK_RECORD
  5
4698
330
1
100
AcDbSymbolTableRecord
100
AcDbBlockTableRecord
  2
*D12
340
0
  0
ENDTAB
  0
ENDSEC
  0
SECTION
  2
BLOCKS
  0
BLOCK
  5
2E
330
17
100
AcDbEntity
  8
0
100
AcDbBlockBegin
  2
*MODEL_SPACE
 70
     0
 10
0.0
 20
0.0
 30
0.0
  3
*MODEL_SPACE
  1

  0
ENDBLK
  5
2F
330
17
100
AcDbEntity
  8
0
100
AcDbBlockEnd
  0
BLOCK
  5
2C
330
14
100
AcDbEntity
 67
     1
  8
0
100
AcDbBlockBegin
  2
*PAPER_SPACE
 70
     0
 10
0.0
 20
0.0
 30
0.0
  3
*PAPER_SPACE
  1

  0
ENDBLK
  5
2D
330
14
100
AcDbEntity
 67
     1
  8
0
100
AcDbBlockEnd
  0
BLOCK
  5
97B
330
977
100
AcDbEntity
  8
0
100
AcDbBlockBegin
  2
_OPEN30
 70
     0
 10
0.0
 20
0.0
 30
0.0
  3
_OPEN30
  1

  0
LINE
  5
978
330
977
100
AcDbEntity
  8
0
  6
ByBlock
 62
     0
100
AcDbLine
 10
-1.0
 20
0.26794919
 30
0.0
 11
0.0
 21
0.0
 31
0.0
  0
LINE
  5
979
330
977
100
AcDbEntity
  8
0
  6
ByBlock
 62
     0
100
AcDbLine
 10
0.0
 20
0.0
 30
0.0
 11
-1.0
 21
-0.26794919
 31
0.0
  0
LINE
  5
97A
330
977
100
AcDbEntity
  8
0
  6
ByBlock
 62
     0
100
AcDbLine
 10
0.0
 20
0.0
 30
0.0
 11
-1.0
 21
0.0
 31
0.0
  0
ENDBLK
  5
97C
330
977
100
AcDbEntity
  8
0
100
AcDbBlockEnd
  0
BLOCK
  5
431E
330
4314
100
AcDbEntity
  8
0
100
AcDbBlockBegin
  2
*D1
 70
     1
 10
0.0
 20
0.0
 30
0.0
  3
*D1
  1

  0
LINE
  5
474E
330
4314
100
AcDbEntity
  8
Z_OM_DIM
100
AcDbLine
 10
674.493175987428
 20
-42.57514922598448
 30
0.0
 11
674.493175987428
 21
-58.74621499189879
 31
0.0
  0
LINE
  5
474F
330
4314
100
AcDbEntity
  8
Z_OM_DIM
100
AcDbLine
 10
705.7077794867417
 20
-30.32514922598443
 30
0.0
 11
705.7077794867417
 21
-58.74621499189879
 31
0.0
  0
LINE
  5
4750
330
4314
100
AcDbEntity
  8
Z_OM_DIM
100
AcDbLine
 10
676.993175987428
 20
-57.49621499189879
 30
0.0
 11
703.2077794867417
 21
-57.49621499189879
 31
0.0
  0
INSERT
  5
4751
330
4314
100
AcDbEntity
  8
Z_OM_DIM
100
AcDbBlockReference
  2
_OPEN30
 10
674.493175987428
 20
-57.49621499189879
 30
0.0
 41
2.5
 42
2.5
 43
2.5
 50
180.0
  0
INSERT
  5
4752
330
4314
100
AcDbEntity
  8
Z_OM_DIM
100
AcDbBlockReference
  2
_OPEN30
 10
705.7077794867417
 20
-57.49621499189879
 30
0.0
 41
2.5
 42
2.5
 43
2.5
  0
MTEXT
  5
4753
330
4314
100
AcDbEntity
  8
Z_OM_DIM
100
AcDbMText
 10
690.1004777370849
 20
-55.62121499189879
 30
0.0
 40
2.5
 41
0.0
 71
     5
 72
     1
  1
180 - 200
  7
CatalogDxf
 73
     1
 44
1.0
1001
ACAD
1000
MTEXTBEGIN
1070
    73
1070
     1
1070
    44
1040
1.0
1070
    74
1070
     0
1000
MTEXTEND
  0
POINT
  5
4754
330
4314
100
AcDbEntity
  8
DEFPOINTS
 62
     0
100
AcDbPoint
 10
674.493175987428
 20
-41.95014922598448
 30
0.0
  0
POINT
  5
4755
330
4314
100
AcDbEntity
  8
DEFPOINTS
 62
     0
100
AcDbPoint
 10
705.7077794867417
 20
-29.70014922598443
 30
0.0
  0
POINT
  5
4756
330
4314
100
AcDbEntity
  8
DEFPOINTS
 62
     0
100
AcDbPoint
 10
705.7077794867417
 20
-57.49621499189879
 30
0.0
  0
ENDBLK
  5
431F
330
4314
100
AcDbEntity
  8
0
100
AcDbBlockEnd
  0
BLOCK
  5
44F7
330
44EB
100
AcDbEntity
  8
0
100
AcDbBlockBegin
  2
*D2
 70
     1
 10
0.0
 20
0.0
 30
0.0
  3
*D2
  1

  0
LINE
  5
471F
330
44EB
100
AcDbEntity
  8
Z_OM_DIM
100
AcDbLine
 10
623.3981759874279
 20
-27.40014922598454
 30
0.0
 11
612.6242879658463
 21
-27.40014922598453
 31
0.0
  0
LINE
  5
4720
330
44EB
100
AcDbEntity
  8
Z_OM_DIM
100
AcDbLine
 10
623.3981759874279
 20
-30.5001492259845
 30
0.0
 11
612.6242879658463
 21
-30.5001492259845
 31
0.0
  0
LINE
  5
4721
330
44EB
100
AcDbEntity
  8
Z_OM_DIM
100
AcDbLine
 10
613.8742879658463
 20
-33.0001492259845
 30
0.0
 11
613.8742879658463
 21
-35.5001492259845
 31
0.0
  0
LINE
  5
4722
330
44EB
100
AcDbEntity
  8
Z_OM_DIM
100
AcDbLine
 10
613.8742879658463
 20
-24.90014922598453
 30
0.0
 11
613.8742879658463
 21
-16.98348255931786
 31
0.0
  0
LINE
  5
4723
330
44EB
100
AcDbEntity
  8
Z_OM_DIM
100
AcDbLine
 10
613.8742879658463
 20
-30.5001492259845
 30
0.0
 11
613.8742879658463
 21
-27.40014922598453
 31
0.0
  0
INSERT
  5
4724
330
44EB
100
AcDbEntity
  8
Z_OM_DIM
100
AcDbBlockReference
  2
_OPEN30
 10
613.8742879658463
 20
-30.5001492259845
 30
0.0
 41
2.5
 42
2.5
 43
2.5
 50
90.0
  0
INSERT
  5
4725
330
44EB
100
AcDbEntity
  8
Z_OM_DIM
100
AcDbBlockReference
  2
_OPEN30
 10
613.8742879658463
 20
-27.40014922598453
 30
0.0
 41
2.5
 42
2.5
 43
2.5
 50
270.0
  0
MTEXT
  5
4726
330
44EB
100
AcDbEntity
  8
Z_OM_DIM
100
AcDbMText
 10
611.9992879658464
 20
-19.6918158926511
 30
0.0
 40
2.5
 41
0.0
 71
     5
 72
     1
  1
3.1
  7
CatalogDxf
 11
0.0000000000000001
 21
1.0
 31
0.0
 73
     1
 44
1.0
1001
ACAD
1000
MTEXTBEGIN
1070
    73
1070
     1
1070
    44
1040
1.0
1070
    74
1070
     0
1000
MTEXTEND
  0
POINT
  5
4727
330
44EB
100
AcDbEntity
  8
DEFPOINTS
 62
     0
100
AcDbPoint
 10
624.0231759874279
 20
-27.40014922598454
 30
0.0
  0
POINT
  5
4728
330
44EB
100
AcDbEntity
  8
DEFPOINTS
 62
     0
100
AcDbPoint
 10
624.0231759874279
 20
-30.5001492259845
 30
0.0
  0
POINT
  5
4729
330
44EB
100
AcDbEntity
  8
DEFPOINTS
 62
     0
100
AcDbPoint
 10
613.8742879658463
 20
-30.5001492259845
 30
0.0
  0
ENDBLK
  5
44F8
330
44EB
100
AcDbEntity
  8
0
100
AcDbBlockEnd
  0
BLOCK
  5
4504
330
44FA
100
AcDbEntity
  8
0
100
AcDbBlockBegin
  2
*D3
 70
     1
 10
0.0
 20
0.0
 30
0.0
  3
*D3
  1

  0
LINE
  5
4757
330
44FA
100
AcDbEntity
  8
Z_OM_DIM
100
AcDbLine
 10
624.0231759874279
 20
-35.03939922598454
 30
0.0
 11
624.0231759874279
 21
-48.56460985273201
 31
0.0
  0
LINE
  5
4758
330
44FA
100
AcDbEntity
  8
Z_OM_DIM
100
AcDbLine
 10
632.223175987428
 20
-31.1251492259845
 30
0.0
 11
632.223175987428
 21
-48.56460985273201
 31
0.0
  0
LINE
  5
4759
330
44FA
100
AcDbEntity
  8
Z_OM_DIM
100
AcDbLine
 10
626.5231759874279
 20
-47.31460985273201
 30
0.0
 11
629.7231759874279
 21
-47.31460985273201
 31
0.0
  0
MTEXT
  5
475A
330
44FA
100
AcDbEntity
  8
Z_OM_DIM
100
AcDbMText
 10
628.1246185963753
 20
-44.71199114000831
 30
0.0
 40
2.5
 41
0.0
 71
     5
 72
     1
  1
8.2
  7
CatalogDxf
 73
     1
 44
1.0
1001
ACAD
1000
MTEXTBEGIN
1070
    73
1070
     1
1070
    44
1040
1.0
1070
    74
1070
     0
1000
MTEXTEND
  0
INSERT
  5
475B
330
44FA
100
AcDbEntity
  8
Z_OM_DIM
100
AcDbBlockReference
  2
_OPEN30
 10
624.0231759874279
 20
-47.31460985273201
 30
0.0
 41
2.5
 42
2.5
 43
2.5
 50
180.0
  0
INSERT
  5
475C
330
44FA
100
AcDbEntity
  8
Z_OM_DIM
100
AcDbBlockReference
  2
_OPEN30
 10
632.223175987428
 20
-47.31460985273201
 30
0.0
 41
2.5
 42
2.5
 43
2.5
  0
POINT
  5
475D
330
44FA
100
AcDbEntity
  8
DEFPOINTS
 62
     0
100
AcDbPoint
 10
624.0231759874279
 20
-34.41439922598454
 30
0.0
  0
POINT
  5
475E
330
44FA
100
AcDbEntity
  8
DEFPOINTS
 62
     0
100
AcDbPoint
 10
632.223175987428
 20
-30.5001492259845
 30
0.0
  0
POINT
  5
475F
330
44FA
100
AcDbEntity
  8
DEFPOINTS
 62
     0
100
AcDbPoint
 10
632.223175987428
 20
-47.31460985273201
 30
0.0
  0
ENDBLK
  5
4505
330
44FA
100
AcDbEntity
  8
0
100
AcDbBlockEnd
  0
BLOCK
  5
4511
330
4507
100
AcDbEntity
  8
0
100
AcDbBlockBegin
  2
*D4
 70
     1
 10
0.0
 20
0.0
 30
0.0
  3
*D4
  1

  0
LINE
  5
461C
330
4507
100
AcDbEntity
  8
Z_OM_DIM
100
AcDbLine
 10
674.493175987428
 20
-43.20014922598448
 30
0.0
 11
674.493175987428
 21
-58.74621499189879
 31
0.0
  0
LINE
  5
461D
330
4507
100
AcDbEntity
  8
Z_OM_DIM
100
AcDbLine
 10
634.4931759874279
 20
-44.07514922598449
 30
0.0
 11
634.4931759874279
 21
-58.74621499189879
 31
0.0
  0
LINE
  5
461E
330
4507
100
AcDbEntity
  8
Z_OM_DIM
100
AcDbLine
 10
671.9931759874279
 20
-57.49621499189879
 30
0.0
 11
636.993175987428
 21
-57.49621499189879
 31
0.0
  0
INSERT
  5
461F
330
4507
100
AcDbEntity
  8
Z_OM_DIM
100
AcDbBlockReference
  2
_OPEN30
 10
674.493175987428
 20
-57.49621499189879
 30
0.0
 41
2.5
 42
2.5
 43
2.5
  0
INSERT
  5
4620
330
4507
100
AcDbEntity
  8
Z_OM_DIM
100
AcDbBlockReference
  2
_OPEN30
 10
634.4931759874279
 20
-57.49621499189879
 30
0.0
 41
2.5
 42
2.5
 43
2.5
 50
180.0
  0
MTEXT
  5
4621
330
4507
100
AcDbEntity
  8
Z_OM_DIM
100
AcDbMText
 10
654.4931759874279
 20
-55.62121499189879
 30
0.0
 40
2.5
 41
0.0
 71
     5
 72
     1
  1
40
  7
CatalogDxf
 73
     1
 44
1.0
1001
ACAD
1000
MTEXTBEGIN
1070
    73
1070
     1
1070
    44
1040
1.0
1070
    74
1070
     0
1000
MTEXTEND
  0
POINT
  5
4622
330
4507
100
AcDbEntity
  8
DEFPOINTS
 62
     0
100
AcDbPoint
 10
674.493175987428
 20
-42.57514922598448
 30
0.0
  0
POINT
  5
4623
330
4507
100
AcDbEntity
  8
DEFPOINTS
 62
     0
100
AcDbPoint
 10
634.4931759874279
 20
-43.45014922598449
 30
0.0
  0
POINT
  5
4624
330
4507
100
AcDbEntity
  8
DEFPOINTS
 62
     0
100
AcDbPoint
 10
634.4931759874279
 20
-57.49621499189879
 30
0.0
  0
ENDBLK
  5
4512
330
4507
100
AcDbEntity
  8
0
100
AcDbBlockEnd
  0
BLOCK
  5
451E
330
4514
100
AcDbEntity
  8
0
100
AcDbBlockBegin
  2
*D5
 70
     1
 10
0.0
 20
0.0
 30
0.0
  3
*D5
  1

  0
LINE
  5
46D8
330
4514
100
AcDbEntity
  8
Z_OM_DIM
100
AcDbLine
 10
666.1618901792717
 20
-91.48476191569676
 30
0.0
 11
689.8385850239217
 21
-91.48476191569677
 31
0.0
  0
LINE
  5
46D9
330
4514
100
AcDbEntity
  8
Z_OM_DIM
100
AcDbLine
 10
666.1618901792717
 20
-110.8847619156967
 30
0.0
 11
689.8385850239217
 21
-110.8847619156967
 31
0.0
  0
LINE
  5
46DA
330
4514
100
AcDbEntity
  8
Z_OM_DIM
100
AcDbLine
 10
688.5885850239217
 20
-93.98476191569677
 30
0.0
 11
688.5885850239217
 21
-108.3847619156967
 31
0.0
  0
INSERT
  5
46DB
330
4514
100
AcDbEntity
  8
Z_OM_DIM
100
AcDbBlockReference
  2
_OPEN30
 10
688.5885850239217
 20
-91.48476191569677
 30
0.0
 41
2.5
 42
2.5
 43
2.5
 50
90.0
  0
INSERT
  5
46DC
330
4514
100
AcDbEntity
  8
Z_OM_DIM
100
AcDbBlockReference
  2
_OPEN30
 10
688.5885850239217
 20
-110.8847619156967
 30
0.0
 41
2.5
 42
2.5
 43
2.5
 50
270.0
  0
MTEXT
  5
46DD
330
4514
100
AcDbEntity
  8
Z_OM_DIM
100
AcDbMText
 10
686.7135850239217
 20
-101.1847619156966
 30
0.0
 40
2.5
 41
0.0
 71
     5
 72
     1
  1
19.4
  7
CatalogDxf
 11
0.0000000000000001
 21
1.0
 31
0.0
 73
     1
 44
1.0
1001
ACAD
1000
MTEXTBEGIN
1070
    73
1070
     1
1070
    44
1040
1.0
1070
    74
1070
     0
1000
MTEXTEND
  0
POINT
  5
46DE
330
4514
100
AcDbEntity
  8
DEFPOINTS
 62
     0
100
AcDbPoint
 10
665.5368901792717
 20
-91.48476191569676
 30
0.0
  0
POINT
  5
46DF
330
4514
100
AcDbEntity
  8
DEFPOINTS
 62
     0
100
AcDbPoint
 10
665.5368901792717
 20
-110.8847619156967
 30
0.0
  0
POINT
  5
46E0
330
4514
100
AcDbEntity
  8
DEFPOINTS
 62
     0
100
AcDbPoint
 10
688.5885850239217
 20
-110.8847619156967
 30
0.0
  0
ENDBLK
  5
451F
330
4514
100
AcDbEntity
  8
0
100
AcDbBlockEnd
  0
BLOCK
  5
452B
330
4521
100
AcDbEntity
  8
0
100
AcDbBlockBegin
  2
*D6
 70
     1
 10
0.0
 20
0.0
 30
0.0
  3
*D6
  1

  0
LINE
  5
46CF
330
4521
100
AcDbEntity
  8
Z_OM_DIM
100
AcDbLine
 10
662.4931759874278
 20
-87.85976191569682
 30
0.0
 11
662.4931759874278
 21
-78.5318359174787
 31
0.0
  0
LINE
  5
46D0
330
4521
100
AcDbEntity
  8
Z_OM_DIM
100
AcDbLine
 10
644.493175987428
 20
-87.85976191569682
 30
0.0
 11
644.493175987428
 21
-78.5318359174787
 31
0.0
  0
LINE
  5
46D1
330
4521
100
AcDbEntity
  8
Z_OM_DIM
100
AcDbLine
 10
659.9931759874277
 20
-79.7818359174787
 30
0.0
 11
646.9931759874279
 21
-79.7818359174787
 31
0.0
  0
INSERT
  5
46D2
330
4521
100
AcDbEntity
  8
Z_OM_DIM
100
AcDbBlockReference
  2
_OPEN30
 10
662.4931759874278
 20
-79.7818359174787
 30
0.0
 41
2.5
 42
2.5
 43
2.5
  0
INSERT
  5
46D3
330
4521
100
AcDbEntity
  8
Z_OM_DIM
100
AcDbBlockReference
  2
_OPEN30
 10
644.493175987428
 20
-79.7818359174787
 30
0.0
 41
2.5
 42
2.5
 43
2.5
 50
180.0
  0
MTEXT
  5
46D4
330
4521
100
AcDbEntity
  8
Z_OM_DIM
100
AcDbMText
 10
653.4931759874279
 20
-77.9068359174787
 30
0.0
 40
2.5
 41
0.0
 71
     5
 72
     1
  1
18
  7
CatalogDxf
 73
     1
 44
1.0
1001
ACAD
1000
MTEXTBEGIN
1070
    73
1070
     1
1070
    44
1040
1.0
1070
    74
1070
     0
1000
MTEXTEND
  0
POINT
  5
46D5
330
4521
100
AcDbEntity
  8
DEFPOINTS
 62
     0
100
AcDbPoint
 10
662.4931759874278
 20
-88.48476191569682
 30
0.0
  0
POINT
  5
46D6
330
4521
100
AcDbEntity
  8
DEFPOINTS
 62
     0
100
AcDbPoint
 10
644.493175987428
 20
-88.48476191569682
 30
0.0
  0
POINT
  5
46D7
330
4521
100
AcDbEntity
  8
DEFPOINTS
 62
     0
100
AcDbPoint
 10
644.493175987428
 20
-79.7818359174787
 30
0.0
  0
ENDBLK
  5
452C
330
4521
100
AcDbEntity
  8
0
100
AcDbBlockEnd
  0
BLOCK
  5
4538
330
452E
100
AcDbEntity
  8
0
100
AcDbBlockBegin
  2
*D7
 70
     1
 10
0.0
 20
0.0
 30
0.0
  3
*D7
  1

  0
LINE
  5
46C6
330
452E
100
AcDbEntity
  8
Z_OM_DIM
100
AcDbLine
 10
644.493175987428
 20
-87.85976191569682
 30
0.0
 11
644.493175987428
 21
-78.5318359174787
 31
0.0
  0
LINE
  5
46C7
330
452E
100
AcDbEntity
  8
Z_OM_DIM
100
AcDbLine
 10
628.0231759874279
 20
-91.89103899188776
 30
0.0
 11
628.0231759874279
 21
-78.5318359174787
 31
0.0
  0
LINE
  5
46C8
330
452E
100
AcDbEntity
  8
Z_OM_DIM
100
AcDbLine
 10
641.9931759874279
 20
-79.7818359174787
 30
0.0
 11
630.5231759874279
 21
-79.7818359174787
 31
0.0
  0
INSERT
  5
46C9
330
452E
100
AcDbEntity
  8
Z_OM_DIM
100
AcDbBlockReference
  2
_OPEN30
 10
644.493175987428
 20
-79.7818359174787
 30
0.0
 41
2.5
 42
2.5
 43
2.5
  0
INSERT
  5
46CA
330
452E
100
AcDbEntity
  8
Z_OM_DIM
100
AcDbBlockReference
  2
_OPEN30
 10
628.0231759874279
 20
-79.7818359174787
 30
0.0
 41
2.5
 42
2.5
 43
2.5
 50
180.0
  0
MTEXT
  5
46CB
330
452E
100
AcDbEntity
  8
Z_OM_DIM
100
AcDbMText
 10
636.258175987428
 20
-77.9068359174787
 30
0.0
 40
2.5
 41
0.0
 71
     5
 72
     1
  1
16.5
  7
CatalogDxf
 73
     1
 44
1.0
1001
ACAD
1000
MTEXTBEGIN
1070
    73
1070
     1
1070
    44
1040
1.0
1070
    74
1070
     0
1000
MTEXTEND
  0
POINT
  5
46CC
330
452E
100
AcDbEntity
  8
DEFPOINTS
 62
     0
100
AcDbPoint
 10
644.493175987428
 20
-88.48476191569682
 30
0.0
  0
POINT
  5
46CD
330
452E
100
AcDbEntity
  8
DEFPOINTS
 62
     0
100
AcDbPoint
 10
628.0231759874279
 20
-92.51603899188776
 30
0.0
  0
POINT
  5
46CE
330
452E
100
AcDbEntity
  8
DEFPOINTS
 62
     0
100
AcDbPoint
 10
628.0231759874279
 20
-79.7818359174787
 30
0.0
  0
ENDBLK
  5
4539
330
452E
100
AcDbEntity
  8
0
100
AcDbBlockEnd
  0
BLOCK
  5
4547
330
453B
100
AcDbEntity
  8
0
100
AcDbBlockBegin
  2
*D8
 70
     1
 10
0.0
 20
0.0
 30
0.0
  3
*D8
  1

  0
LINE
  5
468B
330
453B
100
AcDbEntity
  8
Z_OM_DIM
100
AcDbLine
 10
628.0231759874279
 20
-91.89103899188776
 30
0.0
 11
628.0231759874279
 21
-78.5318359174787
 31
0.0
  0
LINE
  5
468C
330
453B
100
AcDbEntity
  8
Z_OM_DIM
100
AcDbLine
 10
624.0231759874279
 20
-95.1959516289696
 30
0.0
 11
624.0231759874279
 21
-78.5318359174787
 31
0.0
  0
LINE
  5
468D
330
453B
100
AcDbEntity
  8
Z_OM_DIM
100
AcDbLine
 10
630.5231759874279
 20
-79.7818359174787
 30
0.0
 11
633.023175987428
 21
-79.7818359174787
 31
0.0
  0
LINE
  5
468E
330
453B
100
AcDbEntity
  8
Z_OM_DIM
100
AcDbLine
 10
621.523175987428
 20
-79.7818359174787
 30
0.0
 11
619.0231759874279
 21
-79.7818359174787
 31
0.0
  0
LINE
  5
468F
330
453B
100
AcDbEntity
  8
Z_OM_DIM
100
AcDbLine
 10
628.0231759874279
 20
-79.7818359174787
 30
0.0
 11
624.0231759874279
 21
-79.7818359174787
 31
0.0
  0
INSERT
  5
4690
330
453B
100
AcDbEntity
  8
Z_OM_DIM
100
AcDbBlockReference
  2
_OPEN30
 10
628.0231759874279
 20
-79.7818359174787
 30
0.0
 41
2.5
 42
2.5
 43
2.5
 50
180.0
  0
INSERT
  5
4691
330
453B
100
AcDbEntity
  8
Z_OM_DIM
100
AcDbBlockReference
  2
_OPEN30
 10
624.0231759874279
 20
-79.7818359174787
 30
0.0
 41
2.5
 42
2.5
 43
2.5
  0
MTEXT
  5
4692
330
453B
100
AcDbEntity
  8
Z_OM_DIM
100
AcDbMText
 10
626.023175987428
 20
-77.9068359174787
 30
0.0
 40
2.5
 41
0.0
 71
     5
 72
     1
  1
4
  7
CatalogDxf
 73
     1
 44
1.0
1001
ACAD
1000
MTEXTBEGIN
1070
    73
1070
     1
1070
    44
1040
1.0
1070
    74
1070
     0
1000
MTEXTEND
  0
POINT
  5
4693
330
453B
100
AcDbEntity
  8
DEFPOINTS
 62
     0
100
AcDbPoint
 10
628.0231759874279
 20
-92.51603899188776
 30
0.0
  0
POINT
  5
4694
330
453B
100
AcDbEntity
  8
DEFPOINTS
 62
     0
100
AcDbPoint
 10
624.0231759874279
 20
-95.8209516289696
 30
0.0
  0
POINT
  5
4695
330
453B
100
AcDbEntity
  8
DEFPOINTS
 62
     0
100
AcDbPoint
 10
624.0231759874279
 20
-79.7818359174787
 30
0.0
  0
ENDBLK
  5
4548
330
453B
100
AcDbEntity
  8
0
100
AcDbBlockEnd
  0
BLOCK
  5
4554
330
454A
100
AcDbEntity
  8
0
100
AcDbBlockBegin
  2
*D9
 70
     1
 10
0.0
 20
0.0
 30
0.0
  3
*D9
  1

  0
LINE
  5
46E1
330
454A
100
AcDbEntity
  8
Z_OM_DIM
100
AcDbLine
 10
544.7269353423178
 20
-113.8222619156967
 30
0.0
 11
544.7269353423178
 21
-128.37805915843
 31
0.0
  0
LINE
  5
46E2
330
454A
100
AcDbEntity
  8
Z_OM_DIM
100
AcDbLine
 10
573.7269353423178
 20
-113.8222619156967
 30
0.0
 11
573.7269353423178
 21
-128.37805915843
 31
0.0
  0
LINE
  5
46E3
330
454A
100
AcDbEntity
  8
Z_OM_DIM
100
AcDbLine
 10
547.2269353423178
 20
-127.12805915843
 30
0.0
 11
571.2269353423177
 21
-127.12805915843
 31
0.0
  0
INSERT
  5
46E4
330
454A
100
AcDbEntity
  8
Z_OM_DIM
100
AcDbBlockReference
  2
_OPEN30
 10
544.7269353423178
 20
-127.12805915843
 30
0.0
 41
2.5
 42
2.5
 43
2.5
 50
180.0
  0
INSERT
  5
46E5
330
454A
100
AcDbEntity
  8
Z_OM_DIM
100
AcDbBlockReference
  2
_OPEN30
 10
573.7269353423178
 20
-127.12805915843
 30
0.0
 41
2.5
 42
2.5
 43
2.5
  0
MTEXT
  5
46E6
330
454A
100
AcDbEntity
  8
Z_OM_DIM
100
AcDbMText
 10
559.2269353423177
 20
-125.25305915843
 30
0.0
 40
2.5
 41
0.0
 71
     5
 72
     1
  1
29
  7
CatalogDxf
 73
     1
 44
1.0
1001
ACAD
1000
MTEXTBEGIN
1070
    73
1070
     1
1070
    44
1040
1.0
1070
    74
1070
     0
1000
MTEXTEND
  0
POINT
  5
46E7
330
454A
100
AcDbEntity
  8
DEFPOINTS
 62
     0
100
AcDbPoint
 10
544.7269353423178
 20
-113.1972619156967
 30
0.0
  0
POINT
  5
46E8
330
454A
100
AcDbEntity
  8
DEFPOINTS
 62
     0
100
AcDbPoint
 10
573.7269353423178
 20
-113.1972619156967
 30
0.0
  0
POINT
  5
46E9
330
454A
100
AcDbEntity
  8
DEFPOINTS
 62
     0
100
AcDbPoint
 10
573.7269353423178
 20
-127.12805915843
 30
0.0
  0
ENDBLK
  5
4555
330
454A
100
AcDbEntity
  8
0
100
AcDbBlockEnd
  0
BLOCK
  5
4561
330
4557
100
AcDbEntity
  8
0
100
AcDbBlockBegin
  2
*D10
 70
     1
 10
0.0
 20
0.0
 30
0.0
  3
*D10
  1

  0
LINE
  5
4654
330
4557
100
AcDbEntity
  8
Z_OM_DIM
100
AcDbLine
 10
574.3519353423177
 20
-89.1722619156968
 30
0.0
 11
589.1785143239895
 21
-89.1722619156968
 31
0.0
  0
LINE
  5
4655
330
4557
100
AcDbEntity
  8
Z_OM_DIM
100
AcDbLine
 10
574.3519353423177
 20
-113.1972619156967
 30
0.0
 11
589.1785143239895
 21
-113.1972619156967
 31
0.0
  0
LINE
  5
4656
330
4557
100
AcDbEntity
  8
Z_OM_DIM
100
AcDbLine
 10
587.9285143239895
 20
-91.6722619156968
 30
0.0
 11
587.9285143239895
 21
-110.6972619156967
 31
0.0
  0
INSERT
  5
4657
330
4557
100
AcDbEntity
  8
Z_OM_DIM
100
AcDbBlockReference
  2
_OPEN30
 10
587.9285143239895
 20
-89.1722619156968
 30
0.0
 41
2.5
 42
2.5
 43
2.5
 50
90.0
  0
INSERT
  5
4658
330
4557
100
AcDbEntity
  8
Z_OM_DIM
100
AcDbBlockReference
  2
_OPEN30
 10
587.9285143239895
 20
-113.1972619156967
 30
0.0
 41
2.5
 42
2.5
 43
2.5
 50
270.0
  0
MTEXT
  5
4659
330
4557
100
AcDbEntity
  8
Z_OM_DIM
100
AcDbMText
 10
586.0535143239895
 20
-101.1847619156967
 30
0.0
 40
2.5
 41
0.0
 71
     5
 72
     1
  1
24
  7
CatalogDxf
 11
0.0000000000000001
 21
1.0
 31
0.0
 73
     1
 44
1.0
1001
ACAD
1000
MTEXTBEGIN
1070
    73
1070
     1
1070
    44
1040
1.0
1070
    74
1070
     0
1000
MTEXTEND
  0
POINT
  5
465A
330
4557
100
AcDbEntity
  8
DEFPOINTS
 62
     0
100
AcDbPoint
 10
573.7269353423178
 20
-89.1722619156968
 30
0.0
  0
POINT
  5
465B
330
4557
100
AcDbEntity
  8
DEFPOINTS
 62
     0
100
AcDbPoint
 10
573.7269353423178
 20
-113.1972619156967
 30
0.0
  0
POINT
  5
465C
330
4557
100
AcDbEntity
  8
DEFPOINTS
 62
     0
100
AcDbPoint
 10
587.9285143239895
 20
-113.1972619156967
 30
0.0
  0
ENDBLK
  5
4562
330
4557
100
AcDbEntity
  8
0
100
AcDbBlockEnd
  0
BLOCK
  5
456E
330
4564
100
AcDbEntity
  8
0
100
AcDbBlockBegin
  2
*D11
 70
     1
 10
0.0
 20
0.0
 30
0.0
  3
*D11
  1

  0
LINE
  5
46F3
330
4564
100
AcDbEntity
  8
Z_OM_DIM
100
AcDbLine
 10
623.8981759874279
 20
-95.22051191569678
 30
0.0
 11
612.6242879658463
 21
-95.22051191569678
 31
0.0
  0
LINE
  5
46F4
330
4564
100
AcDbEntity
  8
Z_OM_DIM
100
AcDbLine
 10
623.8981759874279
 20
-107.1490119156968
 30
0.0
 11
612.6242879658463
 21
-107.1490119156968
 31
0.0
  0
LINE
  5
46F5
330
4564
100
AcDbEntity
  8
Z_OM_DIM
100
AcDbLine
 10
613.8742879658463
 20
-97.7205119156968
 30
0.0
 11
613.8742879658463
 21
-104.6490119156968
 31
0.0
  0
INSERT
  5
46F6
330
4564
100
AcDbEntity
  8
Z_OM_DIM
100
AcDbBlockReference
  2
_OPEN30
 10
613.8742879658463
 20
-95.22051191569678
 30
0.0
 41
2.5
 42
2.5
 43
2.5
 50
90.0
  0
INSERT
  5
46F7
330
4564
100
AcDbEntity
  8
Z_OM_DIM
100
AcDbBlockReference
  2
_OPEN30
 10
613.8742879658463
 20
-107.1490119156968
 30
0.0
 41
2.5
 42
2.5
 43
2.5
 50
270.0
  0
MTEXT
  5
46F8
330
4564
100
AcDbEntity
  8
Z_OM_DIM
100
AcDbMText
 10
611.9992879658464
 20
-101.1847619156967
 30
0.0
 40
2.5
 41
0.0
 71
     5
 72
     1
  1
%%c12
  7
CatalogDxf
 11
0.0000000000000001
 21
1.0
 31
0.0
 73
     1
 44
1.0
1001
ACAD
1000
MTEXTBEGIN
1070
    73
1070
     1
1070
    44
1040
1.0
1070
    74
1070
     0
1000
MTEXTEND
  0
POINT
  5
46F9
330
4564
100
AcDbEntity
  8
DEFPOINTS
 62
     0
100
AcDbPoint
 10
624.5231759874279
 20
-95.22051191569678
 30
0.0
  0
POINT
  5
46FA
330
4564
100
AcDbEntity
  8
DEFPOINTS
 62
     0
100
AcDbPoint
 10
624.5231759874279
 20
-107.1490119156968
 30
0.0
  0
POINT
  5
46FB
330
4564
100
AcDbEntity
  8
DEFPOINTS
 62
     0
100
AcDbPoint
 10
613.8742879658463
 20
-107.1490119156968
 30
0.0
  0
ENDBLK
  5
456F
330
4564
100
AcDbEntity
  8
0
100
AcDbBlockEnd
  0
BLOCK
  5
46A2
330
4698
100
AcDbEntity
  8
0
100
AcDbBlockBegin
  2
*D12
 70
     1
 10
0.0
 20
0.0
 30
0.0
  3
*D12
  1

  0
LINE
  5
4699
330
4698
100
AcDbEntity
  8
Z_OM_DIM
100
AcDbLine
 10
634.4931759874279
 20
-44.07514922598449
 30
0.0
 11
634.4931759874279
 21
-54.41179122567371
 31
0.0
  0
LINE
  5
469A
330
4698
100
AcDbEntity
  8
Z_OM_DIM
100
AcDbLine
 10
644.493175987428
 20
-46.16881697853727
 30
0.0
 11
644.493175987428
 21
-54.41179122567371
 31
0.0
  0
LINE
  5
469B
330
4698
100
AcDbEntity
  8
Z_OM_DIM
100
AcDbLine
 10
636.993175987428
 20
-53.16179122567371
 30
0.0
 11
641.9931759874279
 21
-53.16179122567371
 31
0.0
  0
INSERT
  5
469C
330
4698
100
AcDbEntity
  8
Z_OM_DIM
100
AcDbBlockReference
  2
_OPEN30
 10
634.4931759874279
 20
-53.16179122567371
 30
0.0
 41
2.5
 42
2.5
 43
2.5
 50
180.0
  0
INSERT
  5
469D
330
4698
100
AcDbEntity
  8
Z_OM_DIM
100
AcDbBlockReference
  2
_OPEN30
 10
644.493175987428
 20
-53.16179122567371
 30
0.0
 41
2.5
 42
2.5
 43
2.5
  0
MTEXT
  5
469E
330
4698
100
AcDbEntity
  8
Z_OM_DIM
100
AcDbMText
 10
639.493175987428
 20
-51.28679122567371
 30
0.0
 40
2.5
 41
0.0
 71
     5
 72
     1
  1
10
  7
CatalogDxf
 73
     1
 44
1.0
1001
ACAD
1000
MTEXTBEGIN
1070
    73
1070
     1
1070
    44
1040
1.0
1070
    74
1070
     0
1000
MTEXTEND
  0
POINT
  5
469F
330
4698
100
AcDbEntity
  8
DEFPOINTS
 62
     0
100
AcDbPoint
 10
634.4931759874279
 20
-43.45014922598449
 30
0.0
  0
POINT
  5
46A0
330
4698
100
AcDbEntity
  8
DEFPOINTS
 62
     0
100
AcDbPoint
 10
644.493175987428
 20
-45.54381697853727
 30
0.0
  0
POINT
  5
46A1
330
4698
100
AcDbEntity
  8
DEFPOINTS
 62
     0
100
AcDbPoint
 10
644.493175987428
 20
-53.16179122567371
 30
0.0
  0
ENDBLK
  5
46A3
330
4698
100
AcDbEntity
  8
0
100
AcDbBlockEnd
  0
ENDSEC
  0
SECTION
  2
ENTITIES
  0
MTEXT
  5
4130
330
17
100
AcDbEntity
  8
Z_OM_DIM
100
AcDbMText
 10
678.5864211639209
 20
-143.2116208595707
 30
0.0
 40
3.0
 41
59.58435019788054
 71
     1
 72
     5
  1
TAKAHA KIKO Co., Ltd\PCAD DRAWING No. CA1240
  7
CatalogDxf
 73
     1
 44
1.0
1001
ACAD
1000
MTEXTBEGIN
1070
    73
1070
     1
1070
    44
1040
1.0
1070
    74
1070
     0
1000
MTEXTEND
  0
MTEXT
  5
42AA
330
17
100
AcDbEntity
  8
Z_OM_DIM
100
AcDbMText
 10
496.5671756568651
 20
-4.077668060458908
 30
0.0
 40
3.0
 41
47.03999999999999
 71
     1
 72
     1
  1
Adsorbed position
  7
CatalogDxf
 73
     1
 44
1.0
1001
ACAD
1000
MTEXTBEGIN
1070
    73
1070
     1
1070
    44
1040
1.0
1070
    74
1070
     0
1000
MTEXTEND
  0
LINE
  5
4301
330
17
100
AcDbEntity
  8
0
 48
0.5
100
AcDbLine
 10
698.7077794867417
 20
-28.95014922598443
 30
0.0
 11
698.7077794867412
 21
-29.95014922598443
 31
0.0
  0
SPLINE
  5
4302
330
17
100
AcDbEntity
  8
additional
 48
0.5
100
AcDbSpline
210
0.0
220
0.0
230
1.0
 70
     8
 71
     3
 72
    18
 73
    14
 74
    12
 42
0.0000000001
 43
0.0000000001
 44
0.0000000001
 40
0.0
 40
0.0
 40
0.0
 40
0.0
 40
0.3913118960626157
 40
0.7826237921250917
 40
1.482623792125051
 40
1.873935688187565
 40
2.265247584250092
 40
2.656559480312479
 40
3.047871376374942
 40
4.097871376374982
 40
4.489183272437407
 40
4.880495168499806
 40
5.271807064562397
 40
5.271807064562397
 40
5.271807064562397
 40
5.271807064562397
 10
680.2869498027169
 20
-26.43277601240261
 30
0.0
 10
680.3432346443632
 20
-26.55041574575702
 30
0.0
 10
680.4558043276561
 20
-26.7856952124658
 30
0.0
 10
680.7156280167967
 20
-27.20929418377997
 30
0.0
 10
680.7157055047605
 20
-27.75627680230979
 30
0.0
 10
680.45567437639
 20
-28.17981316249561
 30
0.0
 10
680.2874353094808
 20
-28.53294468637621
 30
0.0
 10
680.1162832019878
 20
-28.88506416641444
 30
0.0
 10
679.8085096403471
 20
-29.41332358482666
 30
0.0
 10
679.8081128530995
 20
-30.10237380868663
 30
0.0
 10
680.1167268236167
 20
-30.6302849510373
 30
0.0
 10
680.2857555474917
 20
-30.98339877774399
 30
0.0
 10
680.4032183843087
 20
-31.21631693418301
 30
0.0
 10
680.4619498027172
 20
-31.33277601240256
 30
0.0
 11
680.2869498027169
 21
-26.43277601240261
 31
0.0
 11
680.4619498027172
 21
-26.78277601240264
 31
0.0
 11
680.6369498027172
 21
-27.13277601240262
 31
0.0
 11
680.6369498027172
 21
-27.83277601240258
 31
0.0
 11
680.4619498027172
 21
-28.1827760124026
 31
0.0
 11
680.2869498027169
 21
-28.53277601240252
 31
0.0
 11
680.111949802717
 21
-28.88277601240252
 31
0.0
 11
679.9369498027171
 21
-29.23277601240254
 31
0.0
 11
679.9369498027171
 21
-30.28277601240258
 31
0.0
 11
680.111949802717
 21
-30.63277601240256
 31
0.0
 11
680.2869498027169
 21
-30.98277601240257
 31
0.0
 11
680.4619498027172
 21
-31.33277601240256
 31
0.0
  0
SPLINE
  5
4303
330
17
100
AcDbEntity
  8
additional
 48
0.5
100
AcDbSpline
210
0.0
220
0.0
230
1.0
 70
     8
 71
     3
 72
    18
 73
    14
 74
    12
 42
0.0000000001
 43
0.0000000001
 44
0.0000000001
 40
0.0
 40
0.0
 40
0.0
 40
0.0
 40
0.3913118960624632
 40
0.7826237921249391
 40
1.482623792124899
 40
1.873935688187413
 40
2.265247584249787
 40
2.656559480312326
 40
3.047871376374789
 40
4.097871376374829
 40
4.489183272437254
 40
4.880495168499806
 40
5.271807064562244
 40
5.271807064562244
 40
5.271807064562244
 40
5.271807064562244
 10
681.1619498027172
 20
-26.43277601240261
 30
0.0
 10
681.2182346443635
 20
-26.55041574575703
 30
0.0
 10
681.3308043276561
 20
-26.78569521246588
 30
0.0
 10
681.5906280167969
 20
-27.20929418377994
 30
0.0
 10
681.5907055047605
 20
-27.75627680230983
 30
0.0
 10
681.33067437639
 20
-28.17981316249551
 30
0.0
 10
681.1624353094812
 20
-28.5329446863764
 30
0.0
 10
680.9912832019879
 20
-28.88506416641433
 30
0.0
 10
680.6835096403469
 20
-29.41332358482672
 30
0.0
 10
680.6831128531
 20
-30.10237380868658
 30
0.0
 10
680.9917268236163
 20
-30.63028495103739
 30
0.0
 10
681.1607555474925
 20
-30.98339877774382
 30
0.0
 10
681.2782183843089
 20
-31.21631693418299
 30
0.0
 10
681.3369498027172
 20
-31.33277601240256
 30
0.0
 11
681.1619498027172
 21
-26.43277601240261
 31
0.0
 11
681.3369498027172
 21
-26.78277601240264
 31
0.0
 11
681.5119498027172
 21
-27.13277601240262
 31
0.0
 11
681.5119498027172
 21
-27.83277601240258
 31
0.0
 11
681.3369498027172
 21
-28.1827760124026
 31
0.0
 11
681.1619498027172
 21
-28.53277601240252
 31
0.0
 11
680.986949802717
 21
-28.88277601240252
 31
0.0
 11
680.8119498027171
 21
-29.23277601240254
 31
0.0
 11
680.8119498027171
 21
-30.28277601240258
 31
0.0
 11
680.986949802717
 21
-30.63277601240256
 31
0.0
 11
681.1619498027172
 21
-30.98277601240257
 31
0.0
 11
681.3369498027172
 21
-31.33277601240256
 31
0.0
  0
LINE
  5
4304
330
17
100
AcDbEntity
  8
0
100
AcDbLine
 10
671.293175987428
 20
-29.95014922598443
 30
0.0
 11
679.8526978885279
 21
-29.95014922598443
 31
0.0
  0
LINE
  5
4305
330
17
100
AcDbEntity
  8
0
100
AcDbLine
 10
671.293175987428
 20
-28.95014922598443
 30
0.0
 11
680.0755887379343
 21
-28.95014922598443
 31
0.0
  0
LINE
  5
4306
330
17
100
AcDbEntity
  8
0
100
AcDbLine
 10
671.293175987428
 20
-27.95014922598443
 30
0.0
 11
680.5872034028892
 21
-27.95014922598443
 31
0.0
  0
LINE
  5
4307
330
17
100
AcDbEntity
  8
0
100
AcDbLine
 10
698.7077794867417
 20
-27.95014922598443
 30
0.0
 11
698.7077794867417
 21
-29.95014922598443
 31
0.0
  0
LINE
  5
4308
330
17
100
AcDbEntity
  8
0
100
AcDbLine
 10
681.4622034028892
 20
-27.95014922598443
 30
0.0
 11
698.7077794867412
 21
-27.95014922598443
 31
0.0
  0
LINE
  5
4309
330
17
100
AcDbEntity
  8
0
100
AcDbLine
 10
680.7276978885279
 20
-29.95014922598443
 30
0.0
 11
698.7077794867417
 21
-29.95014922598443
 31
0.0
  0
LINE
  5
430A
330
17
100
AcDbEntity
  8
0
100
AcDbLine
 10
680.9505887379343
 20
-28.95014922598443
 30
0.0
 11
698.7077794867417
 21
-28.95014922598443
 31
0.0
  0
POINT
  5
430B
330
17
100
AcDbEntity
  8
0
100
AcDbPoint
 10
698.7077794867412
 20
-27.95014922598443
 30
0.0
  0
POINT
  5
430C
330
17
100
AcDbEntity
  8
0
100
AcDbPoint
 10
698.7077794867417
 20
-28.45014922598443
 30
0.0
  0
POINT
  5
430D
330
17
100
AcDbEntity
  8
0
100
AcDbPoint
 10
698.7077794867412
 20
-29.95014922598443
 30
0.0
  0
POINT
  5
430E
330
17
100
AcDbEntity
  8
0
100
AcDbPoint
 10
698.7077794867417
 20
-29.45014922598443
 30
0.0
  0
LINE
  5
430F
330
17
100
AcDbEntity
  8
0
100
AcDbLine
 10
698.7077794867417
 20
-29.70014922598443
 30
0.0
 11
705.7077794867417
 21
-29.70014922598443
 31
0.0
  0
LINE
  5
4310
330
17
100
AcDbEntity
  8
0
100
AcDbLine
 10
698.7077794867417
 20
-29.20014922598443
 30
0.0
 11
705.7077794867417
 21
-29.20014922598443
 31
0.0
  0
LINE
  5
4311
330
17
100
AcDbEntity
  8
0
100
AcDbLine
 10
698.7077794867417
 20
-28.70014922598443
 30
0.0
 11
705.7077794867417
 21
-28.70014922598443
 31
0.0
  0
LINE
  5
4312
330
17
100
AcDbEntity
  8
0
100
AcDbLine
 10
698.7077794867417
 20
-28.20014922598443
 30
0.0
 11
705.7077794867417
 21
-28.20014922598443
 31
0.0
  0
DIMENSION
  5
4313
330
17
100
AcDbEntity
  8
Z_OM_DIM
100
AcDbDimension
  2
*D1
 10
705.7077794867417
 20
-57.49621499189879
 30
0.0
 11
690.1004777370849
 21
-55.62121499189879
 31
0.0
 70
    32
  1
180 - 200
 71
     5
 42
31.21460349931374
  3
CatalogDxf
100
AcDbAlignedDimension
 13
674.493175987428
 23
-41.95014922598448
 33
0.0
 14
705.7077794867417
 24
-29.70014922598443
 34
0.0
100
AcDbRotatedDimension
  0
LINE
  5
4404
330
17
100
AcDbEntity
  8
0
 48
0.5
100
AcDbLine
 10
634.4931759874279
 20
-106.1097619156968
 30
0.0
 11
634.4931759874279
 21
-96.25976191569677
 31
0.0
  0
LINE
  5
4405
330
17
100
AcDbEntity
  8
0
 48
0.5
100
AcDbLine
 10
634.4931759874279
 20
-96.25976191569677
 30
0.0
 11
638.4931759874279
 21
-96.25976191569677
 31
0.0
  0
LINE
  5
4406
330
17
100
AcDbEntity
  8
0
 48
0.5
100
AcDbLine
 10
638.4931759874279
 20
-96.25976191569677
 30
0.0
 11
638.4931759874279
 21
-89.1722619156968
 31
0.0
  0
LINE
  5
4407
330
17
100
AcDbEntity
  8
0
 48
0.5
100
AcDbLine
 10
635.2931759874279
 20
-89.1722619156968
 30
0.0
 11
674.493175987428
 21
-89.1722619156968
 31
0.0
  0
LINE
  5
4408
330
17
100
AcDbEntity
  8
0
 48
0.5
100
AcDbLine
 10
674.493175987428
 20
-89.1722619156968
 30
0.0
 11
674.493175987428
 21
-113.1972619156967
 31
0.0
  0
LINE
  5
4409
330
17
100
AcDbEntity
  8
0
 48
0.5
100
AcDbLine
 10
674.493175987428
 20
-113.1972619156967
 30
0.0
 11
635.2931759874279
 21
-113.1972619156967
 31
0.0
  0
LINE
  5
440A
330
17
100
AcDbEntity
  8
0
 48
0.5
100
AcDbLine
 10
638.4931759874279
 20
-113.1972619156967
 30
0.0
 11
638.4931759874279
 21
-106.1097619156968
 31
0.0
  0
LINE
  5
440B
330
17
100
AcDbEntity
  8
0
 48
0.5
100
AcDbLine
 10
634.4931759874279
 20
-106.1097619156968
 30
0.0
 11
638.4931759874279
 21
-106.1097619156968
 31
0.0
  0
LINE
  5
440C
330
17
100
AcDbEntity
  8
0
 48
0.5
100
AcDbLine
 10
634.4931759874279
 20
-14.45014922598449
 30
0.0
 11
634.4931759874279
 21
-16.05014922598445
 31
0.0
  0
LINE
  5
440D
330
17
100
AcDbEntity
  8
0
 48
0.5
100
AcDbLine
 10
634.4931759874279
 20
-16.05014922598445
 30
0.0
 11
635.2931759874279
 21
-16.05014922598445
 31
0.0
  0
LINE
  5
440E
330
17
100
AcDbEntity
  8
0
 48
0.5
100
AcDbLine
 10
672.8931759874278
 20
-41.85014922598447
 30
0.0
 11
638.4931759874279
 21
-41.85014922598447
 31
0.0
  0
LINE
  5
440F
330
17
100
AcDbEntity
  8
0
 48
0.5
100
AcDbLine
 10
634.4931759874279
 20
-41.85014922598447
 30
0.0
 11
634.4931759874279
 21
-43.45014922598449
 31
0.0
  0
LINE
  5
4410
330
17
100
AcDbEntity
  8
0
 48
0.5
100
AcDbLine
 10
634.4931759874279
 20
-43.45014922598449
 30
0.0
 11
672.993175987428
 21
-43.45014922598449
 31
0.0
  0
LINE
  5
4411
330
17
100
AcDbEntity
  8
0
 48
0.5
100
AcDbLine
 10
674.493175987428
 20
-41.95014922598448
 30
0.0
 11
674.493175987428
 21
-29.95014922598443
 31
0.0
  0
LINE
  5
4412
330
17
100
AcDbEntity
  8
0
 48
0.5
100
AcDbLine
 10
674.493175987428
 20
-27.95014922598449
 30
0.0
 11
674.493175987428
 21
-15.95014922598449
 31
0.0
  0
LINE
  5
4413
330
17
100
AcDbEntity
  8
0
 48
0.5
100
AcDbLine
 10
672.993175987428
 20
-14.45014922598449
 30
0.0
 11
634.4931759874279
 21
-14.45014922598449
 31
0.0
  0
ARC
  5
4414
330
17
100
AcDbEntity
  8
0
 48
0.5
100
AcDbCircle
 10
672.993175987428
 20
-15.95014922598454
 30
0.0
 40
1.5
100
AcDbArc
 50
0.0
 51
90.0
  0
ARC
  5
4415
330
17
100
AcDbEntity
  8
0
 48
0.5
100
AcDbCircle
 10
672.993175987428
 20
-41.95014922598454
 30
0.0
 40
1.5
100
AcDbArc
 50
270.0
 51
0.0
  0
CIRCLE
  5
4416
330
17
100
AcDbEntity
  8
additional
  6
HIDDEN2
 48
0.5
100
AcDbCircle
 10
662.493175987428
 20
-110.8847619156968
 30
0.0
 40
1.5
  0
LINE
  5
4417
330
17
100
AcDbEntity
  8
0
 48
0.5
100
AcDbLine
 10
638.4931759874279
 20
-43.45014922598449
 30
0.0
 11
638.4931759874279
 21
-40.95014922598454
 31
0.0
  0
LINE
  5
4418
330
17
100
AcDbEntity
  8
0
 48
0.5
100
AcDbLine
 10
636.8931759874278
 20
-43.45014922598449
 30
0.0
 11
636.8931759874278
 21
-14.45014922598449
 31
0.0
  0
LINE
  5
4419
330
17
100
AcDbEntity
  8
0
 48
0.5
100
AcDbLine
 10
635.2931759874279
 20
-43.45014922598449
 30
0.0
 11
635.2931759874279
 21
-14.45014922598449
 31
0.0
  0
LINE
  5
441A
330
17
100
AcDbEntity
  8
0
 48
0.5
100
AcDbLine
 10
635.2931759874279
 20
-41.85014922598447
 30
0.0
 11
634.4931759874279
 21
-41.85014922598447
 31
0.0
  0
LINE
  5
441B
330
17
100
AcDbEntity
  8
0
 48
0.5
100
AcDbLine
 10
638.4931759874279
 20
-16.05014922598445
 30
0.0
 11
672.8931759874278
 21
-16.05014922598445
 31
0.0
  0
LINE
  5
441C
330
17
100
AcDbEntity
  8
0
 48
0.5
100
AcDbLine
 10
544.7269353423178
 20
-89.1722619156968
 30
0.0
 11
544.7269353423178
 21
-113.1972619156967
 31
0.0
  0
LINE
  5
441D
330
17
100
AcDbEntity
  8
0
 48
0.5
100
AcDbLine
 10
544.7269353423178
 20
-113.1972619156967
 30
0.0
 11
573.7269353423178
 21
-113.1972619156967
 31
0.0
  0
LINE
  5
441E
330
17
100
AcDbEntity
  8
0
 48
0.5
100
AcDbLine
 10
573.7269353423178
 20
-113.1972619156967
 30
0.0
 11
573.7269353423178
 21
-89.1722619156968
 31
0.0
  0
LINE
  5
441F
330
17
100
AcDbEntity
  8
0
 48
0.5
100
AcDbLine
 10
573.7269353423178
 20
-89.1722619156968
 30
0.0
 11
544.7269353423178
 21
-89.1722619156968
 31
0.0
  0
LINE
  5
4420
330
17
100
AcDbEntity
  8
0
 48
0.5
100
AcDbLine
 10
636.8931759874278
 20
-113.1972619156967
 30
0.0
 11
636.8931759874278
 21
-106.1097619156968
 31
0.0
  0
LINE
  5
4421
330
17
100
AcDbEntity
  8
0
 48
0.5
100
AcDbLine
 10
635.2931759874279
 20
-113.1972619156967
 30
0.0
 11
635.2931759874279
 21
-106.1097619156968
 31
0.0
  0
CIRCLE
  5
4422
330
17
100
AcDbEntity
  8
0
 48
0.5
100
AcDbCircle
 10
559.2269353423177
 20
-101.1847619156968
 30
0.0
 40
5.964250000000014
  0
CIRCLE
  5
4423
330
17
100
AcDbEntity
  8
0
 48
0.5
100
AcDbCircle
 10
559.2269353423177
 20
-101.1847619156968
 30
0.0
 40
8.500000000000007
  0
ARC
  5
4424
330
17
100
AcDbEntity
  8
0
100
AcDbCircle
 10
559.2269353423177
 20
-101.1847619156968
 30
0.0
 40
6.2
100
AcDbArc
 50
5.032413495496927
 51
64.96758650450418
  0
ARC
  5
4425
330
17
100
AcDbEntity
  8
0
100
AcDbCircle
 10
559.2269353423177
 20
-101.1847619156968
 30
0.0
 40
6.2
100
AcDbArc
 50
115.0324134954958
 51
174.967586504503
  0
ARC
  5
4426
330
17
100
AcDbEntity
  8
0
100
AcDbCircle
 10
559.2269353423177
 20
-101.1847619156968
 30
0.0
 40
8.0
100
AcDbArc
 50
308.9155955561984
 51
231.0844044438017
  0
LINE
  5
4427
330
17
100
AcDbEntity
  8
0
100
AcDbLine
 10
554.9854701476069
 20
-107.1913134276954
 30
0.0
 11
555.4821105477803
 21
-105.8268051426302
 31
0.0
  0
ARC
  5
4428
330
17
100
AcDbEntity
  8
0
100
AcDbCircle
 10
554.515623837214
 20
-107.0203033560326
 30
0.0
 40
0.5
100
AcDbArc
 50
231.0844044438017
 51
340.0000000000024
  0
ARC
  5
4429
330
17
100
AcDbEntity
  8
0
100
AcDbCircle
 10
553.5489075156872
 20
-100.6847619156967
 30
0.0
 40
0.5
100
AcDbArc
 50
174.967586504503
 51
235.1730713901316
  0
LINE
  5
442A
330
17
100
AcDbEntity
  8
0
100
AcDbLine
 10
562.9717601368554
 20
-105.82680514263
 30
0.0
 11
563.4684005370288
 21
-107.1913134276953
 31
0.0
  0
ARC
  5
442B
330
17
100
AcDbEntity
  8
0
100
AcDbCircle
 10
563.9382468474218
 20
-107.0203033560324
 30
0.0
 40
0.5
100
AcDbArc
 50
200.0000000000006
 51
308.9155955561984
  0
ARC
  5
442C
330
17
100
AcDbEntity
  8
0
100
AcDbCircle
 10
564.9049631689483
 20
-100.6847619156969
 30
0.0
 40
0.5
100
AcDbArc
 50
304.8269286098685
 51
5.032413495496927
  0
ARC
  5
442D
330
17
100
AcDbEntity
  8
0
100
AcDbCircle
 10
556.8150891408536
 20
-96.0201711380578
 30
0.0
 40
0.5
100
AcDbArc
 50
54.82692860986361
 51
115.0324134954958
  0
ARC
  5
442E
330
17
100
AcDbEntity
  8
0
100
AcDbCircle
 10
561.6387815437819
 20
-96.0201711380578
 30
0.0
 40
0.5
100
AcDbArc
 50
64.96758650450418
 51
125.1730713901364
  0
LINE
  5
442F
330
17
100
AcDbEntity
  8
0
 48
0.5
100
AcDbLine
 10
547.2269353423178
 20
-89.1722619156968
 30
0.0
 11
547.2269353423178
 21
-88.57226191569679
 31
0.0
  0
LINE
  5
4430
330
17
100
AcDbEntity
  8
0
 48
0.5
100
AcDbLine
 10
547.7269353423178
 20
-88.07226191569681
 30
0.0
 11
570.7269353423177
 21
-88.07226191569681
 31
0.0
  0
LINE
  5
4431
330
17
100
AcDbEntity
  8
0
 48
0.5
100
AcDbLine
 10
571.2269353423177
 20
-88.57226191569679
 30
0.0
 11
571.2269353423177
 21
-89.1722619156968
 31
0.0
  0
LINE
  5
4432
330
17
100
AcDbEntity
  8
0
 48
0.5
100
AcDbLine
 10
637.1931759874278
 20
-40.95014922598454
 30
0.0
 11
637.1931759874278
 21
-16.95014922598454
 31
0.0
  0
LINE
  5
4433
330
17
100
AcDbEntity
  8
0
 48
0.5
100
AcDbLine
 10
638.4931759874279
 20
-40.95014922598449
 30
0.0
 11
637.1931759874278
 21
-40.95014922598454
 31
0.0
  0
LINE
  5
4434
330
17
100
AcDbEntity
  8
0
 48
0.5
100
AcDbLine
 10
638.4931759874279
 20
-16.95014922598449
 30
0.0
 11
637.1931759874278
 21
-16.95014922598454
 31
0.0
  0
LINE
  5
4435
330
17
100
AcDbEntity
  8
0
 48
0.5
100
AcDbLine
 10
640.0931759874278
 20
-89.1722619156968
 30
0.0
 11
640.0931759874278
 21
-88.07226191569681
 31
0.0
  0
LINE
  5
4436
330
17
100
AcDbEntity
  8
0
 48
0.5
100
AcDbLine
 10
640.0931759874278
 20
-88.07226191569681
 30
0.0
 11
637.1931759874278
 21
-88.07226191569681
 31
0.0
  0
LINE
  5
4437
330
17
100
AcDbEntity
  8
0
 48
0.5
100
AcDbLine
 10
637.1931759874278
 20
-88.07226191569681
 30
0.0
 11
637.1931759874278
 21
-89.1722619156968
 31
0.0
  0
LINE
  5
4438
330
17
100
AcDbEntity
  8
0
 48
0.5
100
AcDbLine
 10
638.4931759874279
 20
-40.95014922598454
 30
0.0
 11
640.0931759874278
 21
-40.95014922598454
 31
0.0
  0
LINE
  5
4439
330
17
100
AcDbEntity
  8
0
 48
0.5
100
AcDbLine
 10
640.0931759874278
 20
-40.95014922598454
 30
0.0
 11
640.0931759874278
 21
-16.95014922598454
 31
0.0
  0
LINE
  5
443A
330
17
100
AcDbEntity
  8
0
 48
0.5
100
AcDbLine
 10
640.0931759874278
 20
-16.95014922598454
 30
0.0
 11
638.4931759874279
 21
-16.95014922598454
 31
0.0
  0
LINE
  5
443B
330
17
100
AcDbEntity
  8
0
 48
0.5
100
AcDbLine
 10
671.293175987428
 20
-40.95014922598454
 30
0.0
 11
672.8931759874278
 21
-40.95014922598454
 31
0.0
  0
LINE
  5
443C
330
17
100
AcDbEntity
  8
0
 48
0.5
100
AcDbLine
 10
672.8931759874278
 20
-41.85014922598447
 30
0.0
 11
672.8931759874278
 21
-29.95014922598443
 31
0.0
  0
LINE
  5
443D
330
17
100
AcDbEntity
  8
0
 48
0.5
100
AcDbLine
 10
672.8931759874278
 20
-27.95014922598443
 30
0.0
 11
672.8931759874278
 21
-16.05014922598445
 31
0.0
  0
LINE
  5
443E
330
17
100
AcDbEntity
  8
0
 48
0.5
100
AcDbLine
 10
672.8931759874278
 20
-16.95014922598454
 30
0.0
 11
671.293175987428
 21
-16.95014922598454
 31
0.0
  0
LINE
  5
443F
330
17
100
AcDbEntity
  8
0
 48
0.5
100
AcDbLine
 10
671.293175987428
 20
-16.95014922598454
 30
0.0
 11
671.293175987428
 21
-40.95014922598454
 31
0.0
  0
LINE
  5
4440
330
17
100
AcDbEntity
  8
0
 48
0.5
100
AcDbLine
 10
638.4931759874279
 20
-16.95014922598454
 30
0.0
 11
638.4931759874279
 21
-14.45014922598449
 31
0.0
  0
LINE
  5
4441
330
17
100
AcDbEntity
  8
0
 48
0.5
100
AcDbLine
 10
624.0231759874279
 20
-34.41439922598454
 30
0.0
 11
624.0231759874279
 21
-30.5001492259845
 31
0.0
  0
LINE
  5
4442
330
17
100
AcDbEntity
  8
0
 48
0.5
100
AcDbLine
 10
624.5231759874279
 20
-22.98589922598456
 30
0.0
 11
634.023175987428
 21
-22.98589922598456
 31
0.0
  0
LINE
  5
4443
330
17
100
AcDbEntity
  8
0
 48
0.5
100
AcDbLine
 10
634.023175987428
 20
-22.98589922598456
 30
0.0
 11
634.023175987428
 21
-34.91439922598454
 31
0.0
  0
LINE
  5
4444
330
17
100
AcDbEntity
  8
0
 48
0.5
100
AcDbLine
 10
634.023175987428
 20
-34.91439922598454
 30
0.0
 11
624.5231759874279
 21
-34.91439922598454
 31
0.0
  0
LINE
  5
4445
330
17
100
AcDbEntity
  8
0
 48
0.5
100
AcDbLine
 10
624.0231759874279
 20
-30.5001492259845
 30
0.0
 11
632.223175987428
 21
-30.5001492259845
 31
0.0
  0
LINE
  5
4446
330
17
100
AcDbEntity
  8
0
 48
0.5
100
AcDbLine
 10
632.223175987428
 20
-30.5001492259845
 30
0.0
 11
632.223175987428
 21
-27.40014922598454
 31
0.0
  0
LINE
  5
4447
330
17
100
AcDbEntity
  8
0
 48
0.5
100
AcDbLine
 10
632.223175987428
 20
-27.40014922598454
 30
0.0
 11
624.0231759874279
 21
-27.40014922598454
 31
0.0
  0
LINE
  5
4448
330
17
100
AcDbEntity
  8
0
 48
0.5
100
AcDbLine
 10
624.0231759874279
 20
-27.40014922598454
 30
0.0
 11
624.0231759874279
 21
-23.48589922598455
 31
0.0
  0
LINE
  5
4449
330
17
100
AcDbEntity
  8
0
 48
0.5
100
AcDbLine
 10
624.0231759874279
 20
-23.48589922598455
 30
0.0
 11
624.5231759874279
 21
-22.98589922598456
 31
0.0
  0
LINE
  5
444A
330
17
100
AcDbEntity
  8
0
 48
0.5
100
AcDbLine
 10
624.0231759874279
 20
-34.41439922598454
 30
0.0
 11
624.5231759874279
 21
-34.91439922598454
 31
0.0
  0
LINE
  5
444B
330
17
100
AcDbEntity
  8
0
 48
0.5
100
AcDbLine
 10
624.5231759874279
 20
-34.91439922598454
 30
0.0
 11
624.5231759874279
 21
-30.5001492259845
 31
0.0
  0
LINE
  5
444C
330
17
100
AcDbEntity
  8
0
 48
0.5
100
AcDbLine
 10
624.5231759874279
 20
-22.98589922598456
 30
0.0
 11
624.5231759874279
 21
-27.40014922598454
 31
0.0
  0
LINE
  5
444D
330
17
100
AcDbEntity
  8
additional
  6
HIDDEN2
 48
0.5
100
AcDbLine
 10
629.5481759874278
 20
-30.5001492259845
 30
0.0
 11
629.5481759874278
 21
-34.41439922598454
 31
0.0
  0
LINE
  5
444E
330
17
100
AcDbEntity
  8
additional
  6
HIDDEN2
 48
0.5
100
AcDbLine
 10
629.5481759874278
 20
-34.41439922598454
 30
0.0
 11
630.0481759874278
 21
-34.91439922598454
 31
0.0
  0
LINE
  5
444F
330
17
100
AcDbEntity
  8
additional
  6
HIDDEN2
 48
0.5
100
AcDbLine
 10
626.4981759874278
 20
-30.5001492259845
 30
0.0
 11
626.4981759874278
 21
-34.41439922598454
 31
0.0
  0
LINE
  5
4450
330
17
100
AcDbEntity
  8
additional
  6
HIDDEN2
 48
0.5
100
AcDbLine
 10
626.4981759874278
 20
-34.41439922598454
 30
0.0
 11
625.9981759874278
 21
-34.91439922598454
 31
0.0
  0
LINE
  5
4451
330
17
100
AcDbEntity
  8
additional
  6
HIDDEN2
 48
0.5
100
AcDbLine
 10
629.5481759874278
 20
-27.40014922598454
 30
0.0
 11
629.5481759874278
 21
-23.4858992259845
 31
0.0
  0
LINE
  5
4452
330
17
100
AcDbEntity
  8
additional
  6
HIDDEN2
 48
0.5
100
AcDbLine
 10
629.5481759874278
 20
-23.4858992259845
 30
0.0
 11
630.0481759874278
 21
-22.9858992259845
 31
0.0
  0
LINE
  5
4453
330
17
100
AcDbEntity
  8
additional
  6
HIDDEN2
 48
0.5
100
AcDbLine
 10
626.4981759874278
 20
-27.40014922598454
 30
0.0
 11
626.4981759874278
 21
-23.4858992259845
 31
0.0
  0
LINE
  5
4454
330
17
100
AcDbEntity
  8
additional
  6
HIDDEN2
 48
0.5
100
AcDbLine
 10
626.4981759874278
 20
-23.4858992259845
 30
0.0
 11
625.9981759874278
 21
-22.9858992259845
 31
0.0
  0
LINE
  5
4455
330
17
100
AcDbEntity
  8
0
 48
0.5
100
AcDbLine
 10
674.8431759874279
 20
-31.91764922598452
 30
0.0
 11
674.8431759874279
 21
-29.95014922598443
 31
0.0
  0
LINE
  5
4456
330
17
100
AcDbEntity
  8
0
 48
0.5
100
AcDbLine
 10
674.8431759874277
 20
-27.95014922598449
 30
0.0
 11
674.8431759874279
 21
-25.98264922598452
 31
0.0
  0
LINE
  5
4457
330
17
100
AcDbEntity
  8
0
 48
0.5
100
AcDbLine
 10
674.493175987428
 20
-31.91764922598452
 30
0.0
 11
674.8431759874279
 21
-31.91764922598452
 31
0.0
  0
LINE
  5
4458
330
17
100
AcDbEntity
  8
0
 48
0.5
100
AcDbLine
 10
674.493175987428
 20
-25.98264922598452
 30
0.0
 11
674.8431759874279
 21
-25.98264922598452
 31
0.0
  0
LINE
  5
4459
330
17
100
AcDbEntity
  8
0
 48
0.5
100
AcDbLine
 10
640.0931759874278
 20
-40.45014922598454
 30
0.0
 11
671.293175987428
 21
-40.45014922598454
 31
0.0
  0
LINE
  5
445A
330
17
100
AcDbEntity
  8
0
 48
0.5
100
AcDbLine
 10
640.0931759874278
 20
-17.45014922598443
 30
0.0
 11
671.293175987428
 21
-17.45014922598443
 31
0.0
  0
LINE
  5
445B
330
17
100
AcDbEntity
  8
0
 48
0.5
100
AcDbLine
 10
624.5231759874279
 20
-95.22051191569678
 30
0.0
 11
634.023175987428
 21
-95.22051191569678
 31
0.0
  0
LINE
  5
445C
330
17
100
AcDbEntity
  8
0
 48
0.5
100
AcDbLine
 10
634.023175987428
 20
-95.22051191569678
 30
0.0
 11
634.023175987428
 21
-107.1490119156967
 31
0.0
  0
LINE
  5
445D
330
17
100
AcDbEntity
  8
0
 48
0.5
100
AcDbLine
 10
634.023175987428
 20
-107.1490119156967
 30
0.0
 11
624.5231759874279
 21
-107.1490119156968
 31
0.0
  0
LINE
  5
445E
330
17
100
AcDbEntity
  8
0
 48
0.5
100
AcDbLine
 10
624.0231759874279
 20
-106.6490119156968
 30
0.0
 11
624.0231759874279
 21
-95.72051191569679
 31
0.0
  0
LINE
  5
445F
330
17
100
AcDbEntity
  8
0
 48
0.5
100
AcDbLine
 10
624.0231759874279
 20
-95.72051191569679
 30
0.0
 11
624.5231759874279
 21
-95.22051191569678
 31
0.0
  0
LINE
  5
4460
330
17
100
AcDbEntity
  8
0
 48
0.5
100
AcDbLine
 10
624.0231759874279
 20
-106.6490119156968
 30
0.0
 11
624.5231759874279
 21
-107.1490119156967
 31
0.0
  0
LINE
  5
4461
330
17
100
AcDbEntity
  8
0
 48
0.5
100
AcDbLine
 10
624.5231759874279
 20
-95.22051191569678
 30
0.0
 11
624.5231759874279
 21
-107.1490119156967
 31
0.0
  0
CIRCLE
  5
4462
330
17
100
AcDbEntity
  8
0
 48
0.5
100
AcDbCircle
 10
628.0231759874279
 20
-101.1847619156968
 30
0.0
 40
1.524999999999991
  0
LINE
  5
4463
330
17
100
AcDbEntity
  8
0
 48
0.5
100
AcDbLine
 10
557.7019353423176
 20
-95.41877084195238
 30
0.0
 11
557.7019353423176
 21
-106.9507529894412
 31
0.0
  0
LINE
  5
4464
330
17
100
AcDbEntity
  8
0
 48
0.5
100
AcDbLine
 10
560.7519353423178
 20
-95.41877084195238
 30
0.0
 11
560.7519353423178
 21
-106.9507529894412
 31
0.0
  0
LINE
  5
4465
330
17
100
AcDbEntity
  8
0
 48
0.5
100
AcDbLine
 10
634.023175987428
 20
-107.5020200323643
 30
0.0
 11
634.8231759874279
 21
-107.5020200323643
 31
0.0
  0
LINE
  5
4466
330
17
100
AcDbEntity
  8
0
 48
0.5
100
AcDbLine
 10
634.8231759874279
 20
-109.6847619156967
 30
0.0
 11
634.8231759874279
 21
-106.1097619156968
 31
0.0
  0
LINE
  5
4467
330
17
100
AcDbEntity
  8
0
 48
0.5
100
AcDbLine
 10
634.8231759874279
 20
-92.68476191569675
 30
0.0
 11
635.2931759874279
 21
-92.68476191569675
 31
0.0
  0
LINE
  5
4468
330
17
100
AcDbEntity
  8
0
 48
0.5
100
AcDbLine
 10
634.8231759874279
 20
-109.6847619156967
 30
0.0
 11
635.2931759874279
 21
-109.6847619156967
 31
0.0
  0
LINE
  5
4469
330
17
100
AcDbEntity
  8
0
 48
0.5
100
AcDbLine
 10
634.023175987428
 20
-107.5020200323643
 30
0.0
 11
634.023175987428
 21
-93.18476191569676
 31
0.0
  0
LINE
  5
446A
330
17
100
AcDbEntity
  8
0
 48
0.5
100
AcDbLine
 10
634.023175987428
 20
-93.18476191569676
 30
0.0
 11
634.8231759874279
 21
-93.18476191569676
 31
0.0
  0
LINE
  5
446B
330
17
100
AcDbEntity
  8
0
 48
0.5
100
AcDbLine
 10
635.2931759874279
 20
-109.6847619156967
 30
0.0
 11
635.2931759874279
 21
-106.1097619156968
 31
0.0
  0
LINE
  5
446C
330
17
100
AcDbEntity
  8
0
 48
0.5
100
AcDbLine
 10
636.8931759874278
 20
-96.25976191569677
 30
0.0
 11
636.8931759874278
 21
-89.1722619156968
 31
0.0
  0
LINE
  5
446D
330
17
100
AcDbEntity
  8
0
 48
0.5
100
AcDbLine
 10
635.2931759874279
 20
-96.25976191569677
 30
0.0
 11
635.2931759874279
 21
-92.68476191569675
 31
0.0
  0
LINE
  5
446E
330
17
100
AcDbEntity
  8
0
 48
0.5
100
AcDbLine
 10
635.2931759874279
 20
-96.25976191569677
 30
0.0
 11
635.2931759874279
 21
-89.1722619156968
 31
0.0
  0
LINE
  5
446F
330
17
100
AcDbEntity
  8
0
 48
0.5
100
AcDbLine
 10
634.8231759874279
 20
-96.25976191569677
 30
0.0
 11
634.8231759874279
 21
-92.68476191569675
 31
0.0
  0
LINE
  5
4470
330
17
100
AcDbEntity
  8
0
 48
0.5
100
AcDbLine
 10
572.1269353423176
 20
-106.1097619156968
 30
0.0
 11
572.1269353423176
 21
-96.2597619156968
 31
0.0
  0
LINE
  5
4471
330
17
100
AcDbEntity
  8
0
 48
0.5
100
AcDbLine
 10
573.7269353423178
 20
-106.1097619156968
 30
0.0
 11
572.1269353423176
 21
-106.1097619156968
 31
0.0
  0
CIRCLE
  5
4472
330
17
100
AcDbEntity
  8
0
 48
0.5
100
AcDbCircle
 10
662.493175987428
 20
-110.8847619156968
 30
0.0
 40
1.25
  0
CIRCLE
  5
4473
330
17
100
AcDbEntity
  8
additional
  6
HIDDEN2
 48
0.5
100
AcDbCircle
 10
662.4931759874278
 20
-91.48476191569679
 30
0.0
 40
1.5
  0
CIRCLE
  5
4474
330
17
100
AcDbEntity
  8
0
 48
0.5
100
AcDbCircle
 10
662.4931759874278
 20
-91.48476191569676
 30
0.0
 40
1.25
  0
CIRCLE
  5
4475
330
17
100
AcDbEntity
  8
additional
  6
HIDDEN2
 48
0.5
100
AcDbCircle
 10
644.493175987428
 20
-91.48476191569679
 30
0.0
 40
1.5
  0
CIRCLE
  5
4476
330
17
100
AcDbEntity
  8
0
 48
0.5
100
AcDbCircle
 10
644.493175987428
 20
-91.48476191569676
 30
0.0
 40
1.25
  0
CIRCLE
  5
4477
330
17
100
AcDbEntity
  8
additional
  6
HIDDEN2
 48
0.5
100
AcDbCircle
 10
644.493175987428
 20
-110.8847619156968
 30
0.0
 40
1.5
  0
CIRCLE
  5
4478
330
17
100
AcDbEntity
  8
0
 48
0.5
100
AcDbCircle
 10
644.493175987428
 20
-110.8847619156967
 30
0.0
 40
1.25
  0
LINE
  5
4479
330
17
100
AcDbEntity
  8
0
 48
0.5
100
AcDbLine
 10
674.8275526739523
 20
-104.1522619156968
 30
0.0
 11
674.8275526739523
 21
-98.2172619156968
 31
0.0
  0
LINE
  5
447A
330
17
100
AcDbEntity
  8
0
 48
0.5
100
AcDbLine
 10
674.493175987428
 20
-104.1522619156967
 30
0.0
 11
674.8275526739523
 21
-104.1522619156968
 31
0.0
  0
LINE
  5
447B
330
17
100
AcDbEntity
  8
0
 48
0.5
100
AcDbLine
 10
674.493175987428
 20
-98.21726191569679
 30
0.0
 11
674.8275526739523
 21
-98.21726191569679
 31
0.0
  0
LINE
  5
447C
330
17
100
AcDbEntity
  8
0
 48
0.5
100
AcDbLine
 10
573.7269353423178
 20
-96.25976191569677
 30
0.0
 11
572.1269353423176
 21
-96.2597619156968
 31
0.0
  0
ARC
  5
447D
330
17
100
AcDbEntity
  8
0
 48
0.5
100
AcDbCircle
 10
547.7269353423178
 20
-88.57226191569679
 30
0.0
 40
0.5
100
AcDbArc
 50
90.0
 51
180.0
  0
ARC
  5
447E
330
17
100
AcDbEntity
  8
0
 48
0.5
100
AcDbCircle
 10
570.7269353423177
 20
-88.57226191569679
 30
0.0
 40
0.5
100
AcDbArc
 50
0.0
 51
90.0
  0
LINE
  5
447F
330
17
100
AcDbEntity
  8
0
 48
0.5
100
AcDbLine
 10
634.8231759874279
 20
-37.45014922598449
 30
0.0
 11
634.8231759874279
 21
-20.45014922598449
 31
0.0
  0
LINE
  5
4480
330
17
100
AcDbEntity
  8
0
 48
0.5
100
AcDbLine
 10
634.8231759874279
 20
-20.45014922598449
 30
0.0
 11
635.2931759874279
 21
-20.45014922598449
 31
0.0
  0
LINE
  5
4481
330
17
100
AcDbEntity
  8
0
 48
0.5
100
AcDbLine
 10
634.8231759874279
 20
-37.45014922598449
 30
0.0
 11
635.2931759874279
 21
-37.45014922598449
 31
0.0
  0
LINE
  5
4482
330
17
100
AcDbEntity
  8
0
 48
0.5
100
AcDbLine
 10
634.023175987428
 20
-36.95014922598449
 30
0.0
 11
634.023175987428
 21
-20.95014922598449
 31
0.0
  0
LINE
  5
4483
330
17
100
AcDbEntity
  8
0
 48
0.5
100
AcDbLine
 10
634.023175987428
 20
-20.95014922598449
 30
0.0
 11
634.8231759874279
 21
-20.95014922598449
 31
0.0
  0
LINE
  5
4484
330
17
100
AcDbEntity
  8
0
 48
0.5
100
AcDbLine
 10
634.023175987428
 20
-36.95014922598449
 30
0.0
 11
634.8231759874279
 21
-36.95014922598449
 31
0.0
  0
LINE
  5
4485
330
17
100
AcDbEntity
  8
0
 48
0.5
100
AcDbLine
 10
635.2931759874279
 20
-37.45014922598449
 30
0.0
 11
635.2931759874279
 21
-20.45014922598449
 31
0.0
  0
LINE
  5
4486
330
17
100
AcDbEntity
  8
additional
  6
HIDDEN2
 48
0.5
100
AcDbLine
 10
626.4981759874278
 20
-23.4858992259845
 30
0.0
 11
629.5481759874278
 21
-23.4858992259845
 31
0.0
  0
LINE
  5
4487
330
17
100
AcDbEntity
  8
additional
  6
HIDDEN2
 48
0.5
100
AcDbLine
 10
626.4981759874278
 20
-34.41439922598454
 30
0.0
 11
629.5481759874278
 21
-34.41439922598454
 31
0.0
  0
LINE
  5
4488
330
17
100
AcDbEntity
  8
additional
  6
HIDDEN2
100
AcDbLine
 10
564.9929264160621
 20
-99.6597619156968
 30
0.0
 11
560.7519353423178
 21
-99.6597619156968
 31
0.0
  0
LINE
  5
4489
330
17
100
AcDbEntity
  8
additional
  6
HIDDEN2
100
AcDbLine
 10
557.7019353423176
 20
-99.6597619156968
 30
0.0
 11
553.4609442685734
 21
-99.6597619156968
 31
0.0
  0
LINE
  5
448A
330
17
100
AcDbEntity
  8
additional
  6
HIDDEN2
100
AcDbLine
 10
564.9929264160621
 20
-102.7097619156968
 30
0.0
 11
560.7519353423178
 21
-102.7097619156968
 31
0.0
  0
LINE
  5
448B
330
17
100
AcDbEntity
  8
additional
  6
HIDDEN2
100
AcDbLine
 10
557.7019353423176
 20
-102.7097619156968
 30
0.0
 11
553.4609442685734
 21
-102.7097619156968
 31
0.0
  0
LINE
  5
448C
330
17
100
AcDbEntity
  8
additional
  6
CENTER2
 48
0.5
100
AcDbLine
 10
541.8901379020199
 20
-101.1847619156968
 30
0.0
 11
576.5846249469221
 21
-101.1847619156968
 31
0.0
  0
ARC
  5
448D
330
17
100
AcDbEntity
  8
0
100
AcDbCircle
 10
559.2269353423177
 20
-101.1847619156968
 30
0.0
 40
5.464249999999999
100
AcDbArc
 50
106.2057091364279
 51
253.7942908635721
  0
ARC
  5
448E
330
17
100
AcDbEntity
  8
0
100
AcDbCircle
 10
559.2269353423177
 20
-101.1847619156968
 30
0.0
 40
5.464249999999999
100
AcDbArc
 50
286.205709136428
 51
73.79429086357204
  0
LINE
  5
448F
330
17
100
AcDbEntity
  8
additional
  6
CENTER2
 48
0.5
100
AcDbLine
 10
559.2269353423177
 20
-84.41955120532421
 30
0.0
 11
559.2269353423177
 21
-116.5867902444783
 31
0.0
  0
LINE
  5
4490
330
17
100
AcDbEntity
  8
0
100
AcDbLine
 10
640.0931759874278
 20
-89.1722619156968
 30
0.0
 11
652.2803430653389
 21
-87.67226191569685
 31
0.0
  0
LINE
  5
4491
330
17
100
AcDbEntity
  8
0
100
AcDbLine
 10
671.2931759874277
 20
-89.17226191569685
 30
0.0
 11
671.2931759874277
 21
-87.67226191569685
 31
0.0
  0
LINE
  5
4492
330
17
100
AcDbEntity
  8
0
 48
0.5
100
AcDbLine
 10
687.1848531468872
 20
-89.17226191571209
 30
0.0
 11
671.2931759874277
 21
-89.1722619156968
 31
0.0
  0
LINE
  5
4493
330
17
100
AcDbEntity
  8
0
 48
0.5
100
AcDbLine
 10
687.6592362411445
 20
-88.1722619157113
 30
0.0
 11
671.2931759874277
 21
-88.17226191573235
 31
0.0
  0
LINE
  5
4495
330
17
100
AcDbEntity
  8
0
100
AcDbLine
 10
671.2931759874277
 20
-87.67226191569685
 30
0.0
 11
652.2803430653389
 21
-87.67226191569685
 31
0.0
  0
LINE
  5
4496
330
17
100
AcDbEntity
  8
0
 48
0.5
100
AcDbLine
 10
551.4396638503696
 20
-88.07226191569682
 30
0.0
 11
552.9681302850105
 21
-87.67226191569685
 31
0.0
  0
LINE
  5
4497
330
17
100
AcDbEntity
  8
0
 48
0.5
100
AcDbLine
 10
565.4857403996254
 20
-87.67226191569685
 30
0.0
 11
552.9681302850105
 21
-87.67226191569685
 31
0.0
  0
LINE
  5
4498
330
17
100
AcDbEntity
  8
0
 48
0.5
100
AcDbLine
 10
567.0142068342661
 20
-88.07226191569681
 30
0.0
 11
565.4857403996254
 21
-87.67226191569685
 31
0.0
  0
LINE
  5
4499
330
17
100
AcDbEntity
  8
additional
  6
CENTER2
 48
0.5
100
AcDbLine
 10
621.0165194690305
 20
-101.1847619156967
 30
-0.0720273371595823
 11
677.99917903394
 21
-101.1847619156968
 31
-0.0720273371595823
  0
LINE
  5
449A
330
17
100
AcDbEntity
  8
additional
  6
CENTER2
 48
0.5
100
AcDbLine
 10
628.0231759874279
 20
-92.42678058006815
 30
0.0
 11
628.0231759874279
 21
-109.9539245527786
 31
0.0
  0
LINE
  5
449B
330
17
100
AcDbEntity
  8
additional
  6
CENTER2
 48
0.5
100
AcDbLine
 10
644.493175987428
 20
-113.9852016289696
 30
0.0
 11
644.493175987428
 21
-88.48476191569682
 31
0.0
  0
LINE
  5
449C
330
17
100
AcDbEntity
  8
additional
  6
CENTER2
 48
0.5
100
AcDbLine
 10
641.493175987428
 20
-91.48476191569676
 30
0.0
 11
665.5368901792717
 21
-91.48476191569676
 31
0.0
  0
LINE
  5
449D
330
17
100
AcDbEntity
  8
additional
  6
CENTER2
 48
0.5
100
AcDbLine
 10
662.4931759874278
 20
-113.9852016289696
 30
0.0
 11
662.4931759874278
 21
-88.48476191569682
 31
0.0
  0
LINE
  5
449E
330
17
100
AcDbEntity
  8
additional
  6
CENTER2
 48
0.5
100
AcDbLine
 10
641.493175987428
 20
-110.8847619156967
 30
0.0
 11
665.5368901792717
 21
-110.8847619156967
 31
0.0
  0
LINE
  5
449F
330
17
100
AcDbEntity
  8
additional
100
AcDbLine
 10
644.493175987428
 20
-39.32154285172305
 30
0.0
 11
644.493175987428
 21
-45.54381697853727
 31
0.0
  0
LINE
  5
44A0
330
17
100
AcDbEntity
  8
additional
100
AcDbLine
 10
662.4931759874282
 20
-39.32154285172305
 30
0.0
 11
662.4931759874282
 21
-45.54381697853727
 31
0.0
  0
LINE
  5
44A1
330
17
100
AcDbEntity
  8
additional
100
AcDbLine
 10
644.493175987428
 20
-18.57875560024593
 30
0.0
 11
644.493175987428
 21
-12.3564814734317
 31
0.0
  0
LINE
  5
44A2
330
17
100
AcDbEntity
  8
additional
100
AcDbLine
 10
662.4931759874282
 20
-18.57875560024593
 30
0.0
 11
662.4931759874282
 21
-12.3564814734317
 31
0.0
  0
LINE
  5
44A3
330
17
100
AcDbEntity
  8
additional
  6
CENTER2
 48
0.5
100
AcDbLine
 10
621.0141609328452
 20
-28.95014922598443
 30
0.0
 11
671.293175987428
 21
-28.95014922598443
 31
0.0
  0
LINE
  5
44A4
330
17
100
AcDbEntity
  8
additional
 48
5.0
100
AcDbLine
 10
576.4988879886975
 20
-91.48476191569679
 30
0.0
 11
570.4538286631689
 21
-91.48476191569679
 31
0.0
  0
LINE
  5
44A5
330
17
100
AcDbEntity
  8
additional
 48
5.0
100
AcDbLine
 10
576.4988879886975
 20
-110.8847619156968
 30
0.0
 11
570.4538286631689
 21
-110.8847619156968
 31
0.0
  0
LINE
  5
44A6
330
17
100
AcDbEntity
  8
0
 48
0.5
100
AcDbLine
 10
546.3269353423179
 20
-106.1097619156968
 30
0.0
 11
546.3269353423179
 21
-96.2597619156968
 31
0.0
  0
LINE
  5
44A7
330
17
100
AcDbEntity
  8
0
 48
0.5
100
AcDbLine
 10
544.7269353423178
 20
-106.1097619156968
 30
0.0
 11
546.3269353423179
 21
-106.1097619156968
 31
0.0
  0
LINE
  5
44A8
330
17
100
AcDbEntity
  8
0
 48
0.5
100
AcDbLine
 10
544.7269353423178
 20
-96.25976191569677
 30
0.0
 11
546.3269353423179
 21
-96.2597619156968
 31
0.0
  0
LINE
  5
44A9
330
17
100
AcDbEntity
  8
additional
 48
5.0
100
AcDbLine
 10
541.954982695938
 20
-91.48476191569679
 30
0.0
 11
548.0000420214667
 21
-91.48476191569679
 31
0.0
  0
LINE
  5
44AA
330
17
100
AcDbEntity
  8
additional
 48
5.0
100
AcDbLine
 10
541.954982695938
 20
-110.8847619156968
 30
0.0
 11
548.0000420214667
 21
-110.8847619156968
 31
0.0
  0
LINE
  5
44AF
330
17
100
AcDbEntity
  8
additional
  6
CENTER2
 48
0.5
100
AcDbLine
 10
628.0231759874279
 20
-20.19216789035579
 30
0.0
 11
628.0231759874279
 21
-37.71931186306631
 31
0.0
  0
SPLINE
  5
44E9
330
17
100
AcDbEntity
  8
additional
 48
0.5
100
AcDbSpline
210
0.0
220
0.0
230
1.0
 70
     8
 71
     3
 72
    18
 73
    14
 74
    12
 42
0.0000000001
 43
0.0000000001
 44
0.0000000001
 40
0.0
 40
0.0
 40
0.0
 40
0.0
 40
0.3913118960624632
 40
0.7826237921249391
 40
1.482623792124899
 40
1.873935688187413
 40
2.265247584249787
 40
2.656559480312326
 40
3.047871376374789
 40
4.097871376374829
 40
4.489183272437254
 40
4.880495168499806
 40
5.271807064562244
 40
5.271807064562244
 40
5.271807064562244
 40
5.271807064562244
 10
687.5799120811863
 20
-86.23613072684131
 30
0.0
 10
687.6361969228325
 20
-86.35377046019574
 30
0.0
 10
687.7487666061251
 20
-86.58904992690459
 30
0.0
 10
688.0085902952658
 20
-87.01264889821864
 30
0.0
 10
688.0086677832297
 20
-87.55963151674851
 30
0.0
 10
687.748636654859
 20
-87.98316787693419
 30
0.0
 10
687.5803975879505
 20
-88.33629940081511
 30
0.0
 10
687.4092454804568
 20
-88.68841888085304
 30
0.0
 10
687.1014719188162
 20
-89.21667829926539
 30
0.0
 10
687.101075131569
 20
-89.9057285231253
 30
0.0
 10
687.4096891020855
 20
-90.43363966547607
 30
0.0
 10
687.5787178259614
 20
-90.78675349218253
 30
0.0
 10
687.6961806627779
 20
-91.0196716486217
 30
0.0
 10
687.7549120811862
 20
-91.13613072684126
 30
0.0
 11
687.5799120811863
 21
-86.23613072684131
 31
0.0
 11
687.7549120811862
 21
-86.58613072684133
 31
0.0
 11
687.9299120811863
 21
-86.93613072684131
 31
0.0
 11
687.9299120811863
 21
-87.63613072684128
 31
0.0
 11
687.7549120811862
 21
-87.9861307268413
 31
0.0
 11
687.5799120811863
 21
-88.33613072684121
 31
0.0
 11
687.4049120811861
 21
-88.68613072684121
 31
0.0
 11
687.2299120811861
 21
-89.03613072684123
 31
0.0
 11
687.2299120811861
 21
-90.08613072684127
 31
0.0
 11
687.4049120811861
 21
-90.43613072684125
 31
0.0
 11
687.5799120811863
 21
-90.78613072684126
 31
0.0
 11
687.7549120811862
 21
-91.13613072684126
 31
0.0
  0
DIMENSION
  5
44EA
330
17
100
AcDbEntity
  8
Z_OM_DIM
100
AcDbDimension
  2
*D2
 10
613.8742879658463
 20
-30.5001492259845
 30
0.0
 11
613.8742879658463
 21
-19.6918158926511
 31
0.0
 70
   160
 71
     5
 42
3.099999999999965
  3
CatalogDxf
100
AcDbAlignedDimension
 13
624.0231759874279
 23
-27.40014922598454
 33
0.0
 14
624.0231759874279
 24
-30.5001492259845
 34
0.0
 50
90.0
100
AcDbRotatedDimension
  0
DIMENSION
  5
44F9
330
17
100
AcDbEntity
  8
Z_OM_DIM
100
AcDbDimension
  2
*D3
 10
632.223175987428
 20
-47.31460985273201
 30
0.0
 11
628.1246185963753
 21
-44.71199114000831
 31
0.0
 70
   160
 71
     5
 42
8.200000000000045
  3
CatalogDxf
100
AcDbAlignedDimension
 13
624.0231759874279
 23
-34.41439922598454
 33
0.0
 14
632.223175987428
 24
-30.5001492259845
 34
0.0
100
AcDbRotatedDimension
1001
ACAD
1000
DSTYLE
1002
{
1070
   279
1070
     2
1002
}
  0
DIMENSION
  5
4506
330
17
100
AcDbEntity
  8
Z_OM_DIM
100
AcDbDimension
  2
*D4
 10
634.4931759874279
 20
-57.49621499189879
 30
0.0
 11
654.4931759874279
 21
-55.62121499189879
 31
0.0
 70
    32
 71
     5
 42
40.0
  3
CatalogDxf
100
AcDbAlignedDimension
 13
674.493175987428
 23
-42.57514922598448
 33
0.0
 14
634.4931759874279
 24
-43.45014922598449
 34
0.0
100
AcDbRotatedDimension
  0
DIMENSION
  5
4513
330
17
100
AcDbEntity
  8
Z_OM_DIM
100
AcDbDimension
  2
*D5
 10
688.5885850239217
 20
-110.8847619156967
 30
0.0
 11
686.7135850239217
 21
-101.1847619156966
 31
0.0
 70
    32
 71
     5
 42
19.39999999999995
  3
CatalogDxf
100
AcDbAlignedDimension
 13
665.5368901792717
 23
-91.48476191569676
 33
0.0
 14
665.5368901792717
 24
-110.8847619156967
 34
0.0
 50
90.0
100
AcDbRotatedDimension
  0
DIMENSION
  5
4520
330
17
100
AcDbEntity
  8
Z_OM_DIM
100
AcDbDimension
  2
*D6
 10
644.493175987428
 20
-79.7818359174787
 30
0.0
 11
653.4931759874279
 21
-77.9068359174787
 31
0.0
 70
    32
 71
     5
 42
17.99999999999977
  3
CatalogDxf
100
AcDbAlignedDimension
 13
662.4931759874278
 23
-88.48476191569682
 33
0.0
 14
644.493175987428
 24
-88.48476191569682
 34
0.0
100
AcDbRotatedDimension
  0
DIMENSION
  5
452D
330
17
100
AcDbEntity
  8
Z_OM_DIM
100
AcDbDimension
  2
*D7
 10
628.0231759874279
 20
-79.7818359174787
 30
0.0
 11
636.258175987428
 21
-77.9068359174787
 31
0.0
 70
    32
 71
     5
 42
16.47000000000003
  3
CatalogDxf
100
AcDbAlignedDimension
 13
644.493175987428
 23
-88.48476191569682
 33
0.0
 14
628.0231759874279
 24
-92.51603899188776
 34
0.0
100
AcDbRotatedDimension
1001
ACAD
1000
DSTYLE
1002
{
1070
   279
1070
     1
1002
}
  0
DIMENSION
  5
453A
330
17
100
AcDbEntity
  8
Z_OM_DIM
100
AcDbDimension
  2
*D8
 10
624.0231759874279
 20
-79.7818359174787
 30
0.0
 11
626.023175987428
 21
-77.9068359174787
 31
0.0
 70
    32
 71
     5
 42
4.0
  3
CatalogDxf
100
AcDbAlignedDimension
 13
628.0231759874279
 23
-92.51603899188776
 33
0.0
 14
624.0231759874279
 24
-95.8209516289696
 34
0.0
100
AcDbRotatedDimension
1001
ACAD
1000
DSTYLE
1002
{
1070
   279
1070
     1
1002
}
  0
DIMENSION
  5
4549
330
17
100
AcDbEntity
  8
Z_OM_DIM
100
AcDbDimension
  2
*D9
 10
573.7269353423178
 20
-127.12805915843
 30
0.0
 11
559.2269353423177
 21
-125.25305915843
 31
0.0
 70
    32
 71
     5
 42
29.0
  3
CatalogDxf
100
AcDbAlignedDimension
 13
544.7269353423178
 23
-113.1972619156967
 33
0.0
 14
573.7269353423178
 24
-113.1972619156967
 34
0.0
100
AcDbRotatedDimension
  0
DIMENSION
  5
4556
330
17
100
AcDbEntity
  8
Z_OM_DIM
100
AcDbDimension
  2
*D10
 10
587.9285143239895
 20
-113.1972619156967
 30
0.0
 11
586.0535143239895
 21
-101.1847619156967
 31
0.0
 70
    32
 71
     5
 42
24.02499999999998
  3
CatalogDxf
100
AcDbAlignedDimension
 13
573.7269353423178
 23
-89.1722619156968
 33
0.0
 14
573.7269353423178
 24
-113.1972619156967
 34
0.0
 50
90.0
100
AcDbRotatedDimension
  0
DIMENSION
  5
4563
330
17
100
AcDbEntity
  8
Z_OM_DIM
100
AcDbDimension
  2
*D11
 10
613.8742879658463
 20
-107.1490119156968
 30
0.0
 11
611.9992879658464
 21
-101.1847619156967
 31
0.0
 70
    32
  1
%%c12
 71
     5
 42
11.92850000000004
  3
CatalogDxf
100
AcDbAlignedDimension
 13
624.5231759874279
 23
-95.22051191569678
 33
0.0
 14
624.5231759874279
 24
-107.1490119156968
 34
0.0
 50
90.0
100
AcDbRotatedDimension
  0
MTEXT
  5
45A7
330
17
100
AcDbEntity
  8
Z_OM_DIM
100
AcDbMText
 10
693.5945022951147
 20
-18.98687206444386
 30
0.0
 40
2.5
 41
42.8494883882687
 71
     7
 72
     1
  1
UL1007 AWG22 white
  7
CatalogDxf
 73
     1
 44
1.0
1001
ACAD
1000
ACAD_MTEXT_DEFINED_HEIGHT_BEGIN
1070
    46
1040
2.500000000000005
1000
ACAD_MTEXT_DEFINED_HEIGHT_END
1000
MTEXTBEGIN
1070
    73
1070
     1
1070
    44
1040
1.0
1070
    74
1070
     0
1000
MTEXTEND
  0
LEADER
  5
45A8
330
17
100
AcDbEntity
  8
Z_OM_DIM
100
AcDbLeader
  3
ISO-25
 76
     3
 10
687.5762697693606
 20
-27.95014922598443
 30
0.0
 10
693.0303928013552
 20
-19.61187206444385
 30
0.0
 10
734.3886828734733
 20
-19.61187206444385
 30
0.0
1001
ACAD
1000
DSTYLE
1002
{
1070
   341
1005
977
1070
   147
1040
0.625
1070
    77
1070
     0
1002
}
  0
MTEXT
  5
45B2
330
17
100
AcDbEntity
  8
Z_OM_DIM
100
AcDbMText
 10
617.8069891763912
 20
-115.0004530936646
 30
0.0
 40
2.5
 41
4.580851048175645
 71
     7
 72
     1
  1
%%C3
  7
CatalogDxf
 73
     1
 44
1.0
1001
ACAD
1000
MTEXTBEGIN
1070
    73
1070
     1
1070
    44
1040
1.0
1070
    74
1070
     0
1000
MTEXTEND
  0
LEADER
  5
45B3
330
17
100
AcDbEntity
  8
Z_OM_DIM
100
AcDbLeader
  3
ISO-25
 76
     3
 10
627.5435464152986
 20
-102.6323739056785
 30
0.0
 10
623.1954528948634
 20
-115.7050533355719
 30
0.0
 10
616.6679643253321
 20
-115.7050533355719
 30
0.0
211
-1.0
221
0.0
231
0.0
1001
ACAD
1000
DSTYLE
1002
{
1070
   341
1005
977
1070
   147
1040
0.625
1070
    77
1070
     0
1002
}
  0
LEADER
  5
45BC
330
17
100
AcDbEntity
  8
Z_OM_DIM
100
AcDbLeader
  3
ISO-25
 76
     3
 10
663.1419482827384
 20
-111.9532161771594
 30
0.0
 10
669.9041989727358
 20
-123.0898747845492
 30
0.0
 10
695.0739726898243
 20
-123.0898747845492
 30
0.0
1001
ACAD
1000
DSTYLE
1002
{
1070
   341
1005
977
1070
   147
1040
0.625
1070
    77
1070
     0
1002
}
  0
MTEXT
  5
45BD
330
17
100
AcDbEntity
  8
Z_OM_DIM
100
AcDbMText
 10
671.0781969767054
 20
-123.1303716992353
 30
0.0
 40
2.5
 41
24.05930144544266
 71
     4
 72
     1
  1
4-M3\Pboth faces
  7
CatalogDxf
 73
     1
 44
1.0
1001
ACAD
1000
MTEXTBEGIN
1070
    73
1070
     1
1070
    44
1040
1.0
1070
    74
1070
     0
1000
MTEXTEND
  0
DIMENSION
  5
4697
330
17
100
AcDbEntity
  8
Z_OM_DIM
100
AcDbDimension
  2
*D12
 10
644.493175987428
 20
-53.16179122567371
 30
0.0
 11
639.493175987428
 21
-51.28679122567371
 31
0.0
 70
    32
 71
     5
 42
10.0
  3
CatalogDxf
100
AcDbAlignedDimension
 13
634.4931759874279
 23
-43.45014922598449
 33
0.0
 14
644.493175987428
 24
-45.54381697853727
 34
0.0
100
AcDbRotatedDimension
  0
ENDSEC
  0
SECTION
  2
OBJECTS
  0
DICTIONARY
  5
C
330
0
100
AcDbDictionary
281
     1
  3
ACAD_2007HEADERVARS_RT
350
4589
  3
ACAD_COLOR
350
3D57
  3
ACAD_GROUP
350
D
  3
ACAD_LAYOUT
350
3D5A
  3
ACAD_MATERIAL
350
3D42
  3
ACAD_MLINESTYLE
350
1A
  3
ACAD_PLOTSETTINGS
350
957
  3
ACAD_PLOTSTYLENAME
350
3D40
  3
ACAD_TABLESTYLE
350
3D58
  3
ACAD_VISUALSTYLE
350
3D46
  3
ACADDIM
350
1BB8
  3
ACDBHEADERROUNDTRIPXREC
350
4785
  3
AcDbVariableDictionary
350
4116
  3
DWGPROPS
350
4784
1001
ACAD
1000
TREAT_AS_HARD
1070
     0
  0
DICTIONARY
  5
458D
330
8
100
AcDbDictionary
280
     1
281
     1
  3
ACAD_XREC_ROUNDTRIP
360
458E
  0
DICTIONARY
  5
3DBA
330
2
100
AcDbDictionary
280
     1
281
     1
  3
ACAD_LAYERFILTERS
360
421C
  3
ACAD_LAYERSTATES
360
3DBB
  3
ACLYDICTIONARY
360
421B
  0
DICTIONARY
  5
458F
330
E
100
AcDbDictionary
280
     1
281
     1
  3
ACAD_XREC_ROUNDTRIP
360
4590
  0
DICTIONARY
  5
4591
330
27
100
AcDbDictionary
280
     1
281
     1
  3
ACAD_XREC_ROUNDTRIP
360
4592
  0
DICTIONARY
  5
4593
330
2B
100
AcDbDictionary
280
     1
281
     1
  3
ACAD_XREC_ROUNDTRIP
360
4594
  0
DICTIONARY
  5
4597
330
3DB5
100
AcDbDictionary
280
     1
281
     1
  3
ACAD_XREC_ROUNDTRIP
360
4598
  0
DICTIONARY
  5
1808
330
17
100
AcDbDictionary
280
     1
281
     1
  3
ACAD_LAYOUTSELFREF
360
3D3B
  3
ACAD_SORTENTS
360
46BC
1001
ACAD
1000
TREAT_AS_HARD
1070
     1
  0
DICTIONARY
  5
1806
330
14
100
AcDbDictionary
280
     1
281
     1
  3
ACAD_LAYOUTSELFREF
360
3D3A
1001
ACAD
1000
TREAT_AS_HARD
1070
     1
  0
DICTIONARY
  5
4589
102
{ACAD_REACTORS
330
C
102
}
330
C
100
AcDbDictionary
281
     1
  3
DIMLTEX1
350
458B
  3
DIMLTEX2
350
458C
  3
DIMLTYPE
350
458A
  0
DICTIONARY
  5
3D57
102
{ACAD_REACTORS
330
C
102
}
330
C
100
AcDbDictionary
281
     1
  0
DICTIONARY
  5
D
102
{ACAD_REACTORS
330
C
102
}
330
C
100
AcDbDictionary
281
     1
1001
ACAD
1000
TREAT_AS_HARD
1070
     0
  0
DICTIONARY
  5
3D5A
102
{ACAD_REACTORS
330
C
102
}
330
C
100
AcDbDictionary
281
     1
  3
Model
350
3D5B
  3
レイアウト1
350
3D5C
  0
DICTIONARY
  5
3D42
102
{ACAD_REACTORS
330
C
102
}
330
C
100
AcDbDictionary
281
     1
  3
ByBlock
350
3D44
  3
ByLayer
350
3D43
  3
Global
350
3D45
  0
DICTIONARY
  5
1A
102
{ACAD_REACTORS
330
C
102
}
330
C
100
AcDbDictionary
281
     1
  3
STANDARD
350
1B
1001
ACAD
1000
TREAT_AS_HARD
1070
     0
  0
DICTIONARY
  5
957
102
{ACAD_REACTORS
330
C
102
}
330
C
100
AcDbDictionary
281
     1
1001
ACAD
1000
TREAT_AS_HARD
1070
     0
  0
ACDBDICTIONARYWDFLT
  5
3D40
102
{ACAD_REACTORS
330
C
102
}
330
C
100
AcDbDictionary
281
     1
  3
Normal
350
3D41
100
AcDbDictionaryWithDefault
340
3D41
  0
DICTIONARY
  5
3D58
102
{ACAD_REACTORS
330
C
102
}
330
C
100
AcDbDictionary
281
     1
  3
Standard
350
3D59
  0
DICTIONARY
  5
3D46
102
{ACAD_REACTORS
330
C
102
}
330
C
100
AcDbDictionary
281
     1
  3
2dWireframe
350
3D4C
  3
3D Hidden
350
3D4E
  3
3dWireframe
350
3D4D
  3
Basic
350
3D4B
  3
Brighten
350
3D52
  3
ColorChange
350
3D56
  3
Conceptual
350
3D4F
  3
Dim
350
3D51
  3
Facepattern
350
3D55
  3
Flat
350
3D47
  3
FlatWithEdges
350
3D48
  3
Gouraud
350
3D49
  3
GouraudWithEdges
350
3D4A
  3
Linepattern
350
3D54
  3
Realistic
350
3D50
  3
Thicken
350
3D53
  0
XRECORD
  5
1BB8
102
{ACAD_REACTORS
330
C
102
}
330
C
100
AcDbXrecord
280
     1
 90
   990106
  3

 60
     0
 61
     0
 62
     4
 63
     4
 64
     1
 65
     0
 66
     0
 67
     2
 68
     1
 69
     0
 70
     0
 71
     0
 72
     0
 40
37.62783288448509
170
     2
340
0
  0
DICTIONARY
  5
4785
102
{ACAD_REACTORS
330
C
102
}
330
C
100
AcDbDictionary
281
     1
  0
DICTIONARY
  5
4116
102
{ACAD_REACTORS
330
C
102
}
330
C
100
AcDbDictionary
281
     1
  3
CTABLESTYLE
350
4117
  3
DIMASSOC
350
4781
  3
PROJECTNAME
350
4782
  0
XRECORD
  5
4784
102
{ACAD_REACTORS
330
C
102
}
330
C
100
AcDbXrecord
280
     1
  1
DWGPROPS COOKIE
  2

  3

  4

  6

  7

  8
yakata
  9

300
=
301
=
302
=
303
=
304
=
305
=
306
=
307
=
308
=
309
=
 40
0.5490532638888889
 41
2455090.761732894
 42
2455678.573901192
  1

 90
        0
  0
XRECORD
  5
458E
102
{ACAD_REACTORS
330
458D
102
}
330
458D
100
AcDbXrecord
280
     1
102
VTR_0.000_0.000_1.000_1.000_VISUALSTYLE
340
3D4C
102
VTR_0.000_0.000_1.000_1.000_GRIDDISPLAY
 70
     3
102
VTR_0.000_0.000_1.000_1.000_GRIDMAJOR
 70
     5
102
VTR_0.000_0.000_1.000_1.000_DEFAULTLIGHTING
280
     1
102
VTR_0.000_0.000_1.000_1.000_DEFAULTLIGHTINGTYPE
 70
     1
102
VTR_0.000_0.000_1.000_1.000_BRIGHTNESS
141
0.0
102
VTR_0.000_0.000_1.000_1.000_CONTRAST
142
0.0
  0
DICTIONARY
  5
421C
102
{ACAD_REACTORS
330
3DBA
102
}
330
3DBA
100
AcDbDictionary
281
     1
  0
DICTIONARY
  5
3DBB
102
{ACAD_REACTORS
330
3DBA
102
}
330
3DBA
100
AcDbDictionary
281
     1
  0
DICTIONARY
  5
421B
102
{ACAD_REACTORS
330
3DBA
102
}
330
3DBA
100
AcDbDictionary
281
     1
1001
ACAD
1000
<All
  0
XRECORD
  5
4590
102
{ACAD_REACTORS
330
458F
102
}
330
458F
100
AcDbXrecord
280
     1
102
MATERIAL
340
3D45
  0
XRECORD
  5
4592
102
{ACAD_REACTORS
330
4591
102
}
330
4591
100
AcDbXrecord
280
     1
102
MATERIAL
340
3D45
  0
XRECORD
  5
4594
102
{ACAD_REACTORS
330
4593
102
}
330
4593
100
AcDbXrecord
280
     1
102
MATERIAL
340
3D45
  0
XRECORD
  5
4598
102
{ACAD_REACTORS
330
4597
102
}
330
4597
100
AcDbXrecord
280
     1
102
MATERIAL
340
3D45
  0
XRECORD
  5
3D3B
102
{ACAD_REACTORS
330
1808
102
}
330
1808
100
AcDbXrecord
280
     1
340
17
  0
SORTENTSTABLE
  5
46BC
102
{ACAD_REACTORS
330
1808
102
}
330
1808
100
AcDbSortentsTable
330
17
331
45B3
  5
45BC
331
445F
  5
445F
331
4496
  5
4497
331
4311
  5
4311
331
4420
  5
4420
331
4467
  5
4467
331
449E
  5
449F
331
4428
  5
4428
331
44A6
  5
44A7
331
4430
  5
4430
331
4438
  5
4438
331
446F
  5
446F
331
452D
  5
453A
331
4440
  5
4440
331
4477
  5
4477
331
447F
  5
447F
331
42AA
  5
42AA
331
4409
  5
4409
331
4448
  5
4448
331
4487
  5
4487
331
4450
  5
4450
331
4302
  5
4302
331
4411
  5
4411
331
4506
  5
4513
331
4458
  5
4458
331
448F
  5
448F
331
430A
  5
430A
331
4419
  5
4419
331
4421
  5
4421
331
4460
  5
4460
331
4312
  5
4312
331
4497
  5
4498
331
449F
  5
44A0
331
4429
  5
4429
331
45BC
  5
45BD
331
44A7
  5
44A8
331
4468
  5
4468
331
4431
  5
4431
331
4470
  5
4470
331
44AF
  5
44E9
331
4439
  5
4439
331
4441
  5
4441
331
4478
  5
4478
331
440A
  5
440A
331
4449
  5
4449
331
4480
  5
4480
331
4412
  5
4412
331
4451
  5
4451
331
4303
  5
4303
331
4488
  5
4488
331
4490
  5
4490
331
430B
  5
430B
331
441A
  5
441A
331
4459
  5
4459
331
4556
  5
4563
331
4461
  5
4461
331
4498
  5
4499
331
4313
  5
4313
331
4422
  5
4422
331
45BD
  5
4697
331
44A0
  5
44A1
331
442A
  5
442A
331
4432
  5
4432
331
4469
  5
4469
331
44A8
  5
44A9
331
443A
  5
443A
331
4471
  5
4471
331
4479
  5
4479
331
4442
  5
4442
331
4481
  5
4481
331
440B
  5
440B
331
444A
  5
444A
331
4452
  5
4452
331
4489
  5
4489
331
4304
  5
4304
331
4413
  5
4413
331
441B
  5
441B
331
445A
  5
445A
331
430C
  5
430C
331
4491
  5
4491
331
4423
  5
4423
331
4462
  5
4462
331
4499
  5
449A
331
44A1
  5
44A2
331
442B
  5
442B
331
446A
  5
446A
331
44A9
  5
44AA
331
4520
  5
452D
331
4433
  5
4433
331
44E9
  5
44EA
331
4472
  5
4472
331
443B
  5
443B
331
4443
  5
4443
331
447A
  5
447A
331
4404
  5
4404
331
44F9
  5
4506
331
440C
  5
440C
331
444B
  5
444B
331
4482
  5
4482
331
45A7
  5
45A8
331
448A
  5
448A
331
4414
  5
4414
331
4453
  5
4453
331
4305
  5
4305
331
4492
  5
4492
331
430D
  5
430D
331
441C
  5
441C
331
445B
  5
445B
331
4463
  5
4463
331
449A
  5
449B
331
4424
  5
4424
331
442C
  5
442C
331
44A2
  5
44A3
331
4434
  5
4434
331
446B
  5
446B
331
44AA
  5
44AF
331
44EA
  5
44F9
331
443C
  5
443C
331
4473
  5
4473
331
447B
  5
447B
331
4405
  5
4405
331
4444
  5
4444
331
4483
  5
4483
331
440D
  5
440D
331
444C
  5
444C
331
4549
  5
4556
331
45A8
  5
45B2
331
4454
  5
4454
331
448B
  5
448B
331
4697
  5
46BB
331
4306
  5
4306
331
4415
  5
4415
331
441D
  5
441D
331
445C
  5
445C
331
430E
  5
430E
331
4493
  5
4493
331
449B
  5
449C
331
4425
  5
4425
331
4464
  5
4464
331
44A3
  5
44A4
331
442D
  5
442D
331
446C
  5
446C
331
4435
  5
4435
331
443D
  5
443D
331
4474
  5
4474
331
453A
  5
4549
331
4445
  5
4445
331
447C
  5
447C
331
4406
  5
4406
331
440E
  5
440E
331
444D
  5
444D
331
4484
  5
4484
331
448C
  5
448C
331
4307
  5
4307
331
4416
  5
4416
331
4455
  5
4455
331
4513
  5
4520
331
430F
  5
430F
331
441E
  5
441E
331
4130
  5
4130
331
445D
  5
445D
331
4465
  5
4465
331
449C
  5
449D
331
4426
  5
4426
331
442E
  5
442E
331
44A4
  5
44A5
331
4436
  5
4436
331
446D
  5
446D
331
443E
  5
443E
331
4475
  5
4475
331
447D
  5
447D
331
4407
  5
4407
331
4446
  5
4446
331
444E
  5
444E
331
4485
  5
4485
331
440F
  5
440F
331
4456
  5
4456
331
448D
  5
448D
331
4308
  5
4308
331
4417
  5
4417
331
45B2
  5
45B3
331
441F
  5
441F
331
445E
  5
445E
331
4310
  5
4310
331
4495
  5
4496
331
449D
  5
449E
331
4427
  5
4427
331
4466
  5
4466
331
4563
  5
457B
331
44A5
  5
44A6
331
442F
  5
442F
331
446E
  5
446E
331
4437
  5
4437
331
443F
  5
443F
331
4476
  5
4476
331
4447
  5
4447
331
447E
  5
447E
331
4408
  5
4408
331
444F
  5
444F
331
4486
  5
4486
331
4410
  5
4410
331
4301
  5
4301
331
448E
  5
448E
331
4309
  5
4309
331
4418
  5
4418
331
4457
  5
4457
  0
XRECORD
  5
3D3A
102
{ACAD_REACTORS
330
1806
102
}
330
1806
100
AcDbXrecord
280
     1
340
14
  0
XRECORD
  5
458B
102
{ACAD_REACTORS
330
4589
102
}
330
4589
100
AcDbXrecord
280
     1
340
12
  0
XRECORD
  5
458C
102
{ACAD_REACTORS
330
4589
102
}
330
4589
100
AcDbXrecord
280
     1
340
12
  0
XRECORD
  5
458A
102
{ACAD_REACTORS
330
4589
102
}
330
4589
100
AcDbXrecord
280
     1
340
12
  0
LAYOUT
  5
3D5B
102
{ACAD_XDICTIONARY
360
4786
102
}
102
{ACAD_REACTORS
330
3D5A
102
}
330
3D5A
100
AcDbPlotSettings
  1

  2
none_device
  4
Letter_(8.50_x_11.00_Inches)
  6

 40
6.349999904632568
 41
6.349999904632568
 42
6.350006103515625
 43
6.350006103515625
 44
215.8999938964844
 45
279.3999938964844
 46
25.39998840107521
 47
-41.06979060694178
 48
0.0
 49
0.0
140
0.0
141
0.0
142
1.0
143
29.54020000000001
 70
 11940
 72
     0
 73
     1
 74
     0
  7
monochrome.ctb
 75
     0
147
0.0338521743251569
148
-11601.75435648743
149
4198.210184531756
100
AcDbLayout
  1
Model
 70
     1
 71
     0
 10
0.0
 20
0.0
 11
12.0
 21
9.0
 12
0.0
 22
0.0
 32
0.0
 14
0.0
 24
0.0
 34
0.0
 15
0.0
 25
0.0
 35
0.0
146
0.0
 13
0.0
 23
0.0
 33
0.0
 16
1.0
 26
0.0
 36
0.0
 17
0.0
 27
1.0
 37
0.0
 76
     0
330
17
1001
ACAD_PSEXT
1000
なし
1000
なし
1000
適切ではありません
1000
新しいプロッタ環境設定名を選択しない限り、レイアウトは印刷されません。
1070
     0
  0
LAYOUT
  5
3D5C
102
{ACAD_XDICTIONARY
360
4788
102
}
102
{ACAD_REACTORS
330
3D5A
102
}
330
3D5A
100
AcDbPlotSettings
  1

  2
Microsoft XPS Document Writer
  4

  6

 40
0.0
 41
0.0
 42
0.0
 43
0.0
 44
0.0
 45
0.0
 46
0.0
 47
0.0
 48
0.0
 49
0.0
140
0.0
141
0.0
142
1.0
143
1.0
 70
   688
 72
     0
 73
     0
 74
     5
  7
monochrome.ctb
 75
    16
147
1.0
148
0.0
149
0.0
100
AcDbLayout
  1
レイアウト1
 70
     1
 71
     1
 10
0.0
 20
0.0
 11
12.0
 21
9.0
 12
0.0
 22
0.0
 32
0.0
 14
1.000000000000000E+20
 24
1.000000000000000E+20
 34
1.000000000000000E+20
 15
-1.000000000000000E+20
 25
-1.000000000000000E+20
 35
-1.000000000000000E+20
146
0.0
 13
0.0
 23
0.0
 33
0.0
 16
1.0
 26
0.0
 36
0.0
 17
0.0
 27
1.0
 37
0.0
 76
     0
330
14
  0
MATERIAL
  5
3D44
102
{ACAD_XDICTIONARY
360
419D
102
}
102
{ACAD_REACTORS
330
3D42
102
}
330
3D42
100
AcDbMaterial
  1
ByBlock
  0
MATERIAL
  5
3D43
102
{ACAD_XDICTIONARY
360
419B
102
}
102
{ACAD_REACTORS
330
3D42
102
}
330
3D42
100
AcDbMaterial
  1
ByLayer
  0
MATERIAL
  5
3D45
102
{ACAD_XDICTIONARY
360
419F
102
}
102
{ACAD_REACTORS
330
3D42
102
}
330
3D42
100
AcDbMaterial
  1
Global
  0
MLINESTYLE
  5
1B
102
{ACAD_REACTORS
330
1A
102
}
330
1A
100
AcDbMlineStyle
  2
STANDARD
 70
     0
  3

 62
   256
 51
90.0
 52
90.0
 71
     2
 49
0.5
 62
   256
  6
BYLAYER
 49
-0.5
 62
   256
  6
BYLAYER
  0
ACDBPLACEHOLDER
  5
3D41
102
{ACAD_REACTORS
330
3D40
102
}
330
3D40
  0
TABLESTYLE
  5
3D59
102
{ACAD_XDICTIONARY
360
4595
102
}
102
{ACAD_REACTORS
330
3D58
102
}
330
3D58
100
AcDbTableStyle
  3
Standard
 70
     0
 71
     0
 40
0.06
 41
0.06
280
     0
281
     0
  7
STANDARD
140
0.18
170
     2
 62
     0
 63
     7
283
     0
274
    -2
284
     1
 64
     0
275
    -2
285
     1
 65
     0
276
    -2
286
     1
 66
     0
277
    -2
287
     1
 67
     0
278
    -2
288
     1
 68
     0
279
    -2
289
     1
 69
     0
  7
STANDARD
140
0.25
170
     5
 62
     0
 63
     7
283
     0
274
    -2
284
     1
 64
     0
275
    -2
285
     1
 65
     0
276
    -2
286
     1
 66
     0
277
    -2
287
     1
 67
     0
278
    -2
288
     1
 68
     0
279
    -2
289
     1
 69
     0
  7
STANDARD
140
0.18
170
     5
 62
     0
 63
     7
283
     0
274
    -2
284
     1
 64
     0
275
    -2
285
     1
 65
     0
276
    -2
286
     1
 66
     0
277
    -2
287
     1
 67
     0
278
    -2
288
     1
 68
     0
279
    -2
289
     1
 69
     0
  0
ACAD_PROXY_OBJECT
  5
3D4C
102
{ACAD_REACTORS
330
3D46
102
}
330
3D46
100
AcDbProxyObject
 90
      499
 91
      503
 95
  2555929
 70
     0
 93
      598
310
430C9915DA5C99599C985B59401049028333333333333E3BF0000000000000FB023FFFFFF0802405048070000C3008000000C800405A000000320014050640A01C00030C010500920280D3
 94
        0
1001
ACAD
1000
AcDbSavedByObjectVersion
1070
     0
1000
AcDbSavedByObjectVersion
1070
     0
1000
AcDbSavedByObjectVersion
1070
     0
1000
AcDbSavedByObjectVersion
1070
     0
1000
AcDbSavedByObjectVersion
1070
     0
1000
AcDbSavedByObjectVersion
1070
     0
1000
AcDbSavedByObjectVersion
1070
     0
1000
AcDbSavedByObjectVersion
1070
     0
1000
AcRTDxfName
1000
VISUALSTYLE
  0
ACAD_PROXY_OBJECT
  5
3D4E
102
{ACAD_REACTORS
330
3D46
102
}
330
3D46
100
AcDbProxyObject
 90
      499
 91
      503
 95
  2555929
 70
     0
 93
      662
310
428CD108121A5919195B8010640502408333333333333E3BF0000000000000FB023FFFFFF0802409028070000C3008000000C8004080000000000004440A000000320014050640A01C00030C010300920280D0
 94
        0
1001
ACAD
1000
AcDbSavedByObjectVersion
1070
     0
1000
AcDbSavedByObjectVersion
1070
     0
1000
AcDbSavedByObjectVersion
1070
     0
1000
AcDbSavedByObjectVersion
1070
     0
1000
AcDbSavedByObjectVersion
1070
     0
1000
AcDbSavedByObjectVersion
1070
     0
1000
AcDbSavedByObjectVersion
1070
     0
1000
AcDbSavedByObjectVersion
1070
     0
1000
AcRTDxfName
1000
VISUALSTYLE
  0
ACAD_PROXY_OBJECT
  5
3D4D
102
{ACAD_REACTORS
330
3D46
102
}
330
3D46
100
AcDbProxyObject
 90
      499
 91
      503
 95
  2555929
 70
     0
 93
      598
310
430CD915DA5C99599C985B59401059028333333333333E3BF0000000000000FB023FFFFFF0802405048070000C3008000000C800405A000000320014050640A01C00030C010500920280D0
 94
        0
1001
ACAD
1000
AcDbSavedByObjectVersion
1070
     0
1000
AcDbSavedByObjectVersion
1070
     0
1000
AcDbSavedByObjectVersion
1070
     0
1000
AcDbSavedByObjectVersion
1070
     0
1000
AcDbSavedByObjectVersion
1070
     0
1000
AcDbSavedByObjectVersion
1070
     0
1000
AcDbSavedByObjectVersion
1070
     0
1000
AcDbSavedByObjectVersion
1070
     0
1000
AcRTDxfName
1000
VISUALSTYLE
  0
ACAD_PROXY_OBJECT
  5
3D4B
102
{ACAD_REACTORS
330
3D46
102
}
330
3D46
100
AcDbProxyObject
 90
      499
 91
      503
 95
  2555929
 70
     0
 93
      558
310
4190985CDA58C0107406404333333333333E3BF0000000000000FB023FFFFFF08029048070000C3008000000C80040542201C00030C014050640A01C00030C010500920280D4
 94
        0
1001
ACAD
1000
AcDbSavedByObjectVersion
1070
     0
1000
AcDbSavedByObjectVersion
1070
     0
1000
AcDbSavedByObjectVersion
1070
     0
1000
AcDbSavedByObjectVersion
1070
     0
1000
AcDbSavedByObjectVersion
1070
     0
1000
AcDbSavedByObjectVersion
1070
     0
1000
AcDbSavedByObjectVersion
1070
     0
1000
AcDbSavedByObjectVersion
1070
     0
1000
AcRTDxfName
1000
VISUALSTYLE
  0
ACAD_PROXY_OBJECT
  5
3D52
102
{ACAD_REACTORS
330
3D46
102
}
330
3D46
100
AcDbProxyObject
 90
      499
 91
      503
 95
  2555929
 70
     0
 93
      598
310
42509C9A59DA1D195B8010C409028333333333333E3BF0000000000000FB023FFFFFF0802405048070000C3008000000C80040542201C00030C014050640A01C00030C010500920280A657
 94
        0
1001
ACAD
1000
AcDbSavedByObjectVersion
1070
     0
1000
AcDbSavedByObjectVersion
1070
     0
1000
AcDbSavedByObjectVersion
1070
     0
1000
AcDbSavedByObjectVersion
1070
     0
1000
AcDbSavedByObjectVersion
1070
     0
1000
AcDbSavedByObjectVersion
1070
     0
1000
AcDbSavedByObjectVersion
1070
     0
1000
AcDbSavedByObjectVersion
1070
     0
1000
AcRTDxfName
1000
VISUALSTYLE
  0
ACAD_PROXY_OBJECT
  5
3D56
102
{ACAD_REACTORS
330
3D46
102
}
330
3D46
100
AcDbProxyObject
 90
      499
 91
      503
 95
  2555929
 70
     0
 93
      622
310
4310DBDB1BDC90DA185B99D9401104090240C333333333333E3BF0000000000000FB0220202030802405048070000C3008000000C800405422202020308014050640A01C00030C010500920280D7
 94
        0
1001
ACAD
1000
AcDbSavedByObjectVersion
1070
     0
1000
AcDbSavedByObjectVersion
1070
     0
1000
AcDbSavedByObjectVersion
1070
     0
1000
AcDbSavedByObjectVersion
1070
     0
1000
AcDbSavedByObjectVersion
1070
     0
1000
AcDbSavedByObjectVersion
1070
     0
1000
AcDbSavedByObjectVersion
1070
     0
1000
AcDbSavedByObjectVersion
1070
     0
1000
AcRTDxfName
1000
VISUALSTYLE
  0
ACAD_PROXY_OBJECT
  5
3D4F
102
{ACAD_REACTORS
330
3D46
102
}
330
3D46
100
AcDbProxyObject
 90
      499
 91
      503
 95
  2555929
 70
     0
 93
      670
310
42D0DBDB98D95C1D1D585B0010940D028333333333333E3BF0000000000000FB023FFFFFF0802409028070000C3008000000C800404000000000000444042201C00030C014050640A01C00030C010300920280D0
 94
        0
1001
ACAD
1000
AcDbSavedByObjectVersion
1070
     0
1000
AcDbSavedByObjectVersion
1070
     0
1000
AcDbSavedByObjectVersion
1070
     0
1000
AcDbSavedByObjectVersion
1070
     0
1000
AcDbSavedByObjectVersion
1070
     0
1000
AcDbSavedByObjectVersion
1070
     0
1000
AcDbSavedByObjectVersion
1070
     0
1000
AcDbSavedByObjectVersion
1070
     0
1000
AcRTDxfName
1000
VISUALSTYLE
  0
ACAD_PROXY_OBJECT
  5
3D51
102
{ACAD_REACTORS
330
3D46
102
}
330
3D46
100
AcDbProxyObject
 90
      499
 91
      503
 95
  2555929
 70
     0
 93
      582
310
41111A5B4010B409028333333333333E3BF0000000000000FB023FFFFFF0802405048070000C3008000000C80040542201C00030C014050640A01C00030C01050092028099DFFFFFF4
 94
        0
1001
ACAD
1000
AcDbSavedByObjectVersion
1070
     0
1000
AcDbSavedByObjectVersion
1070
     0
1000
AcDbSavedByObjectVersion
1070
     0
1000
AcDbSavedByObjectVersion
1070
     0
1000
AcDbSavedByObjectVersion
1070
     0
1000
AcDbSavedByObjectVersion
1070
     0
1000
AcDbSavedByObjectVersion
1070
     0
1000
AcDbSavedByObjectVersion
1070
     0
1000
AcRTDxfName
1000
VISUALSTYLE
  0
ACAD_PROXY_OBJECT
  5
3D55
102
{ACAD_REACTORS
330
3D46
102
}
330
3D46
100
AcDbProxyObject
 90
      499
 91
      503
 95
  2555929
 70
     0
 93
      614
310
43119858D95C185D1D195C9B8010F409028333333333333E3BF0000000000000FB023FFFFFF0802405048070000C3008000000C80040542201C00030C014050640A01C00030C010500920280D4
 94
        0
1001
ACAD
1000
AcDbSavedByObjectVersion
1070
     0
1000
AcDbSavedByObjectVersion
1070
     0
1000
AcDbSavedByObjectVersion
1070
     0
1000
AcDbSavedByObjectVersion
1070
     0
1000
AcDbSavedByObjectVersion
1070
     0
1000
AcDbSavedByObjectVersion
1070
     0
1000
AcDbSavedByObjectVersion
1070
     0
1000
AcDbSavedByObjectVersion
1070
     0
1000
AcRTDxfName
1000
VISUALSTYLE
  0
ACAD_PROXY_OBJECT
  5
3D47
102
{ACAD_REACTORS
330
3D46
102
}
330
3D46
100
AcDbProxyObject
 90
      499
 91
      503
 95
  2555929
 70
     0
 93
      558
310
41519B185D00240901404333333333333E3BF0000000000000F9023FFFFFF0801029048070000C3008000000C80040542201C00030C014050640A01C00030C010500920286D4
 94
        0
1001
ACAD
1000
AcDbSavedByObjectVersion
1070
     0
1000
AcDbSavedByObjectVersion
1070
     0
1000
AcDbSavedByObjectVersion
1070
     0
1000
AcDbSavedByObjectVersion
1070
     0
1000
AcDbSavedByObjectVersion
1070
     0
1000
AcDbSavedByObjectVersion
1070
     0
1000
AcDbSavedByObjectVersion
1070
     0
1000
AcDbSavedByObjectVersion
1070
     0
1000
AcRTDxfName
1000
VISUALSTYLE
  0
ACAD_PROXY_OBJECT
  5
3D48
102
{ACAD_REACTORS
330
3D46
102
}
330
3D46
100
AcDbProxyObject
 90
      499
 91
      503
 95
  2555929
 70
     0
 93
      638
310
43919B185D15DA5D1A115919D95CC010140901404333333333333E3BF0000000000000F9023FFFFFF080102405048070000C3008000000C800405A000000320014050640A01C00030C010500920286D4
 94
        0
1001
ACAD
1000
AcDbSavedByObjectVersion
1070
     0
1000
AcDbSavedByObjectVersion
1070
     0
1000
AcDbSavedByObjectVersion
1070
     0
1000
AcDbSavedByObjectVersion
1070
     0
1000
AcDbSavedByObjectVersion
1070
     0
1000
AcDbSavedByObjectVersion
1070
     0
1000
AcDbSavedByObjectVersion
1070
     0
1000
AcDbSavedByObjectVersion
1070
     0
1000
AcRTDxfName
1000
VISUALSTYLE
  0
ACAD_PROXY_OBJECT
  5
3D49
102
{ACAD_REACTORS
330
3D46
102
}
330
3D46
100
AcDbProxyObject
 90
      499
 91
      503
 95
  2555929
 70
     0
 93
      582
310
4211DBDD5C985D590010240902404333333333333E3BF0000000000000F9023FFFFFF0801029048070000C3008000000C800405A01C00030C014050640A01C00030C010500920286D4
 94
        0
1001
ACAD
1000
AcDbSavedByObjectVersion
1070
     0
1000
AcDbSavedByObjectVersion
1070
     0
1000
AcDbSavedByObjectVersion
1070
     0
1000
AcDbSavedByObjectVersion
1070
     0
1000
AcDbSavedByObjectVersion
1070
     0
1000
AcDbSavedByObjectVersion
1070
     0
1000
AcDbSavedByObjectVersion
1070
     0
1000
AcDbSavedByObjectVersion
1070
     0
1000
AcRTDxfName
1000
VISUALSTYLE
  0
ACAD_PROXY_OBJECT
  5
3D4A
102
{ACAD_REACTORS
330
3D46
102
}
330
3D46
100
AcDbProxyObject
 90
      499
 91
      503
 95
  2555929
 70
     0
 93
      662
310
4451DBDD5C985D5915DA5D1A115919D95CC010340902404333333333333E3BF0000000000000F9023FFFFFF080102405048070000C3008000000C800405A000000320014050640A01C00030C010500920286D4
 94
        0
1001
ACAD
1000
AcDbSavedByObjectVersion
1070
     0
1000
AcDbSavedByObjectVersion
1070
     0
1000
AcDbSavedByObjectVersion
1070
     0
1000
AcDbSavedByObjectVersion
1070
     0
1000
AcDbSavedByObjectVersion
1070
     0
1000
AcDbSavedByObjectVersion
1070
     0
1000
AcDbSavedByObjectVersion
1070
     0
1000
AcDbSavedByObjectVersion
1070
     0
1000
AcRTDxfName
1000
VISUALSTYLE
  0
ACAD_PROXY_OBJECT
  5
3D54
102
{ACAD_REACTORS
330
3D46
102
}
330
3D46
100
AcDbProxyObject
 90
      499
 91
      503
 95
  2555929
 70
     0
 93
      614
310
43131A5B995C185D1D195C9B8010E409028333333333333E3BF0000000000000FB023FFFFFF0802405048070000C3008000000C80041D42201C00030C014050640A01C00030C010500920E80D5
 94
        0
1001
ACAD
1000
AcDbSavedByObjectVersion
1070
     0
1000
AcDbSavedByObjectVersion
1070
     0
1000
AcDbSavedByObjectVersion
1070
     0
1000
AcDbSavedByObjectVersion
1070
     0
1000
AcDbSavedByObjectVersion
1070
     0
1000
AcDbSavedByObjectVersion
1070
     0
1000
AcDbSavedByObjectVersion
1070
     0
1000
AcDbSavedByObjectVersion
1070
     0
1000
AcRTDxfName
1000
VISUALSTYLE
  0
ACAD_PROXY_OBJECT
  5
3D50
102
{ACAD_REACTORS
330
3D46
102
}
330
3D46
100
AcDbProxyObject
 90
      499
 91
      503
 95
  2555929
 70
     0
 93
      590
310
429499585B1A5CDD1A58C0108409028333333333333E3BF0000000000000FB023FFFFFF08024068070000C3008000000C8004054221E1E1E308014050640A01C00030C010500920286D0
 94
        0
1001
ACAD
1000
AcDbSavedByObjectVersion
1070
     0
1000
AcDbSavedByObjectVersion
1070
     0
1000
AcDbSavedByObjectVersion
1070
     0
1000
AcDbSavedByObjectVersion
1070
     0
1000
AcDbSavedByObjectVersion
1070
     0
1000
AcDbSavedByObjectVersion
1070
     0
1000
AcDbSavedByObjectVersion
1070
     0
1000
AcDbSavedByObjectVersion
1070
     0
1000
AcRTDxfName
1000
VISUALSTYLE
  0
ACAD_PROXY_OBJECT
  5
3D53
102
{ACAD_REACTORS
330
3D46
102
}
330
3D46
100
AcDbProxyObject
 90
      499
 91
      503
 95
  2555929
 70
     0
 93
      582
310
42151A1A58DAD95B8010D409028333333333333E3BF0000000000000FB023FFFFFF0802405048070000C3008000000C80040543201C00030C014050640A01C00030C010500920280D4
 94
        0
1001
ACAD
1000
AcDbSavedByObjectVersion
1070
     0
1000
AcDbSavedByObjectVersion
1070
     0
1000
AcDbSavedByObjectVersion
1070
     0
1000
AcDbSavedByObjectVersion
1070
     0
1000
AcDbSavedByObjectVersion
1070
     0
1000
AcDbSavedByObjectVersion
1070
     0
1000
AcDbSavedByObjectVersion
1070
     0
1000
AcDbSavedByObjectVersion
1070
     0
1000
AcRTDxfName
1000
VISUALSTYLE
  0
DICTIONARYVAR
  5
4117
102
{ACAD_REACTORS
330
4116
102
}
330
4116
100
DictionaryVariables
280
     0
  1
STANDARD
  0
DICTIONARYVAR
  5
4781
102
{ACAD_REACTORS
330
4116
102
}
330
4116
100
DictionaryVariables
280
     0
  1
1
  0
DICTIONARYVAR
  5
4782
102
{ACAD_REACTORS
330
4116
102
}
330
4116
100
DictionaryVariables
280
     0
  1

  0
DICTIONARY
  5
4786
330
3D5B
100
AcDbDictionary
280
     1
281
     1
  3
ACAD_XREC_ROUNDTRIP
360
4787
  0
DICTIONARY
  5
4788
330
3D5C
100
AcDbDictionary
280
     1
281
     1
  3
ACAD_XREC_ROUNDTRIP
360
4789
  0
DICTIONARY
  5
419D
330
3D44
100
AcDbDictionary
280
     1
281
     1
  3
ACAD_XREC_ROUNDTRIP
360
419E
  0
DICTIONARY
  5
419B
330
3D43
100
AcDbDictionary
280
     1
281
     1
  3
ACAD_XREC_ROUNDTRIP
360
419C
  0
DICTIONARY
  5
419F
330
3D45
100
AcDbDictionary
280
     1
281
     1
  3
ACAD_XREC_ROUNDTRIP
360
41A0
  0
DICTIONARY
  5
4595
330
3D59
100
AcDbDictionary
280
     1
281
     1
  3
ACAD_XREC_ROUNDTRIP
360
4596
  0
XRECORD
  5
4787
102
{ACAD_REACTORS
330
4786
102
}
330
4786
100
AcDbXrecord
280
     1
102
SHADEPLOT
 70
     0
102
SHADEPLOTRESLEVEL
 70
     2
102
SHADEPLOTCUSTOMDPI
 70
   300
  0
XRECORD
  5
4789
102
{ACAD_REACTORS
330
4788
102
}
330
4788
100
AcDbXrecord
280
     1
102
SHADEPLOT
 70
     0
102
SHADEPLOTRESLEVEL
 70
     2
102
SHADEPLOTCUSTOMDPI
 70
   300
  0
XRECORD
  5
419E
102
{ACAD_REACTORS
330
419D
102
}
330
419D
100
AcDbXrecord
280
     1
102
MATERIAL
148
0.0
149
0.0
149
0.0
 93
        0
 94
       63
282
     0
 72
     1
 77
     1
171
     1
175
     1
179
     1
273
     0
  0
XRECORD
  5
419C
102
{ACAD_REACTORS
330
419B
102
}
330
419B
100
AcDbXrecord
280
     1
102
MATERIAL
148
0.0
149
0.0
149
0.0
 93
        0
 94
       63
282
     0
 72
     1
 77
     1
171
     1
175
     1
179
     1
273
     0
  0
XRECORD
  5
41A0
102
{ACAD_REACTORS
330
419F
102
}
330
419F
100
AcDbXrecord
280
     1
102
MATERIAL
148
0.0
149
0.0
149
0.0
 93
        0
 94
       63
282
     0
 72
     1
 77
     1
171
     1
175
     1
179
     1
273
     0
  0
XRECORD
  5
4596
102
{ACAD_REACTORS
330
4595
102
}
330
4595
100
AcDbXrecord
280
     1
102
ACAD_ROUNDTRIP_PRE2007_TABLESTYLE
 90
      512
 91
        0
  1

 92
      512
 93
        0
  2

 94
      512
 95
        0
  3

  0
ENDSEC
  0
EOF
