  0
SECTION
  2
HEADER
  9
$ACADVER
  1
AC1015
  9
$ACADMAINTVER
 70
    20
  9
$DWGCODEPAGE
  3
ANSI_932
  9
$INSBASE
 10
0.0
 20
0.0
 30
0.0
  9
$EXTMIN
 10
496.5383663651541
 20
-140.7575463003501
 30
-0.0000000349181948
  9
$EXTMAX
 10
735.365543138645
 20
23.11088209888317
 30
0.0000000814935746
  9
$LIMMIN
 10
0.0
 20
0.0
  9
$LIMMAX
 10
12.0
 20
9.0
  9
$ORTHOMODE
 70
     1
  9
$REGENMODE
 70
     1
  9
$FILLMODE
 70
     1
  9
$QTEXTMODE
 70
     0
  9
$MIRRTEXT
 70
     1
  9
$LTSCALE
 40
0.5
  9
$ATTMODE
 70
     1
  9
$TEXTSIZE
 40
2.5
  9
$TRACEWID
 40
0.05
  9
$TEXTSTYLE
  7
CatalogDxf
  9
$CLAYER
  8
Z_OM_DIM
  9
$CELTYPE
  6
BYLAYER
  9
$CECOLOR
 62
   256
  9
$CELTSCALE
 40
1.0
  9
$DISPSILH
 70
     0
  9
$DIMSCALE
 40
1.0
  9
$DIMASZ
 40
2.5
  9
$DIMEXO
 40
0.625
  9
$DIMDLI
 40
3.75
  9
$DIMRND
 40
0.0
  9
$DIMDLE
 40
0.0
  9
$DIMEXE
 40
1.25
  9
$DIMTP
 40
0.0
  9
$DIMTM
 40
0.0
  9
$DIMTXT
 40
2.5
  9
$DIMCEN
 40
2.5
  9
$DIMTSZ
 40
0.0
  9
$DIMTOL
 70
     0
  9
$DIMLIM
 70
     0
  9
$DIMTIH
 70
     0
  9
$DIMTOH
 70
     0
  9
$DIMSE1
 70
     0
  9
$DIMSE2
 70
     0
  9
$DIMTAD
 70
     1
  9
$DIMZIN
 70
     8
  9
$DIMBLK
  1
OPEN30
  9
$DIMASO
 70
     1
  9
$DIMSHO
 70
     1
  9
$DIMPOST
  1

  9
$DIMAPOST
  1

  9
$DIMALT
 70
     0
  9
$DIMALTD
 70
     3
  9
$DIMALTF
 40
0.03937007874016
  9
$DIMLFAC
 40
1.0
  9
$DIMTOFL
 70
     1
  9
$DIMTVP
 40
0.0
  9
$DIMTIX
 70
     0
  9
$DIMSOXD
 70
     0
  9
$DIMSAH
 70
     0
  9
$DIMBLK1
  1

  9
$DIMBLK2
  1

  9
$DIMSTYLE
  2
CatalogDxf
  9
$DIMCLRD
 70
   256
  9
$DIMCLRE
 70
   256
  9
$DIMCLRT
 70
   256
  9
$DIMTFAC
 40
1.0
  9
$DIMGAP
 40
0.625
  9
$DIMJUST
 70
     0
  9
$DIMSD1
 70
     0
  9
$DIMSD2
 70
     0
  9
$DIMTOLJ
 70
     0
  9
$DIMTZIN
 70
     8
  9
$DIMALTZ
 70
     0
  9
$DIMALTTZ
 70
     0
  9
$DIMUPT
 70
     0
  9
$DIMDEC
 70
     1
  9
$DIMTDEC
 70
     1
  9
$DIMALTU
 70
     2
  9
$DIMALTTD
 70
     3
  9
$DIMTXSTY
  7
CatalogDxf
  9
$DIMAUNIT
 70
     0
  9
$DIMADEC
 70
     0
  9
$DIMALTRND
 40
0.0
  9
$DIMAZIN
 70
     0
  9
$DIMDSEP
 70
    46
  9
$DIMATFIT
 70
     3
  9
$DIMFRAC
 70
     0
  9
$DIMLDRBLK
  1
OPEN30
  9
$DIMLUNIT
 70
     2
  9
$DIMLWD
 70
    -1
  9
$DIMLWE
 70
    -1
  9
$DIMTMOVE
 70
     0
  9
$LUNITS
 70
     2
  9
$LUPREC
 70
     2
  9
$SKETCHINC
 40
0.1
  9
$FILLETRAD
 40
0.0
  9
$AUNITS
 70
     0
  9
$AUPREC
 70
     2
  9
$MENU
  1
acad
  9
$ELEVATION
 40
0.0
  9
$PELEVATION
 40
0.0
  9
$THICKNESS
 40
0.0
  9
$LIMCHECK
 70
     0
  9
$CHAMFERA
 40
0.0
  9
$CHAMFERB
 40
0.0
  9
$CHAMFERC
 40
0.0
  9
$CHAMFERD
 40
0.0
  9
$SKPOLY
 70
     0
  9
$TDCREATE
 40
2455090.761732894
  9
$TDUCREATE
 40
2455090.386732893
  9
$TDUPDATE
 40
2455678.573378218
  9
$TDUUPDATE
 40
2455678.198378218
  9
$TDINDWG
 40
0.5769868866
  9
$TDUSRTIMER
 40
0.5769801852
  9
$USRTIMER
 70
     1
  9
$ANGBASE
 50
0.0
  9
$ANGDIR
 70
     0
  9
$PDMODE
 70
     0
  9
$PDSIZE
 40
0.0
  9
$PLINEWID
 40
0.0
  9
$SPLFRAME
 70
     0
  9
$SPLINETYPE
 70
     6
  9
$SPLINESEGS
 70
     8
  9
$HANDSEED
  5
492A
  9
$SURFTAB1
 70
     6
  9
$SURFTAB2
 70
     6
  9
$SURFTYPE
 70
     6
  9
$SURFU
 70
     6
  9
$SURFV
 70
     6
  9
$UCSBASE
  2

  9
$UCSNAME
  2

  9
$UCSORG
 10
0.0
 20
0.0
 30
0.0
  9
$UCSXDIR
 10
1.0
 20
0.0
 30
0.0
  9
$UCSYDIR
 10
0.0
 20
1.0
 30
0.0
  9
$UCSORTHOREF
  2

  9
$UCSORTHOVIEW
 70
     1
  9
$UCSORGTOP
 10
0.0
 20
0.0
 30
0.0
  9
$UCSORGBOTTOM
 10
0.0
 20
0.0
 30
0.0
  9
$UCSORGLEFT
 10
0.0
 20
0.0
 30
0.0
  9
$UCSORGRIGHT
 10
0.0
 20
0.0
 30
0.0
  9
$UCSORGFRONT
 10
0.0
 20
0.0
 30
0.0
  9
$UCSORGBACK
 10
0.0
 20
0.0
 30
0.0
  9
$PUCSBASE
  2

  9
$PUCSNAME
  2

  9
$PUCSORG
 10
0.0
 20
0.0
 30
0.0
  9
$PUCSXDIR
 10
1.0
 20
0.0
 30
0.0
  9
$PUCSYDIR
 10
0.0
 20
1.0
 30
0.0
  9
$PUCSORTHOREF
  2

  9
$PUCSORTHOVIEW
 70
     0
  9
$PUCSORGTOP
 10
0.0
 20
0.0
 30
0.0
  9
$PUCSORGBOTTOM
 10
0.0
 20
0.0
 30
0.0
  9
$PUCSORGLEFT
 10
0.0
 20
0.0
 30
0.0
  9
$PUCSORGRIGHT
 10
0.0
 20
0.0
 30
0.0
  9
$PUCSORGFRONT
 10
0.0
 20
0.0
 30
0.0
  9
$PUCSORGBACK
 10
0.0
 20
0.0
 30
0.0
  9
$USERI1
 70
     0
  9
$USERI2
 70
     0
  9
$USERI3
 70
     0
  9
$USERI4
 70
     0
  9
$USERI5
 70
     0
  9
$USERR1
 40
0.0
  9
$USERR2
 40
0.0
  9
$USERR3
 40
0.0
  9
$USERR4
 40
0.0
  9
$USERR5
 40
0.0
  9
$WORLDVIEW
 70
     1
  9
$SHADEDGE
 70
     3
  9
$SHADEDIF
 70
    70
  9
$TILEMODE
 70
     1
  9
$MAXACTVP
 70
    16
  9
$PINSBASE
 10
0.0
 20
0.0
 30
0.0
  9
$PLIMCHECK
 70
     0
  9
$PEXTMIN
 10
1.000000000000000E+20
 20
1.000000000000000E+20
 30
1.000000000000000E+20
  9
$PEXTMAX
 10
-1.000000000000000E+20
 20
-1.000000000000000E+20
 30
-1.000000000000000E+20
  9
$PLIMMIN
 10
0.0
 20
0.0
  9
$PLIMMAX
 10
12.0
 20
9.0
  9
$UNITMODE
 70
     0
  9
$VISRETAIN
 70
     0
  9
$PLINEGEN
 70
     0
  9
$PSLTSCALE
 70
     1
  9
$TREEDEPTH
 70
  3020
  9
$CMLSTYLE
  2
STANDARD
  9
$CMLJUST
 70
     0
  9
$CMLSCALE
 40
1.0
  9
$PROXYGRAPHICS
 70
     1
  9
$MEASUREMENT
 70
     0
  9
$CELWEIGHT
370
    -1
  9
$ENDCAPS
280
     0
  9
$JOINSTYLE
280
     0
  9
$LWDISPLAY
290
     0
  9
$INSUNITS
 70
     0
  9
$HYPERLINKBASE
  1

  9
$STYLESHEET
  1
monochrome.ctb
  9
$XEDIT
290
     1
  9
$CEPSNTYPE
380
     0
  9
$PSTYLEMODE
290
     1
  9
$FINGERPRINTGUID
  2
{AFC0AA2D-B3CD-48CF-B830-EF9C44F122D3}
  9
$VERSIONGUID
  2
{EC798E92-47B3-4A6D-8CD8-CE189CD4733D}
  9
$EXTNAMES
290
     1
  9
$PSVPSCALE
 40
0.0
  9
$OLESTARTUP
290
     0
  0
ENDSEC
  0
SECTION
  2
CLASSES
  0
CLASS
  1
ACDBDICTIONARYWDFLT
  2
AcDbDictionaryWithDefault
  3
ObjectDBX Classes
 90
        0
280
     0
281
     0
  0
CLASS
  1
DICTIONARYVAR
  2
AcDbDictionaryVar
  3
ObjectDBX Classes
 90
        0
280
     0
281
     0
  0
CLASS
  1
MATERIAL
  2
AcDbMaterial
  3
ObjectDBX Classes
 90
        0
280
     0
281
     0
  0
CLASS
  1
VISUALSTYLE
  2
AcDbVisualStyle
  3
ObjectDBX Classes
 90
     4095
280
     0
281
     0
  0
CLASS
  1
TABLESTYLE
  2
AcDbTableStyle
  3
ObjectDBX Classes
 90
     2047
280
     0
281
     0
  0
CLASS
  1
DIMASSOC
  2
AcDbDimAssoc
  3
"AcDbDimAssoc|Product Desc:     AcDim ARX App For Dimension|Company:          Autodesk, Inc.|WEB Address:      www.autodesk.com"
 90
    32768
280
     0
281
     0
  0
CLASS
  1
SORTENTSTABLE
  2
AcDbSortentsTable
  3
ObjectDBX Classes
 90
        0
280
     0
281
     0
  0
CLASS
  1
ACDBPLACEHOLDER
  2
AcDbPlaceHolder
  3
ObjectDBX Classes
 90
        0
280
     0
281
     0
  0
CLASS
  1
LAYOUT
  2
AcDbLayout
  3
ObjectDBX Classes
 90
        0
280
     0
281
     0
  0
ENDSEC
  0
SECTION
  2
TABLES
  0
TABLE
  2
VPORT
  5
8
102
{ACAD_XDICTIONARY
360
4641
102
}
330
0
100
AcDbSymbolTable
 70
     2
  0
VPORT
  5
4923
330
8
100
AcDbSymbolTableRecord
100
AcDbViewportTableRecord
  2
*Active
 70
     0
 10
0.0
 20
0.0
 11
1.0
 21
1.0
 12
661.4907855890729
 22
-58.83191536264693
 13
0.0
 23
0.0
 14
1.0
 24
1.0
 15
0.0
 25
0.0
 16
0.0
 26
0.0
 36
1.0
 17
0.0
 27
0.0
 37
0.0
 40
228.6288254631348
 41
2.288973384030418
 42
50.0
 43
0.0
 44
0.0
 50
0.0
 51
0.0
 71
     0
 72
   100
 73
     1
 74
     1
 75
     0
 76
     0
 77
     0
 78
     0
281
     0
 65
     1
110
0.0
120
0.0
130
0.0
111
1.0
121
0.0
131
0.0
112
0.0
122
1.0
132
0.0
 79
     0
146
0.0
  0
ENDTAB
  0
TABLE
  2
LTYPE
  5
5
330
0
100
AcDbSymbolTable
 70
     3
  0
LTYPE
  5
11
330
5
100
AcDbSymbolTableRecord
100
AcDbLinetypeTableRecord
  2
BYBLOCK
 70
     0
  3

 72
    65
 73
     0
 40
0.0
  0
LTYPE
  5
12
330
5
100
AcDbSymbolTableRecord
100
AcDbLinetypeTableRecord
  2
BYLAYER
 70
     0
  3

 72
    65
 73
     0
 40
0.0
  0
LTYPE
  5
13
330
5
100
AcDbSymbolTableRecord
100
AcDbLinetypeTableRecord
  2
CONTINUOUS
 70
     0
  3
Solid line
 72
    65
 73
     0
 40
0.0
  0
LTYPE
  5
3DB3
330
5
100
AcDbSymbolTableRecord
100
AcDbLinetypeTableRecord
  2
CENTER2
 70
     0
  3
Center (.5x) ___ _ ___ _ ___ _ ___ _ ___ _ ___
 72
    65
 73
     4
 40
28.575
 49
19.05
 74
     0
 49
-3.174999999999998
 74
     0
 49
3.174999999999998
 74
     0
 49
-3.174999999999998
 74
     0
  0
LTYPE
  5
3DB4
330
5
100
AcDbSymbolTableRecord
100
AcDbLinetypeTableRecord
  2
HIDDEN2
 70
     0
  3
Hidden (.5x) _ _ _ _ _ _ _ _ _ _ _ _ _ _ _ _ _
 72
    65
 73
     2
 40
4.762499999999998
 49
3.174999999999998
 74
     0
 49
-1.587499999999999
 74
     0
  0
ENDTAB
  0
TABLE
  2
LAYER
  5
2
102
{ACAD_XDICTIONARY
360
3DBA
102
}
330
0
100
AcDbSymbolTable
 70
     4
  0
LAYER
  5
E
102
{ACAD_XDICTIONARY
360
4643
102
}
330
2
100
AcDbSymbolTableRecord
100
AcDbLayerTableRecord
  2
0
 70
     0
 62
     7
  6
CONTINUOUS
370
    -3
390
3D41
  0
LAYER
  5
27
102
{ACAD_XDICTIONARY
360
4645
102
}
330
2
100
AcDbSymbolTableRecord
100
AcDbLayerTableRecord
  2
Z_OM_DIM
 70
     0
 62
     4
  6
CONTINUOUS
370
    -3
390
3D41
  0
LAYER
  5
2B
102
{ACAD_XDICTIONARY
360
4647
102
}
330
2
100
AcDbSymbolTableRecord
100
AcDbLayerTableRecord
  2
DEFPOINTS
 70
     0
 62
     7
  6
CONTINUOUS
290
     0
370
    -3
390
3D41
  0
LAYER
  5
3DB5
102
{ACAD_XDICTIONARY
360
464B
102
}
330
2
100
AcDbSymbolTableRecord
100
AcDbLayerTableRecord
  2
additional
 70
     0
 62
    50
  6
CONTINUOUS
370
    -3
390
3D41
1001
AcAecLayerStandard
1000

1000

  0
ENDTAB
  0
TABLE
  2
STYLE
  5
3
330
0
100
AcDbSymbolTable
 70
     4
  0
STYLE
  5
F
330
3
100
AcDbSymbolTableRecord
100
AcDbTextStyleTableRecord
  2
STANDARD
 70
     0
 40
0.0
 41
1.08
 50
0.0
 71
     0
 42
3.0
  3
txt.shx
  4
bigfont.shx
  0
STYLE
  5
3DB6
330
3
100
AcDbSymbolTableRecord
100
AcDbTextStyleTableRecord
  2
CatalogDxf
 70
     0
 40
0.0
 41
1.0
 50
0.0
 71
     0
 42
2.5
  3
txt.shx
  4
bigfont.shx
  0
STYLE
  5
4196
330
3
100
AcDbSymbolTableRecord
100
AcDbTextStyleTableRecord
  2

 70
     1
 40
0.0
 41
1.0
 50
0.0
 71
     0
 42
3.0
  3
ltypeshp.shx
  4

  0
ENDTAB
  0
TABLE
  2
VIEW
  5
6
330
0
100
AcDbSymbolTable
 70
     0
  0
ENDTAB
  0
TABLE
  2
UCS
  5
7
330
0
100
AcDbSymbolTable
 70
     0
  0
ENDTAB
  0
TABLE
  2
APPID
  5
9
330
0
100
AcDbSymbolTable
 70
     7
  0
APPID
  5
10
330
9
100
AcDbSymbolTableRecord
100
AcDbRegAppTableRecord
  2
ACAD
 70
     0
  0
APPID
  5
3D5E
330
9
100
AcDbSymbolTableRecord
100
AcDbRegAppTableRecord
  2
ACAD_PSEXT
 70
     0
  0
APPID
  5
3DB9
330
9
100
AcDbSymbolTableRecord
100
AcDbRegAppTableRecord
  2
AcAecLayerStandard
 70
     0
  0
APPID
  5
41A3
330
9
100
AcDbSymbolTableRecord
100
AcDbRegAppTableRecord
  2
ACAD_DSTYLE_DIM_LINETYPE
 70
     0
  0
APPID
  5
41A4
330
9
100
AcDbSymbolTableRecord
100
AcDbRegAppTableRecord
  2
ACAD_DSTYLE_DIM_EXT1_LINETYPE
 70
     0
  0
APPID
  5
41A5
330
9
100
AcDbSymbolTableRecord
100
AcDbRegAppTableRecord
  2
ACAD_DSTYLE_DIM_EXT2_LINETYPE
 70
     0
  0
APPID
  5
4687
330
9
100
AcDbSymbolTableRecord
100
AcDbRegAppTableRecord
  2
ACAD_DSTYLE_DIMTEXT_FILL
 70
     0
  0
ENDTAB
  0
TABLE
  2
DIMSTYLE
  5
A
330
0
100
AcDbSymbolTable
 70
     4
100
AcDbDimStyleTable
 71
     2
340
3DB8
340
30
  0
DIMSTYLE
105
30
330
A
100
AcDbSymbolTableRecord
100
AcDbDimStyleTableRecord
  2
STANDARD
 70
     0
 41
6.0
 42
1.0
 43
16.0
 44
3.0
 73
     0
 74
     0
 77
     1
 78
     8
140
4.4
141
10.0
147
1.6
172
     1
176
   256
177
   256
178
   256
340
F
341
977
342
977
  0
DIMSTYLE
105
3DB8
102
{ACAD_REACTORS
330
4313
330
44FF
330
4515
330
4522
330
452F
330
4540
330
454D
330
455A
330
4567
330
4574
330
45A9
330
45D1
330
45DE
330
45EB
330
45F8
330
4605
330
461B
330
462A
330
47A0
330
48E6
102
}
330
A
100
AcDbSymbolTableRecord
100
AcDbDimStyleTableRecord
  2
CatalogDxf
 70
     0
 41
2.5
 42
0.625
 43
3.75
 44
1.25
 73
     0
 74
     0
 77
     1
 78
     8
140
2.5
141
2.5
143
0.03937007874016
147
0.625
171
     3
172
     1
176
   256
177
   256
178
   256
271
     1
272
     1
274
     3
283
     0
284
     8
340
3DB6
341
977
342
977
371
    -1
372
    -1
1001
ACAD_DSTYLE_DIM_LINETYPE
1070
   380
1005
12
1001
ACAD_DSTYLE_DIM_EXT1_LINETYPE
1070
   381
1005
12
1001
ACAD_DSTYLE_DIM_EXT2_LINETYPE
1070
   382
1005
12
  0
DIMSTYLE
105
4353
330
A
100
AcDbSymbolTableRecord
100
AcDbDimStyleTableRecord
  2
ISO-25
 70
     0
 41
2.5
 42
0.625
 43
3.75
 44
1.25
 73
     0
 74
     0
 77
     1
 78
     8
140
2.5
141
2.5
143
0.03937007874016
147
0.625
171
     3
172
     1
271
     2
272
     2
274
     3
278
    44
283
     0
284
     8
340
F
  0
ENDTAB
  0
TABLE
  2
BLOCK_RECORD
  5
1
330
0
100
AcDbSymbolTable
 70
    22
  0
BLOCK_RECORD
  5
17
102
{ACAD_XDICTIONARY
360
1808
102
}
330
1
100
AcDbSymbolTableRecord
100
AcDbBlockTableRecord
  2
*MODEL_SPACE
340
3D5B
  0
BLOCK_RECORD
  5
14
102
{ACAD_XDICTIONARY
360
1806
102
}
330
1
100
AcDbSymbolTableRecord
100
AcDbBlockTableRecord
  2
*PAPER_SPACE
340
3D5C
  0
BLOCK_RECORD
  5
977
330
1
100
AcDbSymbolTableRecord
100
AcDbBlockTableRecord
  2
_OPEN30
340
0
102
{BLKREFS
331
4742
331
4743
331
47EA
331
47EB
331
47F4
331
47F5
331
47FF
331
4800
331
4808
331
4809
331
4811
331
4812
331
481C
331
481D
331
482E
331
482F
331
4837
331
4838
331
4849
331
484A
331
4880
331
4881
331
4892
331
4893
331
48A5
331
48A6
331
48AE
331
48AF
331
48B9
331
48BA
331
48C2
331
48C3
331
48CB
331
48CC
331
48D6
331
48D7
331
48DF
331
48E0
331
48FB
331
48FC
102
}
  0
BLOCK_RECORD
  5
4314
330
1
100
AcDbSymbolTableRecord
100
AcDbBlockTableRecord
  2
*D1
340
0
  0
BLOCK_RECORD
  5
4500
330
1
100
AcDbSymbolTableRecord
100
AcDbBlockTableRecord
  2
*D2
340
0
  0
BLOCK_RECORD
  5
4516
330
1
100
AcDbSymbolTableRecord
100
AcDbBlockTableRecord
  2
*D3
340
0
  0
BLOCK_RECORD
  5
4523
330
1
100
AcDbSymbolTableRecord
100
AcDbBlockTableRecord
  2
*D4
340
0
  0
BLOCK_RECORD
  5
4530
330
1
100
AcDbSymbolTableRecord
100
AcDbBlockTableRecord
  2
*D5
340
0
  0
BLOCK_RECORD
  5
4541
330
1
100
AcDbSymbolTableRecord
100
AcDbBlockTableRecord
  2
*D6
340
0
  0
BLOCK_RECORD
  5
454E
330
1
100
AcDbSymbolTableRecord
100
AcDbBlockTableRecord
  2
*D7
340
0
  0
BLOCK_RECORD
  5
455B
330
1
100
AcDbSymbolTableRecord
100
AcDbBlockTableRecord
  2
*D8
340
0
  0
BLOCK_RECORD
  5
4568
330
1
100
AcDbSymbolTableRecord
100
AcDbBlockTableRecord
  2
*D9
340
0
  0
BLOCK_RECORD
  5
4575
330
1
100
AcDbSymbolTableRecord
100
AcDbBlockTableRecord
  2
*D10
340
0
  0
BLOCK_RECORD
  5
45AA
330
1
100
AcDbSymbolTableRecord
100
AcDbBlockTableRecord
  2
*D11
340
0
  0
BLOCK_RECORD
  5
45D2
330
1
100
AcDbSymbolTableRecord
100
AcDbBlockTableRecord
  2
*D12
340
0
  0
BLOCK_RECORD
  5
45DF
330
1
100
AcDbSymbolTableRecord
100
AcDbBlockTableRecord
  2
*D13
340
0
  0
BLOCK_RECORD
  5
45EC
330
1
100
AcDbSymbolTableRecord
100
AcDbBlockTableRecord
  2
*D14
340
0
  0
BLOCK_RECORD
  5
45F9
330
1
100
AcDbSymbolTableRecord
100
AcDbBlockTableRecord
  2
*D15
340
0
  0
BLOCK_RECORD
  5
4606
330
1
100
AcDbSymbolTableRecord
100
AcDbBlockTableRecord
  2
*D16
340
0
  0
BLOCK_RECORD
  5
461C
330
1
100
AcDbSymbolTableRecord
100
AcDbBlockTableRecord
  2
*D17
340
0
  0
BLOCK_RECORD
  5
462B
330
1
100
AcDbSymbolTableRecord
100
AcDbBlockTableRecord
  2
*D18
340
0
  0
BLOCK_RECORD
  5
47A1
330
1
100
AcDbSymbolTableRecord
100
AcDbBlockTableRecord
  2
*D19
340
0
  0
BLOCK_RECORD
  5
48E7
330
1
100
AcDbSymbolTableRecord
100
AcDbBlockTableRecord
  2
*D20
340
0
  0
ENDTAB
  0
ENDSEC
  0
SECTION
  2
BLOCKS
  0
BLOCK
  5
2E
330
17
100
AcDbEntity
  8
0
100
AcDbBlockBegin
  2
*MODEL_SPACE
 70
     0
 10
0.0
 20
0.0
 30
0.0
  3
*MODEL_SPACE
  1

  0
ENDBLK
  5
2F
330
17
100
AcDbEntity
  8
0
100
AcDbBlockEnd
  0
BLOCK
  5
2C
330
14
100
AcDbEntity
 67
     1
  8
0
100
AcDbBlockBegin
  2
*PAPER_SPACE
 70
     0
 10
0.0
 20
0.0
 30
0.0
  3
*PAPER_SPACE
  1

  0
ENDBLK
  5
2D
330
14
100
AcDbEntity
 67
     1
  8
0
100
AcDbBlockEnd
  0
BLOCK
  5
97B
330
977
100
AcDbEntity
  8
0
100
AcDbBlockBegin
  2
_OPEN30
 70
     0
 10
0.0
 20
0.0
 30
0.0
  3
_OPEN30
  1

  0
LINE
  5
978
330
977
100
AcDbEntity
  8
0
  6
ByBlock
 62
     0
100
AcDbLine
 10
-1.0
 20
0.26794919
 30
0.0
 11
0.0
 21
0.0
 31
0.0
  0
LINE
  5
979
330
977
100
AcDbEntity
  8
0
  6
ByBlock
 62
     0
100
AcDbLine
 10
0.0
 20
0.0
 30
0.0
 11
-1.0
 21
-0.26794919
 31
0.0
  0
LINE
  5
97A
330
977
100
AcDbEntity
  8
0
  6
ByBlock
 62
     0
100
AcDbLine
 10
0.0
 20
0.0
 30
0.0
 11
-1.0
 21
0.0
 31
0.0
  0
ENDBLK
  5
97C
330
977
100
AcDbEntity
  8
0
100
AcDbBlockEnd
  0
BLOCK
  5
431E
330
4314
100
AcDbEntity
  8
0
100
AcDbBlockBegin
  2
*D1
 70
     1
 10
0.0
 20
0.0
 30
0.0
  3
*D1
  1

  0
LINE
  5
488F
330
4314
100
AcDbEntity
  8
Z_OM_DIM
100
AcDbLine
 10
673.8748748425306
 20
-62.59980789388322
 30
0.0
 11
673.8748748425306
 21
-47.98065733927785
 31
0.0
  0
LINE
  5
4890
330
4314
100
AcDbEntity
  8
Z_OM_DIM
100
AcDbLine
 10
705.1894783418445
 20
-73.34980789388322
 30
0.0
 11
705.1894783418445
 21
-47.98065733927785
 31
0.0
  0
LINE
  5
4891
330
4314
100
AcDbEntity
  8
Z_OM_DIM
100
AcDbLine
 10
676.3748748425306
 20
-49.23065733927785
 30
0.0
 11
702.6894783418445
 21
-49.23065733927785
 31
0.0
  0
INSERT
  5
4892
330
4314
100
AcDbEntity
  8
Z_OM_DIM
100
AcDbBlockReference
  2
_OPEN30
 10
673.8748748425306
 20
-49.23065733927785
 30
0.0
 41
2.5
 42
2.5
 43
2.5
 50
180.0
  0
INSERT
  5
4893
330
4314
100
AcDbEntity
  8
Z_OM_DIM
100
AcDbBlockReference
  2
_OPEN30
 10
705.1894783418445
 20
-49.23065733927785
 30
0.0
 41
2.5
 42
2.5
 43
2.5
  0
MTEXT
  5
4894
330
4314
100
AcDbEntity
  8
Z_OM_DIM
100
AcDbMText
 10
689.5321765921876
 20
-47.35565733927785
 30
0.0
 40
2.5
 41
0.0
 71
     5
 72
     1
  1
180 - 200
  7
CatalogDxf
 73
     1
 44
1.0
1001
ACAD
1000
MTEXTBEGIN
1070
    73
1070
     1
1070
    44
1040
1.0
1070
    74
1070
     0
1000
MTEXTEND
  0
POINT
  5
4895
330
4314
100
AcDbEntity
  8
DEFPOINTS
 62
     0
100
AcDbPoint
 10
673.8748748425306
 20
-63.22480789388322
 30
0.0
  0
POINT
  5
4896
330
4314
100
AcDbEntity
  8
DEFPOINTS
 62
     0
100
AcDbPoint
 10
705.1894783418445
 20
-73.97480789388322
 30
0.0
  0
POINT
  5
4897
330
4314
100
AcDbEntity
  8
DEFPOINTS
 62
     0
100
AcDbPoint
 10
705.1894783418445
 20
-49.23065733927785
 30
0.0
  0
ENDBLK
  5
431F
330
4314
100
AcDbEntity
  8
0
100
AcDbBlockEnd
  0
BLOCK
  5
450A
330
4500
100
AcDbEntity
  8
0
100
AcDbBlockBegin
  2
*D2
 70
     1
 10
0.0
 20
0.0
 30
0.0
  3
*D2
  1

  0
LINE
  5
487C
330
4500
100
AcDbEntity
  8
Z_OM_DIM
100
AcDbLine
 10
593.6498748425306
 20
1.921018092266308
 30
0.0
 11
582.1450976238884
 21
1.921018092266311
 31
0.0
  0
LINE
  5
487D
330
4500
100
AcDbEntity
  8
Z_OM_DIM
100
AcDbLine
 10
593.6498748425306
 20
-8.078981907733691
 30
0.0
 11
582.1450976238884
 21
-8.078981907733689
 31
0.0
  0
LINE
  5
487E
330
4500
100
AcDbEntity
  8
Z_OM_DIM
100
AcDbLine
 10
583.3950976238884
 20
-0.5789819077336885
 30
0.0
 11
583.3950976238884
 21
-5.578981907733689
 31
0.0
  0
MTEXT
  5
487F
330
4500
100
AcDbEntity
  8
Z_OM_DIM
100
AcDbMText
 10
580.7788264838128
 20
-3.275256362711161
 30
0.0
 40
2.5
 41
0.0
 71
     5
 72
     1
  1
%%c10
  7
CatalogDxf
 11
0.0000000000000001
 21
1.0
 31
0.0
 73
     1
 44
1.0
1001
ACAD
1000
MTEXTBEGIN
1070
    73
1070
     1
1070
    44
1040
1.0
1070
    74
1070
     0
1000
MTEXTEND
  0
INSERT
  5
4880
330
4500
100
AcDbEntity
  8
Z_OM_DIM
100
AcDbBlockReference
  2
_OPEN30
 10
583.3950976238884
 20
1.921018092266311
 30
0.0
 41
2.5
 42
2.5
 43
2.5
 50
90.0
  0
INSERT
  5
4881
330
4500
100
AcDbEntity
  8
Z_OM_DIM
100
AcDbBlockReference
  2
_OPEN30
 10
583.3950976238884
 20
-8.078981907733689
 30
0.0
 41
2.5
 42
2.5
 43
2.5
 50
270.0
  0
POINT
  5
4882
330
4500
100
AcDbEntity
  8
DEFPOINTS
 62
     0
100
AcDbPoint
 10
594.2748748425307
 20
1.921018092266308
 30
0.0
  0
POINT
  5
4883
330
4500
100
AcDbEntity
  8
DEFPOINTS
 62
     0
100
AcDbPoint
 10
594.2748748425307
 20
-8.078981907733691
 30
0.0
  0
POINT
  5
4884
330
4500
100
AcDbEntity
  8
DEFPOINTS
 62
     0
100
AcDbPoint
 10
583.3950976238884
 20
-8.078981907733689
 30
0.0
  0
ENDBLK
  5
450B
330
4500
100
AcDbEntity
  8
0
100
AcDbBlockEnd
  0
BLOCK
  5
4520
330
4516
100
AcDbEntity
  8
0
100
AcDbBlockBegin
  2
*D3
 70
     1
 10
0.0
 20
0.0
 30
0.0
  3
*D3
  1

  0
LINE
  5
48A2
330
4516
100
AcDbEntity
  8
Z_OM_DIM
100
AcDbLine
 10
673.8748748425306
 20
7.546018092266308
 30
0.0
 11
673.8748748425306
 21
18.85389743334542
 31
0.0
  0
LINE
  5
48A3
330
4516
100
AcDbEntity
  8
Z_OM_DIM
100
AcDbLine
 10
661.8748748425306
 20
2.546018092266308
 30
0.0
 11
661.8748748425306
 21
18.85389743334542
 31
0.0
  0
LINE
  5
48A4
330
4516
100
AcDbEntity
  8
Z_OM_DIM
100
AcDbLine
 10
671.3748748425306
 20
17.60389743334542
 30
0.0
 11
664.3748748425306
 21
17.60389743334542
 31
0.0
  0
INSERT
  5
48A5
330
4516
100
AcDbEntity
  8
Z_OM_DIM
100
AcDbBlockReference
  2
_OPEN30
 10
673.8748748425306
 20
17.60389743334542
 30
0.0
 41
2.5
 42
2.5
 43
2.5
  0
INSERT
  5
48A6
330
4516
100
AcDbEntity
  8
Z_OM_DIM
100
AcDbBlockReference
  2
_OPEN30
 10
661.8748748425306
 20
17.60389743334542
 30
0.0
 41
2.5
 42
2.5
 43
2.5
 50
180.0
  0
MTEXT
  5
48A7
330
4516
100
AcDbEntity
  8
Z_OM_DIM
100
AcDbMText
 10
667.8748748425306
 20
19.47889743334542
 30
0.0
 40
2.5
 41
0.0
 71
     5
 72
     1
  1
12
  7
CatalogDxf
 73
     1
 44
1.0
1001
ACAD
1000
MTEXTBEGIN
1070
    73
1070
     1
1070
    44
1040
1.0
1070
    74
1070
     0
1000
MTEXTEND
  0
POINT
  5
48A8
330
4516
100
AcDbEntity
  8
DEFPOINTS
 62
     0
100
AcDbPoint
 10
673.8748748425306
 20
6.921018092266308
 30
0.0
  0
POINT
  5
48A9
330
4516
100
AcDbEntity
  8
DEFPOINTS
 62
     0
100
AcDbPoint
 10
661.8748748425306
 20
1.921018092266308
 30
0.0
  0
POINT
  5
48AA
330
4516
100
AcDbEntity
  8
DEFPOINTS
 62
     0
100
AcDbPoint
 10
661.8748748425306
 20
17.60389743334542
 30
0.0
  0
ENDBLK
  5
4521
330
4516
100
AcDbEntity
  8
0
100
AcDbBlockEnd
  0
BLOCK
  5
452D
330
4523
100
AcDbEntity
  8
0
100
AcDbBlockBegin
  2
*D4
 70
     1
 10
0.0
 20
0.0
 30
0.0
  3
*D4
  1

  0
LINE
  5
48AB
330
4523
100
AcDbEntity
  8
Z_OM_DIM
100
AcDbLine
 10
661.8748748425306
 20
2.546018092266308
 30
0.0
 11
661.8748748425306
 21
18.85389743334542
 31
0.0
  0
LINE
  5
48AC
330
4523
100
AcDbEntity
  8
Z_OM_DIM
100
AcDbLine
 10
636.8748748425306
 20
2.546018092266308
 30
0.0
 11
636.8748748425306
 21
18.85389743334542
 31
0.0
  0
LINE
  5
48AD
330
4523
100
AcDbEntity
  8
Z_OM_DIM
100
AcDbLine
 10
659.3748748425306
 20
17.60389743334542
 30
0.0
 11
639.3748748425306
 21
17.60389743334542
 31
0.0
  0
INSERT
  5
48AE
330
4523
100
AcDbEntity
  8
Z_OM_DIM
100
AcDbBlockReference
  2
_OPEN30
 10
661.8748748425306
 20
17.60389743334542
 30
0.0
 41
2.5
 42
2.5
 43
2.5
  0
INSERT
  5
48AF
330
4523
100
AcDbEntity
  8
Z_OM_DIM
100
AcDbBlockReference
  2
_OPEN30
 10
636.8748748425306
 20
17.60389743334542
 30
0.0
 41
2.5
 42
2.5
 43
2.5
 50
180.0
  0
MTEXT
  5
48B0
330
4523
100
AcDbEntity
  8
Z_OM_DIM
100
AcDbMText
 10
649.3748748425306
 20
19.47889743334542
 30
0.0
 40
2.5
 41
0.0
 71
     5
 72
     1
  1
25
  7
CatalogDxf
 73
     1
 44
1.0
1001
ACAD
1000
MTEXTBEGIN
1070
    73
1070
     1
1070
    44
1040
1.0
1070
    74
1070
     0
1000
MTEXTEND
  0
POINT
  5
48B1
330
4523
100
AcDbEntity
  8
DEFPOINTS
 62
     0
100
AcDbPoint
 10
661.8748748425306
 20
1.921018092266308
 30
0.0
  0
POINT
  5
48B2
330
4523
100
AcDbEntity
  8
DEFPOINTS
 62
     0
100
AcDbPoint
 10
636.8748748425306
 20
1.921018092266308
 30
0.0
  0
POINT
  5
48B3
330
4523
100
AcDbEntity
  8
DEFPOINTS
 62
     0
100
AcDbPoint
 10
636.8748748425306
 20
17.60389743334542
 30
0.0
  0
ENDBLK
  5
452E
330
4523
100
AcDbEntity
  8
0
100
AcDbBlockEnd
  0
BLOCK
  5
453A
330
4530
100
AcDbEntity
  8
0
100
AcDbBlockBegin
  2
*D5
 70
     1
 10
0.0
 20
0.0
 30
0.0
  3
*D5
  1

  0
LINE
  5
4846
330
4530
100
AcDbEntity
  8
Z_OM_DIM
100
AcDbLine
 10
673.8748748425306
 20
-13.70398190773369
 30
0.0
 11
673.8748748425306
 21
-31.39975782446493
 31
0.0
  0
LINE
  5
4847
330
4530
100
AcDbEntity
  8
Z_OM_DIM
100
AcDbLine
 10
641.3748748425306
 20
-20.79764966028648
 30
0.0
 11
641.3748748425306
 21
-31.39975782446493
 31
0.0
  0
LINE
  5
4848
330
4530
100
AcDbEntity
  8
Z_OM_DIM
100
AcDbLine
 10
671.3748748425306
 20
-30.14975782446493
 30
0.0
 11
643.8748748425306
 21
-30.14975782446493
 31
0.0
  0
INSERT
  5
4849
330
4530
100
AcDbEntity
  8
Z_OM_DIM
100
AcDbBlockReference
  2
_OPEN30
 10
673.8748748425306
 20
-30.14975782446493
 30
0.0
 41
2.5
 42
2.5
 43
2.5
  0
INSERT
  5
484A
330
4530
100
AcDbEntity
  8
Z_OM_DIM
100
AcDbBlockReference
  2
_OPEN30
 10
641.3748748425306
 20
-30.14975782446493
 30
0.0
 41
2.5
 42
2.5
 43
2.5
 50
180.0
  0
MTEXT
  5
484B
330
4530
100
AcDbEntity
  8
Z_OM_DIM
100
AcDbMText
 10
657.6248748425306
 20
-28.27475782446493
 30
0.0
 40
2.5
 41
0.0
 71
     5
 72
     1
  1
32.5
  7
CatalogDxf
 73
     1
 44
1.0
1001
ACAD
1000
MTEXTBEGIN
1070
    73
1070
     1
1070
    44
1040
1.0
1070
    74
1070
     0
1000
MTEXTEND
  0
POINT
  5
484C
330
4530
100
AcDbEntity
  8
DEFPOINTS
 62
     0
100
AcDbPoint
 10
673.8748748425306
 20
-13.07898190773369
 30
0.0
  0
POINT
  5
484D
330
4530
100
AcDbEntity
  8
DEFPOINTS
 62
     0
100
AcDbPoint
 10
641.3748748425306
 20
-20.17264966028648
 30
0.0
  0
POINT
  5
484E
330
4530
100
AcDbEntity
  8
DEFPOINTS
 62
     0
100
AcDbPoint
 10
641.3748748425306
 20
-30.14975782446493
 30
0.0
  0
ENDBLK
  5
453B
330
4530
100
AcDbEntity
  8
0
100
AcDbBlockEnd
  0
BLOCK
  5
454B
330
4541
100
AcDbEntity
  8
0
100
AcDbBlockBegin
  2
*D6
 70
     1
 10
0.0
 20
0.0
 30
0.0
  3
*D6
  1

  0
LINE
  5
482B
330
4541
100
AcDbEntity
  8
Z_OM_DIM
100
AcDbLine
 10
603.7748748425307
 20
-72.54980789388321
 30
0.0
 11
603.7748748425307
 21
-57.3812336104516
 31
0.0
  0
LINE
  5
482C
330
4541
100
AcDbEntity
  8
Z_OM_DIM
100
AcDbLine
 10
593.7748748425307
 20
-69.59980789388322
 30
0.0
 11
593.7748748425307
 21
-57.3812336104516
 31
0.0
  0
LINE
  5
482D
330
4541
100
AcDbEntity
  8
Z_OM_DIM
100
AcDbLine
 10
601.2748748425307
 20
-58.6312336104516
 30
0.0
 11
596.2748748425306
 21
-58.6312336104516
 31
0.0
  0
INSERT
  5
482E
330
4541
100
AcDbEntity
  8
Z_OM_DIM
100
AcDbBlockReference
  2
_OPEN30
 10
603.7748748425307
 20
-58.6312336104516
 30
0.0
 41
2.5
 42
2.5
 43
2.5
  0
INSERT
  5
482F
330
4541
100
AcDbEntity
  8
Z_OM_DIM
100
AcDbBlockReference
  2
_OPEN30
 10
593.7748748425307
 20
-58.6312336104516
 30
0.0
 41
2.5
 42
2.5
 43
2.5
 50
180.0
  0
MTEXT
  5
4830
330
4541
100
AcDbEntity
  8
Z_OM_DIM
100
AcDbMText
 10
598.7748748425307
 20
-56.7562336104516
 30
0.0
 40
2.5
 41
0.0
 71
     5
 72
     1
  1
10
  7
CatalogDxf
 73
     1
 44
1.0
1001
ACAD
1000
MTEXTBEGIN
1070
    73
1070
     1
1070
    44
1040
1.0
1070
    74
1070
     0
1000
MTEXTEND
  0
POINT
  5
4831
330
4541
100
AcDbEntity
  8
DEFPOINTS
 62
     0
100
AcDbPoint
 10
603.7748748425307
 20
-73.17480789388321
 30
0.0
  0
POINT
  5
4832
330
4541
100
AcDbEntity
  8
DEFPOINTS
 62
     0
100
AcDbPoint
 10
593.7748748425307
 20
-70.22480789388322
 30
0.0
  0
POINT
  5
4833
330
4541
100
AcDbEntity
  8
DEFPOINTS
 62
     0
100
AcDbPoint
 10
593.7748748425307
 20
-58.6312336104516
 30
0.0
  0
ENDBLK
  5
454C
330
4541
100
AcDbEntity
  8
0
100
AcDbBlockEnd
  0
BLOCK
  5
4558
330
454E
100
AcDbEntity
  8
0
100
AcDbBlockBegin
  2
*D7
 70
     1
 10
0.0
 20
0.0
 30
0.0
  3
*D7
  1

  0
LINE
  5
4805
330
454E
100
AcDbEntity
  8
Z_OM_DIM
100
AcDbLine
 10
653.3748748425306
 20
-100.6093620892406
 30
0.0
 11
653.3748748425306
 21
-118.4670220247717
 31
0.0
  0
LINE
  5
4806
330
454E
100
AcDbEntity
  8
Z_OM_DIM
100
AcDbLine
 10
641.3748748425306
 20
-100.6093620892406
 30
0.0
 11
641.3748748425306
 21
-118.4670220247717
 31
0.0
  0
LINE
  5
4807
330
454E
100
AcDbEntity
  8
Z_OM_DIM
100
AcDbLine
 10
650.8748748425306
 20
-117.2170220247717
 30
0.0
 11
643.8748748425306
 21
-117.2170220247717
 31
0.0
  0
INSERT
  5
4808
330
454E
100
AcDbEntity
  8
Z_OM_DIM
100
AcDbBlockReference
  2
_OPEN30
 10
653.3748748425306
 20
-117.2170220247717
 30
0.0
 41
2.5
 42
2.5
 43
2.5
  0
INSERT
  5
4809
330
454E
100
AcDbEntity
  8
Z_OM_DIM
100
AcDbBlockReference
  2
_OPEN30
 10
641.3748748425306
 20
-117.2170220247717
 30
0.0
 41
2.5
 42
2.5
 43
2.5
 50
180.0
  0
MTEXT
  5
480A
330
454E
100
AcDbEntity
  8
Z_OM_DIM
100
AcDbMText
 10
647.3748748425306
 20
-115.3420220247717
 30
0.0
 40
2.5
 41
0.0
 71
     5
 72
     1
  1
12
  7
CatalogDxf
 73
     1
 44
1.0
1001
ACAD
1000
MTEXTBEGIN
1070
    73
1070
     1
1070
    44
1040
1.0
1070
    74
1070
     0
1000
MTEXTEND
  0
POINT
  5
480B
330
454E
100
AcDbEntity
  8
DEFPOINTS
 62
     0
100
AcDbPoint
 10
653.3748748425306
 20
-99.98436208924061
 30
0.0
  0
POINT
  5
480C
330
454E
100
AcDbEntity
  8
DEFPOINTS
 62
     0
100
AcDbPoint
 10
641.3748748425306
 20
-99.98436208924061
 30
0.0
  0
POINT
  5
480D
330
454E
100
AcDbEntity
  8
DEFPOINTS
 62
     0
100
AcDbPoint
 10
641.3748748425306
 20
-117.2170220247717
 30
0.0
  0
ENDBLK
  5
4559
330
454E
100
AcDbEntity
  8
0
100
AcDbBlockEnd
  0
BLOCK
  5
4565
330
455B
100
AcDbEntity
  8
0
100
AcDbBlockBegin
  2
*D8
 70
     1
 10
0.0
 20
0.0
 30
0.0
  3
*D8
  1

  0
LINE
  5
480E
330
455B
100
AcDbEntity
  8
Z_OM_DIM
100
AcDbLine
 10
641.3748748425306
 20
-100.6093620892406
 30
0.0
 11
641.3748748425306
 21
-118.4670220247717
 31
0.0
  0
LINE
  5
480F
330
455B
100
AcDbEntity
  8
Z_OM_DIM
100
AcDbLine
 10
629.3748748425306
 20
-100.6093620892406
 30
0.0
 11
629.3748748425306
 21
-118.4670220247717
 31
0.0
  0
LINE
  5
4810
330
455B
100
AcDbEntity
  8
Z_OM_DIM
100
AcDbLine
 10
638.8748748425306
 20
-117.2170220247717
 30
0.0
 11
631.8748748425306
 21
-117.2170220247717
 31
0.0
  0
INSERT
  5
4811
330
455B
100
AcDbEntity
  8
Z_OM_DIM
100
AcDbBlockReference
  2
_OPEN30
 10
641.3748748425306
 20
-117.2170220247717
 30
0.0
 41
2.5
 42
2.5
 43
2.5
  0
INSERT
  5
4812
330
455B
100
AcDbEntity
  8
Z_OM_DIM
100
AcDbBlockReference
  2
_OPEN30
 10
629.3748748425306
 20
-117.2170220247717
 30
0.0
 41
2.5
 42
2.5
 43
2.5
 50
180.0
  0
MTEXT
  5
4813
330
455B
100
AcDbEntity
  8
Z_OM_DIM
100
AcDbMText
 10
635.3748748425306
 20
-115.3420220247717
 30
0.0
 40
2.5
 41
0.0
 71
     5
 72
     1
  1
12
  7
CatalogDxf
 73
     1
 44
1.0
1001
ACAD
1000
MTEXTBEGIN
1070
    73
1070
     1
1070
    44
1040
1.0
1070
    74
1070
     0
1000
MTEXTEND
  0
POINT
  5
4814
330
455B
100
AcDbEntity
  8
DEFPOINTS
 62
     0
100
AcDbPoint
 10
641.3748748425306
 20
-99.98436208924061
 30
0.0
  0
POINT
  5
4815
330
455B
100
AcDbEntity
  8
DEFPOINTS
 62
     0
100
AcDbPoint
 10
629.3748748425306
 20
-99.98436208924061
 30
0.0
  0
POINT
  5
4816
330
455B
100
AcDbEntity
  8
DEFPOINTS
 62
     0
100
AcDbPoint
 10
629.3748748425306
 20
-117.2170220247717
 30
0.0
  0
ENDBLK
  5
4566
330
455B
100
AcDbEntity
  8
0
100
AcDbBlockEnd
  0
BLOCK
  5
4572
330
4568
100
AcDbEntity
  8
0
100
AcDbBlockBegin
  2
*D9
 70
     1
 10
0.0
 20
0.0
 30
0.0
  3
*D9
  1

  0
LINE
  5
47F1
330
4568
100
AcDbEntity
  8
Z_OM_DIM
100
AcDbLine
 10
629.3748748425306
 20
-100.6093620892406
 30
0.0
 11
629.3748748425306
 21
-110.7858532627269
 31
0.0
  0
LINE
  5
47F2
330
4568
100
AcDbEntity
  8
Z_OM_DIM
100
AcDbLine
 10
597.7748748425307
 20
-85.34980789388326
 30
0.0
 11
597.7748748425307
 21
-110.7858532627269
 31
0.0
  0
LINE
  5
47F3
330
4568
100
AcDbEntity
  8
Z_OM_DIM
100
AcDbLine
 10
626.8748748425306
 20
-109.5358532627269
 30
0.0
 11
600.2748748425307
 21
-109.5358532627269
 31
0.0
  0
INSERT
  5
47F4
330
4568
100
AcDbEntity
  8
Z_OM_DIM
100
AcDbBlockReference
  2
_OPEN30
 10
629.3748748425306
 20
-109.5358532627269
 30
0.0
 41
2.5
 42
2.5
 43
2.5
  0
INSERT
  5
47F5
330
4568
100
AcDbEntity
  8
Z_OM_DIM
100
AcDbBlockReference
  2
_OPEN30
 10
597.7748748425307
 20
-109.5358532627269
 30
0.0
 41
2.5
 42
2.5
 43
2.5
 50
180.0
  0
MTEXT
  5
47F6
330
4568
100
AcDbEntity
  8
Z_OM_DIM
100
AcDbMText
 10
613.5748748425307
 20
-107.6608532627269
 30
0.0
 40
2.5
 41
0.0
 71
     5
 72
     1
  1
31.6
  7
CatalogDxf
 73
     1
 44
1.0
1001
ACAD
1000
MTEXTBEGIN
1070
    73
1070
     1
1070
    44
1040
1.0
1070
    74
1070
     0
1000
MTEXTEND
  0
POINT
  5
47F7
330
4568
100
AcDbEntity
  8
DEFPOINTS
 62
     0
100
AcDbPoint
 10
629.3748748425306
 20
-99.98436208924061
 30
0.0
  0
POINT
  5
47F8
330
4568
100
AcDbEntity
  8
DEFPOINTS
 62
     0
100
AcDbPoint
 10
597.7748748425307
 20
-84.72480789388326
 30
0.0
  0
POINT
  5
47F9
330
4568
100
AcDbEntity
  8
DEFPOINTS
 62
     0
100
AcDbPoint
 10
597.7748748425307
 20
-109.5358532627269
 30
0.0
  0
ENDBLK
  5
4573
330
4568
100
AcDbEntity
  8
0
100
AcDbBlockEnd
  0
BLOCK
  5
4581
330
4575
100
AcDbEntity
  8
0
100
AcDbBlockBegin
  2
*D10
 70
     1
 10
0.0
 20
0.0
 30
0.0
  3
*D10
  1

  0
LINE
  5
47FA
330
4575
100
AcDbEntity
  8
Z_OM_DIM
100
AcDbLine
 10
597.7748748425307
 20
-85.34980789388326
 30
0.0
 11
597.7748748425307
 21
-110.7858532627269
 31
0.0
  0
LINE
  5
47FB
330
4575
100
AcDbEntity
  8
Z_OM_DIM
100
AcDbLine
 10
593.7748748425307
 20
-79.84980789388322
 30
0.0
 11
593.7748748425307
 21
-110.7858532627269
 31
0.0
  0
LINE
  5
47FC
330
4575
100
AcDbEntity
  8
Z_OM_DIM
100
AcDbLine
 10
600.2748748425307
 20
-109.5358532627269
 30
0.0
 11
602.7748748425307
 21
-109.5358532627269
 31
0.0
  0
LINE
  5
47FD
330
4575
100
AcDbEntity
  8
Z_OM_DIM
100
AcDbLine
 10
591.2748748425307
 20
-109.5358532627269
 30
0.0
 11
588.7748748425307
 21
-109.5358532627269
 31
0.0
  0
LINE
  5
47FE
330
4575
100
AcDbEntity
  8
Z_OM_DIM
100
AcDbLine
 10
597.7748748425307
 20
-109.5358532627269
 30
0.0
 11
593.7748748425307
 21
-109.5358532627269
 31
0.0
  0
INSERT
  5
47FF
330
4575
100
AcDbEntity
  8
Z_OM_DIM
100
AcDbBlockReference
  2
_OPEN30
 10
597.7748748425307
 20
-109.5358532627269
 30
0.0
 41
2.5
 42
2.5
 43
2.5
 50
180.0
  0
INSERT
  5
4800
330
4575
100
AcDbEntity
  8
Z_OM_DIM
100
AcDbBlockReference
  2
_OPEN30
 10
593.7748748425307
 20
-109.5358532627269
 30
0.0
 41
2.5
 42
2.5
 43
2.5
  0
MTEXT
  5
4801
330
4575
100
AcDbEntity
  8
Z_OM_DIM
100
AcDbMText
 10
595.7748748425307
 20
-107.6608532627269
 30
0.0
 40
2.5
 41
0.0
 71
     5
 72
     1
  1
4
  7
CatalogDxf
 73
     1
 44
1.0
1001
ACAD
1000
MTEXTBEGIN
1070
    73
1070
     1
1070
    44
1040
1.0
1070
    74
1070
     0
1000
MTEXTEND
  0
POINT
  5
4802
330
4575
100
AcDbEntity
  8
DEFPOINTS
 62
     0
100
AcDbPoint
 10
597.7748748425307
 20
-84.72480789388326
 30
0.0
  0
POINT
  5
4803
330
4575
100
AcDbEntity
  8
DEFPOINTS
 62
     0
100
AcDbPoint
 10
593.7748748425307
 20
-79.22480789388322
 30
0.0
  0
POINT
  5
4804
330
4575
100
AcDbEntity
  8
DEFPOINTS
 62
     0
100
AcDbPoint
 10
593.7748748425307
 20
-109.5358532627269
 30
0.0
  0
ENDBLK
  5
4582
330
4575
100
AcDbEntity
  8
0
100
AcDbBlockEnd
  0
BLOCK
  5
45B4
330
45AA
100
AcDbEntity
  8
0
100
AcDbBlockBegin
  2
*D11
 70
     1
 10
0.0
 20
0.0
 30
0.0
  3
*D11
  1

  0
LINE
  5
47E6
330
45AA
100
AcDbEntity
  8
Z_OM_DIM
100
AcDbLine
 10
649.3748748425306
 20
-96.34980789388322
 30
0.0
 11
649.3748748425306
 21
-110.7858532627269
 31
0.0
  0
LINE
  5
47E7
330
45AA
100
AcDbEntity
  8
Z_OM_DIM
100
AcDbLine
 10
657.3748748425306
 20
-96.34980789388322
 30
0.0
 11
657.3748748425306
 21
-110.7858532627269
 31
0.0
  0
LINE
  5
47E8
330
45AA
100
AcDbEntity
  8
Z_OM_DIM
100
AcDbLine
 10
651.8748748425306
 20
-109.5358532627269
 30
0.0
 11
654.8748748425306
 21
-109.5358532627269
 31
0.0
  0
LINE
  5
47E9
330
45AA
100
AcDbEntity
  8
Z_OM_DIM
100
AcDbLine
 10
657.3748748425306
 20
-109.5358532627269
 30
0.0
 11
662.7915415091973
 21
-109.5358532627269
 31
0.0
  0
INSERT
  5
47EA
330
45AA
100
AcDbEntity
  8
Z_OM_DIM
100
AcDbBlockReference
  2
_OPEN30
 10
649.3748748425306
 20
-109.5358532627269
 30
0.0
 41
2.5
 42
2.5
 43
2.5
 50
180.0
  0
INSERT
  5
47EB
330
45AA
100
AcDbEntity
  8
Z_OM_DIM
100
AcDbBlockReference
  2
_OPEN30
 10
657.3748748425306
 20
-109.5358532627269
 30
0.0
 41
2.5
 42
2.5
 43
2.5
  0
MTEXT
  5
47EC
330
45AA
100
AcDbEntity
  8
Z_OM_DIM
100
AcDbMText
 10
661.333208175864
 20
-107.6608532627269
 30
0.0
 40
2.5
 41
0.0
 71
     5
 72
     1
  1
8
  7
CatalogDxf
 73
     1
 44
1.0
1001
ACAD
1000
MTEXTBEGIN
1070
    73
1070
     1
1070
    44
1040
1.0
1070
    74
1070
     0
1000
MTEXTEND
  0
POINT
  5
47ED
330
45AA
100
AcDbEntity
  8
DEFPOINTS
 62
     0
100
AcDbPoint
 10
649.3748748425306
 20
-95.72480789388322
 30
0.0
  0
POINT
  5
47EE
330
45AA
100
AcDbEntity
  8
DEFPOINTS
 62
     0
100
AcDbPoint
 10
657.3748748425306
 20
-95.72480789388322
 30
0.0
  0
POINT
  5
47EF
330
45AA
100
AcDbEntity
  8
DEFPOINTS
 62
     0
100
AcDbPoint
 10
657.3748748425306
 20
-109.5358532627269
 30
0.0
  0
ENDBLK
  5
45B5
330
45AA
100
AcDbEntity
  8
0
100
AcDbBlockEnd
  0
BLOCK
  5
45DC
330
45D2
100
AcDbEntity
  8
0
100
AcDbBlockBegin
  2
*D12
 70
     1
 10
0.0
 20
0.0
 30
0.0
  3
*D12
  1

  0
LINE
  5
4834
330
45D2
100
AcDbEntity
  8
Z_OM_DIM
100
AcDbLine
 10
673.8748748425306
 20
-62.59980789388322
 30
0.0
 11
673.8748748425306
 21
-47.98065733927785
 31
0.0
  0
LINE
  5
4835
330
45D2
100
AcDbEntity
  8
Z_OM_DIM
100
AcDbLine
 10
608.8748748425306
 20
-61.09980789388322
 30
0.0
 11
608.8748748425306
 21
-47.98065733927785
 31
0.0
  0
LINE
  5
4836
330
45D2
100
AcDbEntity
  8
Z_OM_DIM
100
AcDbLine
 10
671.3748748425306
 20
-49.23065733927785
 30
0.0
 11
611.3748748425306
 21
-49.23065733927785
 31
0.0
  0
INSERT
  5
4837
330
45D2
100
AcDbEntity
  8
Z_OM_DIM
100
AcDbBlockReference
  2
_OPEN30
 10
673.8748748425306
 20
-49.23065733927785
 30
0.0
 41
2.5
 42
2.5
 43
2.5
  0
INSERT
  5
4838
330
45D2
100
AcDbEntity
  8
Z_OM_DIM
100
AcDbBlockReference
  2
_OPEN30
 10
608.8748748425306
 20
-49.23065733927785
 30
0.0
 41
2.5
 42
2.5
 43
2.5
 50
180.0
  0
MTEXT
  5
4839
330
45D2
100
AcDbEntity
  8
Z_OM_DIM
100
AcDbMText
 10
641.3748748425306
 20
-47.35565733927785
 30
0.0
 40
2.5
 41
0.0
 71
     5
 72
     1
  1
65
  7
CatalogDxf
 73
     1
 44
1.0
1001
ACAD
1000
MTEXTBEGIN
1070
    73
1070
     1
1070
    44
1040
1.0
1070
    74
1070
     0
1000
MTEXTEND
  0
POINT
  5
483A
330
45D2
100
AcDbEntity
  8
DEFPOINTS
 62
     0
100
AcDbPoint
 10
673.8748748425306
 20
-63.22480789388322
 30
0.0
  0
POINT
  5
483B
330
45D2
100
AcDbEntity
  8
DEFPOINTS
 62
     0
100
AcDbPoint
 10
608.8748748425306
 20
-61.72480789388322
 30
0.0
  0
POINT
  5
483C
330
45D2
100
AcDbEntity
  8
DEFPOINTS
 62
     0
100
AcDbPoint
 10
608.8748748425306
 20
-49.23065733927785
 30
0.0
  0
ENDBLK
  5
45DD
330
45D2
100
AcDbEntity
  8
0
100
AcDbBlockEnd
  0
BLOCK
  5
45E9
330
45DF
100
AcDbEntity
  8
0
100
AcDbBlockBegin
  2
*D13
 70
     1
 10
0.0
 20
0.0
 30
0.0
  3
*D13
  1

  0
LINE
  5
473F
330
45DF
100
AcDbEntity
  8
Z_OM_DIM
100
AcDbLine
 10
550.9748748425305
 20
-101.8498078938832
 30
0.0
 11
550.9748748425305
 21
-111.5404117232524
 31
0.0
  0
LINE
  5
4740
330
45DF
100
AcDbEntity
  8
Z_OM_DIM
100
AcDbLine
 10
537.9748748425305
 20
-90.90018916829738
 30
0.0
 11
537.9748748425305
 21
-111.5404117232524
 31
0.0
  0
LINE
  5
4741
330
45DF
100
AcDbEntity
  8
Z_OM_DIM
100
AcDbLine
 10
548.4748748425305
 20
-110.2904117232524
 30
0.0
 11
540.4748748425305
 21
-110.2904117232524
 31
0.0
  0
INSERT
  5
4742
330
45DF
100
AcDbEntity
  8
Z_OM_DIM
100
AcDbBlockReference
  2
_OPEN30
 10
550.9748748425305
 20
-110.2904117232524
 30
0.0
 41
2.5
 42
2.5
 43
2.5
  0
INSERT
  5
4743
330
45DF
100
AcDbEntity
  8
Z_OM_DIM
100
AcDbBlockReference
  2
_OPEN30
 10
537.9748748425305
 20
-110.2904117232524
 30
0.0
 41
2.5
 42
2.5
 43
2.5
 50
180.0
  0
MTEXT
  5
4744
330
45DF
100
AcDbEntity
  8
Z_OM_DIM
100
AcDbMText
 10
544.4748748425305
 20
-108.4154117232524
 30
0.0
 40
2.5
 41
0.0
 71
     5
 72
     1
  1
13
  7
CatalogDxf
 73
     1
 44
1.0
1001
ACAD
1000
MTEXTBEGIN
1070
    73
1070
     1
1070
    44
1040
1.0
1070
    74
1070
     0
1000
MTEXTEND
  0
POINT
  5
4745
330
45DF
100
AcDbEntity
  8
DEFPOINTS
 62
     0
100
AcDbPoint
 10
550.9748748425305
 20
-101.2248078938832
 30
0.0
  0
POINT
  5
4746
330
45DF
100
AcDbEntity
  8
DEFPOINTS
 62
     0
100
AcDbPoint
 10
537.9748748425305
 20
-90.27518916829738
 30
0.0
  0
POINT
  5
4747
330
45DF
100
AcDbEntity
  8
DEFPOINTS
 62
     0
100
AcDbPoint
 10
537.9748748425305
 20
-110.2904117232524
 30
0.0
  0
ENDBLK
  5
45EA
330
45DF
100
AcDbEntity
  8
0
100
AcDbBlockEnd
  0
BLOCK
  5
45F6
330
45EC
100
AcDbEntity
  8
0
100
AcDbBlockBegin
  2
*D14
 70
     1
 10
0.0
 20
0.0
 30
0.0
  3
*D14
  1

  0
LINE
  5
48B6
330
45EC
100
AcDbEntity
  8
Z_OM_DIM
100
AcDbLine
 10
527.3498748425305
 20
-87.72480789388323
 30
0.0
 11
513.8386377970195
 21
-87.72480789388323
 31
0.0
  0
LINE
  5
48B7
330
45EC
100
AcDbEntity
  8
Z_OM_DIM
100
AcDbLine
 10
527.3498748425305
 20
-61.72480789388322
 30
0.0
 11
513.8386377970195
 21
-61.72480789388322
 31
0.0
  0
LINE
  5
48B8
330
45EC
100
AcDbEntity
  8
Z_OM_DIM
100
AcDbLine
 10
515.0886377970194
 20
-85.22480789388323
 30
0.0
 11
515.0886377970194
 21
-64.22480789388322
 31
0.0
  0
INSERT
  5
48B9
330
45EC
100
AcDbEntity
  8
Z_OM_DIM
100
AcDbBlockReference
  2
_OPEN30
 10
515.0886377970194
 20
-87.72480789388323
 30
0.0
 41
2.5
 42
2.5
 43
2.5
 50
270.0
  0
INSERT
  5
48BA
330
45EC
100
AcDbEntity
  8
Z_OM_DIM
100
AcDbBlockReference
  2
_OPEN30
 10
515.0886377970194
 20
-61.72480789388322
 30
0.0
 41
2.5
 42
2.5
 43
2.5
 50
90.0
  0
MTEXT
  5
48BB
330
45EC
100
AcDbEntity
  8
Z_OM_DIM
100
AcDbMText
 10
513.2136377970194
 20
-74.72480789388313
 30
0.0
 40
2.5
 41
0.0
 71
     5
 72
     1
  1
26
  7
CatalogDxf
 11
0.0000000000000001
 21
1.0
 31
0.0
 73
     1
 44
1.0
1001
ACAD
1000
MTEXTBEGIN
1070
    73
1070
     1
1070
    44
1040
1.0
1070
    74
1070
     0
1000
MTEXTEND
  0
POINT
  5
48BC
330
45EC
100
AcDbEntity
  8
DEFPOINTS
 62
     0
100
AcDbPoint
 10
527.9748748425305
 20
-87.72480789388323
 30
0.0
  0
POINT
  5
48BD
330
45EC
100
AcDbEntity
  8
DEFPOINTS
 62
     0
100
AcDbPoint
 10
527.9748748425305
 20
-61.72480789388322
 30
0.0
  0
POINT
  5
48BE
330
45EC
100
AcDbEntity
  8
DEFPOINTS
 62
     0
100
AcDbPoint
 10
515.0886377970194
 20
-61.72480789388322
 30
0.0
  0
ENDBLK
  5
45F7
330
45EC
100
AcDbEntity
  8
0
100
AcDbBlockEnd
  0
BLOCK
  5
4603
330
45F9
100
AcDbEntity
  8
0
100
AcDbBlockBegin
  2
*D15
 70
     1
 10
0.0
 20
0.0
 30
0.0
  3
*D15
  1

  0
LINE
  5
48BF
330
45F9
100
AcDbEntity
  8
Z_OM_DIM
100
AcDbLine
 10
527.9748748425305
 20
-61.09980789388322
 30
0.0
 11
527.9748748425305
 21
-48.75803926987294
 31
0.0
  0
LINE
  5
48C0
330
45F9
100
AcDbEntity
  8
Z_OM_DIM
100
AcDbLine
 10
547.9748748425305
 20
-61.09980789388322
 30
0.0
 11
547.9748748425305
 21
-48.75803926987294
 31
0.0
  0
LINE
  5
48C1
330
45F9
100
AcDbEntity
  8
Z_OM_DIM
100
AcDbLine
 10
530.4748748425305
 20
-50.00803926987294
 30
0.0
 11
545.4748748425305
 21
-50.00803926987294
 31
0.0
  0
INSERT
  5
48C2
330
45F9
100
AcDbEntity
  8
Z_OM_DIM
100
AcDbBlockReference
  2
_OPEN30
 10
527.9748748425305
 20
-50.00803926987294
 30
0.0
 41
2.5
 42
2.5
 43
2.5
 50
180.0
  0
INSERT
  5
48C3
330
45F9
100
AcDbEntity
  8
Z_OM_DIM
100
AcDbBlockReference
  2
_OPEN30
 10
547.9748748425305
 20
-50.00803926987294
 30
0.0
 41
2.5
 42
2.5
 43
2.5
  0
MTEXT
  5
48C4
330
45F9
100
AcDbEntity
  8
Z_OM_DIM
100
AcDbMText
 10
537.9748748425305
 20
-48.13303926987294
 30
0.0
 40
2.5
 41
0.0
 71
     5
 72
     1
  1
20
  7
CatalogDxf
 73
     1
 44
1.0
1001
ACAD
1000
MTEXTBEGIN
1070
    73
1070
     1
1070
    44
1040
1.0
1070
    74
1070
     0
1000
MTEXTEND
  0
POINT
  5
48C5
330
45F9
100
AcDbEntity
  8
DEFPOINTS
 62
     0
100
AcDbPoint
 10
527.9748748425305
 20
-61.72480789388322
 30
0.0
  0
POINT
  5
48C6
330
45F9
100
AcDbEntity
  8
DEFPOINTS
 62
     0
100
AcDbPoint
 10
547.9748748425305
 20
-61.72480789388322
 30
0.0
  0
POINT
  5
48C7
330
45F9
100
AcDbEntity
  8
DEFPOINTS
 62
     0
100
AcDbPoint
 10
547.9748748425305
 20
-50.00803926987294
 30
0.0
  0
ENDBLK
  5
4604
330
45F9
100
AcDbEntity
  8
0
100
AcDbBlockEnd
  0
BLOCK
  5
4610
330
4606
100
AcDbEntity
  8
0
100
AcDbBlockBegin
  2
*D16
 70
     1
 10
0.0
 20
0.0
 30
0.0
  3
*D16
  1

  0
LINE
  5
48C8
330
4606
100
AcDbEntity
  8
Z_OM_DIM
100
AcDbLine
 10
527.0748748425304
 20
-63.19980789388321
 30
0.0
 11
527.0748748425304
 21
-42.4531872689788
 31
0.0
  0
LINE
  5
48C9
330
4606
100
AcDbEntity
  8
Z_OM_DIM
100
AcDbLine
 10
548.8748748425306
 20
-63.19980789388321
 30
0.0
 11
548.8748748425306
 21
-42.4531872689788
 31
0.0
  0
LINE
  5
48CA
330
4606
100
AcDbEntity
  8
Z_OM_DIM
100
AcDbLine
 10
529.5748748425304
 20
-43.7031872689788
 30
0.0
 11
546.3748748425306
 21
-43.7031872689788
 31
0.0
  0
INSERT
  5
48CB
330
4606
100
AcDbEntity
  8
Z_OM_DIM
100
AcDbBlockReference
  2
_OPEN30
 10
527.0748748425304
 20
-43.7031872689788
 30
0.0
 41
2.5
 42
2.5
 43
2.5
 50
180.0
  0
INSERT
  5
48CC
330
4606
100
AcDbEntity
  8
Z_OM_DIM
100
AcDbBlockReference
  2
_OPEN30
 10
548.8748748425306
 20
-43.7031872689788
 30
0.0
 41
2.5
 42
2.5
 43
2.5
  0
MTEXT
  5
48CD
330
4606
100
AcDbEntity
  8
Z_OM_DIM
100
AcDbMText
 10
537.9748748425305
 20
-41.8281872689788
 30
0.0
 40
2.5
 41
0.0
 71
     5
 72
     1
  1
22
  7
CatalogDxf
 73
     1
 44
1.0
1001
ACAD
1000
MTEXTBEGIN
1070
    73
1070
     1
1070
    44
1040
1.0
1070
    74
1070
     0
1000
MTEXTEND
  0
POINT
  5
48CE
330
4606
100
AcDbEntity
  8
DEFPOINTS
 62
     0
100
AcDbPoint
 10
527.0748748425304
 20
-63.82480789388321
 30
0.0
  0
POINT
  5
48CF
330
4606
100
AcDbEntity
  8
DEFPOINTS
 62
     0
100
AcDbPoint
 10
548.8748748425306
 20
-63.82480789388321
 30
0.0
  0
POINT
  5
48D0
330
4606
100
AcDbEntity
  8
DEFPOINTS
 62
     0
100
AcDbPoint
 10
548.8748748425306
 20
-43.7031872689788
 30
0.0
  0
ENDBLK
  5
4611
330
4606
100
AcDbEntity
  8
0
100
AcDbBlockEnd
  0
BLOCK
  5
4628
330
461C
100
AcDbEntity
  8
0
100
AcDbBlockBegin
  2
*D17
 70
     1
 10
0.0
 20
0.0
 30
0.0
  3
*D17
  1

  0
LINE
  5
48D1
330
461C
100
AcDbEntity
  8
Z_OM_DIM
100
AcDbLine
 10
555.8114218977481
 20
-95.72480789388322
 30
0.0
 11
566.918396487856
 21
-95.72480789388322
 31
0.0
  0
LINE
  5
48D2
330
461C
100
AcDbEntity
  8
Z_OM_DIM
100
AcDbLine
 10
553.5998748425305
 20
-101.2248078938832
 30
0.0
 11
566.918396487856
 21
-101.2248078938832
 31
0.0
  0
LINE
  5
48D3
330
461C
100
AcDbEntity
  8
Z_OM_DIM
100
AcDbLine
 10
565.668396487856
 20
-93.22480789388322
 30
0.0
 11
565.668396487856
 21
-90.72480789388322
 31
0.0
  0
LINE
  5
48D4
330
461C
100
AcDbEntity
  8
Z_OM_DIM
100
AcDbLine
 10
565.668396487856
 20
-103.7248078938832
 30
0.0
 11
565.668396487856
 21
-112.4748078938832
 31
0.0
  0
LINE
  5
48D5
330
461C
100
AcDbEntity
  8
Z_OM_DIM
100
AcDbLine
 10
565.668396487856
 20
-95.72480789388322
 30
0.0
 11
565.668396487856
 21
-101.2248078938832
 31
0.0
  0
INSERT
  5
48D6
330
461C
100
AcDbEntity
  8
Z_OM_DIM
100
AcDbBlockReference
  2
_OPEN30
 10
565.668396487856
 20
-95.72480789388322
 30
0.0
 41
2.5
 42
2.5
 43
2.5
 50
270.0
  0
INSERT
  5
48D7
330
461C
100
AcDbEntity
  8
Z_OM_DIM
100
AcDbBlockReference
  2
_OPEN30
 10
565.668396487856
 20
-101.2248078938832
 30
0.0
 41
2.5
 42
2.5
 43
2.5
 50
90.0
  0
MTEXT
  5
48D8
330
461C
100
AcDbEntity
  8
Z_OM_DIM
100
AcDbMText
 10
563.793396487856
 20
-109.3498078938831
 30
0.0
 40
2.5
 41
0.0
 71
     5
 72
     1
  1
5.5
  7
CatalogDxf
 11
0.0000000000000001
 21
1.0
 31
0.0
 73
     1
 44
1.0
1001
ACAD
1000
MTEXTBEGIN
1070
    73
1070
     1
1070
    44
1040
1.0
1070
    74
1070
     0
1000
MTEXTEND
  0
POINT
  5
48D9
330
461C
100
AcDbEntity
  8
DEFPOINTS
 62
     0
100
AcDbPoint
 10
555.1864218977481
 20
-95.72480789388322
 30
0.0
  0
POINT
  5
48DA
330
461C
100
AcDbEntity
  8
DEFPOINTS
 62
     0
100
AcDbPoint
 10
552.9748748425305
 20
-101.2248078938832
 30
0.0
  0
POINT
  5
48DB
330
461C
100
AcDbEntity
  8
DEFPOINTS
 62
     0
100
AcDbPoint
 10
565.668396487856
 20
-101.2248078938832
 30
0.0
  0
ENDBLK
  5
4629
330
461C
100
AcDbEntity
  8
0
100
AcDbBlockEnd
  0
BLOCK
  5
4635
330
462B
100
AcDbEntity
  8
0
100
AcDbBlockBegin
  2
*D18
 70
     1
 10
0.0
 20
0.0
 30
0.0
  3
*D18
  1

  0
LINE
  5
48DC
330
462B
100
AcDbEntity
  8
Z_OM_DIM
100
AcDbLine
 10
555.8114218977481
 20
-95.72480789388322
 30
0.0
 11
566.918396487856
 21
-95.72480789388322
 31
0.0
  0
LINE
  5
48DD
330
462B
100
AcDbEntity
  8
Z_OM_DIM
100
AcDbLine
 10
553.5705857677877
 20
-74.72480789388322
 30
0.0
 11
566.918396487856
 21
-74.72480789388322
 31
0.0
  0
LINE
  5
48DE
330
462B
100
AcDbEntity
  8
Z_OM_DIM
100
AcDbLine
 10
565.668396487856
 20
-93.22480789388322
 30
0.0
 11
565.668396487856
 21
-77.22480789388322
 31
0.0
  0
INSERT
  5
48DF
330
462B
100
AcDbEntity
  8
Z_OM_DIM
100
AcDbBlockReference
  2
_OPEN30
 10
565.668396487856
 20
-95.72480789388322
 30
0.0
 41
2.5
 42
2.5
 43
2.5
 50
270.0
  0
INSERT
  5
48E0
330
462B
100
AcDbEntity
  8
Z_OM_DIM
100
AcDbBlockReference
  2
_OPEN30
 10
565.668396487856
 20
-74.72480789388322
 30
0.0
 41
2.5
 42
2.5
 43
2.5
 50
90.0
  0
MTEXT
  5
48E1
330
462B
100
AcDbEntity
  8
Z_OM_DIM
100
AcDbMText
 10
563.793396487856
 20
-85.22480789388312
 30
0.0
 40
2.5
 41
0.0
 71
     5
 72
     1
  1
21
  7
CatalogDxf
 11
0.0000000000000001
 21
1.0
 31
0.0
 73
     1
 44
1.0
1001
ACAD
1000
MTEXTBEGIN
1070
    73
1070
     1
1070
    44
1040
1.0
1070
    74
1070
     0
1000
MTEXTEND
  0
POINT
  5
48E2
330
462B
100
AcDbEntity
  8
DEFPOINTS
 62
     0
100
AcDbPoint
 10
555.1864218977481
 20
-95.72480789388322
 30
0.0
  0
POINT
  5
48E3
330
462B
100
AcDbEntity
  8
DEFPOINTS
 62
     0
100
AcDbPoint
 10
552.9455857677877
 20
-74.72480789388322
 30
0.0
  0
POINT
  5
48E4
330
462B
100
AcDbEntity
  8
DEFPOINTS
 62
     0
100
AcDbPoint
 10
565.668396487856
 20
-74.72480789388322
 30
0.0
  0
ENDBLK
  5
4636
330
462B
100
AcDbEntity
  8
0
100
AcDbBlockEnd
  0
BLOCK
  5
47AD
330
47A1
100
AcDbEntity
  8
0
100
AcDbBlockBegin
  2
*D19
 70
     1
 10
0.0
 20
0.0
 30
0.0
  3
*D19
  1

  0
LINE
  5
4817
330
47A1
100
AcDbEntity
  8
Z_OM_DIM
100
AcDbLine
 10
629.3748748425306
 20
-100.6093620892406
 30
0.0
 11
629.3748748425306
 21
-118.4670220247717
 31
0.0
  0
LINE
  5
4818
330
47A1
100
AcDbEntity
  8
Z_OM_DIM
100
AcDbLine
 10
623.3748748425306
 20
-100.3498078938832
 30
0.0
 11
623.3748748425306
 21
-118.4670220247717
 31
0.0
  0
LINE
  5
4819
330
47A1
100
AcDbEntity
  8
Z_OM_DIM
100
AcDbLine
 10
631.8748748425306
 20
-117.2170220247717
 30
0.0
 11
634.3748748425306
 21
-117.2170220247717
 31
0.0
  0
LINE
  5
481A
330
47A1
100
AcDbEntity
  8
Z_OM_DIM
100
AcDbLine
 10
620.8748748425306
 20
-117.2170220247717
 30
0.0
 11
618.3748748425306
 21
-117.2170220247717
 31
0.0
  0
LINE
  5
481B
330
47A1
100
AcDbEntity
  8
Z_OM_DIM
100
AcDbLine
 10
629.3748748425306
 20
-117.2170220247717
 30
0.0
 11
623.3748748425306
 21
-117.2170220247717
 31
0.0
  0
INSERT
  5
481C
330
47A1
100
AcDbEntity
  8
Z_OM_DIM
100
AcDbBlockReference
  2
_OPEN30
 10
629.3748748425306
 20
-117.2170220247717
 30
0.0
 41
2.5
 42
2.5
 43
2.5
 50
180.0
  0
INSERT
  5
481D
330
47A1
100
AcDbEntity
  8
Z_OM_DIM
100
AcDbBlockReference
  2
_OPEN30
 10
623.3748748425306
 20
-117.2170220247717
 30
0.0
 41
2.5
 42
2.5
 43
2.5
  0
MTEXT
  5
481E
330
47A1
100
AcDbEntity
  8
Z_OM_DIM
100
AcDbMText
 10
626.3748748425306
 20
-115.3420220247717
 30
0.0
 40
2.5
 41
0.0
 71
     5
 72
     1
  1
6
  7
CatalogDxf
 73
     1
 44
1.0
1001
ACAD
1000
MTEXTBEGIN
1070
    73
1070
     1
1070
    44
1040
1.0
1070
    74
1070
     0
1000
MTEXTEND
  0
POINT
  5
481F
330
47A1
100
AcDbEntity
  8
DEFPOINTS
 62
     0
100
AcDbPoint
 10
629.3748748425306
 20
-99.98436208924061
 30
0.0
  0
POINT
  5
4820
330
47A1
100
AcDbEntity
  8
DEFPOINTS
 62
     0
100
AcDbPoint
 10
623.3748748425306
 20
-99.72480789388322
 30
0.0
  0
POINT
  5
4821
330
47A1
100
AcDbEntity
  8
DEFPOINTS
 62
     0
100
AcDbPoint
 10
623.3748748425306
 20
-117.2170220247717
 30
0.0
  0
ENDBLK
  5
47AE
330
47A1
100
AcDbEntity
  8
0
100
AcDbBlockEnd
  0
BLOCK
  5
48F3
330
48E7
100
AcDbEntity
  8
0
100
AcDbBlockBegin
  2
*D20
 70
     1
 10
0.0
 20
0.0
 30
0.0
  3
*D20
  1

  0
LINE
  5
48F6
330
48E7
100
AcDbEntity
  8
Z_OM_DIM
100
AcDbLine
 10
593.1498748425306
 20
-76.27480789388323
 30
0.0
 11
582.1450976238884
 21
-76.27480789388323
 31
0.0
  0
LINE
  5
48F7
330
48E7
100
AcDbEntity
  8
Z_OM_DIM
100
AcDbLine
 10
593.1498748425306
 20
-73.17480789388321
 30
0.0
 11
582.1450976238884
 21
-73.17480789388321
 31
0.0
  0
LINE
  5
48F8
330
48E7
100
AcDbEntity
  8
Z_OM_DIM
100
AcDbLine
 10
583.3950976238884
 20
-78.77480789388323
 30
0.0
 11
583.3950976238884
 21
-81.27480789388323
 31
0.0
  0
LINE
  5
48F9
330
48E7
100
AcDbEntity
  8
Z_OM_DIM
100
AcDbLine
 10
583.3950976238884
 20
-70.67480789388321
 30
0.0
 11
583.3950976238884
 21
-62.75814122721655
 31
0.0
  0
LINE
  5
48FA
330
48E7
100
AcDbEntity
  8
Z_OM_DIM
100
AcDbLine
 10
583.3950976238884
 20
-76.27480789388323
 30
0.0
 11
583.3950976238884
 21
-73.17480789388321
 31
0.0
  0
INSERT
  5
48FB
330
48E7
100
AcDbEntity
  8
Z_OM_DIM
100
AcDbBlockReference
  2
_OPEN30
 10
583.3950976238884
 20
-76.27480789388323
 30
0.0
 41
2.5
 42
2.5
 43
2.5
 50
90.0
  0
INSERT
  5
48FC
330
48E7
100
AcDbEntity
  8
Z_OM_DIM
100
AcDbBlockReference
  2
_OPEN30
 10
583.3950976238884
 20
-73.17480789388321
 30
0.0
 41
2.5
 42
2.5
 43
2.5
 50
270.0
  0
MTEXT
  5
48FD
330
48E7
100
AcDbEntity
  8
Z_OM_DIM
100
AcDbMText
 10
581.5200976238884
 20
-65.4664745605498
 30
0.0
 40
2.5
 41
0.0
 71
     5
 72
     1
  1
3.1
  7
CatalogDxf
 11
0.0000000000000001
 21
1.0
 31
0.0
 73
     1
 44
1.0
1001
ACAD
1000
MTEXTBEGIN
1070
    73
1070
     1
1070
    44
1040
1.0
1070
    74
1070
     0
1000
MTEXTEND
  0
POINT
  5
48FE
330
48E7
100
AcDbEntity
  8
DEFPOINTS
 62
     0
100
AcDbPoint
 10
593.7748748425307
 20
-76.27480789388323
 30
0.0
  0
POINT
  5
48FF
330
48E7
100
AcDbEntity
  8
DEFPOINTS
 62
     0
100
AcDbPoint
 10
593.7748748425307
 20
-73.17480789388321
 30
0.0
  0
POINT
  5
4900
330
48E7
100
AcDbEntity
  8
DEFPOINTS
 62
     0
100
AcDbPoint
 10
583.3950976238884
 20
-73.17480789388321
 30
0.0
  0
ENDBLK
  5
48F4
330
48E7
100
AcDbEntity
  8
0
100
AcDbBlockEnd
  0
ENDSEC
  0
SECTION
  2
ENTITIES
  0
MTEXT
  5
4130
330
17
100
AcDbEntity
  8
Z_OM_DIM
100
AcDbMText
 10
675.7341908672803
 20
-132.7473815513037
 30
0.0
 40
3.0
 41
58.52580102221769
 71
     1
 72
     5
  1
TAKAHA KIKO Co., Ltd\PCAD DRAWING No. CA1064
  7
CatalogDxf
 73
     1
 44
1.0
1001
ACAD
1000
MTEXTBEGIN
1070
    73
1070
     1
1070
    44
1040
1.0
1070
    74
1070
     0
1000
MTEXTEND
  0
MTEXT
  5
42AA
330
17
100
AcDbEntity
  8
Z_OM_DIM
100
AcDbMText
 10
496.5671756568651
 20
23.10122359874481
 30
0.0
 40
3.0
 41
47.03999999999999
 71
     1
 72
     1
  1
Adsorbed position
  7
CatalogDxf
 73
     1
 44
1.0
1001
ACAD
1000
MTEXTBEGIN
1070
    73
1070
     1
1070
    44
1040
1.0
1070
    74
1070
     0
1000
MTEXTEND
  0
LINE
  5
4301
330
17
100
AcDbEntity
  8
0
 48
0.5
100
AcDbLine
 10
698.1894783418445
 20
-74.72480789388322
 30
0.0
 11
698.189478341844
 21
-75.72480789388322
 31
0.0
  0
SPLINE
  5
4302
330
17
100
AcDbEntity
  8
additional
 48
0.5
100
AcDbSpline
210
0.0
220
0.0
230
1.0
 70
     8
 71
     3
 72
    18
 73
    14
 74
    12
 42
0.0000000001
 43
0.0000000001
 44
0.0000000001
 40
0.0
 40
0.0
 40
0.0
 40
0.0
 40
0.3913118960626157
 40
0.7826237921250917
 40
1.482623792125051
 40
1.873935688187565
 40
2.265247584250092
 40
2.656559480312479
 40
3.047871376374942
 40
4.097871376374982
 40
4.489183272437407
 40
4.880495168499806
 40
5.271807064562397
 40
5.271807064562397
 40
5.271807064562397
 40
5.271807064562397
 10
679.7686486578196
 20
-72.2074346803014
 30
0.0
 10
679.824933499466
 20
-72.32507441365581
 30
0.0
 10
679.9375031827588
 20
-72.56035388036457
 30
0.0
 10
680.1973268718994
 20
-72.98395285167875
 30
0.0
 10
680.1974043598631
 20
-73.53093547020859
 30
0.0
 10
679.9373732314931
 20
-73.95447183039441
 30
0.0
 10
679.7691341645835
 20
-74.307603354275
 30
0.0
 10
679.5979820570907
 20
-74.65972283431323
 30
0.0
 10
679.2902084954497
 20
-75.18798225272544
 30
0.0
 10
679.2898117082022
 20
-75.87703247658542
 30
0.0
 10
679.5984256787196
 20
-76.40494361893608
 30
0.0
 10
679.7674544025944
 20
-76.75805744564278
 30
0.0
 10
679.8849172394113
 20
-76.99097560208179
 30
0.0
 10
679.9436486578199
 20
-77.10743468030135
 30
0.0
 11
679.7686486578196
 21
-72.2074346803014
 31
0.0
 11
679.9436486578199
 21
-72.55743468030143
 31
0.0
 11
680.11864865782
 21
-72.9074346803014
 31
0.0
 11
680.11864865782
 21
-73.60743468030136
 31
0.0
 11
679.9436486578199
 21
-73.95743468030139
 31
0.0
 11
679.7686486578196
 21
-74.30743468030131
 31
0.0
 11
679.5936486578198
 21
-74.6574346803013
 31
0.0
 11
679.4186486578198
 21
-75.00743468030133
 31
0.0
 11
679.4186486578198
 21
-76.05743468030137
 31
0.0
 11
679.5936486578198
 21
-76.40743468030135
 31
0.0
 11
679.7686486578196
 21
-76.75743468030136
 31
0.0
 11
679.9436486578199
 21
-77.10743468030135
 31
0.0
  0
SPLINE
  5
4303
330
17
100
AcDbEntity
  8
additional
 48
0.5
100
AcDbSpline
210
0.0
220
0.0
230
1.0
 70
     8
 71
     3
 72
    18
 73
    14
 74
    12
 42
0.0000000001
 43
0.0000000001
 44
0.0000000001
 40
0.0
 40
0.0
 40
0.0
 40
0.0
 40
0.3913118960624632
 40
0.7826237921249391
 40
1.482623792124899
 40
1.873935688187413
 40
2.265247584249787
 40
2.656559480312326
 40
3.047871376374789
 40
4.097871376374829
 40
4.489183272437254
 40
4.880495168499806
 40
5.271807064562244
 40
5.271807064562244
 40
5.271807064562244
 40
5.271807064562244
 10
680.6436486578199
 20
-72.2074346803014
 30
0.0
 10
680.6999334994663
 20
-72.32507441365581
 30
0.0
 10
680.8125031827589
 20
-72.56035388036467
 30
0.0
 10
681.0723268718995
 20
-72.98395285167874
 30
0.0
 10
681.0724043598632
 20
-73.53093547020859
 30
0.0
 10
680.8123732314929
 20
-73.95447183039431
 30
0.0
 10
680.644134164584
 20
-74.30760335427518
 30
0.0
 10
680.4729820570905
 20
-74.65972283431312
 30
0.0
 10
680.1652084954498
 20
-75.18798225272552
 30
0.0
 10
680.1648117082024
 20
-75.87703247658535
 30
0.0
 10
680.4734256787194
 20
-76.40494361893619
 30
0.0
 10
680.6424544025951
 20
-76.75805744564261
 30
0.0
 10
680.7599172394117
 20
-76.99097560208177
 30
0.0
 10
680.81864865782
 20
-77.10743468030135
 30
0.0
 11
680.6436486578199
 21
-72.2074346803014
 31
0.0
 11
680.81864865782
 21
-72.55743468030143
 31
0.0
 11
680.99364865782
 21
-72.9074346803014
 31
0.0
 11
680.99364865782
 21
-73.60743468030136
 31
0.0
 11
680.81864865782
 21
-73.95743468030139
 31
0.0
 11
680.6436486578199
 21
-74.30743468030131
 31
0.0
 11
680.4686486578198
 21
-74.6574346803013
 31
0.0
 11
680.2936486578198
 21
-75.00743468030133
 31
0.0
 11
680.2936486578198
 21
-76.05743468030137
 31
0.0
 11
680.4686486578198
 21
-76.40743468030135
 31
0.0
 11
680.6436486578199
 21
-76.75743468030136
 31
0.0
 11
680.81864865782
 21
-77.10743468030135
 31
0.0
  0
LINE
  5
4304
330
17
100
AcDbEntity
  8
0
100
AcDbLine
 10
670.7748748425307
 20
-75.72480789388322
 30
0.0
 11
679.3343967436307
 21
-75.72480789388322
 31
0.0
  0
LINE
  5
4305
330
17
100
AcDbEntity
  8
0
100
AcDbLine
 10
670.7748748425307
 20
-74.72480789388322
 30
0.0
 11
679.5572875930371
 21
-74.72480789388322
 31
0.0
  0
LINE
  5
4306
330
17
100
AcDbEntity
  8
0
100
AcDbLine
 10
670.7748748425307
 20
-73.72480789388323
 30
0.0
 11
680.068902257992
 21
-73.72480789388323
 31
0.0
  0
LINE
  5
4307
330
17
100
AcDbEntity
  8
0
100
AcDbLine
 10
698.1894783418445
 20
-73.72480789388323
 30
0.0
 11
698.1894783418445
 21
-75.72480789388322
 31
0.0
  0
LINE
  5
4308
330
17
100
AcDbEntity
  8
0
100
AcDbLine
 10
680.943902257992
 20
-73.72480789388323
 30
0.0
 11
698.189478341844
 21
-73.72480789388323
 31
0.0
  0
LINE
  5
4309
330
17
100
AcDbEntity
  8
0
100
AcDbLine
 10
680.2093967436307
 20
-75.72480789388322
 30
0.0
 11
698.1894783418445
 21
-75.72480789388322
 31
0.0
  0
LINE
  5
430A
330
17
100
AcDbEntity
  8
0
100
AcDbLine
 10
680.4322875930371
 20
-74.72480789388322
 30
0.0
 11
698.1894783418445
 21
-74.72480789388322
 31
0.0
  0
POINT
  5
430B
330
17
100
AcDbEntity
  8
0
100
AcDbPoint
 10
698.189478341844
 20
-73.72480789388323
 30
0.0
  0
POINT
  5
430C
330
17
100
AcDbEntity
  8
0
100
AcDbPoint
 10
698.1894783418445
 20
-74.22480789388322
 30
0.0
  0
POINT
  5
430D
330
17
100
AcDbEntity
  8
0
100
AcDbPoint
 10
698.189478341844
 20
-75.72480789388322
 30
0.0
  0
POINT
  5
430E
330
17
100
AcDbEntity
  8
0
100
AcDbPoint
 10
698.1894783418445
 20
-75.22480789388322
 30
0.0
  0
LINE
  5
430F
330
17
100
AcDbEntity
  8
0
100
AcDbLine
 10
698.1894783418445
 20
-75.47480789388322
 30
0.0
 11
705.1894783418445
 21
-75.47480789388322
 31
0.0
  0
LINE
  5
4310
330
17
100
AcDbEntity
  8
0
100
AcDbLine
 10
698.1894783418445
 20
-74.97480789388323
 30
0.0
 11
705.1894783418445
 21
-74.97480789388323
 31
0.0
  0
LINE
  5
4311
330
17
100
AcDbEntity
  8
0
100
AcDbLine
 10
698.1894783418445
 20
-74.47480789388322
 30
0.0
 11
705.1894783418445
 21
-74.47480789388322
 31
0.0
  0
LINE
  5
4312
330
17
100
AcDbEntity
  8
0
100
AcDbLine
 10
698.1894783418445
 20
-73.97480789388322
 30
0.0
 11
705.1894783418445
 21
-73.97480789388322
 31
0.0
  0
DIMENSION
  5
4313
330
17
100
AcDbEntity
  8
Z_OM_DIM
100
AcDbDimension
  2
*D1
 10
705.1894783418445
 20
-49.23065733927785
 30
0.0
 11
689.5321765921876
 21
-47.35565733927785
 31
0.0
 70
    32
  1
180 - 200
 71
     5
 42
31.31460349931387
  3
CatalogDxf
100
AcDbAlignedDimension
 13
673.8748748425306
 23
-63.22480789388322
 33
0.0
 14
705.1894783418445
 24
-73.97480789388322
 34
0.0
100
AcDbRotatedDimension
  0
LINE
  5
441B
330
17
100
AcDbEntity
  8
0
100
AcDbLine
 10
608.8748748425306
 20
-61.72480789388322
 30
0.0
 11
608.8748748425306
 21
-63.72480789388323
 31
0.0
  0
LINE
  5
441C
330
17
100
AcDbEntity
  8
0
100
AcDbLine
 10
608.8748748425306
 20
-63.72480789388323
 30
0.0
 11
671.8748748425306
 21
-63.72480789388323
 31
0.0
  0
LINE
  5
441D
330
17
100
AcDbEntity
  8
0
100
AcDbLine
 10
614.3748748425306
 20
-65.72480789388322
 30
0.0
 11
670.7748748425307
 21
-65.72480789388322
 31
0.0
  0
LINE
  5
441E
330
17
100
AcDbEntity
  8
0
100
AcDbLine
 10
671.8748748425306
 20
-85.72480789388322
 30
0.0
 11
608.8748748425306
 21
-85.72480789388322
 31
0.0
  0
LINE
  5
441F
330
17
100
AcDbEntity
  8
0
100
AcDbLine
 10
608.8748748425306
 20
-85.7248078938832
 30
0.0
 11
608.8748748425306
 21
-87.72480789388319
 31
0.0
  0
LINE
  5
4420
330
17
100
AcDbEntity
  8
0
100
AcDbLine
 10
608.8748748425306
 20
-87.72480789388323
 30
0.0
 11
623.3748748425306
 21
-87.72480789388323
 31
0.0
  0
LINE
  5
4421
330
17
100
AcDbEntity
  8
0
100
AcDbLine
 10
659.3748748425306
 20
-87.72480789388323
 30
0.0
 11
672.3748748425306
 21
-87.72480789388323
 31
0.0
  0
ARC
  5
4422
330
17
100
AcDbEntity
  8
0
100
AcDbCircle
 10
672.3748748425306
 20
-86.22480789388323
 30
0.0
 40
1.5
100
AcDbArc
 50
270.0
 51
0.0
  0
LINE
  5
4423
330
17
100
AcDbEntity
  8
0
100
AcDbLine
 10
673.8748748425306
 20
-86.22480789388323
 30
0.0
 11
673.8748748425306
 21
-75.72480789388322
 31
0.0
  0
LINE
  5
4424
330
17
100
AcDbEntity
  8
0
100
AcDbLine
 10
673.8748748425306
 20
-73.72480789388323
 30
0.0
 11
673.8748748425306
 21
-63.22480789388322
 31
0.0
  0
ARC
  5
4425
330
17
100
AcDbEntity
  8
0
100
AcDbCircle
 10
672.3748748425306
 20
-63.22480789388322
 30
0.0
 40
1.5
100
AcDbArc
 50
0.0
 51
90.0
  0
LINE
  5
4426
330
17
100
AcDbEntity
  8
0
100
AcDbLine
 10
672.3748748425306
 20
-61.72480789388322
 30
0.0
 11
608.8748748425306
 21
-61.72480789388322
 31
0.0
  0
CIRCLE
  5
4427
330
17
100
AcDbEntity
  8
0
100
AcDbCircle
 10
629.3748748425306
 20
-95.72480789388322
 30
0.0
 40
2.5
  0
CIRCLE
  5
4428
330
17
100
AcDbEntity
  8
0
100
AcDbCircle
 10
641.3748748425306
 20
-95.72480789388322
 30
0.0
 40
2.25
  0
LINE
  5
4429
330
17
100
AcDbEntity
  8
0
100
AcDbLine
 10
651.8748748425306
 20
-98.22480789388322
 30
0.0
 11
654.8748748425306
 21
-98.22480789388322
 31
0.0
  0
LINE
  5
442A
330
17
100
AcDbEntity
  8
0
100
AcDbLine
 10
654.8748748425306
 20
-93.22480789388322
 30
0.0
 11
651.8748748425306
 21
-93.22480789388322
 31
0.0
  0
ARC
  5
442B
330
17
100
AcDbEntity
  8
0
100
AcDbCircle
 10
651.8748748425306
 20
-95.72480789388322
 30
0.0
 40
2.5
100
AcDbArc
 50
90.0
 51
270.0
  0
ARC
  5
442C
330
17
100
AcDbEntity
  8
0
100
AcDbCircle
 10
654.8748748425306
 20
-95.72480789388322
 30
0.0
 40
2.5
100
AcDbArc
 50
270.0
 51
90.0
  0
LINE
  5
442D
330
17
100
AcDbEntity
  8
0
100
AcDbLine
 10
623.3748748425306
 20
-85.72480789388322
 30
0.0
 11
623.3748748425306
 21
-99.72480789388322
 31
0.0
  0
LINE
  5
442E
330
17
100
AcDbEntity
  8
0
100
AcDbLine
 10
624.8748748425306
 20
-101.2248078938832
 30
0.0
 11
657.8748748425306
 21
-101.2248078938832
 31
0.0
  0
ARC
  5
442F
330
17
100
AcDbEntity
  8
0
100
AcDbCircle
 10
657.8748748425306
 20
-99.72480789388322
 30
0.0
 40
1.5
100
AcDbArc
 50
270.0
 51
0.0
  0
ARC
  5
4430
330
17
100
AcDbEntity
  8
0
100
AcDbCircle
 10
624.8748748425306
 20
-99.72480789388322
 30
0.0
 40
1.5
100
AcDbArc
 50
180.0
 51
270.0
  0
LINE
  5
4431
330
17
100
AcDbEntity
  8
0
100
AcDbLine
 10
659.3748748425306
 20
-99.72480789388322
 30
0.0
 11
659.3748748425306
 21
-85.72480789388322
 31
0.0
  0
LINE
  5
4432
330
17
100
AcDbEntity
  8
0
100
AcDbLine
 10
608.8748748425306
 20
6.921018092266308
 30
0.0
 11
608.8748748425306
 21
1.421018092266308
 31
0.0
  0
LINE
  5
4433
330
17
100
AcDbEntity
  8
0
100
AcDbLine
 10
608.8748748425306
 20
1.421018092266308
 30
0.0
 11
612.7748748425307
 21
1.421018092266308
 31
0.0
  0
LINE
  5
4434
330
17
100
AcDbEntity
  8
0
100
AcDbLine
 10
612.7748748425307
 20
1.421018092266308
 30
0.0
 11
612.7748748425307
 21
-7.578981907733691
 31
0.0
  0
LINE
  5
4435
330
17
100
AcDbEntity
  8
0
100
AcDbLine
 10
612.7748748425307
 20
-7.578981907733691
 30
0.0
 11
608.8748748425306
 21
-7.578981907733691
 31
0.0
  0
LINE
  5
4436
330
17
100
AcDbEntity
  8
0
100
AcDbLine
 10
608.8748748425306
 20
-7.578981907733691
 30
0.0
 11
608.8748748425306
 21
-13.07898190773369
 31
0.0
  0
LINE
  5
4437
330
17
100
AcDbEntity
  8
0
100
AcDbLine
 10
608.8748748425306
 20
-13.07898190773369
 30
0.0
 11
673.8748748425306
 21
-13.07898190773369
 31
0.0
  0
LINE
  5
4438
330
17
100
AcDbEntity
  8
0
100
AcDbLine
 10
673.8748748425306
 20
-13.07898190773369
 30
0.0
 11
673.8748748425306
 21
6.921018092266308
 31
0.0
  0
LINE
  5
4439
330
17
100
AcDbEntity
  8
0
100
AcDbLine
 10
673.8748748425306
 20
6.921018092266308
 30
0.0
 11
608.8748748425306
 21
6.921018092266308
 31
0.0
  0
CIRCLE
  5
443A
330
17
100
AcDbEntity
  8
0
100
AcDbCircle
 10
636.8748748425306
 20
-3.078981907733691
 30
0.0
 40
2.0
  0
CIRCLE
  5
443B
330
17
100
AcDbEntity
  8
0
100
AcDbCircle
 10
661.8748748425306
 20
-3.078981907733691
 30
0.0
 40
2.0
  0
LINE
  5
443C
330
17
100
AcDbEntity
  8
0
100
AcDbLine
 10
609.8748748425306
 20
-63.72480789388323
 30
0.0
 11
609.8748748425306
 21
-85.72480789388322
 31
0.0
  0
LINE
  5
443D
330
17
100
AcDbEntity
  8
0
100
AcDbLine
 10
609.3748748425306
 20
-66.72480789388322
 30
0.0
 11
609.3748748425306
 21
-82.72480789388323
 31
0.0
  0
LINE
  5
443E
330
17
100
AcDbEntity
  8
0
100
AcDbLine
 10
608.5748748425304
 20
-66.72480789388322
 30
0.0
 11
608.5748748425304
 21
-82.72480789388323
 31
0.0
  0
LINE
  5
443F
330
17
100
AcDbEntity
  8
0
100
AcDbLine
 10
612.7748748425307
 20
-63.72480789388323
 30
0.0
 11
612.7748748425307
 21
-85.72480789388322
 31
0.0
  0
LINE
  5
4440
330
17
100
AcDbEntity
  8
0
100
AcDbLine
 10
609.8748748425306
 20
1.421018092266308
 30
0.0
 11
609.8748748425306
 21
-7.578981907733634
 31
0.0
  0
LINE
  5
4441
330
17
100
AcDbEntity
  8
0
100
AcDbLine
 10
608.5748748425304
 20
-82.72480789388323
 30
0.0
 11
609.8748748425306
 21
-82.72480789388323
 31
0.0
  0
LINE
  5
4442
330
17
100
AcDbEntity
  8
0
100
AcDbLine
 10
608.5748748425304
 20
-66.72480789388322
 30
0.0
 11
609.8748748425306
 21
-66.72480789388322
 31
0.0
  0
LINE
  5
4443
330
17
100
AcDbEntity
  8
0
100
AcDbLine
 10
609.3748748425306
 20
1.421018092266365
 30
0.0
 11
609.3748748425306
 21
-7.578981907733634
 31
0.0
  0
LINE
  5
4444
330
17
100
AcDbEntity
  8
0
100
AcDbLine
 10
608.5748748425304
 20
4.921018092266308
 30
0.0
 11
608.5748748425308
 21
-11.07898190773369
 31
0.0
  0
LINE
  5
4445
330
17
100
AcDbEntity
  8
0
100
AcDbLine
 10
608.5748748425304
 20
-11.07898190773369
 30
0.0
 11
608.8748748425306
 21
-11.07898190773369
 31
0.0
  0
LINE
  5
4446
330
17
100
AcDbEntity
  8
0
100
AcDbLine
 10
608.5748748425304
 20
4.921018092266308
 30
0.0
 11
608.8748748425306
 21
4.921018092266308
 31
0.0
  0
LINE
  5
4447
330
17
100
AcDbEntity
  8
0
100
AcDbLine
 10
608.5748748425304
 20
1.921018092266308
 30
0.0
 11
594.2748748425307
 21
1.921018092266308
 31
0.0
  0
LINE
  5
4448
330
17
100
AcDbEntity
  8
0
100
AcDbLine
 10
593.7748748425307
 20
1.421018092266308
 30
0.0
 11
594.2748748425307
 21
1.921018092266308
 31
0.0
  0
LINE
  5
4449
330
17
100
AcDbEntity
  8
0
100
AcDbLine
 10
593.7748748425307
 20
1.421018092266479
 30
0.0
 11
593.7748748425307
 21
-7.578981907733691
 31
0.0
  0
LINE
  5
444A
330
17
100
AcDbEntity
  8
0
100
AcDbLine
 10
594.2748748425307
 20
-8.078981907733691
 30
0.0
 11
608.5748748425308
 21
-8.078981907733691
 31
0.0
  0
LINE
  5
444B
330
17
100
AcDbEntity
  8
0
100
AcDbLine
 10
593.7748748425307
 20
-7.578981907733691
 30
0.0
 11
594.2748748425307
 21
-8.078981907733691
 31
0.0
  0
LINE
  5
444C
330
17
100
AcDbEntity
  8
0
100
AcDbLine
 10
594.2748748425307
 20
-8.078981907733691
 30
0.0
 11
594.2748748425307
 21
1.921018092266308
 31
0.0
  0
LINE
  5
444D
330
17
100
AcDbEntity
  8
0
100
AcDbLine
 10
608.5748748425304
 20
-69.72480789388322
 30
0.0
 11
594.2748748425307
 21
-69.72480789388322
 31
0.0
  0
LINE
  5
444E
330
17
100
AcDbEntity
  8
additional
  6
HIDDEN2
 48
0.5
100
AcDbLine
 10
596.2248748425305
 20
-70.22480789388322
 30
0.0
 11
595.7248748425305
 21
-69.72480789388322
 31
0.0
  0
LINE
  5
444F
330
17
100
AcDbEntity
  8
0
100
AcDbLine
 10
593.7748748425307
 20
-70.22480789388322
 30
0.0
 11
594.2748748425307
 21
-69.72480789388322
 31
0.0
  0
LINE
  5
4450
330
17
100
AcDbEntity
  8
0
100
AcDbLine
 10
593.7748748425307
 20
-70.22480789388322
 30
0.0
 11
593.7748748425307
 21
-73.17480789388321
 31
0.0
  0
LINE
  5
4451
330
17
100
AcDbEntity
  8
0
100
AcDbLine
 10
593.7748748425307
 20
-76.27480789388323
 30
0.0
 11
593.7748748425307
 21
-79.22480789388322
 31
0.0
  0
LINE
  5
4452
330
17
100
AcDbEntity
  8
0
100
AcDbLine
 10
594.2748748425307
 20
-79.72480789388322
 30
0.0
 11
608.5748748425304
 21
-79.72480789388322
 31
0.0
  0
LINE
  5
4453
330
17
100
AcDbEntity
  8
0
100
AcDbLine
 10
593.7748748425307
 20
-79.22480789388322
 30
0.0
 11
594.2748748425307
 21
-79.72480789388322
 31
0.0
  0
LINE
  5
4454
330
17
100
AcDbEntity
  8
0
100
AcDbLine
 10
593.7748748425307
 20
-73.17480789388321
 30
0.0
 11
603.7748748425307
 21
-73.17480789388321
 31
0.0
  0
LINE
  5
4455
330
17
100
AcDbEntity
  8
0
100
AcDbLine
 10
603.7748748425307
 20
-73.17480789388321
 30
0.0
 11
603.7748748425307
 21
-76.27480789388323
 31
0.0
  0
LINE
  5
4456
330
17
100
AcDbEntity
  8
0
100
AcDbLine
 10
603.7748748425307
 20
-76.27480789388323
 30
0.0
 11
593.7748748425307
 21
-76.27480789388323
 31
0.0
  0
LINE
  5
4457
330
17
100
AcDbEntity
  8
0
100
AcDbLine
 10
594.2748748425307
 20
-69.72480789388322
 30
0.0
 11
594.2748748425307
 21
-73.17480789388321
 31
0.0
  0
LINE
  5
4458
330
17
100
AcDbEntity
  8
0
100
AcDbLine
 10
594.2748748425307
 20
-79.72480789388322
 30
0.0
 11
594.2748748425307
 21
-76.27480789388323
 31
0.0
  0
LINE
  5
4459
330
17
100
AcDbEntity
  8
additional
  6
HIDDEN2
 48
0.5
100
AcDbLine
 10
596.2248748425305
 20
-73.17480789388321
 30
0.0
 11
596.2248748425305
 21
-70.22480789388322
 31
0.0
  0
LINE
  5
445A
330
17
100
AcDbEntity
  8
additional
  6
HIDDEN2
 48
0.5
100
AcDbLine
 10
599.3248748425304
 20
-70.22480789388322
 30
0.0
 11
599.8248748425304
 21
-69.72480789388322
 31
0.0
  0
LINE
  5
445B
330
17
100
AcDbEntity
  8
additional
  6
HIDDEN2
 48
0.5
100
AcDbLine
 10
599.3248748425304
 20
-73.17480789388321
 30
0.0
 11
599.3248748425304
 21
-70.22480789388322
 31
0.0
  0
LINE
  5
445C
330
17
100
AcDbEntity
  8
additional
  6
HIDDEN2
 48
0.5
100
AcDbLine
 10
596.2248748425305
 20
-70.22480789388322
 30
0.0
 11
599.3248748425304
 21
-70.22480789388322
 31
0.0
  0
LINE
  5
445D
330
17
100
AcDbEntity
  8
additional
  6
HIDDEN2
 48
0.5
100
AcDbLine
 10
596.2248748425305
 20
-79.22480789388322
 30
0.0
 11
595.7248748425305
 21
-79.72480789388322
 31
0.0
  0
LINE
  5
445E
330
17
100
AcDbEntity
  8
additional
  6
HIDDEN2
 48
0.5
100
AcDbLine
 10
596.2248748425305
 20
-76.27480789388323
 30
0.0
 11
596.2248748425305
 21
-79.22480789388322
 31
0.0
  0
LINE
  5
445F
330
17
100
AcDbEntity
  8
additional
  6
HIDDEN2
 48
0.5
100
AcDbLine
 10
599.3248748425304
 20
-79.22480789388322
 30
0.0
 11
599.8248748425304
 21
-79.72480789388322
 31
0.0
  0
LINE
  5
4460
330
17
100
AcDbEntity
  8
additional
  6
HIDDEN2
 48
0.5
100
AcDbLine
 10
599.3248748425304
 20
-76.27480789388323
 30
0.0
 11
599.3248748425304
 21
-79.22480789388322
 31
0.0
  0
LINE
  5
4461
330
17
100
AcDbEntity
  8
additional
  6
HIDDEN2
 48
0.5
100
AcDbLine
 10
596.2248748425305
 20
-79.22480789388322
 30
0.0
 11
599.3248748425304
 21
-79.22480789388322
 31
0.0
  0
CIRCLE
  5
4462
330
17
100
AcDbEntity
  8
0
100
AcDbCircle
 10
597.7748748425307
 20
-3.078981907733691
 30
0.0
 40
1.55
  0
LINE
  5
4463
330
17
100
AcDbEntity
  8
0
100
AcDbLine
 10
673.8748748425306
 20
-3.078981907733691
 30
0.0
 11
673.8748748425306
 21
-3.078981907733691
 31
0.0
  0
LINE
  5
4464
330
17
100
AcDbEntity
  8
0
100
AcDbLine
 10
673.8748748425306
 20
-0.5789819077336916
 30
0.0
 11
674.3748748425306
 21
-0.5789819077336916
 31
0.0
  0
LINE
  5
4465
330
17
100
AcDbEntity
  8
0
100
AcDbLine
 10
674.3748748425306
 20
-0.5789819077336916
 30
0.0
 11
674.3748748425306
 21
-5.578981907733691
 31
0.0
  0
LINE
  5
4466
330
17
100
AcDbEntity
  8
0
100
AcDbLine
 10
674.3748748425306
 20
-5.578981907733691
 30
0.0
 11
673.8748748425306
 21
-5.578981907733691
 31
0.0
  0
LINE
  5
4467
330
17
100
AcDbEntity
  8
additional
  6
CENTER2
 48
0.5
100
AcDbLine
 10
636.8748748425306
 20
1.921018092266308
 30
0.0
 11
636.8748748425306
 21
-8.078981907733691
 31
0.0
  0
LINE
  5
4468
330
17
100
AcDbEntity
  8
additional
  6
CENTER2
 48
0.5
100
AcDbLine
 10
661.8748748425306
 20
1.921018092266308
 30
0.0
 11
661.8748748425306
 21
-8.078981907733691
 31
0.0
  0
LINE
  5
4469
330
17
100
AcDbEntity
  8
additional
  6
CENTER2
 48
0.5
100
AcDbLine
 10
629.3748748425306
 20
-91.5493343311004
 30
0.0
 11
629.3748748425306
 21
-99.98436208924061
 31
0.0
  0
LINE
  5
446A
330
17
100
AcDbEntity
  8
additional
  6
CENTER2
 48
0.5
100
AcDbLine
 10
641.3748748425306
 20
-91.5493343311004
 30
0.0
 11
641.3748748425306
 21
-99.98436208924061
 31
0.0
  0
LINE
  5
446B
330
17
100
AcDbEntity
  8
additional
  6
CENTER2
 48
0.5
100
AcDbLine
 10
653.3748748425306
 20
-91.5493343311004
 30
0.0
 11
653.3748748425306
 21
-99.98436208924061
 31
0.0
  0
LINE
  5
446C
330
17
100
AcDbEntity
  8
additional
  6
CENTER2
 48
0.5
100
AcDbLine
 10
661.8628516348523
 20
-95.72480789388322
 30
0.0
 11
621.6247081686953
 21
-95.72480789388322
 31
0.0
  0
LINE
  5
446D
330
17
100
AcDbEntity
  8
0
100
AcDbLine
 10
623.3748748425306
 20
-14.63898190773375
 30
0.0
 11
623.3748748425306
 21
-18.07898190773369
 31
0.0
  0
LINE
  5
446E
330
17
100
AcDbEntity
  8
0
100
AcDbLine
 10
623.3748748425306
 20
-18.07898190773369
 30
0.0
 11
659.3748748425306
 21
-18.07898190773366
 31
0.0
  0
LINE
  5
446F
330
17
100
AcDbEntity
  8
0
100
AcDbLine
 10
659.3748748425306
 20
-18.07898190773366
 30
0.0
 11
659.3748748425306
 21
-15.67898190773383
 31
0.0
  0
LINE
  5
4470
330
17
100
AcDbEntity
  8
0
100
AcDbLine
 10
623.3748748425306
 20
-87.72480789388323
 30
0.0
 11
659.3748748425306
 21
-87.72480789388323
 31
0.0
  0
LINE
  5
4471
330
17
100
AcDbEntity
  8
0
100
AcDbLine
 10
527.9748748425305
 20
-61.72480789388322
 30
0.0
 11
527.9748748425305
 21
-87.72480789388323
 31
0.0
  0
LINE
  5
4472
330
17
100
AcDbEntity
  8
0
100
AcDbLine
 10
527.9748748425305
 20
-87.72480789388323
 30
0.0
 11
547.9748748425305
 21
-87.72480789388323
 31
0.0
  0
LINE
  5
4473
330
17
100
AcDbEntity
  8
0
100
AcDbLine
 10
547.9748748425305
 20
-87.72480789388323
 30
0.0
 11
547.9748748425305
 21
-61.72480789388322
 31
0.0
  0
LINE
  5
4474
330
17
100
AcDbEntity
  8
0
100
AcDbLine
 10
547.9748748425305
 20
-61.72480789388322
 30
0.0
 11
527.9748748425305
 21
-61.72480789388322
 31
0.0
  0
CIRCLE
  5
4475
330
17
100
AcDbEntity
  8
0
100
AcDbCircle
 10
537.9748748425305
 20
-74.72480789388322
 30
0.0
 40
4.999999999999992
  0
ARC
  5
4476
330
17
100
AcDbEntity
  8
0
100
AcDbCircle
 10
537.9748748425305
 20
-74.72480789388322
 30
0.0
 40
4.499999999999992
100
AcDbArc
 50
200.1478862872389
 51
339.8521137127612
  0
ARC
  5
4477
330
17
100
AcDbEntity
  8
0
100
AcDbCircle
 10
537.9748748425305
 20
-74.72480789388322
 30
0.0
 40
4.499999999999992
100
AcDbArc
 50
20.14788628723887
 51
159.8521137127611
  0
CIRCLE
  5
4478
330
17
100
AcDbEntity
  8
0
100
AcDbCircle
 10
537.9748748425305
 20
-74.72480789388322
 30
0.0
 40
7.999999999999985
  0
LINE
  5
4479
330
17
100
AcDbEntity
  8
0
100
AcDbLine
 10
542.4748748425305
 20
-61.72480789388322
 30
0.0
 11
542.4748748425305
 21
-63.72480789388323
 31
0.0
  0
LINE
  5
447A
330
17
100
AcDbEntity
  8
0
100
AcDbLine
 10
542.4748748425305
 20
-63.72480789388323
 30
0.0
 11
547.9748748425305
 21
-63.72480789388323
 31
0.0
  0
LINE
  5
447B
330
17
100
AcDbEntity
  8
0
100
AcDbLine
 10
533.4748748425305
 20
-61.72480789388322
 30
0.0
 11
533.4748748425305
 21
-63.72480789388323
 31
0.0
  0
LINE
  5
447C
330
17
100
AcDbEntity
  8
0
100
AcDbLine
 10
533.4748748425305
 20
-63.72480789388323
 30
0.0
 11
527.9748748425305
 21
-63.72480789388323
 31
0.0
  0
LINE
  5
447D
330
17
100
AcDbEntity
  8
0
100
AcDbLine
 10
542.4748748425305
 20
-87.72480789388319
 30
0.0
 11
542.4748748425305
 21
-85.7248078938832
 31
0.0
  0
LINE
  5
447E
330
17
100
AcDbEntity
  8
0
100
AcDbLine
 10
542.4748748425305
 20
-85.7248078938832
 30
0.0
 11
547.9748748425305
 21
-85.72480789388325
 31
0.0
  0
LINE
  5
447F
330
17
100
AcDbEntity
  8
0
100
AcDbLine
 10
533.4748748425305
 20
-87.72480789388314
 30
0.0
 11
533.4748748425305
 21
-85.72480789388313
 31
0.0
  0
LINE
  5
4480
330
17
100
AcDbEntity
  8
0
100
AcDbLine
 10
533.4748748425305
 20
-85.72480789388313
 30
0.0
 11
527.9748748425305
 21
-85.72480789388308
 31
0.0
  0
LINE
  5
4481
330
17
100
AcDbEntity
  8
0
100
AcDbLine
 10
547.9748748425305
 20
-85.72480789388325
 30
0.0
 11
551.4748748425305
 21
-85.72480789388325
 31
0.0
  0
LINE
  5
4482
330
17
100
AcDbEntity
  8
0
100
AcDbLine
 10
552.9748748425305
 20
-87.22480789388326
 30
0.0
 11
552.9748748425305
 21
-101.2248078938832
 31
0.0
  0
ARC
  5
4483
330
17
100
AcDbEntity
  8
0
100
AcDbCircle
 10
551.4748748425305
 20
-87.22480789388326
 30
0.0
 40
1.5
100
AcDbArc
 50
0.0
 51
90.0
  0
LINE
  5
4484
330
17
100
AcDbEntity
  8
0
100
AcDbLine
 10
552.9748748425305
 20
-101.2248078938832
 30
0.0
 11
550.9748748425305
 21
-101.2248078938832
 31
0.0
  0
LINE
  5
4485
330
17
100
AcDbEntity
  8
0
100
AcDbLine
 10
550.9748748425305
 20
-101.2248078938832
 30
0.0
 11
550.9748748425305
 21
-87.72480789388323
 31
0.0
  0
LINE
  5
4486
330
17
100
AcDbEntity
  8
0
100
AcDbLine
 10
550.9748748425305
 20
-87.72480789388323
 30
0.0
 11
547.9748748425305
 21
-87.72480789388323
 31
0.0
  0
LINE
  5
4487
330
17
100
AcDbEntity
  8
additional
  6
CENTER2
 48
0.5
100
AcDbLine
 10
524.5516078738261
 20
-74.72480789388322
 30
0.0
 11
552.9455857677877
 21
-74.72480789388322
 31
0.0
  0
LINE
  5
4488
330
17
100
AcDbEntity
  8
additional
  6
CENTER2
 48
0.5
100
AcDbLine
 10
537.9748748425305
 20
-59.21924841122742
 30
0.0
 11
537.9748748425305
 21
-90.27518916829738
 31
0.0
  0
LINE
  5
4489
330
17
100
AcDbEntity
  8
additional
  6
CENTER2
 48
0.5
100
AcDbLine
 10
597.7748748425307
 20
6.921018092266308
 30
0.0
 11
597.7748748425307
 21
-13.07898190773375
 31
0.0
  0
ARC
  5
448A
330
17
100
AcDbEntity
  8
0
100
AcDbCircle
 10
537.9748748425305
 20
-74.72480789388322
 30
0.0
 40
6.2
100
AcDbArc
 50
5.032413495496927
 51
64.96758650450418
  0
ARC
  5
448B
330
17
100
AcDbEntity
  8
0
100
AcDbCircle
 10
537.9748748425305
 20
-74.72480789388322
 30
0.0
 40
6.2
100
AcDbArc
 50
115.0324134954958
 51
174.967586504503
  0
ARC
  5
448C
330
17
100
AcDbEntity
  8
0
100
AcDbCircle
 10
537.9748748425305
 20
-74.72480789388322
 30
0.0
 40
8.0
100
AcDbArc
 50
308.9155955561973
 51
231.0844044438027
  0
LINE
  5
448D
330
17
100
AcDbEntity
  8
0
100
AcDbLine
 10
533.7334096478194
 20
-80.73135940588185
 30
0.0
 11
534.5826572699666
 21
-78.39807074050739
 31
0.0
  0
ARC
  5
448E
330
17
100
AcDbEntity
  8
0
100
AcDbCircle
 10
533.2635633374267
 20
-80.5603493342191
 30
0.0
 40
0.5
100
AcDbArc
 50
231.0844044438027
 51
340.0000000000024
  0
LINE
  5
448F
330
17
100
AcDbEntity
  8
0
100
AcDbLine
 10
532.2968470159
 20
-74.72480789388322
 30
0.0
 11
532.9748748425305
 21
-74.72480789388322
 31
0.0
  0
ARC
  5
4490
330
17
100
AcDbEntity
  8
0
100
AcDbCircle
 10
532.2968470159
 20
-74.22480789388322
 30
0.0
 40
0.5
100
AcDbArc
 50
174.967586504503
 51
270.0
  0
LINE
  5
4491
330
17
100
AcDbEntity
  8
0
100
AcDbLine
 10
541.3670924150943
 20
-78.39807074050717
 30
0.0
 11
542.2163400372416
 21
-80.73135940588173
 31
0.0
  0
ARC
  5
4492
330
17
100
AcDbEntity
  8
0
100
AcDbCircle
 10
542.6861863476343
 20
-80.56034933421887
 30
0.0
 40
0.5
100
AcDbArc
 50
200.0000000000006
 51
308.9155955561973
  0
ARC
  5
4493
330
17
100
AcDbEntity
  8
0
100
AcDbCircle
 10
543.652902669161
 20
-74.22480789388334
 30
0.0
 40
0.5
100
AcDbArc
 50
270.0
 51
5.032413495496927
  0
LINE
  5
4494
330
17
100
AcDbEntity
  8
0
100
AcDbLine
 10
542.9748748425305
 20
-74.72480789388331
 30
0.0
 11
543.652902669161
 21
-74.72480789388334
 31
0.0
  0
ARC
  5
4495
330
17
100
AcDbEntity
  8
0
100
AcDbCircle
 10
535.5630286410661
 20
-69.56021711624424
 30
0.0
 40
0.5
100
AcDbArc
 50
20.00000000000065
 51
115.0324134954958
  0
LINE
  5
4496
330
17
100
AcDbEntity
  8
0
100
AcDbLine
 10
536.0328749514593
 20
-69.3892070445815
 30
0.0
 11
536.2647741259021
 21
-70.0263447899537
 31
0.0
  0
ARC
  5
4497
330
17
100
AcDbEntity
  8
0
100
AcDbCircle
 10
540.3867210439949
 20
-69.56021711624424
 30
0.0
 40
0.5
100
AcDbArc
 50
64.96758650450418
 51
159.9999999999993
  0
LINE
  5
4498
330
17
100
AcDbEntity
  8
0
100
AcDbLine
 10
539.9168747336017
 20
-69.3892070445815
 30
0.0
 11
539.6849755591589
 21
-70.0263447899537
 31
0.0
  0
LINE
  5
4499
330
17
100
AcDbEntity
  8
0
100
AcDbLine
 10
671.8748748425306
 20
-63.82480789388321
 30
0.0
 11
671.0748748425308
 21
-63.82480789388321
 31
0.0
  0
LINE
  5
449A
330
17
100
AcDbEntity
  8
0
100
AcDbLine
 10
670.7748748425307
 20
-64.1248078938832
 30
0.0
 11
670.7748748425307
 21
-85.32480789388321
 31
0.0
  0
ARC
  5
449B
330
17
100
AcDbEntity
  8
0
100
AcDbCircle
 10
671.0748748425308
 20
-64.1248078938832
 30
0.0
 40
0.3
100
AcDbArc
 50
90.0
 51
180.0
  0
ARC
  5
449C
330
17
100
AcDbEntity
  8
0
100
AcDbCircle
 10
671.0748748425304
 20
-85.32480789388321
 30
0.0
 40
0.3
100
AcDbArc
 50
180.0
 51
270.0
  0
LINE
  5
449D
330
17
100
AcDbEntity
  8
0
100
AcDbLine
 10
671.0748748425304
 20
-85.62480789388322
 30
0.0
 11
671.8748748425306
 21
-85.62480789388322
 31
0.0
  0
LINE
  5
449E
330
17
100
AcDbEntity
  8
0
100
AcDbLine
 10
671.8748748425306
 20
-85.62480789388322
 30
0.0
 11
671.8748748425306
 21
-75.72480789388322
 31
0.0
  0
LINE
  5
449F
330
17
100
AcDbEntity
  8
0
100
AcDbLine
 10
671.8748748425309
 20
-73.72480789388323
 30
0.0
 11
671.8748748425306
 21
-63.82480789388324
 31
0.0
  0
LINE
  5
44A0
330
17
100
AcDbEntity
  8
0
100
AcDbLine
 10
614.0748748425304
 20
-63.82480789388321
 30
0.0
 11
612.7748748425307
 21
-63.82480789388321
 31
0.0
  0
LINE
  5
44A1
330
17
100
AcDbEntity
  8
0
100
AcDbLine
 10
612.7748748425307
 20
-63.82480789388321
 30
0.0
 11
612.7748748425307
 21
-85.62480789388322
 31
0.0
  0
LINE
  5
44A2
330
17
100
AcDbEntity
  8
0
100
AcDbLine
 10
612.7748748425307
 20
-85.62480789388322
 30
0.0
 11
614.0748748425304
 21
-85.62480789388322
 31
0.0
  0
ARC
  5
44A3
330
17
100
AcDbEntity
  8
0
100
AcDbCircle
 10
614.0748748425304
 20
-85.32480789388321
 30
0.0
 40
0.3
100
AcDbArc
 50
270.0
 51
0.0
  0
LINE
  5
44A4
330
17
100
AcDbEntity
  8
0
100
AcDbLine
 10
614.3748748425306
 20
-85.32480789388321
 30
0.0
 11
614.3748748425306
 21
-64.12480789388323
 31
0.0
  0
ARC
  5
44A5
330
17
100
AcDbEntity
  8
0
100
AcDbCircle
 10
614.0748748425304
 20
-64.12480789388323
 30
0.0
 40
0.3
100
AcDbArc
 50
0.0
 51
90.0
  0
LINE
  5
44A6
330
17
100
AcDbEntity
  8
0
100
AcDbLine
 10
614.3748748425306
 20
-83.72480789388323
 30
0.0
 11
670.7748748425307
 21
-83.72480789388323
 31
0.0
  0
LINE
  5
44A7
330
17
100
AcDbEntity
  8
0
100
AcDbLine
 10
673.8748748425306
 20
-74.72480789388322
 30
0.0
 11
673.8748748425306
 21
-74.72480789388322
 31
0.0
  0
LINE
  5
44A8
330
17
100
AcDbEntity
  8
0
100
AcDbLine
 10
673.8748748425306
 20
-72.22480789388322
 30
0.0
 11
674.3748748425306
 21
-72.22480789388322
 31
0.0
  0
LINE
  5
44A9
330
17
100
AcDbEntity
  8
0
100
AcDbLine
 10
674.3748748425306
 20
-72.22480789388322
 30
0.0
 11
674.3748748425304
 21
-73.72480789388323
 31
0.0
  0
LINE
  5
44AA
330
17
100
AcDbEntity
  8
0
100
AcDbLine
 10
674.3748748425306
 20
-75.72480789388322
 30
0.0
 11
674.3748748425306
 21
-77.22480789388322
 31
0.0
  0
LINE
  5
44AB
330
17
100
AcDbEntity
  8
0
100
AcDbLine
 10
674.3748748425306
 20
-77.22480789388322
 30
0.0
 11
673.8748748425306
 21
-77.22480789388322
 31
0.0
  0
LINE
  5
44AC
330
17
100
AcDbEntity
  8
0
100
AcDbLine
 10
671.8748748425306
 20
7.821018092266342
 30
0.0
 11
671.0748748425308
 21
7.821018092266342
 31
0.0
  0
LINE
  5
44AD
330
17
100
AcDbEntity
  8
0
100
AcDbLine
 10
670.7748748425307
 20
7.521018092266388
 30
0.0
 11
670.7748748425307
 21
6.921018092266308
 31
0.0
  0
LINE
  5
44AE
330
17
100
AcDbEntity
  8
0
100
AcDbLine
 10
670.7748748425307
 20
-13.07898190773363
 30
0.0
 11
670.7748748425307
 21
-13.67898190773366
 31
0.0
  0
ARC
  5
44AF
330
17
100
AcDbEntity
  8
0
100
AcDbCircle
 10
671.0748748425308
 20
7.521018092266388
 30
0.0
 40
0.3
100
AcDbArc
 50
90.0
 51
180.0
  0
ARC
  5
44B0
330
17
100
AcDbEntity
  8
0
100
AcDbCircle
 10
671.0748748425304
 20
-13.67898190773366
 30
0.0
 40
0.3
100
AcDbArc
 50
180.0
 51
270.0
  0
LINE
  5
44B1
330
17
100
AcDbEntity
  8
0
100
AcDbLine
 10
671.0748748425304
 20
-13.97898190773367
 30
0.0
 11
671.8748748425306
 21
-13.97898190773367
 31
0.0
  0
LINE
  5
44B2
330
17
100
AcDbEntity
  8
0
100
AcDbLine
 10
671.8748748425306
 20
-13.97898190773367
 30
0.0
 11
671.8748748425306
 21
-13.07898190773369
 31
0.0
  0
LINE
  5
44B3
330
17
100
AcDbEntity
  8
0
100
AcDbLine
 10
671.8748748425306
 20
6.921018092266308
 30
0.0
 11
671.8748748425306
 21
7.821018092266342
 31
0.0
  0
LINE
  5
44B4
330
17
100
AcDbEntity
  8
0
100
AcDbLine
 10
614.0748748425304
 20
7.821018092266342
 30
0.0
 11
612.7748748425307
 21
7.821018092266342
 31
0.0
  0
LINE
  5
44B5
330
17
100
AcDbEntity
  8
0
100
AcDbLine
 10
612.7748748425307
 20
7.821018092266342
 30
0.0
 11
612.7748748425307
 21
6.921018092266365
 31
0.0
  0
LINE
  5
44B6
330
17
100
AcDbEntity
  8
0
100
AcDbLine
 10
612.7748748425307
 20
-13.07898190773363
 30
0.0
 11
612.7748748425307
 21
-13.97898190773367
 31
0.0
  0
LINE
  5
44B7
330
17
100
AcDbEntity
  8
0
100
AcDbLine
 10
612.7748748425307
 20
-13.97898190773367
 30
0.0
 11
614.0748748425304
 21
-13.97898190773367
 31
0.0
  0
ARC
  5
44B8
330
17
100
AcDbEntity
  8
0
100
AcDbCircle
 10
614.0748748425304
 20
-13.67898190773366
 30
0.0
 40
0.3
100
AcDbArc
 50
270.0
 51
0.0
  0
LINE
  5
44B9
330
17
100
AcDbEntity
  8
0
100
AcDbLine
 10
614.3748748425306
 20
-13.67898190773366
 30
0.0
 11
614.3748748425306
 21
-13.07898190773369
 31
0.0
  0
LINE
  5
44BA
330
17
100
AcDbEntity
  8
0
100
AcDbLine
 10
614.3748748425306
 20
6.921018092266251
 30
0.0
 11
614.3748748425306
 21
7.521018092266331
 31
0.0
  0
ARC
  5
44BB
330
17
100
AcDbEntity
  8
0
100
AcDbCircle
 10
614.0748748425304
 20
7.521018092266331
 30
0.0
 40
0.3
100
AcDbArc
 50
0.0
 51
90.0
  0
LINE
  5
44BC
330
17
100
AcDbEntity
  8
0
100
AcDbLine
 10
614.3748748425306
 20
-13.07898190773375
 30
0.0
 11
629.3748748425313
 21
-15.67898190773388
 31
0.0
  0
LINE
  5
44BD
330
17
100
AcDbEntity
  8
0
100
AcDbLine
 10
629.3748748425306
 20
-15.67898190773388
 30
0.0
 11
670.7748748425307
 21
-15.67898190773377
 31
0.0
  0
LINE
  5
44BE
330
17
100
AcDbEntity
  8
0
100
AcDbLine
 10
670.7748748425307
 20
-13.07898190773375
 30
0.0
 11
670.7748748425307
 21
-15.67898190773377
 31
0.0
  0
LINE
  5
44BF
330
17
100
AcDbEntity
  8
0
100
AcDbLine
 10
670.7748748425307
 20
-15.47898190773378
 30
0.0
 11
689.5385162362913
 21
-15.47898190773384
 31
0.0
  0
LINE
  5
44C0
330
17
100
AcDbEntity
  8
0
100
AcDbLine
 10
690.0128993305478
 20
-14.47898190773378
 30
0.0
 11
670.7748748425307
 21
-14.47898190773378
 31
0.0
  0
LINE
  5
44C2
330
17
100
AcDbEntity
  8
0
100
AcDbLine
 10
548.8748748425306
 20
-63.82480789388321
 30
0.0
 11
548.8748748425306
 21
-85.62480789388322
 31
0.0
  0
LINE
  5
44C3
330
17
100
AcDbEntity
  8
0
100
AcDbLine
 10
548.8748748425306
 20
-63.82480789388321
 30
0.0
 11
547.9748748425305
 21
-63.82480789388321
 31
0.0
  0
LINE
  5
44C4
330
17
100
AcDbEntity
  8
0
100
AcDbLine
 10
548.8748748425306
 20
-85.62480789388322
 30
0.0
 11
547.9748748425305
 21
-85.62480789388322
 31
0.0
  0
LINE
  5
44C5
330
17
100
AcDbEntity
  8
0
100
AcDbLine
 10
527.0748748425304
 20
-63.82480789388321
 30
0.0
 11
527.0748748425304
 21
-85.62480789388322
 31
0.0
  0
LINE
  5
44C6
330
17
100
AcDbEntity
  8
0
100
AcDbLine
 10
527.0748748425304
 20
-63.82480789388321
 30
0.0
 11
527.9748748425305
 21
-63.82480789388321
 31
0.0
  0
LINE
  5
44C7
330
17
100
AcDbEntity
  8
0
100
AcDbLine
 10
527.0748748425304
 20
-85.62480789388322
 30
0.0
 11
527.9748748425305
 21
-85.62480789388322
 31
0.0
  0
LINE
  5
44C8
330
17
100
AcDbEntity
  8
0
 48
0.5
100
AcDbLine
 10
550.5748748425302
 20
-71.52441362274055
 30
0.0
 11
550.5748748425307
 21
-77.92520216502467
 31
0.0
  0
LINE
  5
44C9
330
17
100
AcDbEntity
  8
0
 48
0.5
100
AcDbLine
 10
548.8748748425306
 20
-65.7248078938834
 30
0.0
 11
550.5748748425304
 21
-71.52441362274058
 31
0.0
  0
LINE
  5
44CA
330
17
100
AcDbEntity
  8
0
 48
0.5
100
AcDbLine
 10
548.8748748425301
 20
-83.72480789388337
 30
0.0
 11
550.5748748425307
 21
-77.92520216502467
 31
0.0
  0
LINE
  5
44CB
330
17
100
AcDbEntity
  8
additional
  6
CENTER2
 48
0.5
100
AcDbLine
 10
597.7748748425307
 20
-64.72480789388322
 30
0.0
 11
597.7748748425307
 21
-84.72480789388326
 31
0.0
  0
LINE
  5
44CC
330
17
100
AcDbEntity
  8
additional
  6
HIDDEN2
 48
0.5
100
AcDbLine
 10
536.4248748425303
 20
-79.47849067673693
 30
0.0
 11
536.4248748425303
 21
-76.27480789388321
 31
0.0
  0
LINE
  5
44CD
330
17
100
AcDbEntity
  8
additional
  6
HIDDEN2
 48
0.5
100
AcDbLine
 10
536.4248748425303
 20
-73.17480789388324
 30
0.0
 11
536.4248748425303
 21
-69.97112511102949
 31
0.0
  0
LINE
  5
44CE
330
17
100
AcDbEntity
  8
0
100
AcDbLine
 10
533.2211920596765
 20
-73.17480789388321
 30
0.0
 11
542.728557625384
 21
-73.17480789388321
 31
0.0
  0
LINE
  5
44CF
330
17
100
AcDbEntity
  8
0
100
AcDbLine
 10
533.2211920596765
 20
-76.27480789388321
 30
0.0
 11
542.728557625384
 21
-76.27480789388323
 31
0.0
  0
LINE
  5
44D0
330
17
100
AcDbEntity
  8
additional
  6
HIDDEN2
 48
0.5
100
AcDbLine
 10
539.5248748425302
 20
-79.47849067673693
 30
0.0
 11
539.5248748425302
 21
-76.27480789388321
 31
0.0
  0
LINE
  5
44D1
330
17
100
AcDbEntity
  8
additional
  6
HIDDEN2
 48
0.5
100
AcDbLine
 10
539.5248748425302
 20
-73.17480789388324
 30
0.0
 11
539.5248748425302
 21
-69.97112511102949
 31
0.0
  0
LINE
  5
44D2
330
17
100
AcDbEntity
  8
additional
100
AcDbLine
 10
555.1864218977481
 20
-95.72480789388322
 30
0.0
 11
548.8413396097191
 21
-95.72480789388322
 31
0.0
  0
LINE
  5
44D3
330
17
100
AcDbEntity
  8
additional
100
AcDbLine
 10
629.3748748425306
 20
-13.95037553347225
 30
0.0
 11
629.3748748425306
 21
-20.17264966028651
 31
0.0
  0
LINE
  5
44D4
330
17
100
AcDbEntity
  8
additional
100
AcDbLine
 10
641.3748748425306
 20
-13.95037553347225
 30
0.0
 11
641.3748748425306
 21
-20.17264966028648
 31
0.0
  0
LINE
  5
44D5
330
17
100
AcDbEntity
  8
additional
100
AcDbLine
 10
653.3748748425306
 20
-13.95037553347225
 30
0.0
 11
653.3748748425306
 21
-20.17264966028648
 31
0.0
  0
LINE
  5
44D6
330
17
100
AcDbEntity
  8
additional
  6
CENTER2
100
AcDbLine
 10
661.8748748425306
 20
-66.28700845747514
 30
0.0
 11
661.8748748425306
 21
-59.63114014133044
 31
0.0
  0
LINE
  5
44D7
330
17
100
AcDbEntity
  8
additional
  6
CENTER2
100
AcDbLine
 10
636.8748748425306
 20
-66.28700845747514
 30
0.0
 11
636.8748748425306
 21
-59.63114014133044
 31
0.0
  0
LINE
  5
44D8
330
17
100
AcDbEntity
  8
additional
  6
CENTER2
 48
0.5
100
AcDbLine
 39
0.5
 10
590.7682183241332
 20
-3.078981907733691
 30
0.0
 11
677.3041744736584
 21
-3.078981907733748
 31
0.0
  0
LINE
  5
44D9
330
17
100
AcDbEntity
  8
additional
  6
CENTER2
 48
0.5
100
AcDbLine
 39
0.5
 10
590.7682183241332
 20
-74.7248078938832
 30
0.0
 11
670.7748748425307
 21
-74.72480789388322
 31
0.0
  0
DIMENSION
  5
44FF
330
17
100
AcDbEntity
  8
Z_OM_DIM
100
AcDbDimension
  2
*D2
 10
583.3950976238884
 20
-8.078981907733689
 30
0.0
 11
580.7788264838128
 21
-3.275256362711161
 31
0.0
 70
   160
  1
%%c<>
 71
     5
 42
10.0
  3
CatalogDxf
100
AcDbAlignedDimension
 13
594.2748748425307
 23
1.921018092266308
 33
0.0
 14
594.2748748425307
 24
-8.078981907733691
 34
0.0
 50
90.0
100
AcDbRotatedDimension
1001
ACAD
1000
DSTYLE
1002
{
1070
   279
1070
     2
1002
}
  0
DIMENSION
  5
4515
330
17
100
AcDbEntity
  8
Z_OM_DIM
100
AcDbDimension
  2
*D3
 10
661.8748748425306
 20
17.60389743334542
 30
0.0
 11
667.8748748425306
 21
19.47889743334542
 31
0.0
 70
    32
 71
     5
 42
12.0
  3
CatalogDxf
100
AcDbAlignedDimension
 13
673.8748748425306
 23
6.921018092266308
 33
0.0
 14
661.8748748425306
 24
1.921018092266308
 34
0.0
100
AcDbRotatedDimension
  0
DIMENSION
  5
4522
330
17
100
AcDbEntity
  8
Z_OM_DIM
100
AcDbDimension
  2
*D4
 10
636.8748748425306
 20
17.60389743334542
 30
0.0
 11
649.3748748425306
 21
19.47889743334542
 31
0.0
 70
    32
 71
     5
 42
25.0
  3
CatalogDxf
100
AcDbAlignedDimension
 13
661.8748748425306
 23
1.921018092266308
 33
0.0
 14
636.8748748425306
 24
1.921018092266308
 34
0.0
100
AcDbRotatedDimension
1001
ACAD
1000
DSTYLE
1002
{
1070
   279
1070
     1
1002
}
  0
DIMENSION
  5
452F
330
17
100
AcDbEntity
  8
Z_OM_DIM
100
AcDbDimension
  2
*D5
 10
641.3748748425306
 20
-30.14975782446493
 30
0.0
 11
657.6248748425306
 21
-28.27475782446493
 31
0.0
 70
    32
 71
     5
 42
32.5
  3
CatalogDxf
100
AcDbAlignedDimension
 13
673.8748748425306
 23
-13.07898190773369
 33
0.0
 14
641.3748748425306
 24
-20.17264966028648
 34
0.0
100
AcDbRotatedDimension
  0
DIMENSION
  5
4540
330
17
100
AcDbEntity
  8
Z_OM_DIM
100
AcDbDimension
  2
*D6
 10
593.7748748425307
 20
-58.6312336104516
 30
0.0
 11
598.7748748425307
 21
-56.7562336104516
 31
0.0
 70
    32
 71
     5
 42
10.0
  3
CatalogDxf
100
AcDbAlignedDimension
 13
603.7748748425307
 23
-73.17480789388321
 33
0.0
 14
593.7748748425307
 24
-70.22480789388322
 34
0.0
100
AcDbRotatedDimension
  0
DIMENSION
  5
454D
330
17
100
AcDbEntity
  8
Z_OM_DIM
100
AcDbDimension
  2
*D7
 10
641.3748748425306
 20
-117.2170220247717
 30
0.0
 11
647.3748748425306
 21
-115.3420220247717
 31
0.0
 70
    32
 71
     5
 42
12.0
  3
CatalogDxf
100
AcDbAlignedDimension
 13
653.3748748425306
 23
-99.98436208924061
 33
0.0
 14
641.3748748425306
 24
-99.98436208924061
 34
0.0
100
AcDbRotatedDimension
  0
DIMENSION
  5
455A
330
17
100
AcDbEntity
  8
Z_OM_DIM
100
AcDbDimension
  2
*D8
 10
629.3748748425306
 20
-117.2170220247717
 30
0.0
 11
635.3748748425306
 21
-115.3420220247717
 31
0.0
 70
    32
 71
     5
 42
12.0
  3
CatalogDxf
100
AcDbAlignedDimension
 13
641.3748748425306
 23
-99.98436208924061
 33
0.0
 14
629.3748748425306
 24
-99.98436208924061
 34
0.0
100
AcDbRotatedDimension
1001
ACAD
1000
DSTYLE
1002
{
1070
   279
1070
     1
1002
}
  0
DIMENSION
  5
4567
330
17
100
AcDbEntity
  8
Z_OM_DIM
100
AcDbDimension
  2
*D9
 10
597.7748748425307
 20
-109.5358532627269
 30
0.0
 11
613.5748748425307
 21
-107.6608532627269
 31
0.0
 70
    32
 71
     5
 42
31.59999999999991
  3
CatalogDxf
100
AcDbAlignedDimension
 13
629.3748748425306
 23
-99.98436208924061
 33
0.0
 14
597.7748748425307
 24
-84.72480789388326
 34
0.0
100
AcDbRotatedDimension
1001
ACAD
1000
DSTYLE
1002
{
1070
   279
1070
     1
1002
}
  0
DIMENSION
  5
4574
330
17
100
AcDbEntity
  8
Z_OM_DIM
100
AcDbDimension
  2
*D10
 10
593.7748748425307
 20
-109.5358532627269
 30
0.0
 11
595.7748748425307
 21
-107.6608532627269
 31
0.0
 70
    32
 71
     5
 42
4.0
  3
CatalogDxf
100
AcDbAlignedDimension
 13
597.7748748425307
 23
-84.72480789388326
 33
0.0
 14
593.7748748425307
 24
-79.22480789388322
 34
0.0
100
AcDbRotatedDimension
1001
ACAD
1000
DSTYLE
1002
{
1070
   279
1070
     1
1002
}
  0
DIMENSION
  5
45A9
330
17
100
AcDbEntity
  8
Z_OM_DIM
100
AcDbDimension
  2
*D11
 10
657.3748748425306
 20
-109.5358532627269
 30
0.0
 11
661.333208175864
 21
-109.5358532627269
 31
0.0
 70
   160
 71
     5
 42
8.0
  3
CatalogDxf
100
AcDbAlignedDimension
 13
649.3748748425306
 23
-95.72480789388322
 33
0.0
 14
657.3748748425306
 24
-95.72480789388322
 34
0.0
100
AcDbRotatedDimension
  0
MTEXT
  5
45CA
330
17
100
AcDbEntity
  8
Z_OM_DIM
100
AcDbMText
 10
612.5442727713952
 20
-100.7399304617562
 30
0.0
 40
2.5
 41
5.058736609595257
 71
     7
 72
     1
  1
%%c5
  7
CatalogDxf
 73
     1
 44
1.0
1001
ACAD
1000
MTEXTBEGIN
1070
    73
1070
     1
1070
    44
1040
1.0
1070
    74
1070
     0
1000
MTEXTEND
  0
MTEXT
  5
45CE
330
17
100
AcDbEntity
  8
Z_OM_DIM
100
AcDbMText
 10
660.0058941466015
 20
-117.037463612396
 30
0.0
 40
2.5
 41
8.313003221399526
 71
     7
 72
     1
  1
%%c4.5
  7
CatalogDxf
 73
     1
 44
1.0
1001
ACAD
1000
MTEXTBEGIN
1070
    73
1070
     1
1070
    44
1040
1.0
1070
    74
1070
     0
1000
MTEXTEND
  0
MTEXT
  5
45D0
330
17
100
AcDbEntity
  8
Z_OM_DIM
100
AcDbMText
 10
670.0343069951279
 20
-103.4724377313783
 30
0.0
 40
2.5
 41
14.07647292973183
 71
     7
 72
     1
  1
2-R2.5
  7
CatalogDxf
 73
     1
 44
1.0
1001
ACAD
1000
MTEXTBEGIN
1070
    73
1070
     1
1070
    44
1040
1.0
1070
    74
1070
     0
1000
MTEXTEND
  0
DIMENSION
  5
45D1
330
17
100
AcDbEntity
  8
Z_OM_DIM
100
AcDbDimension
  2
*D12
 10
608.8748748425306
 20
-49.23065733927785
 30
0.0
 11
641.3748748425306
 21
-47.35565733927785
 31
0.0
 70
    32
 71
     5
 42
65.0
  3
CatalogDxf
100
AcDbAlignedDimension
 13
673.8748748425306
 23
-63.22480789388322
 33
0.0
 14
608.8748748425306
 24
-61.72480789388322
 34
0.0
100
AcDbRotatedDimension
  0
DIMENSION
  5
45DE
330
17
100
AcDbEntity
  8
Z_OM_DIM
100
AcDbDimension
  2
*D13
 10
537.9748748425305
 20
-110.2904117232524
 30
0.0
 11
544.4748748425305
 21
-108.4154117232524
 31
0.0
 70
    32
 71
     5
 42
13.0
  3
CatalogDxf
100
AcDbAlignedDimension
 13
550.9748748425305
 23
-101.2248078938832
 33
0.0
 14
537.9748748425305
 24
-90.27518916829738
 34
0.0
100
AcDbRotatedDimension
  0
DIMENSION
  5
45EB
330
17
100
AcDbEntity
  8
Z_OM_DIM
100
AcDbDimension
  2
*D14
 10
515.0886377970194
 20
-61.72480789388322
 30
0.0
 11
513.2136377970194
 21
-74.72480789388313
 31
0.0
 70
    32
 71
     5
 42
26.0
  3
CatalogDxf
100
AcDbAlignedDimension
 13
527.9748748425305
 23
-87.72480789388323
 33
0.0
 14
527.9748748425305
 24
-61.72480789388322
 34
0.0
 50
90.0
100
AcDbRotatedDimension
  0
DIMENSION
  5
45F8
330
17
100
AcDbEntity
  8
Z_OM_DIM
100
AcDbDimension
  2
*D15
 10
547.9748748425305
 20
-50.00803926987294
 30
0.0
 11
537.9748748425305
 21
-48.13303926987294
 31
0.0
 70
    32
 71
     5
 42
20.0
  3
CatalogDxf
100
AcDbAlignedDimension
 13
527.9748748425305
 23
-61.72480789388322
 33
0.0
 14
547.9748748425305
 24
-61.72480789388322
 34
0.0
100
AcDbRotatedDimension
  0
DIMENSION
  5
4605
330
17
100
AcDbEntity
  8
Z_OM_DIM
100
AcDbDimension
  2
*D16
 10
548.8748748425306
 20
-43.7031872689788
 30
0.0
 11
537.9748748425305
 21
-41.8281872689788
 31
0.0
 70
    33
  1
22
 71
     5
 42
21.80000000000018
  3
CatalogDxf
100
AcDbAlignedDimension
 13
527.0748748425304
 23
-63.82480789388321
 33
0.0
 14
548.8748748425306
 24
-63.82480789388321
 34
0.0
  0
DIMENSION
  5
461B
330
17
100
AcDbEntity
  8
Z_OM_DIM
100
AcDbDimension
  2
*D17
 10
565.668396487856
 20
-101.2248078938832
 30
0.0
 11
563.793396487856
 21
-109.3498078938831
 31
0.0
 70
    32
 71
     5
 42
5.5
  3
CatalogDxf
100
AcDbAlignedDimension
 13
555.1864218977481
 23
-95.72480789388322
 33
0.0
 14
552.9748748425305
 24
-101.2248078938832
 34
0.0
 50
90.0
100
AcDbRotatedDimension
  0
DIMENSION
  5
462A
330
17
100
AcDbEntity
  8
Z_OM_DIM
100
AcDbDimension
  2
*D18
 10
565.668396487856
 20
-74.72480789388322
 30
0.0
 11
563.793396487856
 21
-85.22480789388312
 31
0.0
 70
    32
 71
     5
 42
21.0
  3
CatalogDxf
100
AcDbAlignedDimension
 13
555.1864218977481
 23
-95.72480789388322
 33
0.0
 14
552.9455857677877
 24
-74.72480789388322
 34
0.0
 50
90.0
100
AcDbRotatedDimension
  0
MTEXT
  5
4662
330
17
100
AcDbEntity
  8
Z_OM_DIM
100
AcDbMText
 10
582.5039393770406
 20
-19.0712308199913
 30
0.0
 40
2.5
 41
6.725351603991498
 71
     7
 72
     1
  1
%%C3.1
  7
CatalogDxf
 73
     1
 44
1.0
1001
ACAD
1000
MTEXTBEGIN
1070
    73
1070
     1
1070
    44
1040
1.0
1070
    74
1070
     0
1000
MTEXTEND
  0
LEADER
  5
4663
330
17
100
AcDbEntity
  8
Z_OM_DIM
100
AcDbLeader
  3
ISO-25
 76
     3
 10
597.1231320564784
 20
-4.485300271700015
 30
0.0
 10
590.0369036513287
 20
-19.77583106189861
 30
0.0
 10
581.792176271143
 20
-19.77583106189861
 30
0.0
211
-1.0
221
0.0
231
0.0
1001
ACAD
1000
DSTYLE
1002
{
1070
   341
1005
977
1070
   147
1040
0.625
1070
    77
1070
     0
1002
}
  0
MTEXT
  5
467A
330
17
100
AcDbEntity
  8
Z_OM_DIM
100
AcDbMText
 10
695.0248690789252
 20
-87.77664983335236
 30
0.0
 40
2.5
 41
42.35109734925629
 71
     7
 72
     1
  1
UL1007 AWG22 white
  7
CatalogDxf
 73
     1
 44
1.0
1001
ACAD
1000
ACAD_MTEXT_DEFINED_HEIGHT_BEGIN
1070
    46
1040
2.500000000000005
1000
ACAD_MTEXT_DEFINED_HEIGHT_END
1000
MTEXTBEGIN
1070
    73
1070
     1
1070
    44
1040
1.0
1070
    74
1070
     0
1000
MTEXTEND
  0
LEADER
  5
467B
330
17
100
AcDbEntity
  8
Z_OM_DIM
100
AcDbLeader
  3
ISO-25
 76
     3
 10
686.8485710324225
 20
-75.72480789388322
 30
0.0
 10
693.9623685461532
 20
-88.40164983335235
 30
0.0
 10
735.3206586182714
 20
-88.40164983335235
 30
0.0
1001
ACAD
1000
DSTYLE
1002
{
1070
   341
1005
977
1070
   147
1040
0.625
1070
    77
1070
     0
1002
}
  0
SPLINE
  5
467F
330
17
100
AcDbEntity
  8
additional
 48
0.5
100
AcDbSpline
210
0.0
220
0.0
230
1.0
 70
     8
 71
     3
 72
    18
 73
    14
 74
    12
 42
0.0000000001
 43
0.0000000001
 44
0.0000000001
 40
0.0
 40
0.0
 40
0.0
 40
0.0
 40
0.3913118960626157
 40
0.7826237921250917
 40
1.482623792125051
 40
1.873935688187565
 40
2.265247584250092
 40
2.656559480312479
 40
3.047871376374942
 40
4.097871376374982
 40
4.489183272437407
 40
4.880495168499806
 40
5.271807064562397
 40
5.271807064562397
 40
5.271807064562397
 40
5.271807064562397
 10
689.9335751705899
 20
-12.54285071886345
 30
0.0
 10
689.9898600122364
 20
-12.66049045221786
 30
0.0
 10
690.1024296955292
 20
-12.89576991892664
 30
0.0
 10
690.3622533846697
 20
-13.3193688902408
 30
0.0
 10
690.3623308726337
 20
-13.86635150877063
 30
0.0
 10
690.1022997442632
 20
-14.28988786895645
 30
0.0
 10
689.9340606773538
 20
-14.64301939283704
 30
0.0
 10
689.7629085698609
 20
-14.99513887287527
 30
0.0
 10
689.4551350082202
 20
-15.52339829128749
 30
0.0
 10
689.4547382209725
 20
-16.21244851514747
 30
0.0
 10
689.7633521914899
 20
-16.74035965749813
 30
0.0
 10
689.9323809153649
 20
-17.09347348420482
 30
0.0
 10
690.0498437521818
 20
-17.32639164064385
 30
0.0
 10
690.1085751705902
 20
-17.4428507188634
 30
0.0
 11
689.9335751705899
 21
-12.54285071886345
 31
0.0
 11
690.1085751705902
 21
-12.89285071886347
 31
0.0
 11
690.2835751705903
 21
-13.24285071886345
 31
0.0
 11
690.2835751705903
 21
-13.94285071886341
 31
0.0
 11
690.1085751705902
 21
-14.29285071886343
 31
0.0
 11
689.9335751705899
 21
-14.64285071886336
 31
0.0
 11
689.7585751705901
 21
-14.99285071886335
 31
0.0
 11
689.5835751705901
 21
-15.34285071886337
 31
0.0
 11
689.5835751705901
 21
-16.39285071886341
 31
0.0
 11
689.7585751705901
 21
-16.74285071886339
 31
0.0
 11
689.9335751705899
 21
-17.0928507188634
 31
0.0
 11
690.1085751705902
 21
-17.4428507188634
 31
0.0
  0
MTEXT
  5
4682
330
17
100
AcDbEntity
  8
Z_OM_DIM
100
AcDbMText
 10
615.4840607315089
 20
15.00557397906435
 30
0.0
 40
2.5
 41
8.995731507960044
 71
     7
 72
     1
  1
2-%%C4
  7
CatalogDxf
 73
     1
 44
1.0
1001
ACAD
1000
MTEXTBEGIN
1070
    73
1070
     1
1070
    44
1040
1.0
1070
    74
1070
     0
1000
MTEXTEND
  0
LEADER
  5
4683
330
17
100
AcDbEntity
  8
Z_OM_DIM
100
AcDbLeader
  3
ISO-25
 76
     3
 10
635.7654192454837
 20
-1.414918123444922
 30
0.0
 10
625.2874049097655
 20
14.30097373715703
 30
0.0
 10
614.7600692893698
 20
14.30097373715703
 30
0.0
211
-1.0
221
0.0
231
0.0
1001
ACAD
1000
DSTYLE
1002
{
1070
   341
1005
977
1070
   147
1040
0.625
1070
    77
1070
     0
1002
}
  0
DIMENSION
  5
47A0
330
17
100
AcDbEntity
  8
Z_OM_DIM
100
AcDbDimension
  2
*D19
 10
623.3748748425306
 20
-117.2170220247717
 30
0.0
 11
626.3748748425306
 21
-115.3420220247717
 31
0.0
 70
    32
 71
     5
 42
6.0
  3
CatalogDxf
100
AcDbAlignedDimension
 13
629.3748748425306
 23
-99.98436208924061
 33
0.0
 14
623.3748748425306
 24
-99.72480789388322
 34
0.0
100
AcDbRotatedDimension
  0
LEADER
  5
47D3
330
17
100
AcDbEntity
  8
Z_OM_DIM
100
AcDbLeader
  3
ISO-25
 76
     3
 10
656.6863091672335
 20
-97.44780112871849
 30
0.0
 10
669.4621289298058
 20
-104.0952683172341
 30
0.0
 10
683.3801065272015
 20
-104.0952683172341
 30
0.0
1001
ACAD
1000
DSTYLE
1002
{
1070
   341
1005
977
1070
   147
1040
0.625
1070
    77
1070
     0
1002
}
  0
LEADER
  5
47D6
330
17
100
AcDbEntity
  8
Z_OM_DIM
100
AcDbLeader
  3
ISO-25
 76
     3
 10
627.1718600666619
 20
-96.90663947972952
 30
0.0
 10
617.5037505473086
 20
-101.361289117767
 30
0.0
 10
611.9091001626355
 20
-101.3612891177672
 30
0.0
211
-1.0
221
-0.0000000000000167
231
0.0
1001
ACAD
1000
DSTYLE
1002
{
1070
   341
1005
977
1070
   147
1040
0.625
1070
    77
1070
     0
1002
}
  0
LEADER
  5
47DB
330
17
100
AcDbEntity
  8
Z_OM_DIM
100
AcDbLeader
  3
ISO-25
 76
     3
 10
642.8044516614211
 20
-97.46228023003443
 30
0.0
 10
659.3916287796148
 20
-117.6219253759792
 30
0.0
 10
668.2511342219877
 20
-117.6219253759792
 30
0.0
1001
ACAD
1000
DSTYLE
1002
{
1070
   341
1005
977
1070
   147
1040
0.625
1070
    77
1070
     0
1002
}
  0
DIMENSION
  5
48E6
330
17
100
AcDbEntity
  8
Z_OM_DIM
100
AcDbDimension
  2
*D20
 10
583.3950976238884
 20
-73.17480789388321
 30
0.0
 11
581.5200976238884
 21
-65.4664745605498
 31
0.0
 70
    32
 71
     5
 42
3.100000000000022
  3
CatalogDxf
100
AcDbAlignedDimension
 13
593.7748748425307
 23
-76.27480789388323
 33
0.0
 14
593.7748748425307
 24
-73.17480789388321
 34
0.0
 50
90.0
100
AcDbRotatedDimension
  0
ENDSEC
  0
SECTION
  2
OBJECTS
  0
DICTIONARY
  5
C
330
0
100
AcDbDictionary
281
     1
  3
ACAD_2007HEADERVARS_RT
350
463D
  3
ACAD_COLOR
350
3D57
  3
ACAD_GROUP
350
D
  3
ACAD_LAYOUT
350
3D5A
  3
ACAD_MATERIAL
350
3D42
  3
ACAD_MLINESTYLE
350
1A
  3
ACAD_PLOTSETTINGS
350
957
  3
ACAD_PLOTSTYLENAME
350
3D40
  3
ACAD_TABLESTYLE
350
3D58
  3
ACAD_VISUALSTYLE
350
3D46
  3
ACADDIM
350
1BB8
  3
ACDBHEADERROUNDTRIPXREC
350
4925
  3
AcDbVariableDictionary
350
4116
  3
DWGPROPS
350
4924
1001
ACAD
1000
TREAT_AS_HARD
1070
     0
  0
DICTIONARY
  5
4641
330
8
100
AcDbDictionary
280
     1
281
     1
  3
ACAD_XREC_ROUNDTRIP
360
4642
  0
DICTIONARY
  5
3DBA
330
2
100
AcDbDictionary
280
     1
281
     1
  3
ACAD_LAYERFILTERS
360
421C
  3
ACAD_LAYERSTATES
360
3DBB
  3
ACLYDICTIONARY
360
421B
  0
DICTIONARY
  5
4643
330
E
100
AcDbDictionary
280
     1
281
     1
  3
ACAD_XREC_ROUNDTRIP
360
4644
  0
DICTIONARY
  5
4645
330
27
100
AcDbDictionary
280
     1
281
     1
  3
ACAD_XREC_ROUNDTRIP
360
4646
  0
DICTIONARY
  5
4647
330
2B
100
AcDbDictionary
280
     1
281
     1
  3
ACAD_XREC_ROUNDTRIP
360
4648
  0
DICTIONARY
  5
464B
330
3DB5
100
AcDbDictionary
280
     1
281
     1
  3
ACAD_XREC_ROUNDTRIP
360
464C
  0
DICTIONARY
  5
1808
330
17
100
AcDbDictionary
280
     1
281
     1
  3
ACAD_LAYOUTSELFREF
360
3D3B
  3
ACAD_SORTENTS
360
467E
1001
ACAD
1000
TREAT_AS_HARD
1070
     1
  0
DICTIONARY
  5
1806
330
14
100
AcDbDictionary
280
     1
281
     1
  3
ACAD_LAYOUTSELFREF
360
3D3A
1001
ACAD
1000
TREAT_AS_HARD
1070
     1
  0
DICTIONARY
  5
463D
102
{ACAD_REACTORS
330
C
102
}
330
C
100
AcDbDictionary
281
     1
  3
DIMLTEX1
350
463F
  3
DIMLTEX2
350
4640
  3
DIMLTYPE
350
463E
  0
DICTIONARY
  5
3D57
102
{ACAD_REACTORS
330
C
102
}
330
C
100
AcDbDictionary
281
     1
  0
DICTIONARY
  5
D
102
{ACAD_REACTORS
330
C
102
}
330
C
100
AcDbDictionary
281
     1
1001
ACAD
1000
TREAT_AS_HARD
1070
     0
  0
DICTIONARY
  5
3D5A
102
{ACAD_REACTORS
330
C
102
}
330
C
100
AcDbDictionary
281
     1
  3
Model
350
3D5B
  3
レイアウト1
350
3D5C
  0
DICTIONARY
  5
3D42
102
{ACAD_REACTORS
330
C
102
}
330
C
100
AcDbDictionary
281
     1
  3
ByBlock
350
3D44
  3
ByLayer
350
3D43
  3
Global
350
3D45
  0
DICTIONARY
  5
1A
102
{ACAD_REACTORS
330
C
102
}
330
C
100
AcDbDictionary
281
     1
  3
STANDARD
350
1B
1001
ACAD
1000
TREAT_AS_HARD
1070
     0
  0
DICTIONARY
  5
957
102
{ACAD_REACTORS
330
C
102
}
330
C
100
AcDbDictionary
281
     1
1001
ACAD
1000
TREAT_AS_HARD
1070
     0
  0
ACDBDICTIONARYWDFLT
  5
3D40
102
{ACAD_REACTORS
330
C
102
}
330
C
100
AcDbDictionary
281
     1
  3
Normal
350
3D41
100
AcDbDictionaryWithDefault
340
3D41
  0
DICTIONARY
  5
3D58
102
{ACAD_REACTORS
330
C
102
}
330
C
100
AcDbDictionary
281
     1
  3
Standard
350
3D59
  0
DICTIONARY
  5
3D46
102
{ACAD_REACTORS
330
C
102
}
330
C
100
AcDbDictionary
281
     1
  3
2dWireframe
350
3D4C
  3
3D Hidden
350
3D4E
  3
3dWireframe
350
3D4D
  3
Basic
350
3D4B
  3
Brighten
350
3D52
  3
ColorChange
350
3D56
  3
Conceptual
350
3D4F
  3
Dim
350
3D51
  3
Facepattern
350
3D55
  3
Flat
350
3D47
  3
FlatWithEdges
350
3D48
  3
Gouraud
350
3D49
  3
GouraudWithEdges
350
3D4A
  3
Linepattern
350
3D54
  3
Realistic
350
3D50
  3
Thicken
350
3D53
  0
XRECORD
  5
1BB8
102
{ACAD_REACTORS
330
C
102
}
330
C
100
AcDbXrecord
280
     1
 90
   990106
  3

 60
     0
 61
     0
 62
     4
 63
     4
 64
     1
 65
     0
 66
     0
 67
     2
 68
     1
 69
     0
 70
     0
 71
     0
 72
     0
 40
14.07647292973183
170
     2
340
45D0
  0
DICTIONARY
  5
4925
102
{ACAD_REACTORS
330
C
102
}
330
C
100
AcDbDictionary
281
     1
  0
DICTIONARY
  5
4116
102
{ACAD_REACTORS
330
C
102
}
330
C
100
AcDbDictionary
281
     1
  3
CTABLESTYLE
350
4117
  3
DIMASSOC
350
4921
  3
PROJECTNAME
350
4922
  0
XRECORD
  5
4924
102
{ACAD_REACTORS
330
C
102
}
330
C
100
AcDbXrecord
280
     1
  1
DWGPROPS COOKIE
  2

  3

  4

  6

  7

  8
yakata
  9

300
=
301
=
302
=
303
=
304
=
305
=
306
=
307
=
308
=
309
=
 40
0.5769867013888889
 41
2455090.761732894
 42
2455678.573378218
  1

 90
        0
  0
XRECORD
  5
4642
102
{ACAD_REACTORS
330
4641
102
}
330
4641
100
AcDbXrecord
280
     1
102
VTR_0.000_0.000_1.000_1.000_VISUALSTYLE
340
3D4C
102
VTR_0.000_0.000_1.000_1.000_GRIDDISPLAY
 70
     3
102
VTR_0.000_0.000_1.000_1.000_GRIDMAJOR
 70
     5
102
VTR_0.000_0.000_1.000_1.000_DEFAULTLIGHTING
280
     1
102
VTR_0.000_0.000_1.000_1.000_DEFAULTLIGHTINGTYPE
 70
     1
102
VTR_0.000_0.000_1.000_1.000_BRIGHTNESS
141
0.0
102
VTR_0.000_0.000_1.000_1.000_CONTRAST
142
0.0
  0
DICTIONARY
  5
421C
102
{ACAD_REACTORS
330
3DBA
102
}
330
3DBA
100
AcDbDictionary
281
     1
  0
DICTIONARY
  5
3DBB
102
{ACAD_REACTORS
330
3DBA
102
}
330
3DBA
100
AcDbDictionary
281
     1
  0
DICTIONARY
  5
421B
102
{ACAD_REACTORS
330
3DBA
102
}
330
3DBA
100
AcDbDictionary
281
     1
1001
ACAD
1000
<All
  0
XRECORD
  5
4644
102
{ACAD_REACTORS
330
4643
102
}
330
4643
100
AcDbXrecord
280
     1
102
MATERIAL
340
3D45
  0
XRECORD
  5
4646
102
{ACAD_REACTORS
330
4645
102
}
330
4645
100
AcDbXrecord
280
     1
102
MATERIAL
340
3D45
  0
XRECORD
  5
4648
102
{ACAD_REACTORS
330
4647
102
}
330
4647
100
AcDbXrecord
280
     1
102
MATERIAL
340
3D45
  0
XRECORD
  5
464C
102
{ACAD_REACTORS
330
464B
102
}
330
464B
100
AcDbXrecord
280
     1
102
MATERIAL
340
3D45
  0
XRECORD
  5
3D3B
102
{ACAD_REACTORS
330
1808
102
}
330
1808
100
AcDbXrecord
280
     1
340
17
  0
SORTENTSTABLE
  5
467E
102
{ACAD_REACTORS
330
1808
102
}
330
1808
100
AcDbSortentsTable
330
17
331
4442
  5
4442
331
44B8
  5
44B8
331
4663
  5
467A
331
467B
  5
467D
331
44C0
  5
44C0
331
444A
  5
444A
331
4481
  5
4481
331
4489
  5
4489
331
44C8
  5
44C9
331
4452
  5
4452
331
4491
  5
4491
331
44D0
  5
44D1
331
441B
  5
441B
331
445A
  5
445A
331
452F
  5
453E
331
4462
  5
4462
331
4499
  5
4499
331
4423
  5
4423
331
44D8
  5
44D9
331
442B
  5
442B
331
446A
  5
446A
331
4304
  5
4304
331
44A1
  5
44A1
331
44A9
  5
44A9
331
4433
  5
4433
331
4472
  5
4472
331
430C
  5
430C
331
44B1
  5
44B1
331
443B
  5
443B
331
447A
  5
447A
331
44B9
  5
44B9
331
45CE
  5
45CF
331
4443
  5
4443
331
4605
  5
461B
331
444B
  5
444B
331
4482
  5
4482
331
4567
  5
4574
331
4453
  5
4453
331
448A
  5
448A
331
44C9
  5
44CA
331
44D1
  5
44D2
331
441C
  5
441C
331
445B
  5
445B
331
4492
  5
4492
331
449A
  5
449A
331
44D9
  5
44FF
331
4424
  5
4424
331
4463
  5
4463
331
45DE
  5
45EB
331
44A2
  5
44A2
331
4305
  5
4305
331
442C
  5
442C
331
446B
  5
446B
331
4473
  5
4473
331
44AA
  5
44AA
331
4540
  5
454D
331
430D
  5
430D
331
4434
  5
4434
331
443C
  5
443C
331
447B
  5
447B
331
44B2
  5
44B2
331
44BA
  5
44BA
331
4444
  5
4444
331
44C2
  5
44C3
331
444C
  5
444C
331
4483
  5
4483
331
448B
  5
448B
331
44CA
  5
44CB
331
4454
  5
4454
331
445C
  5
445C
331
4493
  5
4493
331
441D
  5
441D
331
44D2
  5
44D3
331
4464
  5
4464
331
449B
  5
449B
331
4425
  5
4425
331
442D
  5
442D
331
446C
  5
446C
331
4306
  5
4306
331
44A3
  5
44A3
331
44AB
  5
44AB
331
430E
  5
430E
331
4435
  5
4435
331
4474
  5
4474
331
44B3
  5
44B3
331
443D
  5
443D
331
447C
  5
447C
331
44BB
  5
44BB
331
4445
  5
4445
331
444D
  5
444D
331
4484
  5
4484
331
44C3
  5
44C4
331
44CB
  5
44CC
331
4455
  5
4455
331
448C
  5
448C
331
4522
  5
452F
331
44D3
  5
44D4
331
441E
  5
441E
331
445D
  5
445D
331
4494
  5
4494
331
449C
  5
449C
331
4426
  5
4426
331
4465
  5
4465
331
45D0
  5
45D1
331
45A9
  5
45C9
331
446D
  5
446D
331
44A4
  5
44A4
331
4307
  5
4307
331
442E
  5
442E
331
4475
  5
4475
331
44AC
  5
44AC
331
4130
  5
4130
331
430F
  5
430F
331
4436
  5
4436
331
443E
  5
443E
331
447D
  5
447D
331
44B4
  5
44B4
331
44BC
  5
44BC
331
455A
  5
4567
331
4446
  5
4446
331
45F8
  5
4605
331
44C4
  5
44C5
331
444E
  5
444E
331
4485
  5
4485
331
448D
  5
448D
331
44CC
  5
44CD
331
4456
  5
4456
331
445E
  5
445E
331
4495
  5
4495
331
441F
  5
441F
331
44D4
  5
44D5
331
4466
  5
4466
331
449D
  5
449D
331
4427
  5
4427
331
45D1
  5
45DE
331
442F
  5
442F
331
446E
  5
446E
331
4308
  5
4308
331
44A5
  5
44A5
331
44AD
  5
44AD
331
4310
  5
4310
331
4437
  5
4437
331
4476
  5
4476
331
447E
  5
447E
331
44B5
  5
44B5
331
45CA
  5
45CD
331
443F
  5
443F
331
44BD
  5
44BD
331
4447
  5
4447
331
444F
  5
444F
331
4486
  5
4486
331
44C5
  5
44C6
331
44CD
  5
44CE
331
4457
  5
4457
331
448E
  5
448E
331
44D5
  5
44D6
331
4420
  5
4420
331
445F
  5
445F
331
4496
  5
4496
331
449E
  5
449E
331
4467
  5
4467
331
4301
  5
4301
331
4428
  5
4428
331
446F
  5
446F
331
44A6
  5
44A6
331
4309
  5
4309
331
4430
  5
4430
331
4477
  5
4477
331
44AE
  5
44AE
331
4311
  5
4311
331
4438
  5
4438
331
4440
  5
4440
331
447F
  5
447F
331
44B6
  5
44B6
331
44BE
  5
44BE
331
4448
  5
4448
331
4487
  5
4487
331
44C6
  5
44C7
331
4450
  5
4450
331
4515
  5
4522
331
448F
  5
448F
331
44CE
  5
44CF
331
4458
  5
4458
331
4574
  5
45A9
331
4460
  5
4460
331
4497
  5
4497
331
42AA
  5
42AA
331
4421
  5
4421
331
44D6
  5
44D7
331
449F
  5
449F
331
462A
  5
4662
331
45EB
  5
45F8
331
4429
  5
4429
331
4468
  5
4468
331
4302
  5
4302
331
4431
  5
4431
331
4470
  5
4470
331
430A
  5
430A
331
44A7
  5
44A7
331
44AF
  5
44AF
331
4312
  5
4312
331
4439
  5
4439
331
4478
  5
4478
331
44B7
  5
44B7
331
454D
  5
455A
331
4441
  5
4441
331
44BF
  5
44BF
331
4662
  5
4663
331
467A
  5
467B
331
461B
  5
462A
331
4480
  5
4480
331
4449
  5
4449
331
4451
  5
4451
331
4488
  5
4488
331
44C7
  5
44C8
331
44CF
  5
44D0
331
4459
  5
4459
331
4490
  5
4490
331
4498
  5
4498
331
44D7
  5
44D8
331
4422
  5
4422
331
4461
  5
4461
331
44A0
  5
44A0
331
4303
  5
4303
331
442A
  5
442A
331
4469
  5
4469
331
44FF
  5
4515
331
4471
  5
4471
331
44A8
  5
44A8
331
430B
  5
430B
331
4432
  5
4432
331
443A
  5
443A
331
4479
  5
4479
331
4313
  5
4313
331
44B0
  5
44B0
  0
XRECORD
  5
3D3A
102
{ACAD_REACTORS
330
1806
102
}
330
1806
100
AcDbXrecord
280
     1
340
14
  0
XRECORD
  5
463F
102
{ACAD_REACTORS
330
463D
102
}
330
463D
100
AcDbXrecord
280
     1
340
12
  0
XRECORD
  5
4640
102
{ACAD_REACTORS
330
463D
102
}
330
463D
100
AcDbXrecord
280
     1
340
12
  0
XRECORD
  5
463E
102
{ACAD_REACTORS
330
463D
102
}
330
463D
100
AcDbXrecord
280
     1
340
12
  0
LAYOUT
  5
3D5B
102
{ACAD_XDICTIONARY
360
4926
102
}
102
{ACAD_REACTORS
330
3D5A
102
}
330
3D5A
100
AcDbPlotSettings
  1

  2
none_device
  4
Letter_(8.50_x_11.00_Inches)
  6

 40
6.349999904632568
 41
6.349999904632568
 42
6.350006103515625
 43
6.350006103515625
 44
215.8999938964844
 45
279.3999938964844
 46
43.34184620376254
 47
-0.0013556365320177
 48
0.0
 49
0.0
140
0.0
141
0.0
142
1.0
143
49.84
 70
 11940
 72
     0
 73
     1
 74
     0
  7
monochrome.ctb
 75
     0
147
0.0200640014867505
148
-10155.63469086036
149
4397.916733593043
100
AcDbLayout
  1
Model
 70
     1
 71
     0
 10
0.0
 20
0.0
 11
12.0
 21
9.0
 12
0.0
 22
0.0
 32
0.0
 14
0.0
 24
0.0
 34
0.0
 15
0.0
 25
0.0
 35
0.0
146
0.0
 13
0.0
 23
0.0
 33
0.0
 16
1.0
 26
0.0
 36
0.0
 17
0.0
 27
1.0
 37
0.0
 76
     0
330
17
1001
ACAD_PSEXT
1000
なし
1000
なし
1000
適切ではありません
1000
新しいプロッタ環境設定名を選択しない限り、レイアウトは印刷されません。
1070
     0
  0
LAYOUT
  5
3D5C
102
{ACAD_XDICTIONARY
360
4928
102
}
102
{ACAD_REACTORS
330
3D5A
102
}
330
3D5A
100
AcDbPlotSettings
  1

  2
Microsoft XPS Document Writer
  4

  6

 40
0.0
 41
0.0
 42
0.0
 43
0.0
 44
0.0
 45
0.0
 46
0.0
 47
0.0
 48
0.0
 49
0.0
140
0.0
141
0.0
142
1.0
143
1.0
 70
   688
 72
     0
 73
     0
 74
     5
  7
monochrome.ctb
 75
    16
147
1.0
148
0.0
149
0.0
100
AcDbLayout
  1
レイアウト1
 70
     1
 71
     1
 10
0.0
 20
0.0
 11
12.0
 21
9.0
 12
0.0
 22
0.0
 32
0.0
 14
1.000000000000000E+20
 24
1.000000000000000E+20
 34
1.000000000000000E+20
 15
-1.000000000000000E+20
 25
-1.000000000000000E+20
 35
-1.000000000000000E+20
146
0.0
 13
0.0
 23
0.0
 33
0.0
 16
1.0
 26
0.0
 36
0.0
 17
0.0
 27
1.0
 37
0.0
 76
     0
330
14
  0
MATERIAL
  5
3D44
102
{ACAD_XDICTIONARY
360
419D
102
}
102
{ACAD_REACTORS
330
3D42
102
}
330
3D42
100
AcDbMaterial
  1
ByBlock
  0
MATERIAL
  5
3D43
102
{ACAD_XDICTIONARY
360
419B
102
}
102
{ACAD_REACTORS
330
3D42
102
}
330
3D42
100
AcDbMaterial
  1
ByLayer
  0
MATERIAL
  5
3D45
102
{ACAD_XDICTIONARY
360
419F
102
}
102
{ACAD_REACTORS
330
3D42
102
}
330
3D42
100
AcDbMaterial
  1
Global
  0
MLINESTYLE
  5
1B
102
{ACAD_REACTORS
330
1A
102
}
330
1A
100
AcDbMlineStyle
  2
STANDARD
 70
     0
  3

 62
   256
 51
90.0
 52
90.0
 71
     2
 49
0.5
 62
   256
  6
BYLAYER
 49
-0.5
 62
   256
  6
BYLAYER
  0
ACDBPLACEHOLDER
  5
3D41
102
{ACAD_REACTORS
330
3D40
102
}
330
3D40
  0
TABLESTYLE
  5
3D59
102
{ACAD_XDICTIONARY
360
4649
102
}
102
{ACAD_REACTORS
330
3D58
102
}
330
3D58
100
AcDbTableStyle
  3
Standard
 70
     0
 71
     0
 40
0.06
 41
0.06
280
     0
281
     0
  7
STANDARD
140
0.18
170
     2
 62
     0
 63
     7
283
     0
274
    -2
284
     1
 64
     0
275
    -2
285
     1
 65
     0
276
    -2
286
     1
 66
     0
277
    -2
287
     1
 67
     0
278
    -2
288
     1
 68
     0
279
    -2
289
     1
 69
     0
  7
STANDARD
140
0.25
170
     5
 62
     0
 63
     7
283
     0
274
    -2
284
     1
 64
     0
275
    -2
285
     1
 65
     0
276
    -2
286
     1
 66
     0
277
    -2
287
     1
 67
     0
278
    -2
288
     1
 68
     0
279
    -2
289
     1
 69
     0
  7
STANDARD
140
0.18
170
     5
 62
     0
 63
     7
283
     0
274
    -2
284
     1
 64
     0
275
    -2
285
     1
 65
     0
276
    -2
286
     1
 66
     0
277
    -2
287
     1
 67
     0
278
    -2
288
     1
 68
     0
279
    -2
289
     1
 69
     0
  0
ACAD_PROXY_OBJECT
  5
3D4C
102
{ACAD_REACTORS
330
3D46
102
}
330
3D46
100
AcDbProxyObject
 90
      499
 91
      503
 95
  2555929
 70
     0
 93
      598
310
430C9915DA5C99599C985B59401049028333333333333E3BF0000000000000FB023FFFFFF0802405048070000C3008000000C800405A000000320014050640A01C00030C010500920280D3
 94
        0
1001
ACAD
1000
AcDbSavedByObjectVersion
1070
     0
1000
AcDbSavedByObjectVersion
1070
     0
1000
AcDbSavedByObjectVersion
1070
     0
1000
AcDbSavedByObjectVersion
1070
     0
1000
AcDbSavedByObjectVersion
1070
     0
1000
AcDbSavedByObjectVersion
1070
     0
1000
AcDbSavedByObjectVersion
1070
     0
1000
AcDbSavedByObjectVersion
1070
     0
1000
AcDbSavedByObjectVersion
1070
     0
1000
AcRTDxfName
1000
VISUALSTYLE
  0
ACAD_PROXY_OBJECT
  5
3D4E
102
{ACAD_REACTORS
330
3D46
102
}
330
3D46
100
AcDbProxyObject
 90
      499
 91
      503
 95
  2555929
 70
     0
 93
      662
310
428CD108121A5919195B8010640502408333333333333E3BF0000000000000FB023FFFFFF0802409028070000C3008000000C8004080000000000004440A000000320014050640A01C00030C010300920280D0
 94
        0
1001
ACAD
1000
AcDbSavedByObjectVersion
1070
     0
1000
AcDbSavedByObjectVersion
1070
     0
1000
AcDbSavedByObjectVersion
1070
     0
1000
AcDbSavedByObjectVersion
1070
     0
1000
AcDbSavedByObjectVersion
1070
     0
1000
AcDbSavedByObjectVersion
1070
     0
1000
AcDbSavedByObjectVersion
1070
     0
1000
AcDbSavedByObjectVersion
1070
     0
1000
AcDbSavedByObjectVersion
1070
     0
1000
AcRTDxfName
1000
VISUALSTYLE
  0
ACAD_PROXY_OBJECT
  5
3D4D
102
{ACAD_REACTORS
330
3D46
102
}
330
3D46
100
AcDbProxyObject
 90
      499
 91
      503
 95
  2555929
 70
     0
 93
      598
310
430CD915DA5C99599C985B59401059028333333333333E3BF0000000000000FB023FFFFFF0802405048070000C3008000000C800405A000000320014050640A01C00030C010500920280D0
 94
        0
1001
ACAD
1000
AcDbSavedByObjectVersion
1070
     0
1000
AcDbSavedByObjectVersion
1070
     0
1000
AcDbSavedByObjectVersion
1070
     0
1000
AcDbSavedByObjectVersion
1070
     0
1000
AcDbSavedByObjectVersion
1070
     0
1000
AcDbSavedByObjectVersion
1070
     0
1000
AcDbSavedByObjectVersion
1070
     0
1000
AcDbSavedByObjectVersion
1070
     0
1000
AcDbSavedByObjectVersion
1070
     0
1000
AcRTDxfName
1000
VISUALSTYLE
  0
ACAD_PROXY_OBJECT
  5
3D4B
102
{ACAD_REACTORS
330
3D46
102
}
330
3D46
100
AcDbProxyObject
 90
      499
 91
      503
 95
  2555929
 70
     0
 93
      558
310
4190985CDA58C0107406404333333333333E3BF0000000000000FB023FFFFFF08029048070000C3008000000C80040542201C00030C014050640A01C00030C010500920280D6
 94
        0
1001
ACAD
1000
AcDbSavedByObjectVersion
1070
     0
1000
AcDbSavedByObjectVersion
1070
     0
1000
AcDbSavedByObjectVersion
1070
     0
1000
AcDbSavedByObjectVersion
1070
     0
1000
AcDbSavedByObjectVersion
1070
     0
1000
AcDbSavedByObjectVersion
1070
     0
1000
AcDbSavedByObjectVersion
1070
     0
1000
AcDbSavedByObjectVersion
1070
     0
1000
AcDbSavedByObjectVersion
1070
     0
1000
AcRTDxfName
1000
VISUALSTYLE
  0
ACAD_PROXY_OBJECT
  5
3D52
102
{ACAD_REACTORS
330
3D46
102
}
330
3D46
100
AcDbProxyObject
 90
      499
 91
      503
 95
  2555929
 70
     0
 93
      598
310
42509C9A59DA1D195B8010C409028333333333333E3BF0000000000000FB023FFFFFF0802405048070000C3008000000C80040542201C00030C014050640A01C00030C010500920280A657
 94
        0
1001
ACAD
1000
AcDbSavedByObjectVersion
1070
     0
1000
AcDbSavedByObjectVersion
1070
     0
1000
AcDbSavedByObjectVersion
1070
     0
1000
AcDbSavedByObjectVersion
1070
     0
1000
AcDbSavedByObjectVersion
1070
     0
1000
AcDbSavedByObjectVersion
1070
     0
1000
AcDbSavedByObjectVersion
1070
     0
1000
AcDbSavedByObjectVersion
1070
     0
1000
AcDbSavedByObjectVersion
1070
     0
1000
AcRTDxfName
1000
VISUALSTYLE
  0
ACAD_PROXY_OBJECT
  5
3D56
102
{ACAD_REACTORS
330
3D46
102
}
330
3D46
100
AcDbProxyObject
 90
      499
 91
      503
 95
  2555929
 70
     0
 93
      622
310
4310DBDB1BDC90DA185B99D9401104090240C333333333333E3BF0000000000000FB0220202030802405048070000C3008000000C800405422202020308014050640A01C00030C010500920280D7
 94
        0
1001
ACAD
1000
AcDbSavedByObjectVersion
1070
     0
1000
AcDbSavedByObjectVersion
1070
     0
1000
AcDbSavedByObjectVersion
1070
     0
1000
AcDbSavedByObjectVersion
1070
     0
1000
AcDbSavedByObjectVersion
1070
     0
1000
AcDbSavedByObjectVersion
1070
     0
1000
AcDbSavedByObjectVersion
1070
     0
1000
AcDbSavedByObjectVersion
1070
     0
1000
AcDbSavedByObjectVersion
1070
     0
1000
AcRTDxfName
1000
VISUALSTYLE
  0
ACAD_PROXY_OBJECT
  5
3D4F
102
{ACAD_REACTORS
330
3D46
102
}
330
3D46
100
AcDbProxyObject
 90
      499
 91
      503
 95
  2555929
 70
     0
 93
      670
310
42D0DBDB98D95C1D1D585B0010940D028333333333333E3BF0000000000000FB023FFFFFF0802409028070000C3008000000C800404000000000000444042201C00030C014050640A01C00030C010300920280D0
 94
        0
1001
ACAD
1000
AcDbSavedByObjectVersion
1070
     0
1000
AcDbSavedByObjectVersion
1070
     0
1000
AcDbSavedByObjectVersion
1070
     0
1000
AcDbSavedByObjectVersion
1070
     0
1000
AcDbSavedByObjectVersion
1070
     0
1000
AcDbSavedByObjectVersion
1070
     0
1000
AcDbSavedByObjectVersion
1070
     0
1000
AcDbSavedByObjectVersion
1070
     0
1000
AcDbSavedByObjectVersion
1070
     0
1000
AcRTDxfName
1000
VISUALSTYLE
  0
ACAD_PROXY_OBJECT
  5
3D51
102
{ACAD_REACTORS
330
3D46
102
}
330
3D46
100
AcDbProxyObject
 90
      499
 91
      503
 95
  2555929
 70
     0
 93
      582
310
41111A5B4010B409028333333333333E3BF0000000000000FB023FFFFFF0802405048070000C3008000000C80040542201C00030C014050640A01C00030C01050092028099DFFFFFF4
 94
        0
1001
ACAD
1000
AcDbSavedByObjectVersion
1070
     0
1000
AcDbSavedByObjectVersion
1070
     0
1000
AcDbSavedByObjectVersion
1070
     0
1000
AcDbSavedByObjectVersion
1070
     0
1000
AcDbSavedByObjectVersion
1070
     0
1000
AcDbSavedByObjectVersion
1070
     0
1000
AcDbSavedByObjectVersion
1070
     0
1000
AcDbSavedByObjectVersion
1070
     0
1000
AcDbSavedByObjectVersion
1070
     0
1000
AcRTDxfName
1000
VISUALSTYLE
  0
ACAD_PROXY_OBJECT
  5
3D55
102
{ACAD_REACTORS
330
3D46
102
}
330
3D46
100
AcDbProxyObject
 90
      499
 91
      503
 95
  2555929
 70
     0
 93
      614
310
43119858D95C185D1D195C9B8010F409028333333333333E3BF0000000000000FB023FFFFFF0802405048070000C3008000000C80040542201C00030C014050640A01C00030C010500920280D4
 94
        0
1001
ACAD
1000
AcDbSavedByObjectVersion
1070
     0
1000
AcDbSavedByObjectVersion
1070
     0
1000
AcDbSavedByObjectVersion
1070
     0
1000
AcDbSavedByObjectVersion
1070
     0
1000
AcDbSavedByObjectVersion
1070
     0
1000
AcDbSavedByObjectVersion
1070
     0
1000
AcDbSavedByObjectVersion
1070
     0
1000
AcDbSavedByObjectVersion
1070
     0
1000
AcDbSavedByObjectVersion
1070
     0
1000
AcRTDxfName
1000
VISUALSTYLE
  0
ACAD_PROXY_OBJECT
  5
3D47
102
{ACAD_REACTORS
330
3D46
102
}
330
3D46
100
AcDbProxyObject
 90
      499
 91
      503
 95
  2555929
 70
     0
 93
      558
310
41519B185D00240901404333333333333E3BF0000000000000F9023FFFFFF0801029048070000C3008000000C80040542201C00030C014050640A01C00030C010500920286D4
 94
        0
1001
ACAD
1000
AcDbSavedByObjectVersion
1070
     0
1000
AcDbSavedByObjectVersion
1070
     0
1000
AcDbSavedByObjectVersion
1070
     0
1000
AcDbSavedByObjectVersion
1070
     0
1000
AcDbSavedByObjectVersion
1070
     0
1000
AcDbSavedByObjectVersion
1070
     0
1000
AcDbSavedByObjectVersion
1070
     0
1000
AcDbSavedByObjectVersion
1070
     0
1000
AcDbSavedByObjectVersion
1070
     0
1000
AcRTDxfName
1000
VISUALSTYLE
  0
ACAD_PROXY_OBJECT
  5
3D48
102
{ACAD_REACTORS
330
3D46
102
}
330
3D46
100
AcDbProxyObject
 90
      499
 91
      503
 95
  2555929
 70
     0
 93
      638
310
43919B185D15DA5D1A115919D95CC010140901404333333333333E3BF0000000000000F9023FFFFFF080102405048070000C3008000000C800405A000000320014050640A01C00030C010500920286D4
 94
        0
1001
ACAD
1000
AcDbSavedByObjectVersion
1070
     0
1000
AcDbSavedByObjectVersion
1070
     0
1000
AcDbSavedByObjectVersion
1070
     0
1000
AcDbSavedByObjectVersion
1070
     0
1000
AcDbSavedByObjectVersion
1070
     0
1000
AcDbSavedByObjectVersion
1070
     0
1000
AcDbSavedByObjectVersion
1070
     0
1000
AcDbSavedByObjectVersion
1070
     0
1000
AcDbSavedByObjectVersion
1070
     0
1000
AcRTDxfName
1000
VISUALSTYLE
  0
ACAD_PROXY_OBJECT
  5
3D49
102
{ACAD_REACTORS
330
3D46
102
}
330
3D46
100
AcDbProxyObject
 90
      499
 91
      503
 95
  2555929
 70
     0
 93
      582
310
4211DBDD5C985D590010240902404333333333333E3BF0000000000000F9023FFFFFF0801029048070000C3008000000C800405A01C00030C014050640A01C00030C010500920286D4
 94
        0
1001
ACAD
1000
AcDbSavedByObjectVersion
1070
     0
1000
AcDbSavedByObjectVersion
1070
     0
1000
AcDbSavedByObjectVersion
1070
     0
1000
AcDbSavedByObjectVersion
1070
     0
1000
AcDbSavedByObjectVersion
1070
     0
1000
AcDbSavedByObjectVersion
1070
     0
1000
AcDbSavedByObjectVersion
1070
     0
1000
AcDbSavedByObjectVersion
1070
     0
1000
AcDbSavedByObjectVersion
1070
     0
1000
AcRTDxfName
1000
VISUALSTYLE
  0
ACAD_PROXY_OBJECT
  5
3D4A
102
{ACAD_REACTORS
330
3D46
102
}
330
3D46
100
AcDbProxyObject
 90
      499
 91
      503
 95
  2555929
 70
     0
 93
      662
310
4451DBDD5C985D5915DA5D1A115919D95CC010340902404333333333333E3BF0000000000000F9023FFFFFF080102405048070000C3008000000C800405A000000320014050640A01C00030C010500920286D4
 94
        0
1001
ACAD
1000
AcDbSavedByObjectVersion
1070
     0
1000
AcDbSavedByObjectVersion
1070
     0
1000
AcDbSavedByObjectVersion
1070
     0
1000
AcDbSavedByObjectVersion
1070
     0
1000
AcDbSavedByObjectVersion
1070
     0
1000
AcDbSavedByObjectVersion
1070
     0
1000
AcDbSavedByObjectVersion
1070
     0
1000
AcDbSavedByObjectVersion
1070
     0
1000
AcDbSavedByObjectVersion
1070
     0
1000
AcRTDxfName
1000
VISUALSTYLE
  0
ACAD_PROXY_OBJECT
  5
3D54
102
{ACAD_REACTORS
330
3D46
102
}
330
3D46
100
AcDbProxyObject
 90
      499
 91
      503
 95
  2555929
 70
     0
 93
      614
310
43131A5B995C185D1D195C9B8010E409028333333333333E3BF0000000000000FB023FFFFFF0802405048070000C3008000000C80041D42201C00030C014050640A01C00030C010500920E80D5
 94
        0
1001
ACAD
1000
AcDbSavedByObjectVersion
1070
     0
1000
AcDbSavedByObjectVersion
1070
     0
1000
AcDbSavedByObjectVersion
1070
     0
1000
AcDbSavedByObjectVersion
1070
     0
1000
AcDbSavedByObjectVersion
1070
     0
1000
AcDbSavedByObjectVersion
1070
     0
1000
AcDbSavedByObjectVersion
1070
     0
1000
AcDbSavedByObjectVersion
1070
     0
1000
AcDbSavedByObjectVersion
1070
     0
1000
AcRTDxfName
1000
VISUALSTYLE
  0
ACAD_PROXY_OBJECT
  5
3D50
102
{ACAD_REACTORS
330
3D46
102
}
330
3D46
100
AcDbProxyObject
 90
      499
 91
      503
 95
  2555929
 70
     0
 93
      590
310
429499585B1A5CDD1A58C0108409028333333333333E3BF0000000000000FB023FFFFFF08024068070000C3008000000C8004054221E1E1E308014050640A01C00030C010500920286D0
 94
        0
1001
ACAD
1000
AcDbSavedByObjectVersion
1070
     0
1000
AcDbSavedByObjectVersion
1070
     0
1000
AcDbSavedByObjectVersion
1070
     0
1000
AcDbSavedByObjectVersion
1070
     0
1000
AcDbSavedByObjectVersion
1070
     0
1000
AcDbSavedByObjectVersion
1070
     0
1000
AcDbSavedByObjectVersion
1070
     0
1000
AcDbSavedByObjectVersion
1070
     0
1000
AcDbSavedByObjectVersion
1070
     0
1000
AcRTDxfName
1000
VISUALSTYLE
  0
ACAD_PROXY_OBJECT
  5
3D53
102
{ACAD_REACTORS
330
3D46
102
}
330
3D46
100
AcDbProxyObject
 90
      499
 91
      503
 95
  2555929
 70
     0
 93
      582
310
42151A1A58DAD95B8010D409028333333333333E3BF0000000000000FB023FFFFFF0802405048070000C3008000000C80040543201C00030C014050640A01C00030C010500920280D4
 94
        0
1001
ACAD
1000
AcDbSavedByObjectVersion
1070
     0
1000
AcDbSavedByObjectVersion
1070
     0
1000
AcDbSavedByObjectVersion
1070
     0
1000
AcDbSavedByObjectVersion
1070
     0
1000
AcDbSavedByObjectVersion
1070
     0
1000
AcDbSavedByObjectVersion
1070
     0
1000
AcDbSavedByObjectVersion
1070
     0
1000
AcDbSavedByObjectVersion
1070
     0
1000
AcDbSavedByObjectVersion
1070
     0
1000
AcRTDxfName
1000
VISUALSTYLE
  0
DICTIONARYVAR
  5
4117
102
{ACAD_REACTORS
330
4116
102
}
330
4116
100
DictionaryVariables
280
     0
  1
STANDARD
  0
DICTIONARYVAR
  5
4921
102
{ACAD_REACTORS
330
4116
102
}
330
4116
100
DictionaryVariables
280
     0
  1
1
  0
DICTIONARYVAR
  5
4922
102
{ACAD_REACTORS
330
4116
102
}
330
4116
100
DictionaryVariables
280
     0
  1

  0
DICTIONARY
  5
4926
330
3D5B
100
AcDbDictionary
280
     1
281
     1
  3
ACAD_XREC_ROUNDTRIP
360
4927
  0
DICTIONARY
  5
4928
330
3D5C
100
AcDbDictionary
280
     1
281
     1
  3
ACAD_XREC_ROUNDTRIP
360
4929
  0
DICTIONARY
  5
419D
330
3D44
100
AcDbDictionary
280
     1
281
     1
  3
ACAD_XREC_ROUNDTRIP
360
419E
  0
DICTIONARY
  5
419B
330
3D43
100
AcDbDictionary
280
     1
281
     1
  3
ACAD_XREC_ROUNDTRIP
360
419C
  0
DICTIONARY
  5
419F
330
3D45
100
AcDbDictionary
280
     1
281
     1
  3
ACAD_XREC_ROUNDTRIP
360
41A0
  0
DICTIONARY
  5
4649
330
3D59
100
AcDbDictionary
280
     1
281
     1
  3
ACAD_XREC_ROUNDTRIP
360
464A
  0
XRECORD
  5
4927
102
{ACAD_REACTORS
330
4926
102
}
330
4926
100
AcDbXrecord
280
     1
102
SHADEPLOT
 70
     0
102
SHADEPLOTRESLEVEL
 70
     2
102
SHADEPLOTCUSTOMDPI
 70
   300
  0
XRECORD
  5
4929
102
{ACAD_REACTORS
330
4928
102
}
330
4928
100
AcDbXrecord
280
     1
102
SHADEPLOT
 70
     0
102
SHADEPLOTRESLEVEL
 70
     2
102
SHADEPLOTCUSTOMDPI
 70
   300
  0
XRECORD
  5
419E
102
{ACAD_REACTORS
330
419D
102
}
330
419D
100
AcDbXrecord
280
     1
102
MATERIAL
148
0.0
149
0.0
149
0.0
 93
        0
 94
       63
282
     0
 72
     1
 77
     1
171
     1
175
     1
179
     1
273
     0
  0
XRECORD
  5
419C
102
{ACAD_REACTORS
330
419B
102
}
330
419B
100
AcDbXrecord
280
     1
102
MATERIAL
148
0.0
149
0.0
149
0.0
 93
        0
 94
       63
282
     0
 72
     1
 77
     1
171
     1
175
     1
179
     1
273
     0
  0
XRECORD
  5
41A0
102
{ACAD_REACTORS
330
419F
102
}
330
419F
100
AcDbXrecord
280
     1
102
MATERIAL
148
0.0
149
0.0
149
0.0
 93
        0
 94
       63
282
     0
 72
     1
 77
     1
171
     1
175
     1
179
     1
273
     0
  0
XRECORD
  5
464A
102
{ACAD_REACTORS
330
4649
102
}
330
4649
100
AcDbXrecord
280
     1
102
ACAD_ROUNDTRIP_PRE2007_TABLESTYLE
 90
      512
 91
        0
  1

 92
      512
 93
        0
  2

 94
      512
 95
        0
  3

  0
ENDSEC
  0
EOF
