  0
SECTION
  2
HEADER
  9
$ACADVER
  1
AC1015
  9
$ACADMAINTVER
 70
    20
  9
$DWGCODEPAGE
  3
ANSI_932
  9
$INSBASE
 10
0.0
 20
0.0
 30
0.0
  9
$EXTMIN
 10
508.2514369331797
 20
-141.0078745263032
 30
-0.0000000349181948
  9
$EXTMAX
 10
753.819647811159
 20
4.129287814437304
 30
0.0000000814935746
  9
$LIMMIN
 10
0.0
 20
0.0
  9
$LIMMAX
 10
12.0
 20
9.0
  9
$ORTHOMODE
 70
     1
  9
$REGENMODE
 70
     1
  9
$FILLMODE
 70
     1
  9
$QTEXTMODE
 70
     0
  9
$MIRRTEXT
 70
     1
  9
$LTSCALE
 40
0.5
  9
$ATTMODE
 70
     1
  9
$TEXTSIZE
 40
2.5
  9
$TRACEWID
 40
0.05
  9
$TEXTSTYLE
  7
CatalogDxf
  9
$CLAYER
  8
Z_OM_DIM
  9
$CELTYPE
  6
BYLAYER
  9
$CECOLOR
 62
   256
  9
$CELTSCALE
 40
1.0
  9
$DISPSILH
 70
     0
  9
$DIMSCALE
 40
1.0
  9
$DIMASZ
 40
2.5
  9
$DIMEXO
 40
0.625
  9
$DIMDLI
 40
3.75
  9
$DIMRND
 40
0.0
  9
$DIMDLE
 40
0.0
  9
$DIMEXE
 40
1.25
  9
$DIMTP
 40
0.0
  9
$DIMTM
 40
0.0
  9
$DIMTXT
 40
2.5
  9
$DIMCEN
 40
2.5
  9
$DIMTSZ
 40
0.0
  9
$DIMTOL
 70
     0
  9
$DIMLIM
 70
     0
  9
$DIMTIH
 70
     0
  9
$DIMTOH
 70
     0
  9
$DIMSE1
 70
     0
  9
$DIMSE2
 70
     0
  9
$DIMTAD
 70
     1
  9
$DIMZIN
 70
     8
  9
$DIMBLK
  1
OPEN30
  9
$DIMASO
 70
     1
  9
$DIMSHO
 70
     1
  9
$DIMPOST
  1

  9
$DIMAPOST
  1

  9
$DIMALT
 70
     0
  9
$DIMALTD
 70
     3
  9
$DIMALTF
 40
0.03937007874016
  9
$DIMLFAC
 40
1.0
  9
$DIMTOFL
 70
     1
  9
$DIMTVP
 40
0.0
  9
$DIMTIX
 70
     0
  9
$DIMSOXD
 70
     0
  9
$DIMSAH
 70
     0
  9
$DIMBLK1
  1

  9
$DIMBLK2
  1

  9
$DIMSTYLE
  2
CatalogDxf
  9
$DIMCLRD
 70
   256
  9
$DIMCLRE
 70
   256
  9
$DIMCLRT
 70
   256
  9
$DIMTFAC
 40
1.0
  9
$DIMGAP
 40
0.625
  9
$DIMJUST
 70
     0
  9
$DIMSD1
 70
     0
  9
$DIMSD2
 70
     0
  9
$DIMTOLJ
 70
     0
  9
$DIMTZIN
 70
     8
  9
$DIMALTZ
 70
     0
  9
$DIMALTTZ
 70
     0
  9
$DIMUPT
 70
     0
  9
$DIMDEC
 70
     1
  9
$DIMTDEC
 70
     1
  9
$DIMALTU
 70
     2
  9
$DIMALTTD
 70
     3
  9
$DIMTXSTY
  7
CatalogDxf
  9
$DIMAUNIT
 70
     0
  9
$DIMADEC
 70
     0
  9
$DIMALTRND
 40
0.0
  9
$DIMAZIN
 70
     0
  9
$DIMDSEP
 70
    46
  9
$DIMATFIT
 70
     3
  9
$DIMFRAC
 70
     0
  9
$DIMLDRBLK
  1
OPEN30
  9
$DIMLUNIT
 70
     2
  9
$DIMLWD
 70
    -1
  9
$DIMLWE
 70
    -1
  9
$DIMTMOVE
 70
     0
  9
$LUNITS
 70
     2
  9
$LUPREC
 70
     2
  9
$SKETCHINC
 40
0.1
  9
$FILLETRAD
 40
0.0
  9
$AUNITS
 70
     0
  9
$AUPREC
 70
     2
  9
$MENU
  1
acad
  9
$ELEVATION
 40
0.0
  9
$PELEVATION
 40
0.0
  9
$THICKNESS
 40
0.0
  9
$LIMCHECK
 70
     0
  9
$CHAMFERA
 40
0.0
  9
$CHAMFERB
 40
0.0
  9
$CHAMFERC
 40
0.0
  9
$CHAMFERD
 40
0.0
  9
$SKPOLY
 70
     0
  9
$TDCREATE
 40
2455090.761732894
  9
$TDUCREATE
 40
2455090.386732893
  9
$TDUPDATE
 40
2455678.572672766
  9
$TDUUPDATE
 40
2455678.197672766
  9
$TDINDWG
 40
0.5577715394
  9
$TDUSRTIMER
 40
0.5577648380
  9
$USRTIMER
 70
     1
  9
$ANGBASE
 50
0.0
  9
$ANGDIR
 70
     0
  9
$PDMODE
 70
     0
  9
$PDSIZE
 40
0.0
  9
$PLINEWID
 40
0.0
  9
$SPLFRAME
 70
     0
  9
$SPLINETYPE
 70
     6
  9
$SPLINESEGS
 70
     8
  9
$HANDSEED
  5
47DC
  9
$SURFTAB1
 70
     6
  9
$SURFTAB2
 70
     6
  9
$SURFTYPE
 70
     6
  9
$SURFU
 70
     6
  9
$SURFV
 70
     6
  9
$UCSBASE
  2

  9
$UCSNAME
  2

  9
$UCSORG
 10
0.0
 20
0.0
 30
0.0
  9
$UCSXDIR
 10
1.0
 20
0.0
 30
0.0
  9
$UCSYDIR
 10
0.0
 20
1.0
 30
0.0
  9
$UCSORTHOREF
  2

  9
$UCSORTHOVIEW
 70
     1
  9
$UCSORGTOP
 10
0.0
 20
0.0
 30
0.0
  9
$UCSORGBOTTOM
 10
0.0
 20
0.0
 30
0.0
  9
$UCSORGLEFT
 10
0.0
 20
0.0
 30
0.0
  9
$UCSORGRIGHT
 10
0.0
 20
0.0
 30
0.0
  9
$UCSORGFRONT
 10
0.0
 20
0.0
 30
0.0
  9
$UCSORGBACK
 10
0.0
 20
0.0
 30
0.0
  9
$PUCSBASE
  2

  9
$PUCSNAME
  2

  9
$PUCSORG
 10
0.0
 20
0.0
 30
0.0
  9
$PUCSXDIR
 10
1.0
 20
0.0
 30
0.0
  9
$PUCSYDIR
 10
0.0
 20
1.0
 30
0.0
  9
$PUCSORTHOREF
  2

  9
$PUCSORTHOVIEW
 70
     0
  9
$PUCSORGTOP
 10
0.0
 20
0.0
 30
0.0
  9
$PUCSORGBOTTOM
 10
0.0
 20
0.0
 30
0.0
  9
$PUCSORGLEFT
 10
0.0
 20
0.0
 30
0.0
  9
$PUCSORGRIGHT
 10
0.0
 20
0.0
 30
0.0
  9
$PUCSORGFRONT
 10
0.0
 20
0.0
 30
0.0
  9
$PUCSORGBACK
 10
0.0
 20
0.0
 30
0.0
  9
$USERI1
 70
     0
  9
$USERI2
 70
     0
  9
$USERI3
 70
     0
  9
$USERI4
 70
     0
  9
$USERI5
 70
     0
  9
$USERR1
 40
0.0
  9
$USERR2
 40
0.0
  9
$USERR3
 40
0.0
  9
$USERR4
 40
0.0
  9
$USERR5
 40
0.0
  9
$WORLDVIEW
 70
     1
  9
$SHADEDGE
 70
     3
  9
$SHADEDIF
 70
    70
  9
$TILEMODE
 70
     1
  9
$MAXACTVP
 70
    16
  9
$PINSBASE
 10
0.0
 20
0.0
 30
0.0
  9
$PLIMCHECK
 70
     0
  9
$PEXTMIN
 10
1.000000000000000E+20
 20
1.000000000000000E+20
 30
1.000000000000000E+20
  9
$PEXTMAX
 10
-1.000000000000000E+20
 20
-1.000000000000000E+20
 30
-1.000000000000000E+20
  9
$PLIMMIN
 10
0.0
 20
0.0
  9
$PLIMMAX
 10
12.0
 20
9.0
  9
$UNITMODE
 70
     0
  9
$VISRETAIN
 70
     0
  9
$PLINEGEN
 70
     0
  9
$PSLTSCALE
 70
     1
  9
$TREEDEPTH
 70
  3020
  9
$CMLSTYLE
  2
STANDARD
  9
$CMLJUST
 70
     0
  9
$CMLSCALE
 40
1.0
  9
$PROXYGRAPHICS
 70
     1
  9
$MEASUREMENT
 70
     0
  9
$CELWEIGHT
370
    -1
  9
$ENDCAPS
280
     0
  9
$JOINSTYLE
280
     0
  9
$LWDISPLAY
290
     0
  9
$INSUNITS
 70
     0
  9
$HYPERLINKBASE
  1

  9
$STYLESHEET
  1
monochrome.ctb
  9
$XEDIT
290
     1
  9
$CEPSNTYPE
380
     0
  9
$PSTYLEMODE
290
     1
  9
$FINGERPRINTGUID
  2
{AFC0AA2D-B3CD-48CF-B830-EF9C44F122D3}
  9
$VERSIONGUID
  2
{E3E20EF2-20F5-4A83-A48A-F21C09830D04}
  9
$EXTNAMES
290
     1
  9
$PSVPSCALE
 40
0.0
  9
$OLESTARTUP
290
     0
  0
ENDSEC
  0
SECTION
  2
CLASSES
  0
CLASS
  1
ACDBDICTIONARYWDFLT
  2
AcDbDictionaryWithDefault
  3
ObjectDBX Classes
 90
        0
280
     0
281
     0
  0
CLASS
  1
DICTIONARYVAR
  2
AcDbDictionaryVar
  3
ObjectDBX Classes
 90
        0
280
     0
281
     0
  0
CLASS
  1
MATERIAL
  2
AcDbMaterial
  3
ObjectDBX Classes
 90
        0
280
     0
281
     0
  0
CLASS
  1
VISUALSTYLE
  2
AcDbVisualStyle
  3
ObjectDBX Classes
 90
     4095
280
     0
281
     0
  0
CLASS
  1
TABLESTYLE
  2
AcDbTableStyle
  3
ObjectDBX Classes
 90
     2047
280
     0
281
     0
  0
CLASS
  1
DIMASSOC
  2
AcDbDimAssoc
  3
"AcDbDimAssoc|Product Desc:     AcDim ARX App For Dimension|Company:          Autodesk, Inc.|WEB Address:      www.autodesk.com"
 90
    32768
280
     0
281
     0
  0
CLASS
  1
SORTENTSTABLE
  2
AcDbSortentsTable
  3
ObjectDBX Classes
 90
        0
280
     0
281
     0
  0
CLASS
  1
ACDBPLACEHOLDER
  2
AcDbPlaceHolder
  3
ObjectDBX Classes
 90
        0
280
     0
281
     0
  0
CLASS
  1
LAYOUT
  2
AcDbLayout
  3
ObjectDBX Classes
 90
        0
280
     0
281
     0
  0
ENDSEC
  0
SECTION
  2
TABLES
  0
TABLE
  2
VPORT
  5
8
102
{ACAD_XDICTIONARY
360
455B
102
}
330
0
100
AcDbSymbolTable
 70
     2
  0
VPORT
  5
47D5
330
8
100
AcDbSymbolTableRecord
100
AcDbViewportTableRecord
  2
*Active
 70
     0
 10
0.0
 20
0.0
 11
1.0
 21
1.0
 12
682.3522883037622
 22
-67.78430663061143
 13
0.0
 23
0.0
 14
1.0
 24
1.0
 15
0.0
 25
0.0
 16
0.0
 26
0.0
 36
1.0
 17
0.0
 27
0.0
 37
0.0
 40
231.9706064160468
 41
2.288973384030418
 42
50.0
 43
0.0
 44
0.0
 50
0.0
 51
0.0
 71
     0
 72
   100
 73
     1
 74
     1
 75
     0
 76
     0
 77
     0
 78
     0
281
     0
 65
     1
110
0.0
120
0.0
130
0.0
111
1.0
121
0.0
131
0.0
112
0.0
122
1.0
132
0.0
 79
     0
146
0.0
  0
ENDTAB
  0
TABLE
  2
LTYPE
  5
5
330
0
100
AcDbSymbolTable
 70
     3
  0
LTYPE
  5
11
330
5
100
AcDbSymbolTableRecord
100
AcDbLinetypeTableRecord
  2
BYBLOCK
 70
     0
  3

 72
    65
 73
     0
 40
0.0
  0
LTYPE
  5
12
330
5
100
AcDbSymbolTableRecord
100
AcDbLinetypeTableRecord
  2
BYLAYER
 70
     0
  3

 72
    65
 73
     0
 40
0.0
  0
LTYPE
  5
13
330
5
100
AcDbSymbolTableRecord
100
AcDbLinetypeTableRecord
  2
CONTINUOUS
 70
     0
  3
Solid line
 72
    65
 73
     0
 40
0.0
  0
LTYPE
  5
3DB3
330
5
100
AcDbSymbolTableRecord
100
AcDbLinetypeTableRecord
  2
CENTER2
 70
     0
  3
Center (.5x) ___ _ ___ _ ___ _ ___ _ ___ _ ___
 72
    65
 73
     4
 40
28.575
 49
19.05
 74
     0
 49
-3.174999999999998
 74
     0
 49
3.174999999999998
 74
     0
 49
-3.174999999999998
 74
     0
  0
LTYPE
  5
3DB4
330
5
100
AcDbSymbolTableRecord
100
AcDbLinetypeTableRecord
  2
HIDDEN2
 70
     0
  3
Hidden (.5x) _ _ _ _ _ _ _ _ _ _ _ _ _ _ _ _ _
 72
    65
 73
     2
 40
4.762499999999998
 49
3.174999999999998
 74
     0
 49
-1.587499999999999
 74
     0
  0
ENDTAB
  0
TABLE
  2
LAYER
  5
2
102
{ACAD_XDICTIONARY
360
3DBA
102
}
330
0
100
AcDbSymbolTable
 70
     4
  0
LAYER
  5
E
102
{ACAD_XDICTIONARY
360
455D
102
}
330
2
100
AcDbSymbolTableRecord
100
AcDbLayerTableRecord
  2
0
 70
     0
 62
     7
  6
CONTINUOUS
370
    -3
390
3D41
  0
LAYER
  5
27
102
{ACAD_XDICTIONARY
360
455F
102
}
330
2
100
AcDbSymbolTableRecord
100
AcDbLayerTableRecord
  2
Z_OM_DIM
 70
     0
 62
     4
  6
CONTINUOUS
370
    -3
390
3D41
  0
LAYER
  5
2B
102
{ACAD_XDICTIONARY
360
4561
102
}
330
2
100
AcDbSymbolTableRecord
100
AcDbLayerTableRecord
  2
DEFPOINTS
 70
     0
 62
     7
  6
CONTINUOUS
290
     0
370
    -3
390
3D41
  0
LAYER
  5
3DB5
102
{ACAD_XDICTIONARY
360
4565
102
}
330
2
100
AcDbSymbolTableRecord
100
AcDbLayerTableRecord
  2
additional
 70
     0
 62
    50
  6
CONTINUOUS
370
    -3
390
3D41
1001
AcAecLayerStandard
1000

1000

  0
ENDTAB
  0
TABLE
  2
STYLE
  5
3
330
0
100
AcDbSymbolTable
 70
     4
  0
STYLE
  5
F
330
3
100
AcDbSymbolTableRecord
100
AcDbTextStyleTableRecord
  2
STANDARD
 70
     0
 40
0.0
 41
1.08
 50
0.0
 71
     0
 42
3.0
  3
txt.shx
  4
bigfont.shx
  0
STYLE
  5
3DB6
330
3
100
AcDbSymbolTableRecord
100
AcDbTextStyleTableRecord
  2
CatalogDxf
 70
     0
 40
0.0
 41
1.0
 50
0.0
 71
     0
 42
2.5
  3
txt.shx
  4
bigfont.shx
  0
STYLE
  5
4196
330
3
100
AcDbSymbolTableRecord
100
AcDbTextStyleTableRecord
  2

 70
     1
 40
0.0
 41
1.0
 50
0.0
 71
     0
 42
3.0
  3
ltypeshp.shx
  4

  0
ENDTAB
  0
TABLE
  2
VIEW
  5
6
330
0
100
AcDbSymbolTable
 70
     0
  0
ENDTAB
  0
TABLE
  2
UCS
  5
7
330
0
100
AcDbSymbolTable
 70
     0
  0
ENDTAB
  0
TABLE
  2
APPID
  5
9
330
0
100
AcDbSymbolTable
 70
     8
  0
APPID
  5
10
330
9
100
AcDbSymbolTableRecord
100
AcDbRegAppTableRecord
  2
ACAD
 70
     0
  0
APPID
  5
3D5E
330
9
100
AcDbSymbolTableRecord
100
AcDbRegAppTableRecord
  2
ACAD_PSEXT
 70
     0
  0
APPID
  5
3DB9
330
9
100
AcDbSymbolTableRecord
100
AcDbRegAppTableRecord
  2
AcAecLayerStandard
 70
     0
  0
APPID
  5
41A3
330
9
100
AcDbSymbolTableRecord
100
AcDbRegAppTableRecord
  2
ACAD_DSTYLE_DIM_LINETYPE
 70
     0
  0
APPID
  5
41A4
330
9
100
AcDbSymbolTableRecord
100
AcDbRegAppTableRecord
  2
ACAD_DSTYLE_DIM_EXT1_LINETYPE
 70
     0
  0
APPID
  5
41A5
330
9
100
AcDbSymbolTableRecord
100
AcDbRegAppTableRecord
  2
ACAD_DSTYLE_DIM_EXT2_LINETYPE
 70
     0
  0
APPID
  5
44A1
330
9
100
AcDbSymbolTableRecord
100
AcDbRegAppTableRecord
  2
ACAD_EXEMPT_FROM_CAD_STANDARDS
 70
     0
  0
APPID
  5
46B7
330
9
100
AcDbSymbolTableRecord
100
AcDbRegAppTableRecord
  2
ACAD_DSTYLE_DIMTEXT_FILL
 70
     0
  0
ENDTAB
  0
TABLE
  2
DIMSTYLE
  5
A
330
0
100
AcDbSymbolTable
 70
     4
100
AcDbDimStyleTable
 71
     2
340
3DB8
340
30
  0
DIMSTYLE
105
30
330
A
100
AcDbSymbolTableRecord
100
AcDbDimStyleTableRecord
  2
STANDARD
 70
     0
 41
6.0
 42
1.0
 43
16.0
 44
3.0
 73
     0
 74
     0
 77
     1
 78
     8
140
4.4
141
10.0
147
1.6
172
     1
176
   256
177
   256
178
   256
340
F
341
977
342
977
  0
DIMSTYLE
105
3DB8
102
{ACAD_REACTORS
330
4313
330
44C0
330
44CF
330
44DC
330
44E9
330
44F6
330
4503
330
4510
330
451F
330
4535
330
4542
330
4596
102
}
330
A
100
AcDbSymbolTableRecord
100
AcDbDimStyleTableRecord
  2
CatalogDxf
 70
     0
 41
2.5
 42
0.625
 43
3.75
 44
1.25
 73
     0
 74
     0
 77
     1
 78
     8
140
2.5
141
2.5
143
0.03937007874016
147
0.625
171
     3
172
     1
176
   256
177
   256
178
   256
271
     1
272
     1
274
     3
283
     0
284
     8
340
3DB6
341
977
342
977
371
    -1
372
    -1
1001
ACAD_DSTYLE_DIM_LINETYPE
1070
   380
1005
12
1001
ACAD_DSTYLE_DIM_EXT1_LINETYPE
1070
   381
1005
12
1001
ACAD_DSTYLE_DIM_EXT2_LINETYPE
1070
   382
1005
12
  0
DIMSTYLE
105
4353
330
A
100
AcDbSymbolTableRecord
100
AcDbDimStyleTableRecord
  2
ISO-25
 70
     0
 41
2.5
 42
0.625
 43
3.75
 44
1.25
 73
     0
 74
     0
 77
     1
 78
     8
140
2.5
141
2.5
143
0.03937007874016
147
0.625
171
     3
172
     1
271
     2
272
     2
274
     3
278
    44
283
     0
284
     8
340
F
  0
ENDTAB
  0
TABLE
  2
BLOCK_RECORD
  5
1
330
0
100
AcDbSymbolTable
 70
    14
  0
BLOCK_RECORD
  5
17
102
{ACAD_XDICTIONARY
360
1808
102
}
330
1
100
AcDbSymbolTableRecord
100
AcDbBlockTableRecord
  2
*MODEL_SPACE
340
3D5B
  0
BLOCK_RECORD
  5
14
102
{ACAD_XDICTIONARY
360
1806
102
}
330
1
100
AcDbSymbolTableRecord
100
AcDbBlockTableRecord
  2
*PAPER_SPACE
340
3D5C
  0
BLOCK_RECORD
  5
977
330
1
100
AcDbSymbolTableRecord
100
AcDbBlockTableRecord
  2
_OPEN30
340
0
102
{BLKREFS
331
4713
331
4714
331
471E
331
471F
331
4727
331
4728
331
4731
331
4732
331
4739
331
473A
331
4742
331
4743
331
474B
331
474C
331
4768
331
4769
331
4771
331
4772
331
477A
331
477B
331
4794
331
4795
331
47BE
331
47BF
102
}
  0
BLOCK_RECORD
  5
4314
330
1
100
AcDbSymbolTableRecord
100
AcDbBlockTableRecord
  2
*D1
340
0
  0
BLOCK_RECORD
  5
44C1
330
1
100
AcDbSymbolTableRecord
100
AcDbBlockTableRecord
  2
*D2
340
0
  0
BLOCK_RECORD
  5
44D0
330
1
100
AcDbSymbolTableRecord
100
AcDbBlockTableRecord
  2
*D3
340
0
  0
BLOCK_RECORD
  5
44DD
330
1
100
AcDbSymbolTableRecord
100
AcDbBlockTableRecord
  2
*D4
340
0
  0
BLOCK_RECORD
  5
44EA
330
1
100
AcDbSymbolTableRecord
100
AcDbBlockTableRecord
  2
*D5
340
0
  0
BLOCK_RECORD
  5
44F7
330
1
100
AcDbSymbolTableRecord
100
AcDbBlockTableRecord
  2
*D6
340
0
  0
BLOCK_RECORD
  5
4504
330
1
100
AcDbSymbolTableRecord
100
AcDbBlockTableRecord
  2
*D7
340
0
  0
BLOCK_RECORD
  5
4511
330
1
100
AcDbSymbolTableRecord
100
AcDbBlockTableRecord
  2
*D8
340
0
  0
BLOCK_RECORD
  5
4520
330
1
100
AcDbSymbolTableRecord
100
AcDbBlockTableRecord
  2
*D9
340
0
  0
BLOCK_RECORD
  5
4536
330
1
100
AcDbSymbolTableRecord
100
AcDbBlockTableRecord
  2
*D10
340
0
  0
BLOCK_RECORD
  5
4543
330
1
100
AcDbSymbolTableRecord
100
AcDbBlockTableRecord
  2
*D11
340
0
  0
BLOCK_RECORD
  5
4597
330
1
100
AcDbSymbolTableRecord
100
AcDbBlockTableRecord
  2
*D12
340
0
  0
ENDTAB
  0
ENDSEC
  0
SECTION
  2
BLOCKS
  0
BLOCK
  5
2E
330
17
100
AcDbEntity
  8
0
100
AcDbBlockBegin
  2
*MODEL_SPACE
 70
     0
 10
0.0
 20
0.0
 30
0.0
  3
*MODEL_SPACE
  1

  0
ENDBLK
  5
2F
330
17
100
AcDbEntity
  8
0
100
AcDbBlockEnd
  0
BLOCK
  5
2C
330
14
100
AcDbEntity
 67
     1
  8
0
100
AcDbBlockBegin
  2
*PAPER_SPACE
 70
     0
 10
0.0
 20
0.0
 30
0.0
  3
*PAPER_SPACE
  1

  0
ENDBLK
  5
2D
330
14
100
AcDbEntity
 67
     1
  8
0
100
AcDbBlockEnd
  0
BLOCK
  5
97B
330
977
100
AcDbEntity
  8
0
100
AcDbBlockBegin
  2
_OPEN30
 70
     0
 10
0.0
 20
0.0
 30
0.0
  3
_OPEN30
  1

  0
LINE
  5
978
330
977
100
AcDbEntity
  8
0
  6
ByBlock
 62
     0
100
AcDbLine
 10
-1.0
 20
0.26794919
 30
0.0
 11
0.0
 21
0.0
 31
0.0
  0
LINE
  5
979
330
977
100
AcDbEntity
  8
0
  6
ByBlock
 62
     0
100
AcDbLine
 10
0.0
 20
0.0
 30
0.0
 11
-1.0
 21
-0.26794919
 31
0.0
  0
LINE
  5
97A
330
977
100
AcDbEntity
  8
0
  6
ByBlock
 62
     0
100
AcDbLine
 10
0.0
 20
0.0
 30
0.0
 11
-1.0
 21
0.0
 31
0.0
  0
ENDBLK
  5
97C
330
977
100
AcDbEntity
  8
0
100
AcDbBlockEnd
  0
BLOCK
  5
431E
330
4314
100
AcDbEntity
  8
0
100
AcDbBlockBegin
  2
*D1
 70
     1
 10
0.0
 20
0.0
 30
0.0
  3
*D1
  1

  0
LINE
  5
4710
330
4314
100
AcDbEntity
  8
Z_OM_DIM
100
AcDbLine
 10
687.2530249846229
 20
-26.43725767326021
 30
0.0
 11
687.2530249846229
 21
-44.40374988581186
 31
0.0
  0
LINE
  5
4711
330
4314
100
AcDbEntity
  8
Z_OM_DIM
100
AcDbLine
 10
718.1676284839367
 20
-14.18725767326032
 30
0.0
 11
718.1676284839367
 21
-44.40374988581186
 31
0.0
  0
LINE
  5
4712
330
4314
100
AcDbEntity
  8
Z_OM_DIM
100
AcDbLine
 10
689.7530249846229
 20
-43.15374988581186
 30
0.0
 11
715.6676284839367
 21
-43.15374988581186
 31
0.0
  0
INSERT
  5
4713
330
4314
100
AcDbEntity
  8
Z_OM_DIM
100
AcDbBlockReference
  2
_OPEN30
 10
687.2530249846229
 20
-43.15374988581186
 30
0.0
 41
2.5
 42
2.5
 43
2.5
 50
180.0
  0
INSERT
  5
4714
330
4314
100
AcDbEntity
  8
Z_OM_DIM
100
AcDbBlockReference
  2
_OPEN30
 10
718.1676284839367
 20
-43.15374988581186
 30
0.0
 41
2.5
 42
2.5
 43
2.5
  0
MTEXT
  5
4715
330
4314
100
AcDbEntity
  8
Z_OM_DIM
100
AcDbMText
 10
702.7103267342797
 20
-41.27874988581186
 30
0.0
 40
2.5
 41
0.0
 71
     5
 72
     1
  1
180 - 200
  7
CatalogDxf
 73
     1
 44
1.0
1001
ACAD
1000
MTEXTBEGIN
1070
    73
1070
     1
1070
    44
1040
1.0
1070
    74
1070
     0
1000
MTEXTEND
  0
POINT
  5
4716
330
4314
100
AcDbEntity
  8
DEFPOINTS
 62
     0
100
AcDbPoint
 10
687.2530249846229
 20
-25.81225767326021
 30
0.0
  0
POINT
  5
4717
330
4314
100
AcDbEntity
  8
DEFPOINTS
 62
     0
100
AcDbPoint
 10
718.1676284839367
 20
-13.56225767326032
 30
0.0
  0
POINT
  5
4718
330
4314
100
AcDbEntity
  8
DEFPOINTS
 62
     0
100
AcDbPoint
 10
718.1676284839367
 20
-43.15374988581186
 30
0.0
  0
ENDBLK
  5
431F
330
4314
100
AcDbEntity
  8
0
100
AcDbBlockEnd
  0
BLOCK
  5
44CD
330
44C1
100
AcDbEntity
  8
0
100
AcDbBlockBegin
  2
*D2
 70
     1
 10
0.0
 20
0.0
 30
0.0
  3
*D2
  1

  0
LINE
  5
4719
330
44C1
100
AcDbEntity
  8
Z_OM_DIM
100
AcDbLine
 10
625.1280249846229
 20
-11.26225767326028
 30
0.0
 11
611.685917580765
 21
-11.26225767326027
 31
0.0
  0
LINE
  5
471A
330
44C1
100
AcDbEntity
  8
Z_OM_DIM
100
AcDbLine
 10
625.1280249846229
 20
-14.3622576732603
 30
0.0
 11
611.685917580765
 21
-14.3622576732603
 31
0.0
  0
LINE
  5
471B
330
44C1
100
AcDbEntity
  8
Z_OM_DIM
100
AcDbLine
 10
612.935917580765
 20
-16.8622576732603
 30
0.0
 11
612.935917580765
 21
-19.3622576732603
 31
0.0
  0
LINE
  5
471C
330
44C1
100
AcDbEntity
  8
Z_OM_DIM
100
AcDbLine
 10
612.935917580765
 20
-8.762257673260277
 30
0.0
 11
612.935917580765
 21
-0.6372576732602779
 31
0.0
  0
LINE
  5
471D
330
44C1
100
AcDbEntity
  8
Z_OM_DIM
100
AcDbLine
 10
612.935917580765
 20
-14.3622576732603
 30
0.0
 11
612.935917580765
 21
-11.26225767326028
 31
0.0
  0
INSERT
  5
471E
330
44C1
100
AcDbEntity
  8
Z_OM_DIM
100
AcDbBlockReference
  2
_OPEN30
 10
612.935917580765
 20
-14.3622576732603
 30
0.0
 41
2.5
 42
2.5
 43
2.5
 50
90.0
  0
INSERT
  5
471F
330
44C1
100
AcDbEntity
  8
Z_OM_DIM
100
AcDbBlockReference
  2
_OPEN30
 10
612.935917580765
 20
-11.26225767326028
 30
0.0
 41
2.5
 42
2.5
 43
2.5
 50
270.0
  0
MTEXT
  5
4720
330
44C1
100
AcDbEntity
  8
Z_OM_DIM
100
AcDbMText
 10
611.060917580765
 20
-3.345591006593512
 30
0.0
 40
2.5
 41
0.0
 71
     5
 72
     1
  1
3.1
  7
CatalogDxf
 11
0.0000000000000001
 21
1.0
 31
0.0
 73
     1
 44
1.0
1001
ACAD
1000
MTEXTBEGIN
1070
    73
1070
     1
1070
    44
1040
1.0
1070
    74
1070
     0
1000
MTEXTEND
  0
POINT
  5
4721
330
44C1
100
AcDbEntity
  8
DEFPOINTS
 62
     0
100
AcDbPoint
 10
625.7530249846229
 20
-11.26225767326028
 30
0.0
  0
POINT
  5
4722
330
44C1
100
AcDbEntity
  8
DEFPOINTS
 62
     0
100
AcDbPoint
 10
625.7530249846229
 20
-14.3622576732603
 30
0.0
  0
POINT
  5
4723
330
44C1
100
AcDbEntity
  8
DEFPOINTS
 62
     0
100
AcDbPoint
 10
612.935917580765
 20
-14.3622576732603
 30
0.0
  0
ENDBLK
  5
44CE
330
44C1
100
AcDbEntity
  8
0
100
AcDbBlockEnd
  0
BLOCK
  5
44DA
330
44D0
100
AcDbEntity
  8
0
100
AcDbBlockBegin
  2
*D3
 70
     1
 10
0.0
 20
0.0
 30
0.0
  3
*D3
  1

  0
LINE
  5
4724
330
44D0
100
AcDbEntity
  8
Z_OM_DIM
100
AcDbLine
 10
687.2530249846229
 20
-26.43725767326021
 30
0.0
 11
687.2530249846229
 21
-44.40374988581186
 31
0.0
  0
LINE
  5
4725
330
44D0
100
AcDbEntity
  8
Z_OM_DIM
100
AcDbLine
 10
634.2530249846229
 20
-28.43725767326024
 30
0.0
 11
634.2530249846229
 21
-44.40374988581186
 31
0.0
  0
LINE
  5
4726
330
44D0
100
AcDbEntity
  8
Z_OM_DIM
100
AcDbLine
 10
684.7530249846229
 20
-43.15374988581186
 30
0.0
 11
636.7530249846229
 21
-43.15374988581186
 31
0.0
  0
INSERT
  5
4727
330
44D0
100
AcDbEntity
  8
Z_OM_DIM
100
AcDbBlockReference
  2
_OPEN30
 10
687.2530249846229
 20
-43.15374988581186
 30
0.0
 41
2.5
 42
2.5
 43
2.5
  0
INSERT
  5
4728
330
44D0
100
AcDbEntity
  8
Z_OM_DIM
100
AcDbBlockReference
  2
_OPEN30
 10
634.2530249846229
 20
-43.15374988581186
 30
0.0
 41
2.5
 42
2.5
 43
2.5
 50
180.0
  0
MTEXT
  5
4729
330
44D0
100
AcDbEntity
  8
Z_OM_DIM
100
AcDbMText
 10
660.7530249846229
 20
-41.27874988581186
 30
0.0
 40
2.5
 41
0.0
 71
     5
 72
     1
  1
53
  7
CatalogDxf
 73
     1
 44
1.0
1001
ACAD
1000
MTEXTBEGIN
1070
    73
1070
     1
1070
    44
1040
1.0
1070
    74
1070
     0
1000
MTEXTEND
  0
POINT
  5
472A
330
44D0
100
AcDbEntity
  8
DEFPOINTS
 62
     0
100
AcDbPoint
 10
687.2530249846229
 20
-25.81225767326021
 30
0.0
  0
POINT
  5
472B
330
44D0
100
AcDbEntity
  8
DEFPOINTS
 62
     0
100
AcDbPoint
 10
634.2530249846229
 20
-27.81225767326024
 30
0.0
  0
POINT
  5
472C
330
44D0
100
AcDbEntity
  8
DEFPOINTS
 62
     0
100
AcDbPoint
 10
634.2530249846229
 20
-43.15374988581186
 30
0.0
  0
ENDBLK
  5
44DB
330
44D0
100
AcDbEntity
  8
0
100
AcDbBlockEnd
  0
BLOCK
  5
44E7
330
44DD
100
AcDbEntity
  8
0
100
AcDbBlockBegin
  2
*D4
 70
     1
 10
0.0
 20
0.0
 30
0.0
  3
*D4
  1

  0
LINE
  5
472D
330
44DD
100
AcDbEntity
  8
Z_OM_DIM
100
AcDbLine
 10
632.7530249846229
 20
-14.9872576732603
 30
0.0
 11
632.7530249846229
 21
-30.01789341379151
 31
0.0
  0
LINE
  5
472E
330
44DD
100
AcDbEntity
  8
Z_OM_DIM
100
AcDbLine
 10
625.7530249846229
 20
-17.93725767326032
 30
0.0
 11
625.7530249846229
 21
-30.01789341379151
 31
0.0
  0
LINE
  5
472F
330
44DD
100
AcDbEntity
  8
Z_OM_DIM
100
AcDbLine
 10
630.2530249846229
 20
-28.76789341379151
 30
0.0
 11
628.2530249846229
 21
-28.76789341379151
 31
0.0
  0
MTEXT
  5
4730
330
44DD
100
AcDbEntity
  8
Z_OM_DIM
100
AcDbMText
 10
629.5769894179662
 20
-26.37263980140096
 30
0.0
 40
2.5
 41
0.0
 71
     5
 72
     1
  1
7
  7
CatalogDxf
 73
     1
 44
1.0
1001
ACAD
1000
MTEXTBEGIN
1070
    73
1070
     1
1070
    44
1040
1.0
1070
    74
1070
     0
1000
MTEXTEND
  0
INSERT
  5
4731
330
44DD
100
AcDbEntity
  8
Z_OM_DIM
100
AcDbBlockReference
  2
_OPEN30
 10
632.7530249846229
 20
-28.76789341379151
 30
0.0
 41
2.5
 42
2.5
 43
2.5
  0
INSERT
  5
4732
330
44DD
100
AcDbEntity
  8
Z_OM_DIM
100
AcDbBlockReference
  2
_OPEN30
 10
625.7530249846229
 20
-28.76789341379151
 30
0.0
 41
2.5
 42
2.5
 43
2.5
 50
180.0
  0
POINT
  5
4733
330
44DD
100
AcDbEntity
  8
DEFPOINTS
 62
     0
100
AcDbPoint
 10
632.7530249846229
 20
-14.3622576732603
 30
0.0
  0
POINT
  5
4734
330
44DD
100
AcDbEntity
  8
DEFPOINTS
 62
     0
100
AcDbPoint
 10
625.7530249846229
 20
-17.31225767326032
 30
0.0
  0
POINT
  5
4735
330
44DD
100
AcDbEntity
  8
DEFPOINTS
 62
     0
100
AcDbPoint
 10
625.7530249846229
 20
-28.76789341379151
 30
0.0
  0
ENDBLK
  5
44E8
330
44DD
100
AcDbEntity
  8
0
100
AcDbBlockEnd
  0
BLOCK
  5
44F4
330
44EA
100
AcDbEntity
  8
0
100
AcDbBlockBegin
  2
*D5
 70
     1
 10
0.0
 20
0.0
 30
0.0
  3
*D5
  1

  0
LINE
  5
4736
330
44EA
100
AcDbEntity
  8
Z_OM_DIM
100
AcDbLine
 10
681.9292608581231
 20
-78.90353300005435
 30
0.0
 11
705.7935495832509
 21
-78.90353300005435
 31
0.0
  0
LINE
  5
4737
330
44EA
100
AcDbEntity
  8
Z_OM_DIM
100
AcDbLine
 10
681.9292608581231
 20
-98.90353300005433
 30
0.0
 11
705.7935495832509
 21
-98.90353300005433
 31
0.0
  0
LINE
  5
4738
330
44EA
100
AcDbEntity
  8
Z_OM_DIM
100
AcDbLine
 10
704.5435495832509
 20
-81.40353300005434
 30
0.0
 11
704.5435495832509
 21
-96.40353300005433
 31
0.0
  0
INSERT
  5
4739
330
44EA
100
AcDbEntity
  8
Z_OM_DIM
100
AcDbBlockReference
  2
_OPEN30
 10
704.5435495832509
 20
-78.90353300005435
 30
0.0
 41
2.5
 42
2.5
 43
2.5
 50
90.0
  0
INSERT
  5
473A
330
44EA
100
AcDbEntity
  8
Z_OM_DIM
100
AcDbBlockReference
  2
_OPEN30
 10
704.5435495832509
 20
-98.90353300005433
 30
0.0
 41
2.5
 42
2.5
 43
2.5
 50
270.0
  0
MTEXT
  5
473B
330
44EA
100
AcDbEntity
  8
Z_OM_DIM
100
AcDbMText
 10
702.6685495832509
 20
-88.90353300005422
 30
0.0
 40
2.5
 41
0.0
 71
     5
 72
     1
  1
20
  7
CatalogDxf
 11
0.0000000000000001
 21
1.0
 31
0.0
 73
     1
 44
1.0
1001
ACAD
1000
MTEXTBEGIN
1070
    73
1070
     1
1070
    44
1040
1.0
1070
    74
1070
     0
1000
MTEXTEND
  0
POINT
  5
473C
330
44EA
100
AcDbEntity
  8
DEFPOINTS
 62
     0
100
AcDbPoint
 10
681.3042608581231
 20
-78.90353300005435
 30
0.0
  0
POINT
  5
473D
330
44EA
100
AcDbEntity
  8
DEFPOINTS
 62
     0
100
AcDbPoint
 10
681.3042608581231
 20
-98.90353300005433
 30
0.0
  0
POINT
  5
473E
330
44EA
100
AcDbEntity
  8
DEFPOINTS
 62
     0
100
AcDbPoint
 10
704.5435495832509
 20
-98.90353300005433
 30
0.0
  0
ENDBLK
  5
44F5
330
44EA
100
AcDbEntity
  8
0
100
AcDbBlockEnd
  0
BLOCK
  5
4501
330
44F7
100
AcDbEntity
  8
0
100
AcDbBlockBegin
  2
*D6
 70
     1
 10
0.0
 20
0.0
 30
0.0
  3
*D6
  1

  0
LINE
  5
473F
330
44F7
100
AcDbEntity
  8
Z_OM_DIM
100
AcDbLine
 10
677.2530249846229
 20
-74.77853300005438
 30
0.0
 11
677.2530249846229
 21
-61.6934063754594
 31
0.0
  0
LINE
  5
4740
330
44F7
100
AcDbEntity
  8
Z_OM_DIM
100
AcDbLine
 10
647.2530249846229
 20
-75.27853300005438
 30
0.0
 11
647.2530249846229
 21
-61.6934063754594
 31
0.0
  0
LINE
  5
4741
330
44F7
100
AcDbEntity
  8
Z_OM_DIM
100
AcDbLine
 10
674.7530249846229
 20
-62.9434063754594
 30
0.0
 11
649.7530249846229
 21
-62.9434063754594
 31
0.0
  0
INSERT
  5
4742
330
44F7
100
AcDbEntity
  8
Z_OM_DIM
100
AcDbBlockReference
  2
_OPEN30
 10
677.2530249846229
 20
-62.9434063754594
 30
0.0
 41
2.5
 42
2.5
 43
2.5
  0
INSERT
  5
4743
330
44F7
100
AcDbEntity
  8
Z_OM_DIM
100
AcDbBlockReference
  2
_OPEN30
 10
647.2530249846229
 20
-62.9434063754594
 30
0.0
 41
2.5
 42
2.5
 43
2.5
 50
180.0
  0
MTEXT
  5
4744
330
44F7
100
AcDbEntity
  8
Z_OM_DIM
100
AcDbMText
 10
662.2530249846229
 20
-61.0684063754594
 30
0.0
 40
2.5
 41
0.0
 71
     5
 72
     1
  1
30
  7
CatalogDxf
 73
     1
 44
1.0
1001
ACAD
1000
MTEXTBEGIN
1070
    73
1070
     1
1070
    44
1040
1.0
1070
    74
1070
     0
1000
MTEXTEND
  0
POINT
  5
4745
330
44F7
100
AcDbEntity
  8
DEFPOINTS
 62
     0
100
AcDbPoint
 10
677.2530249846229
 20
-75.40353300005438
 30
0.0
  0
POINT
  5
4746
330
44F7
100
AcDbEntity
  8
DEFPOINTS
 62
     0
100
AcDbPoint
 10
647.2530249846229
 20
-75.90353300005438
 30
0.0
  0
POINT
  5
4747
330
44F7
100
AcDbEntity
  8
DEFPOINTS
 62
     0
100
AcDbPoint
 10
647.2530249846229
 20
-62.9434063754594
 30
0.0
  0
ENDBLK
  5
4502
330
44F7
100
AcDbEntity
  8
0
100
AcDbBlockEnd
  0
BLOCK
  5
450E
330
4504
100
AcDbEntity
  8
0
100
AcDbBlockBegin
  2
*D7
 70
     1
 10
0.0
 20
0.0
 30
0.0
  3
*D7
  1

  0
LINE
  5
4748
330
4504
100
AcDbEntity
  8
Z_OM_DIM
100
AcDbLine
 10
647.2530249846229
 20
-75.27853300005438
 30
0.0
 11
647.2530249846229
 21
-61.6934063754594
 31
0.0
  0
LINE
  5
4749
330
4504
100
AcDbEntity
  8
Z_OM_DIM
100
AcDbLine
 10
628.7530249846229
 20
-80.46329891966815
 30
0.0
 11
628.7530249846229
 21
-61.6934063754594
 31
0.0
  0
LINE
  5
474A
330
4504
100
AcDbEntity
  8
Z_OM_DIM
100
AcDbLine
 10
644.7530249846229
 20
-62.9434063754594
 30
0.0
 11
631.2530249846229
 21
-62.9434063754594
 31
0.0
  0
INSERT
  5
474B
330
4504
100
AcDbEntity
  8
Z_OM_DIM
100
AcDbBlockReference
  2
_OPEN30
 10
647.2530249846229
 20
-62.9434063754594
 30
0.0
 41
2.5
 42
2.5
 43
2.5
  0
INSERT
  5
474C
330
4504
100
AcDbEntity
  8
Z_OM_DIM
100
AcDbBlockReference
  2
_OPEN30
 10
628.7530249846229
 20
-62.9434063754594
 30
0.0
 41
2.5
 42
2.5
 43
2.5
 50
180.0
  0
MTEXT
  5
474D
330
4504
100
AcDbEntity
  8
Z_OM_DIM
100
AcDbMText
 10
638.0030249846229
 20
-61.0684063754594
 30
0.0
 40
2.5
 41
0.0
 71
     5
 72
     1
  1
18.5
  7
CatalogDxf
 73
     1
 44
1.0
1001
ACAD
1000
MTEXTBEGIN
1070
    73
1070
     1
1070
    44
1040
1.0
1070
    74
1070
     0
1000
MTEXTEND
  0
POINT
  5
474E
330
4504
100
AcDbEntity
  8
DEFPOINTS
 62
     0
100
AcDbPoint
 10
647.2530249846229
 20
-75.90353300005438
 30
0.0
  0
POINT
  5
474F
330
4504
100
AcDbEntity
  8
DEFPOINTS
 62
     0
100
AcDbPoint
 10
628.7530249846229
 20
-81.08829891966815
 30
0.0
  0
POINT
  5
4750
330
4504
100
AcDbEntity
  8
DEFPOINTS
 62
     0
100
AcDbPoint
 10
628.7530249846229
 20
-62.9434063754594
 30
0.0
  0
ENDBLK
  5
450F
330
4504
100
AcDbEntity
  8
0
100
AcDbBlockEnd
  0
BLOCK
  5
451D
330
4511
100
AcDbEntity
  8
0
100
AcDbBlockBegin
  2
*D8
 70
     1
 10
0.0
 20
0.0
 30
0.0
  3
*D8
  1

  0
LINE
  5
47B9
330
4511
100
AcDbEntity
  8
Z_OM_DIM
100
AcDbLine
 10
628.7530249846229
 20
-80.46329891966815
 30
0.0
 11
628.7530249846229
 21
-61.6934063754594
 31
0.0
  0
LINE
  5
47BA
330
4511
100
AcDbEntity
  8
Z_OM_DIM
100
AcDbLine
 10
625.7530249846229
 20
-83.7785330000544
 30
0.0
 11
625.7530249846229
 21
-61.6934063754594
 31
0.0
  0
LINE
  5
47BB
330
4511
100
AcDbEntity
  8
Z_OM_DIM
100
AcDbLine
 10
631.2530249846229
 20
-62.9434063754594
 30
0.0
 11
633.7530249846229
 21
-62.9434063754594
 31
0.0
  0
LINE
  5
47BC
330
4511
100
AcDbEntity
  8
Z_OM_DIM
100
AcDbLine
 10
623.2530249846229
 20
-62.9434063754594
 30
0.0
 11
617.8363583179563
 21
-62.9434063754594
 31
0.0
  0
LINE
  5
47BD
330
4511
100
AcDbEntity
  8
Z_OM_DIM
100
AcDbLine
 10
628.7530249846229
 20
-62.9434063754594
 30
0.0
 11
625.7530249846229
 21
-62.9434063754594
 31
0.0
  0
INSERT
  5
47BE
330
4511
100
AcDbEntity
  8
Z_OM_DIM
100
AcDbBlockReference
  2
_OPEN30
 10
628.7530249846229
 20
-62.9434063754594
 30
0.0
 41
2.5
 42
2.5
 43
2.5
 50
180.0
  0
INSERT
  5
47BF
330
4511
100
AcDbEntity
  8
Z_OM_DIM
100
AcDbBlockReference
  2
_OPEN30
 10
625.7530249846229
 20
-62.9434063754594
 30
0.0
 41
2.5
 42
2.5
 43
2.5
  0
MTEXT
  5
47C0
330
4511
100
AcDbEntity
  8
Z_OM_DIM
100
AcDbMText
 10
619.2946916512895
 20
-61.0684063754594
 30
0.0
 40
2.5
 41
0.0
 71
     5
 72
     1
  1
3
  7
CatalogDxf
 73
     1
 44
1.0
1001
ACAD
1000
MTEXTBEGIN
1070
    73
1070
     1
1070
    44
1040
1.0
1070
    74
1070
     0
1000
MTEXTEND
  0
POINT
  5
47C1
330
4511
100
AcDbEntity
  8
DEFPOINTS
 62
     0
100
AcDbPoint
 10
628.7530249846229
 20
-81.08829891966815
 30
0.0
  0
POINT
  5
47C2
330
4511
100
AcDbEntity
  8
DEFPOINTS
 62
     0
100
AcDbPoint
 10
625.7530249846229
 20
-84.4035330000544
 30
0.0
  0
POINT
  5
47C3
330
4511
100
AcDbEntity
  8
DEFPOINTS
 62
     0
100
AcDbPoint
 10
625.7530249846229
 20
-62.9434063754594
 30
0.0
  0
ENDBLK
  5
451E
330
4511
100
AcDbEntity
  8
0
100
AcDbBlockEnd
  0
BLOCK
  5
452A
330
4520
100
AcDbEntity
  8
0
100
AcDbBlockBegin
  2
*D9
 70
     1
 10
0.0
 20
0.0
 30
0.0
  3
*D9
  1

  0
LINE
  5
4791
330
4520
100
AcDbEntity
  8
Z_OM_DIM
100
AcDbLine
 10
625.6280249846229
 20
-83.90353300005438
 30
0.0
 11
611.6859175807649
 21
-83.90353300005438
 31
0.0
  0
LINE
  5
4792
330
4520
100
AcDbEntity
  8
Z_OM_DIM
100
AcDbLine
 10
625.6280249846233
 20
-93.90353300005489
 30
0.0
 11
611.6859175807649
 21
-93.90353300005489
 31
0.0
  0
LINE
  5
4793
330
4520
100
AcDbEntity
  8
Z_OM_DIM
100
AcDbLine
 10
612.9359175807649
 20
-86.40353300005438
 30
0.0
 11
612.9359175807649
 21
-91.40353300005489
 31
0.0
  0
INSERT
  5
4794
330
4520
100
AcDbEntity
  8
Z_OM_DIM
100
AcDbBlockReference
  2
_OPEN30
 10
612.9359175807649
 20
-83.90353300005438
 30
0.0
 41
2.5
 42
2.5
 43
2.5
 50
90.0
  0
INSERT
  5
4795
330
4520
100
AcDbEntity
  8
Z_OM_DIM
100
AcDbBlockReference
  2
_OPEN30
 10
612.9359175807649
 20
-93.90353300005489
 30
0.0
 41
2.5
 42
2.5
 43
2.5
 50
270.0
  0
MTEXT
  5
4796
330
4520
100
AcDbEntity
  8
Z_OM_DIM
100
AcDbMText
 10
611.0609175807649
 20
-88.90353300005454
 30
0.0
 40
2.5
 41
0.0
 71
     5
 72
     1
  1
%%c10
  7
CatalogDxf
 11
0.0000000000000001
 21
1.0
 31
0.0
 73
     1
 44
1.0
1001
ACAD
1000
MTEXTBEGIN
1070
    73
1070
     1
1070
    44
1040
1.0
1070
    74
1070
     0
1000
MTEXTEND
  0
POINT
  5
4797
330
4520
100
AcDbEntity
  8
DEFPOINTS
 62
     0
100
AcDbPoint
 10
626.2530249846228
 20
-83.90353300005438
 30
0.0
  0
POINT
  5
4798
330
4520
100
AcDbEntity
  8
DEFPOINTS
 62
     0
100
AcDbPoint
 10
626.2530249846234
 20
-93.90353300005489
 30
0.0
  0
POINT
  5
4799
330
4520
100
AcDbEntity
  8
DEFPOINTS
 62
     0
100
AcDbPoint
 10
612.9359175807649
 20
-93.90353300005489
 30
0.0
  0
ENDBLK
  5
452B
330
4520
100
AcDbEntity
  8
0
100
AcDbBlockEnd
  0
BLOCK
  5
4540
330
4536
100
AcDbEntity
  8
0
100
AcDbBlockBegin
  2
*D10
 70
     1
 10
0.0
 20
0.0
 30
0.0
  3
*D10
  1

  0
LINE
  5
4765
330
4536
100
AcDbEntity
  8
Z_OM_DIM
100
AcDbLine
 10
577.5279819445643
 20
-75.40353300005438
 30
0.0
 11
593.6019866522889
 21
-75.40353300005438
 31
0.0
  0
LINE
  5
4766
330
4536
100
AcDbEntity
  8
Z_OM_DIM
100
AcDbLine
 10
577.5279819445643
 20
-102.4035330000544
 30
0.0
 11
593.6019866522889
 21
-102.4035330000544
 31
0.0
  0
LINE
  5
4767
330
4536
100
AcDbEntity
  8
Z_OM_DIM
100
AcDbLine
 10
592.3519866522889
 20
-77.90353300005438
 30
0.0
 11
592.3519866522889
 21
-99.90353300005438
 31
0.0
  0
INSERT
  5
4768
330
4536
100
AcDbEntity
  8
Z_OM_DIM
100
AcDbBlockReference
  2
_OPEN30
 10
592.3519866522889
 20
-75.40353300005438
 30
0.0
 41
2.5
 42
2.5
 43
2.5
 50
90.0
  0
INSERT
  5
4769
330
4536
100
AcDbEntity
  8
Z_OM_DIM
100
AcDbBlockReference
  2
_OPEN30
 10
592.3519866522889
 20
-102.4035330000544
 30
0.0
 41
2.5
 42
2.5
 43
2.5
 50
270.0
  0
MTEXT
  5
476A
330
4536
100
AcDbEntity
  8
Z_OM_DIM
100
AcDbMText
 10
590.4769866522889
 20
-88.90353300005429
 30
0.0
 40
2.5
 41
0.0
 71
     5
 72
     1
  1
27
  7
CatalogDxf
 11
0.0000000000000001
 21
1.0
 31
0.0
 73
     1
 44
1.0
1001
ACAD
1000
MTEXTBEGIN
1070
    73
1070
     1
1070
    44
1040
1.0
1070
    74
1070
     0
1000
MTEXTEND
  0
POINT
  5
476B
330
4536
100
AcDbEntity
  8
DEFPOINTS
 62
     0
100
AcDbPoint
 10
576.9029819445643
 20
-75.40353300005438
 30
0.0
  0
POINT
  5
476C
330
4536
100
AcDbEntity
  8
DEFPOINTS
 62
     0
100
AcDbPoint
 10
576.9029819445643
 20
-102.4035330000544
 30
0.0
  0
POINT
  5
476D
330
4536
100
AcDbEntity
  8
DEFPOINTS
 62
     0
100
AcDbPoint
 10
592.3519866522889
 20
-102.4035330000544
 30
0.0
  0
ENDBLK
  5
4541
330
4536
100
AcDbEntity
  8
0
100
AcDbBlockEnd
  0
BLOCK
  5
454D
330
4543
100
AcDbEntity
  8
0
100
AcDbBlockBegin
  2
*D11
 70
     1
 10
0.0
 20
0.0
 30
0.0
  3
*D11
  1

  0
LINE
  5
476E
330
4543
100
AcDbEntity
  8
Z_OM_DIM
100
AcDbLine
 10
546.9029819445643
 20
-103.0285330000544
 30
0.0
 11
546.9029819445643
 21
-117.7660187122368
 31
0.0
  0
LINE
  5
476F
330
4543
100
AcDbEntity
  8
Z_OM_DIM
100
AcDbLine
 10
576.9029819445643
 20
-103.0285330000544
 30
0.0
 11
576.9029819445643
 21
-117.7660187122368
 31
0.0
  0
LINE
  5
4770
330
4543
100
AcDbEntity
  8
Z_OM_DIM
100
AcDbLine
 10
549.4029819445643
 20
-116.5160187122368
 30
0.0
 11
574.4029819445643
 21
-116.5160187122368
 31
0.0
  0
INSERT
  5
4771
330
4543
100
AcDbEntity
  8
Z_OM_DIM
100
AcDbBlockReference
  2
_OPEN30
 10
546.9029819445643
 20
-116.5160187122368
 30
0.0
 41
2.5
 42
2.5
 43
2.5
 50
180.0
  0
INSERT
  5
4772
330
4543
100
AcDbEntity
  8
Z_OM_DIM
100
AcDbBlockReference
  2
_OPEN30
 10
576.9029819445643
 20
-116.5160187122368
 30
0.0
 41
2.5
 42
2.5
 43
2.5
  0
MTEXT
  5
4773
330
4543
100
AcDbEntity
  8
Z_OM_DIM
100
AcDbMText
 10
561.9029819445643
 20
-114.6410187122368
 30
0.0
 40
2.5
 41
0.0
 71
     5
 72
     1
  1
30
  7
CatalogDxf
 73
     1
 44
1.0
1001
ACAD
1000
MTEXTBEGIN
1070
    73
1070
     1
1070
    44
1040
1.0
1070
    74
1070
     0
1000
MTEXTEND
  0
POINT
  5
4774
330
4543
100
AcDbEntity
  8
DEFPOINTS
 62
     0
100
AcDbPoint
 10
546.9029819445643
 20
-102.4035330000544
 30
0.0
  0
POINT
  5
4775
330
4543
100
AcDbEntity
  8
DEFPOINTS
 62
     0
100
AcDbPoint
 10
576.9029819445643
 20
-102.4035330000544
 30
0.0
  0
POINT
  5
4776
330
4543
100
AcDbEntity
  8
DEFPOINTS
 62
     0
100
AcDbPoint
 10
576.9029819445643
 20
-116.5160187122368
 30
0.0
  0
ENDBLK
  5
454E
330
4543
100
AcDbEntity
  8
0
100
AcDbBlockEnd
  0
BLOCK
  5
45A1
330
4597
100
AcDbEntity
  8
0
100
AcDbBlockBegin
  2
*D12
 70
     1
 10
0.0
 20
0.0
 30
0.0
  3
*D12
  1

  0
LINE
  5
4777
330
4597
100
AcDbEntity
  8
Z_OM_DIM
100
AcDbLine
 10
634.2530249846229
 20
-28.43725767326024
 30
0.0
 11
634.2530249846229
 21
-38.23845411943159
 31
0.0
  0
LINE
  5
4778
330
4597
100
AcDbEntity
  8
Z_OM_DIM
100
AcDbLine
 10
647.2530249846229
 20
-30.37360254166098
 30
0.0
 11
647.2530249846229
 21
-38.23845411943159
 31
0.0
  0
LINE
  5
4779
330
4597
100
AcDbEntity
  8
Z_OM_DIM
100
AcDbLine
 10
636.7530249846229
 20
-36.98845411943159
 30
0.0
 11
644.7530249846229
 21
-36.98845411943159
 31
0.0
  0
INSERT
  5
477A
330
4597
100
AcDbEntity
  8
Z_OM_DIM
100
AcDbBlockReference
  2
_OPEN30
 10
634.2530249846229
 20
-36.98845411943159
 30
0.0
 41
2.5
 42
2.5
 43
2.5
 50
180.0
  0
INSERT
  5
477B
330
4597
100
AcDbEntity
  8
Z_OM_DIM
100
AcDbBlockReference
  2
_OPEN30
 10
647.2530249846229
 20
-36.98845411943159
 30
0.0
 41
2.5
 42
2.5
 43
2.5
  0
MTEXT
  5
477C
330
4597
100
AcDbEntity
  8
Z_OM_DIM
100
AcDbMText
 10
640.7530249846229
 20
-35.11345411943159
 30
0.0
 40
2.5
 41
0.0
 71
     5
 72
     1
  1
13
  7
CatalogDxf
 73
     1
 44
1.0
1001
ACAD
1000
MTEXTBEGIN
1070
    73
1070
     1
1070
    44
1040
1.0
1070
    74
1070
     0
1000
MTEXTEND
  0
POINT
  5
477D
330
4597
100
AcDbEntity
  8
DEFPOINTS
 62
     0
100
AcDbPoint
 10
634.2530249846229
 20
-27.81225767326024
 30
0.0
  0
POINT
  5
477E
330
4597
100
AcDbEntity
  8
DEFPOINTS
 62
     0
100
AcDbPoint
 10
647.2530249846229
 20
-29.74860254166097
 30
0.0
  0
POINT
  5
477F
330
4597
100
AcDbEntity
  8
DEFPOINTS
 62
     0
100
AcDbPoint
 10
647.2530249846229
 20
-36.98845411943159
 30
0.0
  0
ENDBLK
  5
45A2
330
4597
100
AcDbEntity
  8
0
100
AcDbBlockEnd
  0
ENDSEC
  0
SECTION
  2
ENTITIES
  0
MTEXT
  5
4130
330
17
100
AcDbEntity
  8
Z_OM_DIM
100
AcDbMText
 10
695.8742970501184
 20
-132.998141200257
 30
0.0
 40
3.0
 41
60.54262799221429
 71
     1
 72
     5
  1
TAKAHA KIKO Co., Ltd\PCAD DRAWING No. CA1053
  7
CatalogDxf
 73
     1
 44
1.0
1001
ACAD
1000
MTEXTBEGIN
1070
    73
1070
     1
1070
    44
1040
1.0
1070
    74
1070
     0
1000
MTEXTEND
  0
MTEXT
  5
42AA
330
17
100
AcDbEntity
  8
Z_OM_DIM
100
AcDbMText
 10
508.284974193393
 20
-4.077668060458908
 30
0.0
 40
3.0
 41
47.03999999999999
 71
     1
 72
     1
  1
Adsorbed position
  7
CatalogDxf
 73
     1
 44
1.0
1001
ACAD
1000
MTEXTBEGIN
1070
    73
1070
     1
1070
    44
1040
1.0
1070
    74
1070
     0
1000
MTEXTEND
  0
LINE
  5
4301
330
17
100
AcDbEntity
  8
0
 48
0.5
100
AcDbLine
 10
711.1676284839367
 20
-12.81225767326032
 30
0.0
 11
711.1676284839362
 21
-13.81225767326032
 31
0.0
  0
SPLINE
  5
4302
330
17
100
AcDbEntity
  8
additional
 48
0.5
100
AcDbSpline
210
0.0
220
0.0
230
1.0
 70
     8
 71
     3
 72
    18
 73
    14
 74
    12
 42
0.0000000001
 43
0.0000000001
 44
0.0000000001
 40
0.0
 40
0.0
 40
0.0
 40
0.0
 40
0.3913118960626157
 40
0.7826237921250917
 40
1.482623792125051
 40
1.873935688187565
 40
2.265247584250092
 40
2.656559480312479
 40
3.047871376374942
 40
4.097871376374982
 40
4.489183272437407
 40
4.880495168499806
 40
5.271807064562397
 40
5.271807064562397
 40
5.271807064562397
 40
5.271807064562397
 10
692.7467987999119
 20
-10.2948844596785
 30
0.0
 10
692.8030836415583
 20
-10.41252419303291
 30
0.0
 10
692.9156533248511
 20
-10.64780365974169
 30
0.0
 10
693.1754770139916
 20
-11.07140263105585
 30
0.0
 10
693.1755545019556
 20
-11.61838524958568
 30
0.0
 10
692.9155233735849
 20
-12.0419216097715
 30
0.0
 10
692.7472843066759
 20
-12.39505313365209
 30
0.0
 10
692.5761321991826
 20
-12.74717261369032
 30
0.0
 10
692.2683586375422
 20
-13.27543203210254
 30
0.0
 10
692.2679618502944
 20
-13.96448225596252
 30
0.0
 10
692.5765758208118
 20
-14.49239339831318
 30
0.0
 10
692.7456045446868
 20
-14.84550722501987
 30
0.0
 10
692.8630673815036
 20
-15.0784253814589
 30
0.0
 10
692.9217987999122
 20
-15.19488445967845
 30
0.0
 11
692.7467987999119
 21
-10.2948844596785
 31
0.0
 11
692.9217987999122
 21
-10.64488445967852
 31
0.0
 11
693.0967987999122
 21
-10.9948844596785
 31
0.0
 11
693.0967987999122
 21
-11.69488445967846
 31
0.0
 11
692.9217987999122
 21
-12.04488445967848
 31
0.0
 11
692.7467987999119
 21
-12.39488445967841
 31
0.0
 11
692.571798799912
 21
-12.7448844596784
 31
0.0
 11
692.396798799912
 21
-13.09488445967842
 31
0.0
 11
692.396798799912
 21
-14.14488445967846
 31
0.0
 11
692.571798799912
 21
-14.49488445967844
 31
0.0
 11
692.7467987999119
 21
-14.84488445967845
 31
0.0
 11
692.9217987999122
 21
-15.19488445967845
 31
0.0
  0
SPLINE
  5
4303
330
17
100
AcDbEntity
  8
additional
 48
0.5
100
AcDbSpline
210
0.0
220
0.0
230
1.0
 70
     8
 71
     3
 72
    18
 73
    14
 74
    12
 42
0.0000000001
 43
0.0000000001
 44
0.0000000001
 40
0.0
 40
0.0
 40
0.0
 40
0.0
 40
0.3913118960624632
 40
0.7826237921249391
 40
1.482623792124899
 40
1.873935688187413
 40
2.265247584249787
 40
2.656559480312326
 40
3.047871376374789
 40
4.097871376374829
 40
4.489183272437254
 40
4.880495168499806
 40
5.271807064562244
 40
5.271807064562244
 40
5.271807064562244
 40
5.271807064562244
 10
693.6217987999121
 20
-10.2948844596785
 30
0.0
 10
693.6780836415583
 20
-10.41252419303292
 30
0.0
 10
693.7906533248511
 20
-10.64780365974177
 30
0.0
 10
694.0504770139916
 20
-11.07140263105583
 30
0.0
 10
694.0505545019557
 20
-11.61838524958572
 30
0.0
 10
693.790523373585
 20
-12.04192160977139
 30
0.0
 10
693.6222843066764
 20
-12.39505313365228
 30
0.0
 10
693.4511321991826
 20
-12.74717261369021
 30
0.0
 10
693.1433586375423
 20
-13.2754320321026
 30
0.0
 10
693.1429618502948
 20
-13.96448225596247
 30
0.0
 10
693.4515758208114
 20
-14.49239339831328
 30
0.0
 10
693.6206045446875
 20
-14.8455072250197
 30
0.0
 10
693.7380673815039
 20
-15.07842538145888
 30
0.0
 10
693.7967987999122
 20
-15.19488445967845
 30
0.0
 11
693.6217987999121
 21
-10.2948844596785
 31
0.0
 11
693.7967987999122
 21
-10.64488445967852
 31
0.0
 11
693.9717987999122
 21
-10.9948844596785
 31
0.0
 11
693.9717987999122
 21
-11.69488445967846
 31
0.0
 11
693.7967987999122
 21
-12.04488445967848
 31
0.0
 11
693.6217987999121
 21
-12.39488445967841
 31
0.0
 11
693.446798799912
 21
-12.7448844596784
 31
0.0
 11
693.271798799912
 21
-13.09488445967842
 31
0.0
 11
693.271798799912
 21
-14.14488445967846
 31
0.0
 11
693.446798799912
 21
-14.49488445967844
 31
0.0
 11
693.6217987999121
 21
-14.84488445967845
 31
0.0
 11
693.7967987999122
 21
-15.19488445967845
 31
0.0
  0
LINE
  5
4304
330
17
100
AcDbEntity
  8
0
100
AcDbLine
 10
683.7530249846229
 20
-13.81225767326032
 30
0.0
 11
692.3125468857229
 21
-13.81225767326032
 31
0.0
  0
LINE
  5
4305
330
17
100
AcDbEntity
  8
0
100
AcDbLine
 10
683.7530249846229
 20
-12.81225767326032
 30
0.0
 11
692.5354377351293
 21
-12.81225767326032
 31
0.0
  0
LINE
  5
4306
330
17
100
AcDbEntity
  8
0
100
AcDbLine
 10
683.7530249846229
 20
-11.81225767326032
 30
0.0
 11
693.0470524000842
 21
-11.81225767326032
 31
0.0
  0
LINE
  5
4307
330
17
100
AcDbEntity
  8
0
100
AcDbLine
 10
711.1676284839367
 20
-11.81225767326032
 30
0.0
 11
711.1676284839367
 21
-13.81225767326032
 31
0.0
  0
LINE
  5
4308
330
17
100
AcDbEntity
  8
0
100
AcDbLine
 10
693.9220524000842
 20
-11.81225767326032
 30
0.0
 11
711.1676284839362
 21
-11.81225767326032
 31
0.0
  0
LINE
  5
4309
330
17
100
AcDbEntity
  8
0
100
AcDbLine
 10
693.1875468857229
 20
-13.81225767326032
 30
0.0
 11
711.1676284839367
 21
-13.81225767326032
 31
0.0
  0
LINE
  5
430A
330
17
100
AcDbEntity
  8
0
100
AcDbLine
 10
693.4104377351293
 20
-12.81225767326032
 30
0.0
 11
711.1676284839367
 21
-12.81225767326032
 31
0.0
  0
POINT
  5
430B
330
17
100
AcDbEntity
  8
0
100
AcDbPoint
 10
711.1676284839362
 20
-11.81225767326032
 30
0.0
  0
POINT
  5
430C
330
17
100
AcDbEntity
  8
0
100
AcDbPoint
 10
711.1676284839367
 20
-12.31225767326032
 30
0.0
  0
POINT
  5
430D
330
17
100
AcDbEntity
  8
0
100
AcDbPoint
 10
711.1676284839362
 20
-13.81225767326032
 30
0.0
  0
POINT
  5
430E
330
17
100
AcDbEntity
  8
0
100
AcDbPoint
 10
711.1676284839367
 20
-13.31225767326032
 30
0.0
  0
LINE
  5
430F
330
17
100
AcDbEntity
  8
0
100
AcDbLine
 10
711.1676284839367
 20
-13.56225767326032
 30
0.0
 11
718.1676284839367
 21
-13.56225767326032
 31
0.0
  0
LINE
  5
4310
330
17
100
AcDbEntity
  8
0
100
AcDbLine
 10
711.1676284839367
 20
-13.06225767326032
 30
0.0
 11
718.1676284839367
 21
-13.06225767326032
 31
0.0
  0
LINE
  5
4311
330
17
100
AcDbEntity
  8
0
100
AcDbLine
 10
711.1676284839367
 20
-12.56225767326032
 30
0.0
 11
718.1676284839367
 21
-12.56225767326032
 31
0.0
  0
LINE
  5
4312
330
17
100
AcDbEntity
  8
0
100
AcDbLine
 10
711.1676284839367
 20
-12.06225767326032
 30
0.0
 11
718.1676284839367
 21
-12.06225767326032
 31
0.0
  0
DIMENSION
  5
4313
330
17
100
AcDbEntity
  8
Z_OM_DIM
100
AcDbDimension
  2
*D1
 10
718.1676284839367
 20
-43.15374988581186
 30
0.0
 11
702.7103267342797
 21
-41.27874988581186
 31
0.0
 70
    32
  1
180 - 200
 71
     5
 42
30.91460349931379
  3
CatalogDxf
100
AcDbAlignedDimension
 13
687.2530249846229
 23
-25.81225767326021
 33
0.0
 14
718.1676284839367
 24
-13.56225767326032
 34
0.0
100
AcDbRotatedDimension
  0
LINE
  5
43FC
330
17
100
AcDbEntity
  8
additional
  6
CENTER2
 48
0.5
100
AcDbLine
 10
628.7530249846229
 20
-4.997023592874029
 30
0.0
 11
628.7530249846229
 21
-20.56642031034207
 31
0.0
  0
LINE
  5
43FD
330
17
100
AcDbEntity
  8
additional
  6
CENTER2
 48
0.7
100
AcDbLine
 10
561.9029819445643
 20
-70.94642547501109
 30
0.0
 11
561.9029819445643
 21
-105.16377804824
 31
0.0
  0
LINE
  5
43FE
330
17
100
AcDbEntity
  8
0
 48
0.5
100
AcDbLine
 10
685.2530249846229
 20
2.187742326739765
 30
0.0
 11
634.2530249846229
 21
2.187742326739765
 31
0.0
  0
LINE
  5
43FF
330
17
100
AcDbEntity
  8
0
 48
0.5
100
AcDbLine
 10
635.0530249846226
 20
2.187742326739765
 30
0.0
 11
635.0530249846226
 21
-27.81225767326024
 31
0.0
  0
LINE
  5
4400
330
17
100
AcDbEntity
  8
0
 48
0.5
100
AcDbLine
 10
634.2530249846229
 20
-27.81225767326024
 30
0.0
 11
685.2530249846229
 21
-27.81225767326021
 31
0.0
  0
LINE
  5
4401
330
17
100
AcDbEntity
  8
0
 48
0.5
100
AcDbLine
 10
687.2530249846229
 20
-25.81225767326021
 30
0.0
 11
687.2530249846229
 21
-13.81225767326026
 31
0.0
  0
LINE
  5
4402
330
17
100
AcDbEntity
  8
0
 48
0.5
100
AcDbLine
 10
636.6530249846229
 20
2.187742326739765
 30
0.0
 11
636.6530249846229
 21
-27.81225767326024
 31
0.0
  0
LINE
  5
4403
330
17
100
AcDbEntity
  8
0
 48
0.5
100
AcDbLine
 10
638.2530249846229
 20
2.187742326739765
 30
0.0
 11
638.2530249846229
 21
-27.81225767326024
 31
0.0
  0
LINE
  5
4404
330
17
100
AcDbEntity
  8
0
 48
0.5
100
AcDbLine
 10
638.2530249846229
 20
0.187742326739766
 30
0.0
 11
685.2530249846229
 21
0.187742326739766
 31
0.0
  0
LINE
  5
4405
330
17
100
AcDbEntity
  8
0
 48
0.5
100
AcDbLine
 10
685.2530249846229
 20
0.187742326739766
 30
0.0
 11
685.2530249846229
 21
-11.81225767326026
 31
0.0
  0
LINE
  5
4406
330
17
100
AcDbEntity
  8
0
 48
0.5
100
AcDbLine
 10
685.2530249846229
 20
-25.81225767326023
 30
0.0
 11
638.2530249846229
 21
-25.81225767326023
 31
0.0
  0
LINE
  5
4407
330
17
100
AcDbEntity
  8
0
 48
0.5
100
AcDbLine
 10
634.2530249846229
 20
2.187742326739765
 30
0.0
 11
634.2530249846229
 21
0.187742326739766
 31
0.0
  0
LINE
  5
4408
330
17
100
AcDbEntity
  8
0
 48
0.5
100
AcDbLine
 10
634.2530249846229
 20
0.187742326739766
 30
0.0
 11
635.0530249846226
 21
0.187742326739766
 31
0.0
  0
LINE
  5
4409
330
17
100
AcDbEntity
  8
0
 48
0.5
100
AcDbLine
 10
635.0530249846226
 20
-25.81225767326023
 30
0.0
 11
634.2530249846229
 21
-25.81225767326023
 31
0.0
  0
LINE
  5
440A
330
17
100
AcDbEntity
  8
0
 48
0.5
100
AcDbLine
 10
634.2530249846229
 20
-25.81225767326023
 30
0.0
 11
634.2530249846229
 21
-27.81225767326024
 31
0.0
  0
ARC
  5
440B
330
17
100
AcDbEntity
  8
0
 48
0.5
100
AcDbCircle
 10
685.2530249846229
 20
-25.81225767326021
 30
0.0
 40
2.0
100
AcDbArc
 50
270.0
 51
0.0
  0
ARC
  5
440C
330
17
100
AcDbEntity
  8
0
 48
0.5
100
AcDbCircle
 10
685.2530249846229
 20
0.187742326739766
 30
0.0
 40
2.0
100
AcDbArc
 50
0.0
 51
90.0
  0
LINE
  5
440D
330
17
100
AcDbEntity
  8
0
 48
0.5
100
AcDbLine
 10
641.2530249846229
 20
0.187742326739766
 30
0.0
 11
641.2530249846229
 21
-25.81225767326023
 31
0.0
  0
LINE
  5
440E
330
17
100
AcDbEntity
  8
0
 48
0.5
100
AcDbLine
 10
683.7530249846229
 20
0.1877423267397944
 30
0.0
 11
683.7530249846229
 21
-25.81225767326023
 31
0.0
  0
LINE
  5
440F
330
17
100
AcDbEntity
  8
0
 48
0.5
100
AcDbLine
 10
638.2530249846229
 20
-75.40353300005438
 30
0.0
 11
638.2530249846229
 21
-83.87853300005437
 31
0.0
  0
LINE
  5
4410
330
17
100
AcDbEntity
  8
0
 48
0.5
100
AcDbLine
 10
638.2530249846229
 20
-93.92853300005439
 30
0.0
 11
638.2530249846229
 21
-102.4035330000544
 31
0.0
  0
LINE
  5
4411
330
17
100
AcDbEntity
  8
0
 48
0.5
100
AcDbLine
 10
635.053024984623
 20
-83.87853300005437
 30
0.0
 11
635.053024984623
 21
-75.40353300005438
 31
0.0
  0
LINE
  5
4412
330
17
100
AcDbEntity
  8
0
 48
0.5
100
AcDbLine
 10
636.6530249846229
 20
-83.87853300005437
 30
0.0
 11
636.6530249846229
 21
-75.40353300005438
 31
0.0
  0
LINE
  5
4413
330
17
100
AcDbEntity
  8
0
 48
0.5
100
AcDbLine
 10
636.6530249846229
 20
-102.4035330000544
 30
0.0
 11
636.6530249846229
 21
-93.92853300005441
 31
0.0
  0
LINE
  5
4414
330
17
100
AcDbEntity
  8
0
 48
0.5
100
AcDbLine
 10
635.053024984623
 20
-102.4035330000544
 30
0.0
 11
635.053024984623
 21
-93.92853300005441
 31
0.0
  0
LINE
  5
4415
330
17
100
AcDbEntity
  8
0
 48
0.5
100
AcDbLine
 10
635.0530249846226
 20
-4.812257673260234
 30
0.0
 11
633.7530249846229
 21
-4.812257673260234
 31
0.0
  0
LINE
  5
4416
330
17
100
AcDbEntity
  8
0
 48
0.5
100
AcDbLine
 10
634.5530249846226
 20
-4.812257673260234
 30
0.0
 11
634.5530249846226
 21
-20.81225767326023
 31
0.0
  0
LINE
  5
4417
330
17
100
AcDbEntity
  8
0
 48
0.5
100
AcDbLine
 10
633.7530249846229
 20
-20.81225767326023
 30
0.0
 11
635.0530249846226
 21
-20.81225767326023
 31
0.0
  0
LINE
  5
4418
330
17
100
AcDbEntity
  8
0
 48
0.5
100
AcDbLine
 10
633.7530249846229
 20
-4.812257673260234
 30
0.0
 11
633.7530249846229
 21
-20.81225767326023
 31
0.0
  0
LINE
  5
4419
330
17
100
AcDbEntity
  8
0
 48
0.5
100
AcDbLine
 10
635.0530249846226
 20
-80.90353300005437
 30
0.0
 11
633.7530249846229
 21
-80.90353300005437
 31
0.0
  0
LINE
  5
441A
330
17
100
AcDbEntity
  8
0
 48
0.5
100
AcDbLine
 10
634.5530249846226
 20
-80.90353300005437
 30
0.0
 11
634.5530249846226
 21
-83.87853300005437
 31
0.0
  0
LINE
  5
441B
330
17
100
AcDbEntity
  8
0
 48
0.5
100
AcDbLine
 10
633.7530249846229
 20
-96.90353300005439
 30
0.0
 11
635.0530249846226
 21
-96.90353300005439
 31
0.0
  0
LINE
  5
441C
330
17
100
AcDbEntity
  8
0
 48
0.5
100
AcDbLine
 10
633.7530249846229
 20
-80.90353300005437
 30
0.0
 11
633.7530249846229
 21
-96.90353300005439
 31
0.0
  0
LINE
  5
441D
330
17
100
AcDbEntity
  8
0
 48
0.5
100
AcDbLine
 10
634.5530249846226
 20
-93.92853300005439
 30
0.0
 11
634.5530249846226
 21
-96.90353300005439
 31
0.0
  0
LINE
  5
441E
330
17
100
AcDbEntity
  8
0
 48
0.5
100
AcDbLine
 10
546.9029819445643
 20
-75.40353300005438
 30
0.0
 11
546.9029819445643
 21
-102.4035330000544
 31
0.0
  0
LINE
  5
441F
330
17
100
AcDbEntity
  8
0
 48
0.5
100
AcDbLine
 10
546.9029819445643
 20
-102.4035330000544
 30
0.0
 11
576.9029819445643
 21
-102.4035330000544
 31
0.0
  0
LINE
  5
4420
330
17
100
AcDbEntity
  8
0
 48
0.5
100
AcDbLine
 10
576.9029819445643
 20
-102.4035330000544
 30
0.0
 11
576.9029819445643
 21
-75.40353300005438
 31
0.0
  0
LINE
  5
4421
330
17
100
AcDbEntity
  8
0
 48
0.5
100
AcDbLine
 10
576.9029819445643
 20
-75.40353300005438
 30
0.0
 11
546.9029819445643
 21
-75.40353300005438
 31
0.0
  0
CIRCLE
  5
4422
330
17
100
AcDbEntity
  8
0
 48
0.5
100
AcDbCircle
 10
561.9029819445643
 20
-88.90353300005438
 30
0.0
 40
8.0
  0
CIRCLE
  5
4423
330
17
100
AcDbEntity
  8
0
 48
0.5
100
AcDbCircle
 10
561.9029819445643
 20
-88.90353300005438
 30
0.0
 40
5.0
  0
LINE
  5
4424
330
17
100
AcDbEntity
  8
0
 48
0.5
100
AcDbLine
 10
560.4029819445643
 20
-84.13383699296966
 30
0.0
 11
560.4029819445643
 21
-93.67322900713913
 31
0.0
  0
LINE
  5
4425
330
17
100
AcDbEntity
  8
0
 48
0.5
100
AcDbLine
 10
563.4029819445642
 20
-84.13383699296966
 30
0.0
 11
563.4029819445642
 21
-93.67322900713913
 31
0.0
  0
LINE
  5
4426
330
17
100
AcDbEntity
  8
0
100
AcDbLine
 10
556.101186839058
 20
-88.93045236221468
 30
0.0
 11
556.903051843369
 21
-88.92997128971286
 31
0.0
  0
ARC
  5
4427
330
17
100
AcDbEntity
  8
0
100
AcDbCircle
 10
561.9029819445643
 20
-88.93045236221468
 30
0.0
 40
6.254545454545218
100
AcDbArc
 50
114.3012223046754
 51
175.6987776953271
  0
ARC
  5
4428
330
17
100
AcDbEntity
  8
0
100
AcDbCircle
 10
556.101186839058
 20
-88.49408872585105
 30
0.0
 40
0.4363636363636199
100
AcDbArc
 50
175.6987776953238
 51
270.0
  0
ARC
  5
4429
330
17
100
AcDbEntity
  8
0
100
AcDbCircle
 10
567.7047770500705
 20
-88.49408872585105
 30
0.0
 40
0.4363636363636199
100
AcDbArc
 50
270.0
 51
4.301222304672901
  0
ARC
  5
442A
330
17
100
AcDbEntity
  8
0
100
AcDbCircle
 10
561.9029819445643
 20
-88.93045236221468
 30
0.0
 40
6.254545454545218
100
AcDbArc
 50
4.301222304672901
 51
65.69877769532459
  0
LINE
  5
442B
330
17
100
AcDbEntity
  8
0
100
AcDbLine
 10
557.3267588558917
 20
-94.76702542711512
 30
0.0
 11
558.2392003267535
 21
-92.28790061181655
 31
0.0
  0
ARC
  5
442C
330
17
100
AcDbEntity
  8
0
100
AcDbCircle
 10
556.946127222581
 20
-94.65023364988082
 30
0.0
 40
0.398146655776909
100
AcDbArc
 50
224.4525860088831
 51
342.9420615443831
  0
LINE
  5
442D
330
17
100
AcDbEntity
  8
0
100
AcDbLine
 10
565.5727633144699
 20
-92.2761196215805
 30
0.0
 11
566.4792050332373
 21
-94.76702542711484
 31
0.0
  0
LINE
  5
442E
330
17
100
AcDbEntity
  8
0
100
AcDbLine
 10
566.9029120457596
 20
-88.92997128971286
 30
0.0
 11
567.7047770500705
 21
-88.93045236221468
 31
0.0
  0
ARC
  5
442F
330
17
100
AcDbEntity
  8
0
100
AcDbCircle
 10
566.8597909207862
 20
-94.65028411906727
 30
0.0
 40
0.3980881193984178
100
AcDbArc
 50
197.0529254678357
 51
312.2058740841656
  0
LINE
  5
4430
330
17
100
AcDbEntity
  8
0
100
AcDbLine
 10
559.9186511510326
 20
-83.47854831425848
 30
0.0
 11
560.1843444131675
 21
-84.20818583124205
 31
0.0
  0
ARC
  5
4431
330
17
100
AcDbEntity
  8
0
100
AcDbCircle
 10
559.5086034619628
 20
-83.62779346770969
 30
0.0
 40
0.4363636363636199
100
AcDbArc
 50
19.99999999999759
 51
114.3012223046754
  0
LINE
  5
4432
330
17
100
AcDbEntity
  8
0
100
AcDbLine
 10
563.8873127380959
 20
-83.47854831425854
 30
0.0
 11
563.6216194759611
 21
-84.20818583124205
 31
0.0
  0
ARC
  5
4433
330
17
100
AcDbEntity
  8
0
100
AcDbCircle
 10
564.2973604271658
 20
-83.62779346770969
 30
0.0
 40
0.4363636363636199
100
AcDbArc
 50
65.69877769532459
 51
160.0000000000108
  0
LINE
  5
4434
330
17
100
AcDbEntity
  8
0
 48
0.5
100
AcDbLine
 10
546.9029819445643
 20
-83.87853300005437
 30
0.0
 11
548.9029819445643
 21
-83.87853300005437
 31
0.0
  0
LINE
  5
4435
330
17
100
AcDbEntity
  8
0
 48
0.5
100
AcDbLine
 10
548.9029819445643
 20
-83.87853300005437
 30
0.0
 11
548.9029819445643
 21
-93.92853300005439
 31
0.0
  0
LINE
  5
4436
330
17
100
AcDbEntity
  8
0
 48
0.5
100
AcDbLine
 10
548.9029819445643
 20
-93.92853300005439
 30
0.0
 11
546.9029819445643
 21
-93.92853300005439
 31
0.0
  0
LINE
  5
4437
330
17
100
AcDbEntity
  8
0
 48
0.5
100
AcDbLine
 10
576.9029819445643
 20
-83.87853300005437
 30
0.0
 11
574.9029819445643
 21
-83.87853300005437
 31
0.0
  0
LINE
  5
4438
330
17
100
AcDbEntity
  8
0
 48
0.5
100
AcDbLine
 10
574.9029819445643
 20
-83.87853300005437
 30
0.0
 11
574.9029819445643
 21
-93.92853300005439
 31
0.0
  0
LINE
  5
4439
330
17
100
AcDbEntity
  8
0
 48
0.5
100
AcDbLine
 10
574.9029819445643
 20
-93.92853300005439
 30
0.0
 11
576.9029819445643
 21
-93.92853300005439
 31
0.0
  0
LINE
  5
443A
330
17
100
AcDbEntity
  8
0
 48
0.5
100
AcDbLine
 10
633.7530249846229
 20
-17.76150767326018
 30
0.0
 11
633.7530249846229
 21
-14.3122576732602
 31
0.0
  0
LINE
  5
443B
330
17
100
AcDbEntity
  8
0
 48
0.5
100
AcDbLine
 10
633.7530249846229
 20
-7.86300767326017
 30
0.0
 11
633.7530249846229
 21
-11.31225767326017
 31
0.0
  0
LINE
  5
443C
330
17
100
AcDbEntity
  8
0
 48
0.5
100
AcDbLine
 10
687.2530249846229
 20
-11.81225767326026
 30
0.0
 11
687.2530249846229
 21
0.187742326739766
 31
0.0
  0
LINE
  5
443D
330
17
100
AcDbEntity
  8
0
 48
0.5
100
AcDbLine
 10
685.2530249846229
 20
-13.81225767326026
 30
0.0
 11
685.2530249846229
 21
-25.81225767326023
 31
0.0
  0
LINE
  5
443E
330
17
100
AcDbEntity
  8
0
100
AcDbLine
 10
638.2530249846229
 20
-102.4035330000544
 30
0.0
 11
687.2530249846229
 21
-102.4035330000544
 31
0.0
  0
LINE
  5
443F
330
17
100
AcDbEntity
  8
0
100
AcDbLine
 10
687.2530249846229
 20
-102.4035330000544
 30
0.0
 11
687.2530249846229
 21
-75.40353300005438
 31
0.0
  0
LINE
  5
4440
330
17
100
AcDbEntity
  8
0
100
AcDbLine
 10
687.2530249846229
 20
-75.40353300005438
 30
0.0
 11
638.2530249846229
 21
-75.40353300005438
 31
0.0
  0
LINE
  5
4441
330
17
100
AcDbEntity
  8
0
100
AcDbLine
 10
638.2530249846229
 20
-102.4035330000544
 30
0.0
 11
638.2530249846229
 21
-94.92853300005435
 31
0.0
  0
LINE
  5
4442
330
17
100
AcDbEntity
  8
0
100
AcDbLine
 10
638.2530249846229
 20
-93.92853300005436
 30
0.0
 11
634.2530249846229
 21
-93.92853300005436
 31
0.0
  0
LINE
  5
4443
330
17
100
AcDbEntity
  8
0
100
AcDbLine
 10
634.2530249846229
 20
-93.92853300005436
 30
0.0
 11
634.2530249846229
 21
-83.8785330000544
 31
0.0
  0
LINE
  5
4444
330
17
100
AcDbEntity
  8
0
100
AcDbLine
 10
634.2530249846229
 20
-83.8785330000544
 30
0.0
 11
638.2530249846229
 21
-83.87853300005437
 31
0.0
  0
LINE
  5
4445
330
17
100
AcDbEntity
  8
0
100
AcDbLine
 10
638.2530249846229
 20
-82.87853300005441
 30
0.0
 11
638.2530249846229
 21
-75.40353300005438
 31
0.0
  0
CIRCLE
  5
4446
330
17
100
AcDbEntity
  8
0
100
AcDbCircle
 10
677.2530249846229
 20
-98.90353300005433
 30
0.0
 40
1.25
  0
CIRCLE
  5
4447
330
17
100
AcDbEntity
  8
additional
  6
HIDDEN2
 48
0.5
100
AcDbCircle
 10
677.2530249846229
 20
-98.90353300005433
 30
0.0
 40
1.5
  0
CIRCLE
  5
4448
330
17
100
AcDbEntity
  8
0
100
AcDbCircle
 10
677.2530249846229
 20
-78.90353300005433
 30
0.0
 40
1.25
  0
CIRCLE
  5
4449
330
17
100
AcDbEntity
  8
additional
  6
HIDDEN2
 48
0.5
100
AcDbCircle
 10
677.2530249846229
 20
-78.90353300005433
 30
0.0
 40
1.5
  0
CIRCLE
  5
444A
330
17
100
AcDbEntity
  8
0
100
AcDbCircle
 10
647.2530249846229
 20
-78.90353300005433
 30
0.0
 40
1.25
  0
CIRCLE
  5
444B
330
17
100
AcDbEntity
  8
additional
  6
HIDDEN2
 48
0.5
100
AcDbCircle
 10
647.2530249846229
 20
-78.90353300005433
 30
0.0
 40
1.5
  0
CIRCLE
  5
444C
330
17
100
AcDbEntity
  8
0
100
AcDbCircle
 10
647.2530249846229
 20
-98.90353300005433
 30
0.0
 40
1.25
  0
CIRCLE
  5
444D
330
17
100
AcDbEntity
  8
additional
  6
HIDDEN2
 48
0.5
100
AcDbCircle
 10
647.2530249846229
 20
-98.90353300005433
 30
0.0
 40
1.5
  0
LINE
  5
444E
330
17
100
AcDbEntity
  8
0
 48
0.5
100
AcDbLine
 10
635.053024984623
 20
-75.40353300005438
 30
0.0
 11
638.2530249846229
 21
-75.40353300005438
 31
0.0
  0
LINE
  5
444F
330
17
100
AcDbEntity
  8
0
 48
0.5
100
AcDbLine
 10
638.2530249846229
 20
-102.4035330000544
 30
0.0
 11
635.053024984623
 21
-102.4035330000544
 31
0.0
  0
POINT
  5
4450
330
17
100
AcDbEntity
  8
0
 48
0.5
100
AcDbPoint
 10
625.7530249846229
 20
-12.81225767326029
 30
0.0
  0
LINE
  5
4451
330
17
100
AcDbEntity
  8
additional
  6
HIDDEN2
100
AcDbLine
 10
627.2030249846227
 20
-8.31225767326029
 30
0.0
 11
626.7030249846227
 21
-7.81225767326029
 31
0.0
  0
LINE
  5
4452
330
17
100
AcDbEntity
  8
0
 48
0.5
100
AcDbLine
 10
625.7530249846229
 20
-8.312257673260319
 30
0.0
 11
626.2530249846228
 21
-7.812257673260319
 31
0.0
  0
LINE
  5
4453
330
17
100
AcDbEntity
  8
0
 48
0.5
100
AcDbLine
 10
626.2530249846228
 20
-7.81225767326029
 30
0.0
 11
633.7530249846229
 21
-7.81225767326029
 31
0.0
  0
LINE
  5
4454
330
17
100
AcDbEntity
  8
additional
  6
HIDDEN2
100
AcDbLine
 10
630.3030249846226
 20
-8.31225767326029
 30
0.0
 11
630.8030249846226
 21
-7.81225767326029
 31
0.0
  0
LINE
  5
4455
330
17
100
AcDbEntity
  8
0
 48
0.5
100
AcDbLine
 10
633.7530249846229
 20
-7.81225767326029
 30
0.0
 11
633.7530249846229
 21
-17.81225767326029
 31
0.0
  0
LINE
  5
4456
330
17
100
AcDbEntity
  8
0
 48
0.5
100
AcDbLine
 10
633.7530249846229
 20
-17.81225767326029
 30
0.0
 11
626.2530249846227
 21
-17.81225767326029
 31
0.0
  0
LINE
  5
4457
330
17
100
AcDbEntity
  8
additional
  6
HIDDEN2
100
AcDbLine
 10
630.3030249846226
 20
-17.31225767326029
 30
0.0
 11
630.8030249846226
 21
-17.81225767326029
 31
0.0
  0
LINE
  5
4458
330
17
100
AcDbEntity
  8
0
 48
0.5
100
AcDbLine
 10
625.7530249846229
 20
-17.31225767326032
 30
0.0
 11
626.2530249846228
 21
-17.81225767326034
 31
0.0
  0
LINE
  5
4459
330
17
100
AcDbEntity
  8
0
 48
0.5
100
AcDbLine
 10
625.7530249846229
 20
-17.31225767326032
 30
0.0
 11
625.7530249846229
 21
-14.3622576732603
 31
0.0
  0
LINE
  5
445A
330
17
100
AcDbEntity
  8
0
 48
0.5
100
AcDbLine
 10
625.7530249846229
 20
-11.26225767326028
 30
0.0
 11
625.7530249846229
 21
-8.312257673260319
 31
0.0
  0
LINE
  5
445B
330
17
100
AcDbEntity
  8
0
 48
0.5
100
AcDbLine
 10
625.7530249846229
 20
-11.26225767326028
 30
0.0
 11
632.7530249846229
 21
-11.26225767326028
 31
0.0
  0
LINE
  5
445C
330
17
100
AcDbEntity
  8
0
 48
0.5
100
AcDbLine
 10
632.7530249846229
 20
-11.26225767326028
 30
0.0
 11
632.7530249846229
 21
-14.3622576732603
 31
0.0
  0
LINE
  5
445D
330
17
100
AcDbEntity
  8
0
 48
0.5
100
AcDbLine
 10
632.7530249846229
 20
-14.3622576732603
 30
0.0
 11
625.7530249846229
 21
-14.3622576732603
 31
0.0
  0
LINE
  5
445E
330
17
100
AcDbEntity
  8
additional
  6
HIDDEN2
100
AcDbLine
 10
627.2030249846227
 20
-8.31225767326029
 30
0.0
 11
627.2030249846231
 21
-11.26225767326025
 31
0.0
  0
LINE
  5
445F
330
17
100
AcDbEntity
  8
additional
  6
HIDDEN2
100
AcDbLine
 10
627.2030249846231
 20
-14.3622576732603
 30
0.0
 11
627.2030249846227
 21
-17.31225767326032
 31
0.0
  0
LINE
  5
4460
330
17
100
AcDbEntity
  8
additional
  6
HIDDEN2
100
AcDbLine
 10
626.7030249846227
 20
-17.81225767326032
 30
0.0
 11
627.2030249846227
 21
-17.31225767326032
 31
0.0
  0
LINE
  5
4461
330
17
100
AcDbEntity
  8
additional
  6
HIDDEN2
100
AcDbLine
 10
630.3030249846226
 20
-8.31225767326029
 30
0.0
 11
630.3030249846226
 21
-11.26225767326028
 31
0.0
  0
LINE
  5
4462
330
17
100
AcDbEntity
  8
additional
  6
HIDDEN2
100
AcDbLine
 10
630.3030249846226
 20
-14.3622576732603
 30
0.0
 11
630.3030249846226
 21
-17.31225767326029
 31
0.0
  0
LINE
  5
4463
330
17
100
AcDbEntity
  8
0
 48
0.5
100
AcDbLine
 10
626.2530249846228
 20
-7.81225767326029
 30
0.0
 11
626.2530249846228
 21
-11.26225767326028
 31
0.0
  0
LINE
  5
4464
330
17
100
AcDbEntity
  8
0
 48
0.5
100
AcDbLine
 10
626.2530249846228
 20
-17.81225767326034
 30
0.0
 11
626.2530249846228
 21
-14.3622576732603
 31
0.0
  0
POINT
  5
4465
330
17
100
AcDbEntity
  8
0
 48
0.5
100
AcDbPoint
 10
625.7530249846229
 20
-88.90353300005438
 30
0.0
  0
LINE
  5
4466
330
17
100
AcDbEntity
  8
0
 48
0.5
100
AcDbLine
 10
626.2530249846228
 20
-83.90353300005438
 30
0.0
 11
626.7030249846227
 21
-83.90353300005438
 31
0.0
  0
LINE
  5
4467
330
17
100
AcDbEntity
  8
0
 48
0.5
100
AcDbLine
 10
626.2530249846228
 20
-83.90353300005441
 30
0.0
 11
630.8030249846226
 21
-83.90353300005438
 31
0.0
  0
LINE
  5
4468
330
17
100
AcDbEntity
  8
0
 48
0.5
100
AcDbLine
 10
625.7530249846229
 20
-84.4035330000544
 30
0.0
 11
626.2530249846228
 21
-83.90353300005441
 31
0.0
  0
LINE
  5
4469
330
17
100
AcDbEntity
  8
0
 48
0.5
100
AcDbLine
 10
630.8030249846226
 20
-83.90353300005438
 30
0.0
 11
633.7530249846229
 21
-83.90353300005438
 31
0.0
  0
LINE
  5
446A
330
17
100
AcDbEntity
  8
0
 48
0.5
100
AcDbLine
 10
633.7530249846229
 20
-83.90353300005438
 30
0.0
 11
633.7530249846229
 21
-93.90353300005438
 31
0.0
  0
LINE
  5
446B
330
17
100
AcDbEntity
  8
0
 48
0.5
100
AcDbLine
 10
633.7530249846229
 20
-93.90353300005438
 30
0.0
 11
630.8030249846226
 21
-93.90353300005438
 31
0.0
  0
LINE
  5
446C
330
17
100
AcDbEntity
  8
0
 48
0.5
100
AcDbLine
 10
630.8030249846226
 20
-93.90353300005438
 30
0.0
 11
626.7030249846227
 21
-93.90353300005441
 31
0.0
  0
LINE
  5
446D
330
17
100
AcDbEntity
  8
0
 48
0.5
100
AcDbLine
 10
626.7030249846227
 20
-93.90353300005441
 30
0.0
 11
626.2530249846228
 21
-93.90353300005443
 31
0.0
  0
LINE
  5
446E
330
17
100
AcDbEntity
  8
0
 48
0.5
100
AcDbLine
 10
625.7530249846229
 20
-93.40353300005441
 30
0.0
 11
626.2530249846228
 21
-93.90353300005443
 31
0.0
  0
LINE
  5
446F
330
17
100
AcDbEntity
  8
0
 48
0.5
100
AcDbLine
 10
625.7530249846229
 20
-93.40353300005441
 30
0.0
 11
625.7530249846229
 21
-84.4035330000544
 31
0.0
  0
LINE
  5
4470
330
17
100
AcDbEntity
  8
0
 48
0.5
100
AcDbLine
 10
626.2530249846228
 20
-83.90353300005438
 30
0.0
 11
626.2530249846234
 21
-93.90353300005443
 31
0.0
  0
CIRCLE
  5
4471
330
17
100
AcDbEntity
  8
0
 48
0.5
100
AcDbCircle
 10
628.7530249846229
 20
-88.90353300005438
 30
0.0
 40
1.55
  0
LINE
  5
4472
330
17
100
AcDbEntity
  8
0
100
AcDbLine
 10
687.2530249846229
 20
-85.65353300005439
 30
0.0
 11
687.7530249846229
 21
-85.65353300005439
 31
0.0
  0
LINE
  5
4473
330
17
100
AcDbEntity
  8
0
100
AcDbLine
 10
687.7530249846229
 20
-85.65353300005439
 30
0.0
 11
687.7530249846229
 21
-92.15353300005437
 31
0.0
  0
LINE
  5
4474
330
17
100
AcDbEntity
  8
0
100
AcDbLine
 10
687.7530249846229
 20
-92.15353300005437
 30
0.0
 11
687.2530249846229
 21
-92.15353300005437
 31
0.0
  0
LINE
  5
4475
330
17
100
AcDbEntity
  8
0
100
AcDbLine
 10
687.2530249846229
 20
-9.562257673260234
 30
0.0
 11
687.7530249846229
 21
-9.562257673260234
 31
0.0
  0
LINE
  5
4476
330
17
100
AcDbEntity
  8
0
100
AcDbLine
 10
687.7530249846229
 20
-9.562257673260234
 30
0.0
 11
687.7530249846231
 21
-11.81225767326026
 31
0.0
  0
LINE
  5
4477
330
17
100
AcDbEntity
  8
0
100
AcDbLine
 10
687.7530249846229
 20
-13.81225767326026
 30
0.0
 11
687.7530249846229
 21
-16.06225767326023
 31
0.0
  0
LINE
  5
4478
330
17
100
AcDbEntity
  8
0
100
AcDbLine
 10
687.7530249846229
 20
-16.06225767326023
 30
0.0
 11
687.2530249846229
 21
-16.06225767326023
 31
0.0
  0
LINE
  5
4479
330
17
100
AcDbEntity
  8
additional
  6
HIDDEN2
100
AcDbLine
 10
627.2030249846227
 20
-8.31225767326029
 30
0.0
 11
630.3030249846226
 21
-8.31225767326029
 31
0.0
  0
LINE
  5
447A
330
17
100
AcDbEntity
  8
additional
  6
HIDDEN2
100
AcDbLine
 10
627.2030249846227
 20
-17.31225767326032
 30
0.0
 11
630.3030249846226
 21
-17.31225767326029
 31
0.0
  0
LINE
  5
447B
330
17
100
AcDbEntity
  8
additional
  6
CENTER2
 48
0.7
100
AcDbLine
 10
544.0661845042662
 20
-88.90353300005438
 30
0.0
 11
579.9254022686416
 21
-88.90353300005438
 31
0.0
  0
LINE
  5
447C
330
17
100
AcDbEntity
  8
additional
  6
HIDDEN2
100
AcDbLine
 10
566.6566647274178
 20
-87.35353300005437
 30
0.0
 11
563.4029819445642
 21
-87.35353300005437
 31
0.0
  0
LINE
  5
447D
330
17
100
AcDbEntity
  8
additional
  6
HIDDEN2
100
AcDbLine
 10
560.4029819445643
 20
-87.35353300005437
 30
0.0
 11
557.1492991617108
 21
-87.35353300005437
 31
0.0
  0
LINE
  5
447E
330
17
100
AcDbEntity
  8
additional
  6
HIDDEN2
100
AcDbLine
 10
566.6566647274178
 20
-90.45353300005439
 30
0.0
 11
563.4029819445642
 21
-90.45353300005439
 31
0.0
  0
LINE
  5
447F
330
17
100
AcDbEntity
  8
additional
  6
HIDDEN2
100
AcDbLine
 10
560.4029819445643
 20
-90.45353300005439
 30
0.0
 11
557.1492991617108
 21
-90.45353300005439
 31
0.0
  0
ARC
  5
4480
330
17
100
AcDbEntity
  8
0
100
AcDbCircle
 10
561.9029819445643
 20
-88.90353300005438
 30
0.0
 40
4.499999999999971
100
AcDbArc
 50
289.4712206344996
 51
70.52877936550036
  0
ARC
  5
4481
330
17
100
AcDbEntity
  8
0
100
AcDbCircle
 10
561.9029819445643
 20
-88.90353300005438
 30
0.0
 40
4.499999999999971
100
AcDbArc
 50
109.4712206344996
 51
250.5287793655003
  0
LINE
  5
4482
330
17
100
AcDbEntity
  8
additional
 48
0.5
100
AcDbLine
 10
580.0494656205585
 20
-78.90353300005438
 30
0.0
 11
574.1905663522945
 21
-78.90353300005438
 31
0.0
  0
LINE
  5
4483
330
17
100
AcDbEntity
  8
additional
 48
0.5
100
AcDbLine
 10
580.0494656205585
 20
-98.90353300005438
 30
0.0
 11
574.1905663522945
 21
-98.90353300005438
 31
0.0
  0
LINE
  5
4484
330
17
100
AcDbEntity
  8
additional
 48
0.5
100
AcDbLine
 10
543.75649826857
 20
-78.90353300005438
 30
0.0
 11
549.615397536834
 21
-78.90353300005438
 31
0.0
  0
LINE
  5
4485
330
17
100
AcDbEntity
  8
additional
 48
0.5
100
AcDbLine
 10
543.75649826857
 20
-98.90353300005438
 30
0.0
 11
549.615397536834
 21
-98.90353300005438
 31
0.0
  0
LINE
  5
4486
330
17
100
AcDbEntity
  8
additional
 48
0.5
100
AcDbLine
 10
677.2530249846229
 20
-23.23202511512062
 30
0.0
 11
677.2530249846229
 21
-29.74860254166094
 31
0.0
  0
LINE
  5
4487
330
17
100
AcDbEntity
  8
additional
 48
0.5
100
AcDbLine
 10
647.2530249846229
 20
-23.23202511512065
 30
0.0
 11
647.2530249846229
 21
-29.74860254166097
 31
0.0
  0
LINE
  5
4488
330
17
100
AcDbEntity
  8
additional
 48
0.5
100
AcDbLine
 10
677.2530249846229
 20
-2.39249023139996
 30
0.0
 11
677.2530249846229
 21
4.124087195140361
 31
0.0
  0
LINE
  5
4489
330
17
100
AcDbEntity
  8
additional
 48
0.5
100
AcDbLine
 10
647.2530249846229
 20
-2.392490231399932
 30
0.0
 11
647.2530249846229
 21
4.124087195140361
 31
0.0
  0
LINE
  5
448A
330
17
100
AcDbEntity
  8
0
100
AcDbLine
 10
641.2530249846227
 20
-75.4035330000558
 30
0.0
 11
657.4777960897891
 21
-73.90353300005585
 31
0.0
  0
LINE
  5
448B
330
17
100
AcDbEntity
  8
0
100
AcDbLine
 10
683.7530249846229
 20
-75.40353300005583
 30
0.0
 11
683.7530249846229
 21
-73.90353300005583
 31
0.0
  0
LINE
  5
448C
330
17
100
AcDbEntity
  8
0
 48
0.5
100
AcDbLine
 10
697.9903157350207
 20
-75.40353300006948
 30
0.0
 11
683.7530249846229
 21
-75.40353300005577
 31
0.0
  0
LINE
  5
448D
330
17
100
AcDbEntity
  8
0
 48
0.5
100
AcDbLine
 10
698.4661514143789
 20
-74.40353300007242
 30
0.0
 11
683.7530249846227
 21
-74.40353300009133
 31
0.0
  0
LINE
  5
448F
330
17
100
AcDbEntity
  8
0
100
AcDbLine
 10
683.7530249846229
 20
-73.90353300005583
 30
0.0
 11
657.47779608979
 21
-73.9035330000558
 31
0.0
  0
LINE
  5
4494
330
17
100
AcDbEntity
  8
0
 48
0.5
100
AcDbLine
 10
549.9124277573534
 20
-75.40353300005438
 30
0.0
 11
555.6441768872571
 21
-73.90353300005435
 31
0.0
  0
LINE
  5
4495
330
17
100
AcDbEntity
  8
0
 48
0.5
100
AcDbLine
 10
568.1617870018719
 20
-73.90353300005435
 30
0.0
 11
555.6441768872571
 21
-73.90353300005435
 31
0.0
  0
LINE
  5
4496
330
17
100
AcDbEntity
  8
0
 48
0.5
100
AcDbLine
 10
573.8935361317751
 20
-75.40353300005438
 30
0.0
 11
568.1617870018719
 21
-73.90353300005435
 31
0.0
  0
LINE
  5
4497
330
17
100
AcDbEntity
  8
additional
  6
CENTER2
 48
0.7
100
AcDbLine
 10
622.7463684662255
 20
-88.90353300005441
 30
0.0
 11
692.4938954841068
 21
-88.90353300005443
 31
0.0
  0
LINE
  5
4498
330
17
100
AcDbEntity
  8
additional
  6
CENTER2
 48
0.5
100
AcDbLine
 10
628.7530249846228
 20
-81.1188346413204
 30
0.0
 11
628.7530249846228
 21
-96.68823135878843
 31
0.0
  0
LINE
  5
4499
330
17
100
AcDbEntity
  8
additional
  6
CENTER2
 48
0.7
100
AcDbLine
 10
647.2530249846229
 20
-101.9035330000544
 30
0.0
 11
647.2530249846229
 21
-75.90353300005438
 31
0.0
  0
LINE
  5
449A
330
17
100
AcDbEntity
  8
additional
  6
CENTER2
 48
0.7
100
AcDbLine
 10
643.3774116329523
 20
-78.90353300005435
 30
0.0
 11
681.3042608581231
 21
-78.90353300005435
 31
0.0
  0
LINE
  5
449B
330
17
100
AcDbEntity
  8
additional
  6
CENTER2
 48
0.7
100
AcDbLine
 10
677.2530249846229
 20
-101.9035330000544
 30
0.0
 11
677.2530249846229
 21
-75.90353300005441
 31
0.0
  0
LINE
  5
449C
330
17
100
AcDbEntity
  8
additional
  6
CENTER2
 48
0.7
100
AcDbLine
 10
643.3774116329523
 20
-98.90353300005433
 30
0.0
 11
681.3042608581231
 21
-98.90353300005433
 31
0.0
  0
LINE
  5
449D
330
17
100
AcDbEntity
  8
additional
  6
CENTER2
 48
0.7
100
AcDbLine
 10
622.7463684662255
 20
-12.81225767326029
 30
0.0
 11
683.7530249846229
 21
-12.81225767326031
 31
0.0
  0
LINE
  5
449E
330
17
100
AcDbEntity
  8
0
 48
0.5
100
AcDbLine
 10
683.7530249846227
 20
-24.81225767326023
 30
0.0
 11
641.2530249846227
 21
-24.81225767326026
 31
0.0
  0
LINE
  5
449F
330
17
100
AcDbEntity
  8
0
 48
0.5
100
AcDbLine
 10
683.7530249846227
 20
-0.8122576732603477
 30
0.0
 11
641.2530249846227
 21
-0.8122576732603192
 31
0.0
  0
SPLINE
  5
44BF
330
17
100
AcDbEntity
  8
additional
 48
0.5
100
AcDbSpline
210
0.0
220
0.0
230
1.0
 70
     8
 71
     3
 72
    18
 73
    14
 74
    12
 42
0.0000000001
 43
0.0000000001
 44
0.0000000001
 40
0.0
 40
0.0
 40
0.0
 40
0.0
 40
0.3913118960626157
 40
0.7826237921250917
 40
1.482623792125051
 40
1.873935688187565
 40
2.265247584250092
 40
2.656559480312479
 40
3.047871376374942
 40
4.097871376374982
 40
4.489183272437407
 40
4.880495168499806
 40
5.271807064562397
 40
5.271807064562397
 40
5.271807064562397
 40
5.271807064562397
 10
698.3853746693183
 20
-72.46740181120246
 30
0.0
 10
698.4416595109648
 20
-72.58504154455687
 30
0.0
 10
698.5542291942575
 20
-72.82032101126564
 30
0.0
 10
698.8140528833981
 20
-73.24391998257983
 30
0.0
 10
698.8141303713621
 20
-73.79090260110962
 30
0.0
 10
698.5540992429914
 20
-74.21443896129547
 30
0.0
 10
698.3858601760824
 20
-74.56757048517605
 30
0.0
 10
698.2147080685892
 20
-74.91968996521428
 30
0.0
 10
697.9069345069484
 20
-75.44794938362651
 30
0.0
 10
697.9065377197009
 20
-76.13699960748644
 30
0.0
 10
698.2151516902182
 20
-76.66491074983716
 30
0.0
 10
698.3841804140934
 20
-77.01802457654384
 30
0.0
 10
698.5016432509102
 20
-77.25094273298285
 30
0.0
 10
698.5603746693186
 20
-77.36740181120241
 30
0.0
 11
698.3853746693183
 21
-72.46740181120246
 31
0.0
 11
698.5603746693186
 21
-72.81740181120248
 31
0.0
 11
698.7353746693187
 21
-73.16740181120247
 31
0.0
 11
698.7353746693187
 21
-73.86740181120242
 31
0.0
 11
698.5603746693186
 21
-74.21740181120245
 31
0.0
 11
698.3853746693183
 21
-74.56740181120237
 31
0.0
 11
698.2103746693185
 21
-74.91740181120237
 31
0.0
 11
698.0353746693185
 21
-75.26740181120239
 31
0.0
 11
698.0353746693185
 21
-76.31740181120242
 31
0.0
 11
698.2103746693185
 21
-76.66740181120241
 31
0.0
 11
698.3853746693183
 21
-77.01740181120242
 31
0.0
 11
698.5603746693186
 21
-77.36740181120241
 31
0.0
  0
DIMENSION
  5
44C0
330
17
100
AcDbEntity
  8
Z_OM_DIM
100
AcDbDimension
  2
*D2
 10
612.935917580765
 20
-14.3622576732603
 30
0.0
 11
612.935917580765
 21
-3.345591006593512
 31
0.0
 70
   160
 71
     5
 42
3.100000000000022
  3
CatalogDxf
100
AcDbAlignedDimension
 13
625.7530249846229
 23
-11.26225767326028
 33
0.0
 14
625.7530249846229
 24
-14.3622576732603
 34
0.0
 50
90.0
100
AcDbRotatedDimension
  0
DIMENSION
  5
44CF
330
17
100
AcDbEntity
  8
Z_OM_DIM
100
AcDbDimension
  2
*D3
 10
634.2530249846229
 20
-43.15374988581186
 30
0.0
 11
660.7530249846229
 21
-41.27874988581186
 31
0.0
 70
    32
 71
     5
 42
53.0
  3
CatalogDxf
100
AcDbAlignedDimension
 13
687.2530249846229
 23
-25.81225767326021
 33
0.0
 14
634.2530249846229
 24
-27.81225767326024
 34
0.0
100
AcDbRotatedDimension
  0
DIMENSION
  5
44DC
330
17
100
AcDbEntity
  8
Z_OM_DIM
100
AcDbDimension
  2
*D4
 10
625.7530249846229
 20
-28.76789341379151
 30
0.0
 11
629.5769894179662
 21
-26.37263980140096
 31
0.0
 70
   160
 71
     5
 42
7.0
  3
CatalogDxf
100
AcDbAlignedDimension
 13
632.7530249846229
 23
-14.3622576732603
 33
0.0
 14
625.7530249846229
 24
-17.31225767326032
 34
0.0
100
AcDbRotatedDimension
1001
ACAD
1000
DSTYLE
1002
{
1070
   279
1070
     2
1002
}
  0
DIMENSION
  5
44E9
330
17
100
AcDbEntity
  8
Z_OM_DIM
100
AcDbDimension
  2
*D5
 10
704.5435495832509
 20
-98.90353300005433
 30
0.0
 11
702.6685495832509
 21
-88.90353300005422
 31
0.0
 70
    32
 71
     5
 42
19.99999999999997
  3
CatalogDxf
100
AcDbAlignedDimension
 13
681.3042608581231
 23
-78.90353300005435
 33
0.0
 14
681.3042608581231
 24
-98.90353300005433
 34
0.0
 50
90.0
100
AcDbRotatedDimension
  0
DIMENSION
  5
44F6
330
17
100
AcDbEntity
  8
Z_OM_DIM
100
AcDbDimension
  2
*D6
 10
647.2530249846229
 20
-62.9434063754594
 30
0.0
 11
662.2530249846229
 21
-61.0684063754594
 31
0.0
 70
    32
 71
     5
 42
30.0
  3
CatalogDxf
100
AcDbAlignedDimension
 13
677.2530249846229
 23
-75.40353300005438
 33
0.0
 14
647.2530249846229
 24
-75.90353300005438
 34
0.0
100
AcDbRotatedDimension
  0
DIMENSION
  5
4503
330
17
100
AcDbEntity
  8
Z_OM_DIM
100
AcDbDimension
  2
*D7
 10
628.7530249846229
 20
-62.9434063754594
 30
0.0
 11
638.0030249846229
 21
-61.0684063754594
 31
0.0
 70
    32
 71
     5
 42
18.5
  3
CatalogDxf
100
AcDbAlignedDimension
 13
647.2530249846229
 23
-75.90353300005438
 33
0.0
 14
628.7530249846229
 24
-81.08829891966815
 34
0.0
100
AcDbRotatedDimension
1001
ACAD
1000
DSTYLE
1002
{
1070
   279
1070
     1
1002
}
  0
DIMENSION
  5
4510
330
17
100
AcDbEntity
  8
Z_OM_DIM
100
AcDbDimension
  2
*D8
 10
625.7530249846229
 20
-62.9434063754594
 30
0.0
 11
619.2946916512895
 21
-62.9434063754594
 31
0.0
 70
   160
 71
     5
 42
3.0
  3
CatalogDxf
100
AcDbAlignedDimension
 13
628.7530249846229
 23
-81.08829891966815
 33
0.0
 14
625.7530249846229
 24
-84.4035330000544
 34
0.0
100
AcDbRotatedDimension
  0
DIMENSION
  5
451F
330
17
100
AcDbEntity
  8
Z_OM_DIM
100
AcDbDimension
  2
*D9
 10
612.9359175807649
 20
-93.90353300005489
 30
0.0
 11
611.0609175807649
 21
-88.90353300005454
 31
0.0
 70
    32
  1
%%c<>
 71
     5
 42
10.00000000000051
  3
CatalogDxf
100
AcDbAlignedDimension
 13
626.2530249846228
 23
-83.90353300005438
 33
0.0
 14
626.2530249846234
 24
-93.90353300005489
 34
0.0
 50
90.0
100
AcDbRotatedDimension
  0
DIMENSION
  5
4535
330
17
100
AcDbEntity
  8
Z_OM_DIM
100
AcDbDimension
  2
*D10
 10
592.3519866522889
 20
-102.4035330000544
 30
0.0
 11
590.4769866522889
 21
-88.90353300005429
 31
0.0
 70
    32
 71
     5
 42
27.0
  3
CatalogDxf
100
AcDbAlignedDimension
 13
576.9029819445643
 23
-75.40353300005438
 33
0.0
 14
576.9029819445643
 24
-102.4035330000544
 34
0.0
 50
90.0
100
AcDbRotatedDimension
  0
DIMENSION
  5
4542
330
17
100
AcDbEntity
  8
Z_OM_DIM
100
AcDbDimension
  2
*D11
 10
576.9029819445643
 20
-116.5160187122368
 30
0.0
 11
561.9029819445643
 21
-114.6410187122368
 31
0.0
 70
    32
 71
     5
 42
30.0
  3
CatalogDxf
100
AcDbAlignedDimension
 13
546.9029819445643
 23
-102.4035330000544
 33
0.0
 14
576.9029819445643
 24
-102.4035330000544
 34
0.0
100
AcDbRotatedDimension
  0
MTEXT
  5
457C
330
17
100
AcDbEntity
  8
Z_OM_DIM
100
AcDbMText
 10
706.3563038275794
 20
-2.928686161058486
 30
0.0
 40
2.5
 41
42.8494883882687
 71
     7
 72
     1
  1
UL1007 AWG22 white
  7
CatalogDxf
 73
     1
 44
1.0
1001
ACAD
1000
ACAD_MTEXT_DEFINED_HEIGHT_BEGIN
1070
    46
1040
2.500000000000005
1000
ACAD_MTEXT_DEFINED_HEIGHT_END
1000
MTEXTBEGIN
1070
    73
1070
     1
1070
    44
1040
1.0
1070
    74
1070
     0
1000
MTEXTEND
  0
LEADER
  5
457D
330
17
100
AcDbEntity
  8
Z_OM_DIM
100
AcDbLeader
  3
ISO-25
 76
     3
 10
700.3380713018252
 20
-11.81225767326032
 30
0.0
 10
705.7921943338198
 20
-3.553686161058479
 30
0.0
 10
747.150484405938
 20
-3.553686161058479
 30
0.0
1001
ACAD
1000
DSTYLE
1002
{
1070
   341
1005
977
1070
   147
1040
0.625
1070
    77
1070
     0
1002
}
  0
MTEXT
  5
4586
330
17
100
AcDbEntity
  8
Z_OM_DIM
100
AcDbMText
 10
615.7231271702174
 20
-102.8540985570927
 30
0.0
 40
2.5
 41
6.725351603991498
 71
     7
 72
     1
  1
%%C3.1
  7
CatalogDxf
 73
     1
 44
1.0
1001
ACAD
1000
MTEXTBEGIN
1070
    73
1070
     1
1070
    44
1040
1.0
1070
    74
1070
     0
1000
MTEXTEND
  0
LEADER
  5
4587
330
17
100
AcDbEntity
  8
Z_OM_DIM
100
AcDbLeader
  3
ISO-25
 76
     3
 10
628.2086754435385
 20
-90.35480264320179
 30
0.0
 10
623.2560914445055
 20
-103.5586987990001
 30
0.0
 10
615.0113640643199
 20
-103.5586987990001
 30
0.0
211
-1.0
221
0.0
231
0.0
1001
ACAD
1000
DSTYLE
1002
{
1070
   341
1005
977
1070
   147
1040
0.625
1070
    77
1070
     0
1002
}
  0
LEADER
  5
4590
330
17
100
AcDbEntity
  8
Z_OM_DIM
100
AcDbLeader
  3
ISO-25
 76
     3
 10
677.885294678274
 20
-99.98183492182311
 30
0.0
 10
684.370263697584
 20
-111.0416004401612
 30
0.0
 10
709.5400374146726
 20
-111.0416004401612
 30
0.0
1001
ACAD
1000
DSTYLE
1002
{
1070
   341
1005
977
1070
   147
1040
0.625
1070
    77
1070
     0
1002
}
  0
MTEXT
  5
4591
330
17
100
AcDbEntity
  8
Z_OM_DIM
100
AcDbMText
 10
685.5442617015537
 20
-111.0820973548473
 30
0.0
 40
2.5
 41
24.05930144544266
 71
     4
 72
     1
  1
4-M3\Pboth faces
  7
CatalogDxf
 73
     1
 44
1.0
1001
ACAD
1000
MTEXTBEGIN
1070
    73
1070
     1
1070
    44
1040
1.0
1070
    74
1070
     0
1000
MTEXTEND
  0
DIMENSION
  5
4596
330
17
100
AcDbEntity
  8
Z_OM_DIM
100
AcDbDimension
  2
*D12
 10
647.2530249846229
 20
-36.98845411943159
 30
0.0
 11
640.7530249846229
 21
-35.11345411943159
 31
0.0
 70
    32
 71
     5
 42
13.0
  3
CatalogDxf
100
AcDbAlignedDimension
 13
634.2530249846229
 23
-27.81225767326024
 33
0.0
 14
647.2530249846229
 24
-29.74860254166097
 34
0.0
100
AcDbRotatedDimension
  0
ENDSEC
  0
SECTION
  2
OBJECTS
  0
DICTIONARY
  5
C
330
0
100
AcDbDictionary
281
     1
  3
ACAD_2007HEADERVARS_RT
350
4557
  3
ACAD_COLOR
350
3D57
  3
ACAD_GROUP
350
D
  3
ACAD_LAYOUT
350
3D5A
  3
ACAD_MATERIAL
350
3D42
  3
ACAD_MLINESTYLE
350
1A
  3
ACAD_PLOTSETTINGS
350
957
  3
ACAD_PLOTSTYLENAME
350
3D40
  3
ACAD_TABLESTYLE
350
3D58
  3
ACAD_VISUALSTYLE
350
3D46
  3
ACADDIM
350
1BB8
  3
ACDBHEADERROUNDTRIPXREC
350
47D7
  3
AcDbVariableDictionary
350
4116
  3
DWGPROPS
350
47D6
1001
ACAD
1000
TREAT_AS_HARD
1070
     0
  0
DICTIONARY
  5
455B
330
8
100
AcDbDictionary
280
     1
281
     1
  3
ACAD_XREC_ROUNDTRIP
360
455C
  0
DICTIONARY
  5
3DBA
330
2
100
AcDbDictionary
280
     1
281
     1
  3
ACAD_LAYERFILTERS
360
421C
  3
ACAD_LAYERSTATES
360
3DBB
  3
ACLYDICTIONARY
360
421B
  0
DICTIONARY
  5
455D
330
E
100
AcDbDictionary
280
     1
281
     1
  3
ACAD_XREC_ROUNDTRIP
360
455E
  0
DICTIONARY
  5
455F
330
27
100
AcDbDictionary
280
     1
281
     1
  3
ACAD_XREC_ROUNDTRIP
360
4560
  0
DICTIONARY
  5
4561
330
2B
100
AcDbDictionary
280
     1
281
     1
  3
ACAD_XREC_ROUNDTRIP
360
4562
  0
DICTIONARY
  5
4565
330
3DB5
100
AcDbDictionary
280
     1
281
     1
  3
ACAD_XREC_ROUNDTRIP
360
4566
  0
DICTIONARY
  5
1808
330
17
100
AcDbDictionary
280
     1
281
     1
  3
ACAD_LAYOUTSELFREF
360
3D3B
  3
ACAD_SORTENTS
360
469A
1001
ACAD
1000
TREAT_AS_HARD
1070
     1
  0
DICTIONARY
  5
1806
330
14
100
AcDbDictionary
280
     1
281
     1
  3
ACAD_LAYOUTSELFREF
360
3D3A
1001
ACAD
1000
TREAT_AS_HARD
1070
     1
  0
DICTIONARY
  5
4557
102
{ACAD_REACTORS
330
C
102
}
330
C
100
AcDbDictionary
281
     1
  3
DIMLTEX1
350
4559
  3
DIMLTEX2
350
455A
  3
DIMLTYPE
350
4558
  0
DICTIONARY
  5
3D57
102
{ACAD_REACTORS
330
C
102
}
330
C
100
AcDbDictionary
281
     1
  0
DICTIONARY
  5
D
102
{ACAD_REACTORS
330
C
102
}
330
C
100
AcDbDictionary
281
     1
1001
ACAD
1000
TREAT_AS_HARD
1070
     0
  0
DICTIONARY
  5
3D5A
102
{ACAD_REACTORS
330
C
102
}
330
C
100
AcDbDictionary
281
     1
  3
Model
350
3D5B
  3
レイアウト1
350
3D5C
  0
DICTIONARY
  5
3D42
102
{ACAD_REACTORS
330
C
102
}
330
C
100
AcDbDictionary
281
     1
  3
ByBlock
350
3D44
  3
ByLayer
350
3D43
  3
Global
350
3D45
  0
DICTIONARY
  5
1A
102
{ACAD_REACTORS
330
C
102
}
330
C
100
AcDbDictionary
281
     1
  3
STANDARD
350
1B
1001
ACAD
1000
TREAT_AS_HARD
1070
     0
  0
DICTIONARY
  5
957
102
{ACAD_REACTORS
330
C
102
}
330
C
100
AcDbDictionary
281
     1
1001
ACAD
1000
TREAT_AS_HARD
1070
     0
  0
ACDBDICTIONARYWDFLT
  5
3D40
102
{ACAD_REACTORS
330
C
102
}
330
C
100
AcDbDictionary
281
     1
  3
Normal
350
3D41
100
AcDbDictionaryWithDefault
340
3D41
  0
DICTIONARY
  5
3D58
102
{ACAD_REACTORS
330
C
102
}
330
C
100
AcDbDictionary
281
     1
  3
Standard
350
3D59
  0
DICTIONARY
  5
3D46
102
{ACAD_REACTORS
330
C
102
}
330
C
100
AcDbDictionary
281
     1
  3
2dWireframe
350
3D4C
  3
3D Hidden
350
3D4E
  3
3dWireframe
350
3D4D
  3
Basic
350
3D4B
  3
Brighten
350
3D52
  3
ColorChange
350
3D56
  3
Conceptual
350
3D4F
  3
Dim
350
3D51
  3
Facepattern
350
3D55
  3
Flat
350
3D47
  3
FlatWithEdges
350
3D48
  3
Gouraud
350
3D49
  3
GouraudWithEdges
350
3D4A
  3
Linepattern
350
3D54
  3
Realistic
350
3D50
  3
Thicken
350
3D53
  0
XRECORD
  5
1BB8
102
{ACAD_REACTORS
330
C
102
}
330
C
100
AcDbXrecord
280
     1
 90
   990106
  3

 60
     0
 61
     0
 62
     4
 63
     4
 64
     1
 65
     0
 66
     0
 67
     2
 68
     1
 69
     0
 70
     0
 71
     0
 72
     0
 40
56.27636009297908
170
     2
340
0
  0
DICTIONARY
  5
47D7
102
{ACAD_REACTORS
330
C
102
}
330
C
100
AcDbDictionary
281
     1
  0
DICTIONARY
  5
4116
102
{ACAD_REACTORS
330
C
102
}
330
C
100
AcDbDictionary
281
     1
  3
CTABLESTYLE
350
4117
  3
DIMASSOC
350
47D3
  3
PROJECTNAME
350
47D4
  0
XRECORD
  5
47D6
102
{ACAD_REACTORS
330
C
102
}
330
C
100
AcDbXrecord
280
     1
  1
DWGPROPS COOKIE
  2

  3

  4

  6

  7

  8
yakata
  9

300
=
301
=
302
=
303
=
304
=
305
=
306
=
307
=
308
=
309
=
 40
0.5577713657407407
 41
2455090.761732894
 42
2455678.572672766
  1

 90
        0
  0
XRECORD
  5
455C
102
{ACAD_REACTORS
330
455B
102
}
330
455B
100
AcDbXrecord
280
     1
102
VTR_0.000_0.000_1.000_1.000_VISUALSTYLE
340
3D4C
102
VTR_0.000_0.000_1.000_1.000_GRIDDISPLAY
 70
     3
102
VTR_0.000_0.000_1.000_1.000_GRIDMAJOR
 70
     5
102
VTR_0.000_0.000_1.000_1.000_DEFAULTLIGHTING
280
     1
102
VTR_0.000_0.000_1.000_1.000_DEFAULTLIGHTINGTYPE
 70
     1
102
VTR_0.000_0.000_1.000_1.000_BRIGHTNESS
141
0.0
102
VTR_0.000_0.000_1.000_1.000_CONTRAST
142
0.0
  0
DICTIONARY
  5
421C
102
{ACAD_REACTORS
330
3DBA
102
}
330
3DBA
100
AcDbDictionary
281
     1
  0
DICTIONARY
  5
3DBB
102
{ACAD_REACTORS
330
3DBA
102
}
330
3DBA
100
AcDbDictionary
281
     1
  0
DICTIONARY
  5
421B
102
{ACAD_REACTORS
330
3DBA
102
}
330
3DBA
100
AcDbDictionary
281
     1
1001
ACAD
1000
<All
  0
XRECORD
  5
455E
102
{ACAD_REACTORS
330
455D
102
}
330
455D
100
AcDbXrecord
280
     1
102
MATERIAL
340
3D45
  0
XRECORD
  5
4560
102
{ACAD_REACTORS
330
455F
102
}
330
455F
100
AcDbXrecord
280
     1
102
MATERIAL
340
3D45
  0
XRECORD
  5
4562
102
{ACAD_REACTORS
330
4561
102
}
330
4561
100
AcDbXrecord
280
     1
102
MATERIAL
340
3D45
  0
XRECORD
  5
4566
102
{ACAD_REACTORS
330
4565
102
}
330
4565
100
AcDbXrecord
280
     1
102
MATERIAL
340
3D45
  0
XRECORD
  5
3D3B
102
{ACAD_REACTORS
330
1808
102
}
330
1808
100
AcDbXrecord
280
     1
340
17
  0
SORTENTSTABLE
  5
469A
102
{ACAD_REACTORS
330
1808
102
}
330
1808
100
AcDbSortentsTable
330
17
331
4482
  5
4482
331
4510
  5
451F
331
4305
  5
4305
331
440C
  5
440C
331
444B
  5
444B
331
4453
  5
4453
331
448A
  5
448A
331
430D
  5
430D
331
4414
  5
4414
331
445B
  5
445B
331
441C
  5
441C
331
4424
  5
4424
331
449A
  5
449B
331
4587
  5
4590
331
44E9
  5
44F6
331
442C
  5
442C
331
4463
  5
4463
331
446B
  5
446B
331
4434
  5
4434
331
4473
  5
4473
331
43FD
  5
43FD
331
443C
  5
443C
331
4444
  5
4444
331
447B
  5
447B
331
4405
  5
4405
331
440D
  5
440D
331
444C
  5
444C
331
4306
  5
4306
331
4483
  5
4483
331
4415
  5
4415
331
4454
  5
4454
331
430E
  5
430E
331
448B
  5
448B
331
441D
  5
441D
331
445C
  5
445C
331
449B
  5
449C
331
4425
  5
4425
331
4590
  5
4591
331
4464
  5
4464
331
442D
  5
442D
331
4435
  5
4435
331
446C
  5
446C
331
43FE
  5
43FE
331
443D
  5
443D
331
4474
  5
4474
331
447C
  5
447C
331
4406
  5
4406
331
4445
  5
4445
331
4484
  5
4484
331
4307
  5
4307
331
440E
  5
440E
331
444D
  5
444D
331
4455
  5
4455
331
448C
  5
448C
331
4130
  5
4130
331
430F
  5
430F
331
4416
  5
4416
331
441E
  5
441E
331
445D
  5
445D
331
4494
  5
4495
331
4426
  5
4426
331
449C
  5
449D
331
4591
  5
4596
331
442E
  5
442E
331
4465
  5
4465
331
446D
  5
446D
331
4436
  5
4436
331
4542
  5
457C
331
4475
  5
4475
331
4503
  5
4510
331
43FF
  5
43FF
331
443E
  5
443E
331
4446
  5
4446
331
447D
  5
447D
331
4407
  5
4407
331
440F
  5
440F
331
444E
  5
444E
331
4308
  5
4308
331
4485
  5
4485
331
448D
  5
448D
331
44DC
  5
44E9
331
4417
  5
4417
331
4456
  5
4456
331
4310
  5
4310
331
4495
  5
4496
331
441F
  5
441F
331
445E
  5
445E
331
449D
  5
449E
331
4427
  5
4427
331
442F
  5
442F
331
4466
  5
4466
331
4437
  5
4437
331
446E
  5
446E
331
4400
  5
4400
331
443F
  5
443F
331
4476
  5
4476
331
447E
  5
447E
331
4447
  5
4447
331
4301
  5
4301
331
4408
  5
4408
331
4486
  5
4486
331
4309
  5
4309
331
4410
  5
4410
331
444F
  5
444F
331
4457
  5
4457
331
4311
  5
4311
331
4418
  5
4418
331
4420
  5
4420
331
445F
  5
445F
331
4496
  5
4497
331
449E
  5
449F
331
4428
  5
4428
331
4430
  5
4430
331
4467
  5
4467
331
446F
  5
446F
331
4438
  5
4438
331
4440
  5
4440
331
4477
  5
4477
331
42AA
  5
42AA
331
4401
  5
4401
331
447F
  5
447F
331
4448
  5
4448
331
4302
  5
4302
331
4409
  5
4409
331
4411
  5
4411
331
4450
  5
4450
331
430A
  5
430A
331
4487
  5
4487
331
448F
  5
4494
331
4312
  5
4312
331
4419
  5
4419
331
4458
  5
4458
331
457C
  5
457D
331
4497
  5
4498
331
4421
  5
4421
331
449F
  5
44BF
331
4460
  5
4460
331
4429
  5
4429
331
4431
  5
4431
331
4468
  5
4468
331
4535
  5
4542
331
44BF
  5
44C0
331
44F6
  5
4503
331
4439
  5
4439
331
4470
  5
4470
331
4402
  5
4402
331
4441
  5
4441
331
4478
  5
4478
331
44CF
  5
44DC
331
4480
  5
4480
331
4303
  5
4303
331
440A
  5
440A
331
4449
  5
4449
331
4451
  5
4451
331
4488
  5
4488
331
430B
  5
430B
331
4412
  5
4412
331
4459
  5
4459
331
4313
  5
4313
331
441A
  5
441A
331
457D
  5
4586
331
4422
  5
4422
331
4498
  5
4499
331
442A
  5
442A
331
4461
  5
4461
331
4432
  5
4432
331
4469
  5
4469
331
4471
  5
4471
331
44C0
  5
44CF
331
443A
  5
443A
331
4442
  5
4442
331
4479
  5
4479
331
4403
  5
4403
331
444A
  5
444A
331
4481
  5
4481
331
4304
  5
4304
331
440B
  5
440B
331
4413
  5
4413
331
4452
  5
4452
331
430C
  5
430C
331
4489
  5
4489
331
451F
  5
4535
331
441B
  5
441B
331
445A
  5
445A
331
4499
  5
449A
331
4423
  5
4423
331
4586
  5
4587
331
4596
  5
4699
331
4462
  5
4462
331
442B
  5
442B
331
4433
  5
4433
331
446A
  5
446A
331
43FC
  5
43FC
331
443B
  5
443B
331
4472
  5
4472
331
4404
  5
4404
331
4443
  5
4443
331
447A
  5
447A
  0
XRECORD
  5
3D3A
102
{ACAD_REACTORS
330
1806
102
}
330
1806
100
AcDbXrecord
280
     1
340
14
  0
XRECORD
  5
4559
102
{ACAD_REACTORS
330
4557
102
}
330
4557
100
AcDbXrecord
280
     1
340
12
  0
XRECORD
  5
455A
102
{ACAD_REACTORS
330
4557
102
}
330
4557
100
AcDbXrecord
280
     1
340
12
  0
XRECORD
  5
4558
102
{ACAD_REACTORS
330
4557
102
}
330
4557
100
AcDbXrecord
280
     1
340
12
  0
LAYOUT
  5
3D5B
102
{ACAD_XDICTIONARY
360
47D8
102
}
102
{ACAD_REACTORS
330
3D5A
102
}
330
3D5A
100
AcDbPlotSettings
  1

  2
none_device
  4
Letter_(8.50_x_11.00_Inches)
  6

 40
6.349999904632568
 41
6.349999904632568
 42
6.350006103515625
 43
6.350006103515625
 44
215.8999938964844
 45
279.3999938964844
 46
-3.649827478720674
 47
-107.5640459667787
 48
0.0
 49
0.0
140
0.0
141
0.0
142
1.0
143
27.9908
 70
 11940
 72
     0
 73
     1
 74
     0
  7
monochrome.ctb
 75
     0
147
0.0357260242651157
148
-10588.37141457622
149
4667.748089901325
100
AcDbLayout
  1
Model
 70
     1
 71
     0
 10
0.0
 20
0.0
 11
12.0
 21
9.0
 12
0.0
 22
0.0
 32
0.0
 14
0.0
 24
0.0
 34
0.0
 15
0.0
 25
0.0
 35
0.0
146
0.0
 13
0.0
 23
0.0
 33
0.0
 16
1.0
 26
0.0
 36
0.0
 17
0.0
 27
1.0
 37
0.0
 76
     0
330
17
1001
ACAD_PSEXT
1000
なし
1000
なし
1000
適切ではありません
1000
新しいプロッタ環境設定名を選択しない限り、レイアウトは印刷されません。
1070
     0
  0
LAYOUT
  5
3D5C
102
{ACAD_XDICTIONARY
360
47DA
102
}
102
{ACAD_REACTORS
330
3D5A
102
}
330
3D5A
100
AcDbPlotSettings
  1

  2
Microsoft XPS Document Writer
  4

  6

 40
0.0
 41
0.0
 42
0.0
 43
0.0
 44
0.0
 45
0.0
 46
0.0
 47
0.0
 48
0.0
 49
0.0
140
0.0
141
0.0
142
1.0
143
1.0
 70
   688
 72
     0
 73
     0
 74
     5
  7
monochrome.ctb
 75
    16
147
1.0
148
0.0
149
0.0
100
AcDbLayout
  1
レイアウト1
 70
     1
 71
     1
 10
0.0
 20
0.0
 11
12.0
 21
9.0
 12
0.0
 22
0.0
 32
0.0
 14
1.000000000000000E+20
 24
1.000000000000000E+20
 34
1.000000000000000E+20
 15
-1.000000000000000E+20
 25
-1.000000000000000E+20
 35
-1.000000000000000E+20
146
0.0
 13
0.0
 23
0.0
 33
0.0
 16
1.0
 26
0.0
 36
0.0
 17
0.0
 27
1.0
 37
0.0
 76
     0
330
14
  0
MATERIAL
  5
3D44
102
{ACAD_XDICTIONARY
360
419D
102
}
102
{ACAD_REACTORS
330
3D42
102
}
330
3D42
100
AcDbMaterial
  1
ByBlock
  0
MATERIAL
  5
3D43
102
{ACAD_XDICTIONARY
360
419B
102
}
102
{ACAD_REACTORS
330
3D42
102
}
330
3D42
100
AcDbMaterial
  1
ByLayer
  0
MATERIAL
  5
3D45
102
{ACAD_XDICTIONARY
360
419F
102
}
102
{ACAD_REACTORS
330
3D42
102
}
330
3D42
100
AcDbMaterial
  1
Global
  0
MLINESTYLE
  5
1B
102
{ACAD_REACTORS
330
1A
102
}
330
1A
100
AcDbMlineStyle
  2
STANDARD
 70
     0
  3

 62
   256
 51
90.0
 52
90.0
 71
     2
 49
0.5
 62
   256
  6
BYLAYER
 49
-0.5
 62
   256
  6
BYLAYER
  0
ACDBPLACEHOLDER
  5
3D41
102
{ACAD_REACTORS
330
3D40
102
}
330
3D40
  0
TABLESTYLE
  5
3D59
102
{ACAD_XDICTIONARY
360
4563
102
}
102
{ACAD_REACTORS
330
3D58
102
}
330
3D58
100
AcDbTableStyle
  3
Standard
 70
     0
 71
     0
 40
0.06
 41
0.06
280
     0
281
     0
  7
STANDARD
140
0.18
170
     2
 62
     0
 63
     7
283
     0
274
    -2
284
     1
 64
     0
275
    -2
285
     1
 65
     0
276
    -2
286
     1
 66
     0
277
    -2
287
     1
 67
     0
278
    -2
288
     1
 68
     0
279
    -2
289
     1
 69
     0
  7
STANDARD
140
0.25
170
     5
 62
     0
 63
     7
283
     0
274
    -2
284
     1
 64
     0
275
    -2
285
     1
 65
     0
276
    -2
286
     1
 66
     0
277
    -2
287
     1
 67
     0
278
    -2
288
     1
 68
     0
279
    -2
289
     1
 69
     0
  7
STANDARD
140
0.18
170
     5
 62
     0
 63
     7
283
     0
274
    -2
284
     1
 64
     0
275
    -2
285
     1
 65
     0
276
    -2
286
     1
 66
     0
277
    -2
287
     1
 67
     0
278
    -2
288
     1
 68
     0
279
    -2
289
     1
 69
     0
  0
ACAD_PROXY_OBJECT
  5
3D4C
102
{ACAD_REACTORS
330
3D46
102
}
330
3D46
100
AcDbProxyObject
 90
      499
 91
      503
 95
  2555929
 70
     0
 93
      598
310
430C9915DA5C99599C985B59401049028333333333333E3BF0000000000000FB023FFFFFF0802405048070000C3008000000C800405A000000320014050640A01C00030C010500920280D3
 94
        0
1001
ACAD
1000
AcDbSavedByObjectVersion
1070
     0
1000
AcDbSavedByObjectVersion
1070
     0
1000
AcDbSavedByObjectVersion
1070
     0
1000
AcDbSavedByObjectVersion
1070
     0
1000
AcDbSavedByObjectVersion
1070
     0
1000
AcDbSavedByObjectVersion
1070
     0
1000
AcDbSavedByObjectVersion
1070
     0
1000
AcDbSavedByObjectVersion
1070
     0
1000
AcDbSavedByObjectVersion
1070
     0
1000
AcRTDxfName
1000
VISUALSTYLE
  0
ACAD_PROXY_OBJECT
  5
3D4E
102
{ACAD_REACTORS
330
3D46
102
}
330
3D46
100
AcDbProxyObject
 90
      499
 91
      503
 95
  2555929
 70
     0
 93
      662
310
428CD108121A5919195B8010640502408333333333333E3BF0000000000000FB023FFFFFF0802409028070000C3008000000C8004080000000000004440A000000320014050640A01C00030C010300920280D0
 94
        0
1001
ACAD
1000
AcDbSavedByObjectVersion
1070
     0
1000
AcDbSavedByObjectVersion
1070
     0
1000
AcDbSavedByObjectVersion
1070
     0
1000
AcDbSavedByObjectVersion
1070
     0
1000
AcDbSavedByObjectVersion
1070
     0
1000
AcDbSavedByObjectVersion
1070
     0
1000
AcDbSavedByObjectVersion
1070
     0
1000
AcDbSavedByObjectVersion
1070
     0
1000
AcDbSavedByObjectVersion
1070
     0
1000
AcRTDxfName
1000
VISUALSTYLE
  0
ACAD_PROXY_OBJECT
  5
3D4D
102
{ACAD_REACTORS
330
3D46
102
}
330
3D46
100
AcDbProxyObject
 90
      499
 91
      503
 95
  2555929
 70
     0
 93
      598
310
430CD915DA5C99599C985B59401059028333333333333E3BF0000000000000FB023FFFFFF0802405048070000C3008000000C800405A000000320014050640A01C00030C010500920280D0
 94
        0
1001
ACAD
1000
AcDbSavedByObjectVersion
1070
     0
1000
AcDbSavedByObjectVersion
1070
     0
1000
AcDbSavedByObjectVersion
1070
     0
1000
AcDbSavedByObjectVersion
1070
     0
1000
AcDbSavedByObjectVersion
1070
     0
1000
AcDbSavedByObjectVersion
1070
     0
1000
AcDbSavedByObjectVersion
1070
     0
1000
AcDbSavedByObjectVersion
1070
     0
1000
AcDbSavedByObjectVersion
1070
     0
1000
AcRTDxfName
1000
VISUALSTYLE
  0
ACAD_PROXY_OBJECT
  5
3D4B
102
{ACAD_REACTORS
330
3D46
102
}
330
3D46
100
AcDbProxyObject
 90
      499
 91
      503
 95
  2555929
 70
     0
 93
      558
310
4190985CDA58C0107406404333333333333E3BF0000000000000FB023FFFFFF08029048070000C3008000000C80040542201C00030C014050640A01C00030C010500920280D6
 94
        0
1001
ACAD
1000
AcDbSavedByObjectVersion
1070
     0
1000
AcDbSavedByObjectVersion
1070
     0
1000
AcDbSavedByObjectVersion
1070
     0
1000
AcDbSavedByObjectVersion
1070
     0
1000
AcDbSavedByObjectVersion
1070
     0
1000
AcDbSavedByObjectVersion
1070
     0
1000
AcDbSavedByObjectVersion
1070
     0
1000
AcDbSavedByObjectVersion
1070
     0
1000
AcDbSavedByObjectVersion
1070
     0
1000
AcRTDxfName
1000
VISUALSTYLE
  0
ACAD_PROXY_OBJECT
  5
3D52
102
{ACAD_REACTORS
330
3D46
102
}
330
3D46
100
AcDbProxyObject
 90
      499
 91
      503
 95
  2555929
 70
     0
 93
      598
310
42509C9A59DA1D195B8010C409028333333333333E3BF0000000000000FB023FFFFFF0802405048070000C3008000000C80040542201C00030C014050640A01C00030C010500920280A657
 94
        0
1001
ACAD
1000
AcDbSavedByObjectVersion
1070
     0
1000
AcDbSavedByObjectVersion
1070
     0
1000
AcDbSavedByObjectVersion
1070
     0
1000
AcDbSavedByObjectVersion
1070
     0
1000
AcDbSavedByObjectVersion
1070
     0
1000
AcDbSavedByObjectVersion
1070
     0
1000
AcDbSavedByObjectVersion
1070
     0
1000
AcDbSavedByObjectVersion
1070
     0
1000
AcDbSavedByObjectVersion
1070
     0
1000
AcRTDxfName
1000
VISUALSTYLE
  0
ACAD_PROXY_OBJECT
  5
3D56
102
{ACAD_REACTORS
330
3D46
102
}
330
3D46
100
AcDbProxyObject
 90
      499
 91
      503
 95
  2555929
 70
     0
 93
      622
310
4310DBDB1BDC90DA185B99D9401104090240C333333333333E3BF0000000000000FB0220202030802405048070000C3008000000C800405422202020308014050640A01C00030C010500920280D7
 94
        0
1001
ACAD
1000
AcDbSavedByObjectVersion
1070
     0
1000
AcDbSavedByObjectVersion
1070
     0
1000
AcDbSavedByObjectVersion
1070
     0
1000
AcDbSavedByObjectVersion
1070
     0
1000
AcDbSavedByObjectVersion
1070
     0
1000
AcDbSavedByObjectVersion
1070
     0
1000
AcDbSavedByObjectVersion
1070
     0
1000
AcDbSavedByObjectVersion
1070
     0
1000
AcDbSavedByObjectVersion
1070
     0
1000
AcRTDxfName
1000
VISUALSTYLE
  0
ACAD_PROXY_OBJECT
  5
3D4F
102
{ACAD_REACTORS
330
3D46
102
}
330
3D46
100
AcDbProxyObject
 90
      499
 91
      503
 95
  2555929
 70
     0
 93
      670
310
42D0DBDB98D95C1D1D585B0010940D028333333333333E3BF0000000000000FB023FFFFFF0802409028070000C3008000000C800404000000000000444042201C00030C014050640A01C00030C010300920280D0
 94
        0
1001
ACAD
1000
AcDbSavedByObjectVersion
1070
     0
1000
AcDbSavedByObjectVersion
1070
     0
1000
AcDbSavedByObjectVersion
1070
     0
1000
AcDbSavedByObjectVersion
1070
     0
1000
AcDbSavedByObjectVersion
1070
     0
1000
AcDbSavedByObjectVersion
1070
     0
1000
AcDbSavedByObjectVersion
1070
     0
1000
AcDbSavedByObjectVersion
1070
     0
1000
AcDbSavedByObjectVersion
1070
     0
1000
AcRTDxfName
1000
VISUALSTYLE
  0
ACAD_PROXY_OBJECT
  5
3D51
102
{ACAD_REACTORS
330
3D46
102
}
330
3D46
100
AcDbProxyObject
 90
      499
 91
      503
 95
  2555929
 70
     0
 93
      582
310
41111A5B4010B409028333333333333E3BF0000000000000FB023FFFFFF0802405048070000C3008000000C80040542201C00030C014050640A01C00030C01050092028099DFFFFFF4
 94
        0
1001
ACAD
1000
AcDbSavedByObjectVersion
1070
     0
1000
AcDbSavedByObjectVersion
1070
     0
1000
AcDbSavedByObjectVersion
1070
     0
1000
AcDbSavedByObjectVersion
1070
     0
1000
AcDbSavedByObjectVersion
1070
     0
1000
AcDbSavedByObjectVersion
1070
     0
1000
AcDbSavedByObjectVersion
1070
     0
1000
AcDbSavedByObjectVersion
1070
     0
1000
AcDbSavedByObjectVersion
1070
     0
1000
AcRTDxfName
1000
VISUALSTYLE
  0
ACAD_PROXY_OBJECT
  5
3D55
102
{ACAD_REACTORS
330
3D46
102
}
330
3D46
100
AcDbProxyObject
 90
      499
 91
      503
 95
  2555929
 70
     0
 93
      614
310
43119858D95C185D1D195C9B8010F409028333333333333E3BF0000000000000FB023FFFFFF0802405048070000C3008000000C80040542201C00030C014050640A01C00030C010500920280D4
 94
        0
1001
ACAD
1000
AcDbSavedByObjectVersion
1070
     0
1000
AcDbSavedByObjectVersion
1070
     0
1000
AcDbSavedByObjectVersion
1070
     0
1000
AcDbSavedByObjectVersion
1070
     0
1000
AcDbSavedByObjectVersion
1070
     0
1000
AcDbSavedByObjectVersion
1070
     0
1000
AcDbSavedByObjectVersion
1070
     0
1000
AcDbSavedByObjectVersion
1070
     0
1000
AcDbSavedByObjectVersion
1070
     0
1000
AcRTDxfName
1000
VISUALSTYLE
  0
ACAD_PROXY_OBJECT
  5
3D47
102
{ACAD_REACTORS
330
3D46
102
}
330
3D46
100
AcDbProxyObject
 90
      499
 91
      503
 95
  2555929
 70
     0
 93
      558
310
41519B185D00240901404333333333333E3BF0000000000000F9023FFFFFF0801029048070000C3008000000C80040542201C00030C014050640A01C00030C010500920286D4
 94
        0
1001
ACAD
1000
AcDbSavedByObjectVersion
1070
     0
1000
AcDbSavedByObjectVersion
1070
     0
1000
AcDbSavedByObjectVersion
1070
     0
1000
AcDbSavedByObjectVersion
1070
     0
1000
AcDbSavedByObjectVersion
1070
     0
1000
AcDbSavedByObjectVersion
1070
     0
1000
AcDbSavedByObjectVersion
1070
     0
1000
AcDbSavedByObjectVersion
1070
     0
1000
AcDbSavedByObjectVersion
1070
     0
1000
AcRTDxfName
1000
VISUALSTYLE
  0
ACAD_PROXY_OBJECT
  5
3D48
102
{ACAD_REACTORS
330
3D46
102
}
330
3D46
100
AcDbProxyObject
 90
      499
 91
      503
 95
  2555929
 70
     0
 93
      638
310
43919B185D15DA5D1A115919D95CC010140901404333333333333E3BF0000000000000F9023FFFFFF080102405048070000C3008000000C800405A000000320014050640A01C00030C010500920286D4
 94
        0
1001
ACAD
1000
AcDbSavedByObjectVersion
1070
     0
1000
AcDbSavedByObjectVersion
1070
     0
1000
AcDbSavedByObjectVersion
1070
     0
1000
AcDbSavedByObjectVersion
1070
     0
1000
AcDbSavedByObjectVersion
1070
     0
1000
AcDbSavedByObjectVersion
1070
     0
1000
AcDbSavedByObjectVersion
1070
     0
1000
AcDbSavedByObjectVersion
1070
     0
1000
AcDbSavedByObjectVersion
1070
     0
1000
AcRTDxfName
1000
VISUALSTYLE
  0
ACAD_PROXY_OBJECT
  5
3D49
102
{ACAD_REACTORS
330
3D46
102
}
330
3D46
100
AcDbProxyObject
 90
      499
 91
      503
 95
  2555929
 70
     0
 93
      582
310
4211DBDD5C985D590010240902404333333333333E3BF0000000000000F9023FFFFFF0801029048070000C3008000000C800405A01C00030C014050640A01C00030C010500920286D4
 94
        0
1001
ACAD
1000
AcDbSavedByObjectVersion
1070
     0
1000
AcDbSavedByObjectVersion
1070
     0
1000
AcDbSavedByObjectVersion
1070
     0
1000
AcDbSavedByObjectVersion
1070
     0
1000
AcDbSavedByObjectVersion
1070
     0
1000
AcDbSavedByObjectVersion
1070
     0
1000
AcDbSavedByObjectVersion
1070
     0
1000
AcDbSavedByObjectVersion
1070
     0
1000
AcDbSavedByObjectVersion
1070
     0
1000
AcRTDxfName
1000
VISUALSTYLE
  0
ACAD_PROXY_OBJECT
  5
3D4A
102
{ACAD_REACTORS
330
3D46
102
}
330
3D46
100
AcDbProxyObject
 90
      499
 91
      503
 95
  2555929
 70
     0
 93
      662
310
4451DBDD5C985D5915DA5D1A115919D95CC010340902404333333333333E3BF0000000000000F9023FFFFFF080102405048070000C3008000000C800405A000000320014050640A01C00030C010500920286D4
 94
        0
1001
ACAD
1000
AcDbSavedByObjectVersion
1070
     0
1000
AcDbSavedByObjectVersion
1070
     0
1000
AcDbSavedByObjectVersion
1070
     0
1000
AcDbSavedByObjectVersion
1070
     0
1000
AcDbSavedByObjectVersion
1070
     0
1000
AcDbSavedByObjectVersion
1070
     0
1000
AcDbSavedByObjectVersion
1070
     0
1000
AcDbSavedByObjectVersion
1070
     0
1000
AcDbSavedByObjectVersion
1070
     0
1000
AcRTDxfName
1000
VISUALSTYLE
  0
ACAD_PROXY_OBJECT
  5
3D54
102
{ACAD_REACTORS
330
3D46
102
}
330
3D46
100
AcDbProxyObject
 90
      499
 91
      503
 95
  2555929
 70
     0
 93
      614
310
43131A5B995C185D1D195C9B8010E409028333333333333E3BF0000000000000FB023FFFFFF0802405048070000C3008000000C80041D42201C00030C014050640A01C00030C010500920E80D5
 94
        0
1001
ACAD
1000
AcDbSavedByObjectVersion
1070
     0
1000
AcDbSavedByObjectVersion
1070
     0
1000
AcDbSavedByObjectVersion
1070
     0
1000
AcDbSavedByObjectVersion
1070
     0
1000
AcDbSavedByObjectVersion
1070
     0
1000
AcDbSavedByObjectVersion
1070
     0
1000
AcDbSavedByObjectVersion
1070
     0
1000
AcDbSavedByObjectVersion
1070
     0
1000
AcDbSavedByObjectVersion
1070
     0
1000
AcRTDxfName
1000
VISUALSTYLE
  0
ACAD_PROXY_OBJECT
  5
3D50
102
{ACAD_REACTORS
330
3D46
102
}
330
3D46
100
AcDbProxyObject
 90
      499
 91
      503
 95
  2555929
 70
     0
 93
      590
310
429499585B1A5CDD1A58C0108409028333333333333E3BF0000000000000FB023FFFFFF08024068070000C3008000000C8004054221E1E1E308014050640A01C00030C010500920286D0
 94
        0
1001
ACAD
1000
AcDbSavedByObjectVersion
1070
     0
1000
AcDbSavedByObjectVersion
1070
     0
1000
AcDbSavedByObjectVersion
1070
     0
1000
AcDbSavedByObjectVersion
1070
     0
1000
AcDbSavedByObjectVersion
1070
     0
1000
AcDbSavedByObjectVersion
1070
     0
1000
AcDbSavedByObjectVersion
1070
     0
1000
AcDbSavedByObjectVersion
1070
     0
1000
AcDbSavedByObjectVersion
1070
     0
1000
AcRTDxfName
1000
VISUALSTYLE
  0
ACAD_PROXY_OBJECT
  5
3D53
102
{ACAD_REACTORS
330
3D46
102
}
330
3D46
100
AcDbProxyObject
 90
      499
 91
      503
 95
  2555929
 70
     0
 93
      582
310
42151A1A58DAD95B8010D409028333333333333E3BF0000000000000FB023FFFFFF0802405048070000C3008000000C80040543201C00030C014050640A01C00030C010500920280D4
 94
        0
1001
ACAD
1000
AcDbSavedByObjectVersion
1070
     0
1000
AcDbSavedByObjectVersion
1070
     0
1000
AcDbSavedByObjectVersion
1070
     0
1000
AcDbSavedByObjectVersion
1070
     0
1000
AcDbSavedByObjectVersion
1070
     0
1000
AcDbSavedByObjectVersion
1070
     0
1000
AcDbSavedByObjectVersion
1070
     0
1000
AcDbSavedByObjectVersion
1070
     0
1000
AcDbSavedByObjectVersion
1070
     0
1000
AcRTDxfName
1000
VISUALSTYLE
  0
DICTIONARYVAR
  5
4117
102
{ACAD_REACTORS
330
4116
102
}
330
4116
100
DictionaryVariables
280
     0
  1
STANDARD
  0
DICTIONARYVAR
  5
47D3
102
{ACAD_REACTORS
330
4116
102
}
330
4116
100
DictionaryVariables
280
     0
  1
1
  0
DICTIONARYVAR
  5
47D4
102
{ACAD_REACTORS
330
4116
102
}
330
4116
100
DictionaryVariables
280
     0
  1

  0
DICTIONARY
  5
47D8
330
3D5B
100
AcDbDictionary
280
     1
281
     1
  3
ACAD_XREC_ROUNDTRIP
360
47D9
  0
DICTIONARY
  5
47DA
330
3D5C
100
AcDbDictionary
280
     1
281
     1
  3
ACAD_XREC_ROUNDTRIP
360
47DB
  0
DICTIONARY
  5
419D
330
3D44
100
AcDbDictionary
280
     1
281
     1
  3
ACAD_XREC_ROUNDTRIP
360
419E
  0
DICTIONARY
  5
419B
330
3D43
100
AcDbDictionary
280
     1
281
     1
  3
ACAD_XREC_ROUNDTRIP
360
419C
  0
DICTIONARY
  5
419F
330
3D45
100
AcDbDictionary
280
     1
281
     1
  3
ACAD_XREC_ROUNDTRIP
360
41A0
  0
DICTIONARY
  5
4563
330
3D59
100
AcDbDictionary
280
     1
281
     1
  3
ACAD_XREC_ROUNDTRIP
360
4564
  0
XRECORD
  5
47D9
102
{ACAD_REACTORS
330
47D8
102
}
330
47D8
100
AcDbXrecord
280
     1
102
SHADEPLOT
 70
     0
102
SHADEPLOTRESLEVEL
 70
     2
102
SHADEPLOTCUSTOMDPI
 70
   300
  0
XRECORD
  5
47DB
102
{ACAD_REACTORS
330
47DA
102
}
330
47DA
100
AcDbXrecord
280
     1
102
SHADEPLOT
 70
     0
102
SHADEPLOTRESLEVEL
 70
     2
102
SHADEPLOTCUSTOMDPI
 70
   300
  0
XRECORD
  5
419E
102
{ACAD_REACTORS
330
419D
102
}
330
419D
100
AcDbXrecord
280
     1
102
MATERIAL
148
0.0
149
0.0
149
0.0
 93
        0
 94
       63
282
     0
 72
     1
 77
     1
171
     1
175
     1
179
     1
273
     0
  0
XRECORD
  5
419C
102
{ACAD_REACTORS
330
419B
102
}
330
419B
100
AcDbXrecord
280
     1
102
MATERIAL
148
0.0
149
0.0
149
0.0
 93
        0
 94
       63
282
     0
 72
     1
 77
     1
171
     1
175
     1
179
     1
273
     0
  0
XRECORD
  5
41A0
102
{ACAD_REACTORS
330
419F
102
}
330
419F
100
AcDbXrecord
280
     1
102
MATERIAL
148
0.0
149
0.0
149
0.0
 93
        0
 94
       63
282
     0
 72
     1
 77
     1
171
     1
175
     1
179
     1
273
     0
  0
XRECORD
  5
4564
102
{ACAD_REACTORS
330
4563
102
}
330
4563
100
AcDbXrecord
280
     1
102
ACAD_ROUNDTRIP_PRE2007_TABLESTYLE
 90
      512
 91
        0
  1

 92
      512
 93
        0
  2

 94
      512
 95
        0
  3

  0
ENDSEC
  0
EOF
