  0
SECTION
  2
HEADER
  9
$ACADVER
  1
AC1015
  9
$ACADMAINTVER
 70
    20
  9
$DWGCODEPAGE
  3
ANSI_932
  9
$INSBASE
 10
0.0
 20
0.0
 30
0.0
  9
$EXTMIN
 10
518.2222333087718
 20
-133.3415395087487
 30
-0.0000000349181948
  9
$EXTMAX
 10
745.1107451240968
 20
9.717684093305479
 30
0.0000000814935746
  9
$LIMMIN
 10
0.0
 20
0.0
  9
$LIMMAX
 10
12.0
 20
9.0
  9
$ORTHOMODE
 70
     1
  9
$REGENMODE
 70
     1
  9
$FILLMODE
 70
     1
  9
$QTEXTMODE
 70
     0
  9
$MIRRTEXT
 70
     1
  9
$LTSCALE
 40
0.5
  9
$ATTMODE
 70
     1
  9
$TEXTSIZE
 40
2.5
  9
$TRACEWID
 40
0.05
  9
$TEXTSTYLE
  7
CatalogDxf
  9
$CLAYER
  8
Z_OM_DIM
  9
$CELTYPE
  6
BYLAYER
  9
$CECOLOR
 62
   256
  9
$CELTSCALE
 40
1.0
  9
$DISPSILH
 70
     0
  9
$DIMSCALE
 40
1.0
  9
$DIMASZ
 40
2.5
  9
$DIMEXO
 40
0.625
  9
$DIMDLI
 40
3.75
  9
$DIMRND
 40
0.0
  9
$DIMDLE
 40
0.0
  9
$DIMEXE
 40
1.25
  9
$DIMTP
 40
0.0
  9
$DIMTM
 40
0.0
  9
$DIMTXT
 40
2.5
  9
$DIMCEN
 40
2.5
  9
$DIMTSZ
 40
0.0
  9
$DIMTOL
 70
     0
  9
$DIMLIM
 70
     0
  9
$DIMTIH
 70
     0
  9
$DIMTOH
 70
     0
  9
$DIMSE1
 70
     0
  9
$DIMSE2
 70
     0
  9
$DIMTAD
 70
     1
  9
$DIMZIN
 70
     8
  9
$DIMBLK
  1
OPEN30
  9
$DIMASO
 70
     1
  9
$DIMSHO
 70
     1
  9
$DIMPOST
  1

  9
$DIMAPOST
  1

  9
$DIMALT
 70
     0
  9
$DIMALTD
 70
     3
  9
$DIMALTF
 40
0.03937007874016
  9
$DIMLFAC
 40
1.0
  9
$DIMTOFL
 70
     1
  9
$DIMTVP
 40
0.0
  9
$DIMTIX
 70
     0
  9
$DIMSOXD
 70
     0
  9
$DIMSAH
 70
     0
  9
$DIMBLK1
  1

  9
$DIMBLK2
  1

  9
$DIMSTYLE
  2
CatalogDxf
  9
$DIMCLRD
 70
   256
  9
$DIMCLRE
 70
   256
  9
$DIMCLRT
 70
   256
  9
$DIMTFAC
 40
1.0
  9
$DIMGAP
 40
0.625
  9
$DIMJUST
 70
     0
  9
$DIMSD1
 70
     0
  9
$DIMSD2
 70
     0
  9
$DIMTOLJ
 70
     0
  9
$DIMTZIN
 70
     8
  9
$DIMALTZ
 70
     0
  9
$DIMALTTZ
 70
     0
  9
$DIMUPT
 70
     0
  9
$DIMDEC
 70
     1
  9
$DIMTDEC
 70
     1
  9
$DIMALTU
 70
     2
  9
$DIMALTTD
 70
     3
  9
$DIMTXSTY
  7
CatalogDxf
  9
$DIMAUNIT
 70
     0
  9
$DIMADEC
 70
     0
  9
$DIMALTRND
 40
0.0
  9
$DIMAZIN
 70
     0
  9
$DIMDSEP
 70
    46
  9
$DIMATFIT
 70
     3
  9
$DIMFRAC
 70
     0
  9
$DIMLDRBLK
  1
OPEN30
  9
$DIMLUNIT
 70
     2
  9
$DIMLWD
 70
    -1
  9
$DIMLWE
 70
    -1
  9
$DIMTMOVE
 70
     0
  9
$LUNITS
 70
     2
  9
$LUPREC
 70
     2
  9
$SKETCHINC
 40
0.1
  9
$FILLETRAD
 40
0.0
  9
$AUNITS
 70
     0
  9
$AUPREC
 70
     2
  9
$MENU
  1
acad
  9
$ELEVATION
 40
0.0
  9
$PELEVATION
 40
0.0
  9
$THICKNESS
 40
0.0
  9
$LIMCHECK
 70
     0
  9
$CHAMFERA
 40
0.0
  9
$CHAMFERB
 40
0.0
  9
$CHAMFERC
 40
0.0
  9
$CHAMFERD
 40
0.0
  9
$SKPOLY
 70
     0
  9
$TDCREATE
 40
2455090.761732894
  9
$TDUCREATE
 40
2455090.386732893
  9
$TDUPDATE
 40
2455678.571275243
  9
$TDUUPDATE
 40
2455678.196275243
  9
$TDINDWG
 40
0.5818389005
  9
$TDUSRTIMER
 40
0.5818321991
  9
$USRTIMER
 70
     1
  9
$ANGBASE
 50
0.0
  9
$ANGDIR
 70
     0
  9
$PDMODE
 70
     0
  9
$PDSIZE
 40
0.0
  9
$PLINEWID
 40
0.0
  9
$SPLFRAME
 70
     0
  9
$SPLINETYPE
 70
     6
  9
$SPLINESEGS
 70
     8
  9
$HANDSEED
  5
477B
  9
$SURFTAB1
 70
     6
  9
$SURFTAB2
 70
     6
  9
$SURFTYPE
 70
     6
  9
$SURFU
 70
     6
  9
$SURFV
 70
     6
  9
$UCSBASE
  2

  9
$UCSNAME
  2

  9
$UCSORG
 10
0.0
 20
0.0
 30
0.0
  9
$UCSXDIR
 10
1.0
 20
0.0
 30
0.0
  9
$UCSYDIR
 10
0.0
 20
1.0
 30
0.0
  9
$UCSORTHOREF
  2

  9
$UCSORTHOVIEW
 70
     1
  9
$UCSORGTOP
 10
0.0
 20
0.0
 30
0.0
  9
$UCSORGBOTTOM
 10
0.0
 20
0.0
 30
0.0
  9
$UCSORGLEFT
 10
0.0
 20
0.0
 30
0.0
  9
$UCSORGRIGHT
 10
0.0
 20
0.0
 30
0.0
  9
$UCSORGFRONT
 10
0.0
 20
0.0
 30
0.0
  9
$UCSORGBACK
 10
0.0
 20
0.0
 30
0.0
  9
$PUCSBASE
  2

  9
$PUCSNAME
  2

  9
$PUCSORG
 10
0.0
 20
0.0
 30
0.0
  9
$PUCSXDIR
 10
1.0
 20
0.0
 30
0.0
  9
$PUCSYDIR
 10
0.0
 20
1.0
 30
0.0
  9
$PUCSORTHOREF
  2

  9
$PUCSORTHOVIEW
 70
     0
  9
$PUCSORGTOP
 10
0.0
 20
0.0
 30
0.0
  9
$PUCSORGBOTTOM
 10
0.0
 20
0.0
 30
0.0
  9
$PUCSORGLEFT
 10
0.0
 20
0.0
 30
0.0
  9
$PUCSORGRIGHT
 10
0.0
 20
0.0
 30
0.0
  9
$PUCSORGFRONT
 10
0.0
 20
0.0
 30
0.0
  9
$PUCSORGBACK
 10
0.0
 20
0.0
 30
0.0
  9
$USERI1
 70
     0
  9
$USERI2
 70
     0
  9
$USERI3
 70
     0
  9
$USERI4
 70
     0
  9
$USERI5
 70
     0
  9
$USERR1
 40
0.0
  9
$USERR2
 40
0.0
  9
$USERR3
 40
0.0
  9
$USERR4
 40
0.0
  9
$USERR5
 40
0.0
  9
$WORLDVIEW
 70
     1
  9
$SHADEDGE
 70
     3
  9
$SHADEDIF
 70
    70
  9
$TILEMODE
 70
     1
  9
$MAXACTVP
 70
    16
  9
$PINSBASE
 10
0.0
 20
0.0
 30
0.0
  9
$PLIMCHECK
 70
     0
  9
$PEXTMIN
 10
1.000000000000000E+20
 20
1.000000000000000E+20
 30
1.000000000000000E+20
  9
$PEXTMAX
 10
-1.000000000000000E+20
 20
-1.000000000000000E+20
 30
-1.000000000000000E+20
  9
$PLIMMIN
 10
0.0
 20
0.0
  9
$PLIMMAX
 10
12.0
 20
9.0
  9
$UNITMODE
 70
     0
  9
$VISRETAIN
 70
     0
  9
$PLINEGEN
 70
     0
  9
$PSLTSCALE
 70
     1
  9
$TREEDEPTH
 70
  3020
  9
$CMLSTYLE
  2
STANDARD
  9
$CMLJUST
 70
     0
  9
$CMLSCALE
 40
1.0
  9
$PROXYGRAPHICS
 70
     1
  9
$MEASUREMENT
 70
     0
  9
$CELWEIGHT
370
    -1
  9
$ENDCAPS
280
     0
  9
$JOINSTYLE
280
     0
  9
$LWDISPLAY
290
     0
  9
$INSUNITS
 70
     0
  9
$HYPERLINKBASE
  1

  9
$STYLESHEET
  1
monochrome.ctb
  9
$XEDIT
290
     1
  9
$CEPSNTYPE
380
     0
  9
$PSTYLEMODE
290
     1
  9
$FINGERPRINTGUID
  2
{AFC0AA2D-B3CD-48CF-B830-EF9C44F122D3}
  9
$VERSIONGUID
  2
{7785ACD9-A21C-4C05-B5E3-E8EF83426049}
  9
$EXTNAMES
290
     1
  9
$PSVPSCALE
 40
0.0
  9
$OLESTARTUP
290
     0
  0
ENDSEC
  0
SECTION
  2
CLASSES
  0
CLASS
  1
ACDBDICTIONARYWDFLT
  2
AcDbDictionaryWithDefault
  3
ObjectDBX Classes
 90
        0
280
     0
281
     0
  0
CLASS
  1
DICTIONARYVAR
  2
AcDbDictionaryVar
  3
ObjectDBX Classes
 90
        0
280
     0
281
     0
  0
CLASS
  1
MATERIAL
  2
AcDbMaterial
  3
ObjectDBX Classes
 90
        0
280
     0
281
     0
  0
CLASS
  1
VISUALSTYLE
  2
AcDbVisualStyle
  3
ObjectDBX Classes
 90
     4095
280
     0
281
     0
  0
CLASS
  1
TABLESTYLE
  2
AcDbTableStyle
  3
ObjectDBX Classes
 90
     2047
280
     0
281
     0
  0
CLASS
  1
DIMASSOC
  2
AcDbDimAssoc
  3
"AcDbDimAssoc|Product Desc:     AcDim ARX App For Dimension|Company:          Autodesk, Inc.|WEB Address:      www.autodesk.com"
 90
    32768
280
     0
281
     0
  0
CLASS
  1
SORTENTSTABLE
  2
AcDbSortentsTable
  3
ObjectDBX Classes
 90
        0
280
     0
281
     0
  0
CLASS
  1
ACDBPLACEHOLDER
  2
AcDbPlaceHolder
  3
ObjectDBX Classes
 90
        0
280
     0
281
     0
  0
CLASS
  1
LAYOUT
  2
AcDbLayout
  3
ObjectDBX Classes
 90
        0
280
     0
281
     0
  0
ENDSEC
  0
SECTION
  2
TABLES
  0
TABLE
  2
VPORT
  5
8
102
{ACAD_XDICTIONARY
360
4549
102
}
330
0
100
AcDbSymbolTable
 70
     2
  0
VPORT
  5
4774
330
8
100
AcDbSymbolTableRecord
100
AcDbViewportTableRecord
  2
*Active
 70
     0
 10
0.0
 20
0.0
 11
1.0
 21
1.0
 12
660.6003354232419
 22
-63.72086480989167
 13
0.0
 23
0.0
 14
1.0
 24
1.0
 15
0.0
 25
0.0
 16
0.0
 26
0.0
 36
1.0
 17
0.0
 27
0.0
 37
0.0
 40
209.9715277956043
 41
2.288973384030418
 42
50.0
 43
0.0
 44
0.0
 50
0.0
 51
0.0
 71
     0
 72
   100
 73
     1
 74
     1
 75
     0
 76
     0
 77
     0
 78
     0
281
     0
 65
     1
110
0.0
120
0.0
130
0.0
111
1.0
121
0.0
131
0.0
112
0.0
122
1.0
132
0.0
 79
     0
146
0.0
  0
ENDTAB
  0
TABLE
  2
LTYPE
  5
5
330
0
100
AcDbSymbolTable
 70
     3
  0
LTYPE
  5
11
330
5
100
AcDbSymbolTableRecord
100
AcDbLinetypeTableRecord
  2
BYBLOCK
 70
     0
  3

 72
    65
 73
     0
 40
0.0
  0
LTYPE
  5
12
330
5
100
AcDbSymbolTableRecord
100
AcDbLinetypeTableRecord
  2
BYLAYER
 70
     0
  3

 72
    65
 73
     0
 40
0.0
  0
LTYPE
  5
13
330
5
100
AcDbSymbolTableRecord
100
AcDbLinetypeTableRecord
  2
CONTINUOUS
 70
     0
  3
Solid line
 72
    65
 73
     0
 40
0.0
  0
LTYPE
  5
3DB3
330
5
100
AcDbSymbolTableRecord
100
AcDbLinetypeTableRecord
  2
CENTER2
 70
     0
  3
Center (.5x) ___ _ ___ _ ___ _ ___ _ ___ _ ___
 72
    65
 73
     4
 40
28.575
 49
19.05
 74
     0
 49
-3.174999999999998
 74
     0
 49
3.174999999999998
 74
     0
 49
-3.174999999999998
 74
     0
  0
LTYPE
  5
3DB4
330
5
100
AcDbSymbolTableRecord
100
AcDbLinetypeTableRecord
  2
HIDDEN2
 70
     0
  3
Hidden (.5x) _ _ _ _ _ _ _ _ _ _ _ _ _ _ _ _ _
 72
    65
 73
     2
 40
4.762499999999998
 49
3.174999999999998
 74
     0
 49
-1.587499999999999
 74
     0
  0
ENDTAB
  0
TABLE
  2
LAYER
  5
2
102
{ACAD_XDICTIONARY
360
3DBA
102
}
330
0
100
AcDbSymbolTable
 70
     4
  0
LAYER
  5
E
102
{ACAD_XDICTIONARY
360
454B
102
}
330
2
100
AcDbSymbolTableRecord
100
AcDbLayerTableRecord
  2
0
 70
     0
 62
     7
  6
CONTINUOUS
370
    -3
390
3D41
  0
LAYER
  5
27
102
{ACAD_XDICTIONARY
360
454D
102
}
330
2
100
AcDbSymbolTableRecord
100
AcDbLayerTableRecord
  2
Z_OM_DIM
 70
     0
 62
     4
  6
CONTINUOUS
370
    -3
390
3D41
  0
LAYER
  5
2B
102
{ACAD_XDICTIONARY
360
454F
102
}
330
2
100
AcDbSymbolTableRecord
100
AcDbLayerTableRecord
  2
DEFPOINTS
 70
     0
 62
     7
  6
CONTINUOUS
290
     0
370
    -3
390
3D41
  0
LAYER
  5
3DB5
102
{ACAD_XDICTIONARY
360
4553
102
}
330
2
100
AcDbSymbolTableRecord
100
AcDbLayerTableRecord
  2
additional
 70
     0
 62
    50
  6
CONTINUOUS
370
    -3
390
3D41
1001
AcAecLayerStandard
1000

1000

  0
ENDTAB
  0
TABLE
  2
STYLE
  5
3
330
0
100
AcDbSymbolTable
 70
     4
  0
STYLE
  5
F
330
3
100
AcDbSymbolTableRecord
100
AcDbTextStyleTableRecord
  2
STANDARD
 70
     0
 40
0.0
 41
1.08
 50
0.0
 71
     0
 42
3.0
  3
txt.shx
  4
bigfont.shx
  0
STYLE
  5
3DB6
330
3
100
AcDbSymbolTableRecord
100
AcDbTextStyleTableRecord
  2
CatalogDxf
 70
     0
 40
0.0
 41
1.0
 50
0.0
 71
     0
 42
2.5
  3
txt.shx
  4
bigfont.shx
  0
STYLE
  5
4196
330
3
100
AcDbSymbolTableRecord
100
AcDbTextStyleTableRecord
  2

 70
     1
 40
0.0
 41
1.0
 50
0.0
 71
     0
 42
3.0
  3
ltypeshp.shx
  4

  0
ENDTAB
  0
TABLE
  2
VIEW
  5
6
330
0
100
AcDbSymbolTable
 70
     0
  0
ENDTAB
  0
TABLE
  2
UCS
  5
7
330
0
100
AcDbSymbolTable
 70
     0
  0
ENDTAB
  0
TABLE
  2
APPID
  5
9
330
0
100
AcDbSymbolTable
 70
     7
  0
APPID
  5
10
330
9
100
AcDbSymbolTableRecord
100
AcDbRegAppTableRecord
  2
ACAD
 70
     0
  0
APPID
  5
3D5E
330
9
100
AcDbSymbolTableRecord
100
AcDbRegAppTableRecord
  2
ACAD_PSEXT
 70
     0
  0
APPID
  5
3DB9
330
9
100
AcDbSymbolTableRecord
100
AcDbRegAppTableRecord
  2
AcAecLayerStandard
 70
     0
  0
APPID
  5
41A3
330
9
100
AcDbSymbolTableRecord
100
AcDbRegAppTableRecord
  2
ACAD_DSTYLE_DIM_LINETYPE
 70
     0
  0
APPID
  5
41A4
330
9
100
AcDbSymbolTableRecord
100
AcDbRegAppTableRecord
  2
ACAD_DSTYLE_DIM_EXT1_LINETYPE
 70
     0
  0
APPID
  5
41A5
330
9
100
AcDbSymbolTableRecord
100
AcDbRegAppTableRecord
  2
ACAD_DSTYLE_DIM_EXT2_LINETYPE
 70
     0
  0
APPID
  5
4579
330
9
100
AcDbSymbolTableRecord
100
AcDbRegAppTableRecord
  2
ACAD_DSTYLE_DIMTEXT_FILL
 70
     0
  0
ENDTAB
  0
TABLE
  2
DIMSTYLE
  5
A
330
0
100
AcDbSymbolTable
 70
     4
100
AcDbDimStyleTable
 71
     2
340
3DB8
340
30
  0
DIMSTYLE
105
30
330
A
100
AcDbSymbolTableRecord
100
AcDbDimStyleTableRecord
  2
STANDARD
 70
     0
 41
6.0
 42
1.0
 43
16.0
 44
3.0
 73
     0
 74
     0
 77
     1
 78
     8
140
4.4
141
10.0
147
1.6
172
     1
176
   256
177
   256
178
   256
340
F
341
977
342
977
  0
DIMSTYLE
105
3DB8
102
{ACAD_REACTORS
330
4313
330
4498
330
44A5
330
44BF
330
44D5
330
44E2
330
44EF
330
44FE
330
4514
330
4521
330
452E
330
46FD
330
4718
102
}
330
A
100
AcDbSymbolTableRecord
100
AcDbDimStyleTableRecord
  2
CatalogDxf
 70
     0
 41
2.5
 42
0.625
 43
3.75
 44
1.25
 73
     0
 74
     0
 77
     1
 78
     8
140
2.5
141
2.5
143
0.03937007874016
147
0.625
171
     3
172
     1
176
   256
177
   256
178
   256
271
     1
272
     1
274
     3
283
     0
284
     8
340
3DB6
341
977
342
977
371
    -1
372
    -1
1001
ACAD_DSTYLE_DIM_LINETYPE
1070
   380
1005
12
1001
ACAD_DSTYLE_DIM_EXT1_LINETYPE
1070
   381
1005
12
1001
ACAD_DSTYLE_DIM_EXT2_LINETYPE
1070
   382
1005
12
  0
DIMSTYLE
105
433E
330
A
100
AcDbSymbolTableRecord
100
AcDbDimStyleTableRecord
  2
ISO-25
 70
     0
 41
2.5
 42
0.625
 43
3.75
 44
1.25
 73
     0
 74
     0
 77
     1
 78
     8
140
2.5
141
2.5
143
0.03937007874016
147
0.625
171
     3
172
     1
271
     2
272
     2
274
     3
278
    44
283
     0
284
     8
340
F
  0
ENDTAB
  0
TABLE
  2
BLOCK_RECORD
  5
1
330
0
100
AcDbSymbolTable
 70
    15
  0
BLOCK_RECORD
  5
17
102
{ACAD_XDICTIONARY
360
1808
102
}
330
1
100
AcDbSymbolTableRecord
100
AcDbBlockTableRecord
  2
*MODEL_SPACE
340
3D5B
  0
BLOCK_RECORD
  5
14
102
{ACAD_XDICTIONARY
360
1806
102
}
330
1
100
AcDbSymbolTableRecord
100
AcDbBlockTableRecord
  2
*PAPER_SPACE
340
3D5C
  0
BLOCK_RECORD
  5
977
330
1
100
AcDbSymbolTableRecord
100
AcDbBlockTableRecord
  2
_OPEN30
340
0
102
{BLKREFS
331
4613
331
4614
331
4641
331
4642
331
464A
331
464B
331
4660
331
4661
331
468F
331
4690
331
46A4
331
46A5
331
46DB
331
46DC
331
46EC
331
46ED
331
46F5
331
46F6
331
470D
331
470E
331
473A
331
473B
331
4743
331
4744
331
474C
331
474D
102
}
  0
BLOCK_RECORD
  5
4314
330
1
100
AcDbSymbolTableRecord
100
AcDbBlockTableRecord
  2
*D1
340
0
  0
BLOCK_RECORD
  5
4499
330
1
100
AcDbSymbolTableRecord
100
AcDbBlockTableRecord
  2
*D2
340
0
  0
BLOCK_RECORD
  5
44A6
330
1
100
AcDbSymbolTableRecord
100
AcDbBlockTableRecord
  2
*D3
340
0
  0
BLOCK_RECORD
  5
44C0
330
1
100
AcDbSymbolTableRecord
100
AcDbBlockTableRecord
  2
*D4
340
0
  0
BLOCK_RECORD
  5
44D6
330
1
100
AcDbSymbolTableRecord
100
AcDbBlockTableRecord
  2
*D5
340
0
  0
BLOCK_RECORD
  5
44E3
330
1
100
AcDbSymbolTableRecord
100
AcDbBlockTableRecord
  2
*D6
340
0
  0
BLOCK_RECORD
  5
44F0
330
1
100
AcDbSymbolTableRecord
100
AcDbBlockTableRecord
  2
*D7
340
0
  0
BLOCK_RECORD
  5
44FF
330
1
100
AcDbSymbolTableRecord
100
AcDbBlockTableRecord
  2
*D8
340
0
  0
BLOCK_RECORD
  5
4515
330
1
100
AcDbSymbolTableRecord
100
AcDbBlockTableRecord
  2
*D9
340
0
  0
BLOCK_RECORD
  5
4522
330
1
100
AcDbSymbolTableRecord
100
AcDbBlockTableRecord
  2
*D10
340
0
  0
BLOCK_RECORD
  5
452F
330
1
100
AcDbSymbolTableRecord
100
AcDbBlockTableRecord
  2
*D11
340
0
  0
BLOCK_RECORD
  5
46FE
330
1
100
AcDbSymbolTableRecord
100
AcDbBlockTableRecord
  2
*D12
340
0
  0
BLOCK_RECORD
  5
4719
330
1
100
AcDbSymbolTableRecord
100
AcDbBlockTableRecord
  2
*D13
340
0
  0
ENDTAB
  0
ENDSEC
  0
SECTION
  2
BLOCKS
  0
BLOCK
  5
2E
330
17
100
AcDbEntity
  8
0
100
AcDbBlockBegin
  2
*MODEL_SPACE
 70
     0
 10
0.0
 20
0.0
 30
0.0
  3
*MODEL_SPACE
  1

  0
ENDBLK
  5
2F
330
17
100
AcDbEntity
  8
0
100
AcDbBlockEnd
  0
BLOCK
  5
2C
330
14
100
AcDbEntity
 67
     1
  8
0
100
AcDbBlockBegin
  2
*PAPER_SPACE
 70
     0
 10
0.0
 20
0.0
 30
0.0
  3
*PAPER_SPACE
  1

  0
ENDBLK
  5
2D
330
14
100
AcDbEntity
 67
     1
  8
0
100
AcDbBlockEnd
  0
BLOCK
  5
97B
330
977
100
AcDbEntity
  8
0
100
AcDbBlockBegin
  2
_OPEN30
 70
     0
 10
0.0
 20
0.0
 30
0.0
  3
_OPEN30
  1

  0
LINE
  5
978
330
977
100
AcDbEntity
  8
0
  6
ByBlock
 62
     0
100
AcDbLine
 10
-1.0
 20
0.26794919
 30
0.0
 11
0.0
 21
0.0
 31
0.0
  0
LINE
  5
979
330
977
100
AcDbEntity
  8
0
  6
ByBlock
 62
     0
100
AcDbLine
 10
0.0
 20
0.0
 30
0.0
 11
-1.0
 21
-0.26794919
 31
0.0
  0
LINE
  5
97A
330
977
100
AcDbEntity
  8
0
  6
ByBlock
 62
     0
100
AcDbLine
 10
0.0
 20
0.0
 30
0.0
 11
-1.0
 21
0.0
 31
0.0
  0
ENDBLK
  5
97C
330
977
100
AcDbEntity
  8
0
100
AcDbBlockEnd
  0
BLOCK
  5
431E
330
4314
100
AcDbEntity
  8
0
100
AcDbBlockBegin
  2
*D1
 70
     1
 10
0.0
 20
0.0
 30
0.0
  3
*D1
  1

  0
LINE
  5
4740
330
4314
100
AcDbEntity
  8
Z_OM_DIM
100
AcDbLine
 10
681.2289088937525
 20
-24.94762700642573
 30
0.0
 11
681.2289088937525
 21
-41.17387681043448
 31
0.0
  0
LINE
  5
4741
330
4314
100
AcDbEntity
  8
Z_OM_DIM
100
AcDbLine
 10
712.4435123930663
 20
-12.69762700642573
 30
0.0
 11
712.4435123930663
 21
-41.17387681043448
 31
0.0
  0
LINE
  5
4742
330
4314
100
AcDbEntity
  8
Z_OM_DIM
100
AcDbLine
 10
683.7289088937525
 20
-39.92387681043448
 30
0.0
 11
709.9435123930662
 21
-39.92387681043448
 31
0.0
  0
INSERT
  5
4743
330
4314
100
AcDbEntity
  8
Z_OM_DIM
100
AcDbBlockReference
  2
_OPEN30
 10
681.2289088937525
 20
-39.92387681043448
 30
0.0
 41
2.5
 42
2.5
 43
2.5
 50
180.0
  0
INSERT
  5
4744
330
4314
100
AcDbEntity
  8
Z_OM_DIM
100
AcDbBlockReference
  2
_OPEN30
 10
712.4435123930663
 20
-39.92387681043448
 30
0.0
 41
2.5
 42
2.5
 43
2.5
  0
MTEXT
  5
4745
330
4314
100
AcDbEntity
  8
Z_OM_DIM
100
AcDbMText
 10
696.8362106434094
 20
-38.04887681043448
 30
0.0
 40
2.5
 41
0.0
 71
     5
 72
     1
  1
180 - 200
  7
CatalogDxf
 73
     1
 44
1.0
1001
ACAD
1000
MTEXTBEGIN
1070
    73
1070
     1
1070
    44
1040
1.0
1070
    74
1070
     0
1000
MTEXTEND
  0
POINT
  5
4746
330
4314
100
AcDbEntity
  8
DEFPOINTS
 62
     0
100
AcDbPoint
 10
681.2289088937525
 20
-24.32262700642573
 30
0.0
  0
POINT
  5
4747
330
4314
100
AcDbEntity
  8
DEFPOINTS
 62
     0
100
AcDbPoint
 10
712.4435123930663
 20
-12.07262700642573
 30
0.0
  0
POINT
  5
4748
330
4314
100
AcDbEntity
  8
DEFPOINTS
 62
     0
100
AcDbPoint
 10
712.4435123930663
 20
-39.92387681043448
 30
0.0
  0
ENDBLK
  5
431F
330
4314
100
AcDbEntity
  8
0
100
AcDbBlockEnd
  0
BLOCK
  5
44A3
330
4499
100
AcDbEntity
  8
0
100
AcDbBlockBegin
  2
*D2
 70
     1
 10
0.0
 20
0.0
 30
0.0
  3
*D2
  1

  0
LINE
  5
4749
330
4499
100
AcDbEntity
  8
Z_OM_DIM
100
AcDbLine
 10
681.2289088937525
 20
-24.94762700642573
 30
0.0
 11
681.2289088937525
 21
-41.17387681043448
 31
0.0
  0
LINE
  5
474A
330
4499
100
AcDbEntity
  8
Z_OM_DIM
100
AcDbLine
 10
641.2289088937525
 20
-26.44762700642576
 30
0.0
 11
641.2289088937525
 21
-41.17387681043448
 31
0.0
  0
LINE
  5
474B
330
4499
100
AcDbEntity
  8
Z_OM_DIM
100
AcDbLine
 10
678.7289088937525
 20
-39.92387681043448
 30
0.0
 11
643.7289088937525
 21
-39.92387681043448
 31
0.0
  0
INSERT
  5
474C
330
4499
100
AcDbEntity
  8
Z_OM_DIM
100
AcDbBlockReference
  2
_OPEN30
 10
681.2289088937525
 20
-39.92387681043448
 30
0.0
 41
2.5
 42
2.5
 43
2.5
  0
INSERT
  5
474D
330
4499
100
AcDbEntity
  8
Z_OM_DIM
100
AcDbBlockReference
  2
_OPEN30
 10
641.2289088937525
 20
-39.92387681043448
 30
0.0
 41
2.5
 42
2.5
 43
2.5
 50
180.0
  0
MTEXT
  5
474E
330
4499
100
AcDbEntity
  8
Z_OM_DIM
100
AcDbMText
 10
661.2289088937525
 20
-38.04887681043448
 30
0.0
 40
2.5
 41
0.0
 71
     5
 72
     1
  1
40
  7
CatalogDxf
 73
     1
 44
1.0
1001
ACAD
1000
MTEXTBEGIN
1070
    73
1070
     1
1070
    44
1040
1.0
1070
    74
1070
     0
1000
MTEXTEND
  0
POINT
  5
474F
330
4499
100
AcDbEntity
  8
DEFPOINTS
 62
     0
100
AcDbPoint
 10
681.2289088937525
 20
-24.32262700642573
 30
0.0
  0
POINT
  5
4750
330
4499
100
AcDbEntity
  8
DEFPOINTS
 62
     0
100
AcDbPoint
 10
641.2289088937525
 20
-25.82262700642576
 30
0.0
  0
POINT
  5
4751
330
4499
100
AcDbEntity
  8
DEFPOINTS
 62
     0
100
AcDbPoint
 10
641.2289088937525
 20
-39.92387681043448
 30
0.0
  0
ENDBLK
  5
44A4
330
4499
100
AcDbEntity
  8
0
100
AcDbBlockEnd
  0
BLOCK
  5
44B2
330
44A6
100
AcDbEntity
  8
0
100
AcDbBlockBegin
  2
*D3
 70
     1
 10
0.0
 20
0.0
 30
0.0
  3
*D3
  1

  0
LINE
  5
469F
330
44A6
100
AcDbEntity
  8
Z_OM_DIM
100
AcDbLine
 10
630.1039088937525
 20
-9.72262700642571
 30
0.0
 11
619.3186005215843
 21
-9.722627006425707
 31
0.0
  0
LINE
  5
46A0
330
44A6
100
AcDbEntity
  8
Z_OM_DIM
100
AcDbLine
 10
630.1039088937525
 20
-12.9226270064257
 30
0.0
 11
619.3186005215843
 21
-12.92262700642569
 31
0.0
  0
LINE
  5
46A1
330
44A6
100
AcDbEntity
  8
Z_OM_DIM
100
AcDbLine
 10
620.5686005215843
 20
-15.42262700642569
 30
0.0
 11
620.5686005215843
 21
-17.92262700642569
 31
0.0
  0
LINE
  5
46A2
330
44A6
100
AcDbEntity
  8
Z_OM_DIM
100
AcDbLine
 10
620.5686005215843
 20
-7.222627006425708
 30
0.0
 11
620.5686005215843
 21
0.6940396602409579
 31
0.0
  0
LINE
  5
46A3
330
44A6
100
AcDbEntity
  8
Z_OM_DIM
100
AcDbLine
 10
620.5686005215843
 20
-12.92262700642569
 30
0.0
 11
620.5686005215843
 21
-9.722627006425708
 31
0.0
  0
INSERT
  5
46A4
330
44A6
100
AcDbEntity
  8
Z_OM_DIM
100
AcDbBlockReference
  2
_OPEN30
 10
620.5686005215843
 20
-12.92262700642569
 30
0.0
 41
2.5
 42
2.5
 43
2.5
 50
90.0
  0
INSERT
  5
46A5
330
44A6
100
AcDbEntity
  8
Z_OM_DIM
100
AcDbBlockReference
  2
_OPEN30
 10
620.5686005215843
 20
-9.722627006425708
 30
0.0
 41
2.5
 42
2.5
 43
2.5
 50
270.0
  0
MTEXT
  5
46A6
330
44A6
100
AcDbEntity
  8
Z_OM_DIM
100
AcDbMText
 10
618.6936005215843
 20
-2.014293673092275
 30
0.0
 40
2.5
 41
0.0
 71
     5
 72
     1
  1
3.1
  7
CatalogDxf
 11
0.0000000000000001
 21
1.0
 31
0.0
 73
     1
 44
1.0
1001
ACAD
1000
MTEXTBEGIN
1070
    73
1070
     1
1070
    44
1040
1.0
1070
    74
1070
     0
1000
MTEXTEND
  0
POINT
  5
46A7
330
44A6
100
AcDbEntity
  8
DEFPOINTS
 62
     0
100
AcDbPoint
 10
630.7289088937525
 20
-9.72262700642571
 30
0.0
  0
POINT
  5
46A8
330
44A6
100
AcDbEntity
  8
DEFPOINTS
 62
     0
100
AcDbPoint
 10
630.7289088937525
 20
-12.9226270064257
 30
0.0
  0
POINT
  5
46A9
330
44A6
100
AcDbEntity
  8
DEFPOINTS
 62
     0
100
AcDbPoint
 10
620.5686005215843
 20
-12.92262700642569
 30
0.0
  0
ENDBLK
  5
44B3
330
44A6
100
AcDbEntity
  8
0
100
AcDbBlockEnd
  0
BLOCK
  5
44CA
330
44C0
100
AcDbEntity
  8
0
100
AcDbBlockBegin
  2
*D4
 70
     1
 10
0.0
 20
0.0
 30
0.0
  3
*D4
  1

  0
LINE
  5
468B
330
44C0
100
AcDbEntity
  8
Z_OM_DIM
100
AcDbLine
 10
630.7289088937525
 20
-16.43687700642576
 30
0.0
 11
630.7289088937525
 21
-30.6363873316904
 31
0.0
  0
LINE
  5
468C
330
44C0
100
AcDbEntity
  8
Z_OM_DIM
100
AcDbLine
 10
639.2289088937525
 20
-13.5476270064257
 30
0.0
 11
639.2289088937525
 21
-30.6363873316904
 31
0.0
  0
LINE
  5
468D
330
44C0
100
AcDbEntity
  8
Z_OM_DIM
100
AcDbLine
 10
633.2289088937525
 20
-29.3863873316904
 30
0.0
 11
636.7289088937525
 21
-29.3863873316904
 31
0.0
  0
MTEXT
  5
468E
330
44C0
100
AcDbEntity
  8
Z_OM_DIM
100
AcDbMText
 10
634.9225622064636
 20
-26.78570165514372
 30
0.0
 40
2.5
 41
0.0
 71
     5
 72
     1
  1
8.4
  7
CatalogDxf
 73
     1
 44
1.0
1001
ACAD
1000
MTEXTBEGIN
1070
    73
1070
     1
1070
    44
1040
1.0
1070
    74
1070
     0
1000
MTEXTEND
  0
INSERT
  5
468F
330
44C0
100
AcDbEntity
  8
Z_OM_DIM
100
AcDbBlockReference
  2
_OPEN30
 10
630.7289088937525
 20
-29.3863873316904
 30
0.0
 41
2.5
 42
2.5
 43
2.5
 50
180.0
  0
INSERT
  5
4690
330
44C0
100
AcDbEntity
  8
Z_OM_DIM
100
AcDbBlockReference
  2
_OPEN30
 10
639.2289088937525
 20
-29.3863873316904
 30
0.0
 41
2.5
 42
2.5
 43
2.5
  0
POINT
  5
4691
330
44C0
100
AcDbEntity
  8
DEFPOINTS
 62
     0
100
AcDbPoint
 10
630.7289088937525
 20
-15.81187700642576
 30
0.0
  0
POINT
  5
4692
330
44C0
100
AcDbEntity
  8
DEFPOINTS
 62
     0
100
AcDbPoint
 10
639.2289088937525
 20
-12.9226270064257
 30
0.0
  0
POINT
  5
4693
330
44C0
100
AcDbEntity
  8
DEFPOINTS
 62
     0
100
AcDbPoint
 10
639.2289088937525
 20
-29.3863873316904
 30
0.0
  0
ENDBLK
  5
44CB
330
44C0
100
AcDbEntity
  8
0
100
AcDbBlockEnd
  0
BLOCK
  5
44E0
330
44D6
100
AcDbEntity
  8
0
100
AcDbBlockBegin
  2
*D5
 70
     1
 10
0.0
 20
0.0
 30
0.0
  3
*D5
  1

  0
LINE
  5
463E
330
44D6
100
AcDbEntity
  8
Z_OM_DIM
100
AcDbLine
 10
669.2289088937525
 20
-68.07683155378899
 30
0.0
 11
669.2289088937525
 21
-55.94082744320814
 31
0.0
  0
LINE
  5
463F
330
44D6
100
AcDbEntity
  8
Z_OM_DIM
100
AcDbLine
 10
651.2289088937525
 20
-71.00640233321994
 30
0.0
 11
651.2289088937525
 21
-55.94082744320814
 31
0.0
  0
LINE
  5
4640
330
44D6
100
AcDbEntity
  8
Z_OM_DIM
100
AcDbLine
 10
666.7289088937525
 20
-57.19082744320814
 30
0.0
 11
653.7289088937525
 21
-57.19082744320814
 31
0.0
  0
INSERT
  5
4641
330
44D6
100
AcDbEntity
  8
Z_OM_DIM
100
AcDbBlockReference
  2
_OPEN30
 10
669.2289088937525
 20
-57.19082744320814
 30
0.0
 41
2.5
 42
2.5
 43
2.5
  0
INSERT
  5
4642
330
44D6
100
AcDbEntity
  8
Z_OM_DIM
100
AcDbBlockReference
  2
_OPEN30
 10
651.2289088937525
 20
-57.19082744320814
 30
0.0
 41
2.5
 42
2.5
 43
2.5
 50
180.0
  0
MTEXT
  5
4643
330
44D6
100
AcDbEntity
  8
Z_OM_DIM
100
AcDbMText
 10
660.2289088937525
 20
-55.31582744320814
 30
0.0
 40
2.5
 41
0.0
 71
     5
 72
     1
  1
18
  7
CatalogDxf
 73
     1
 44
1.0
1001
ACAD
1000
MTEXTBEGIN
1070
    73
1070
     1
1070
    44
1040
1.0
1070
    74
1070
     0
1000
MTEXTEND
  0
POINT
  5
4644
330
44D6
100
AcDbEntity
  8
DEFPOINTS
 62
     0
100
AcDbPoint
 10
669.2289088937525
 20
-68.70183155378899
 30
0.0
  0
POINT
  5
4645
330
44D6
100
AcDbEntity
  8
DEFPOINTS
 62
     0
100
AcDbPoint
 10
651.2289088937525
 20
-71.63140233321994
 30
0.0
  0
POINT
  5
4646
330
44D6
100
AcDbEntity
  8
DEFPOINTS
 62
     0
100
AcDbPoint
 10
651.2289088937525
 20
-57.19082744320814
 30
0.0
  0
ENDBLK
  5
44E1
330
44D6
100
AcDbEntity
  8
0
100
AcDbBlockEnd
  0
BLOCK
  5
44ED
330
44E3
100
AcDbEntity
  8
0
100
AcDbBlockBegin
  2
*D6
 70
     1
 10
0.0
 20
0.0
 30
0.0
  3
*D6
  1

  0
LINE
  5
4647
330
44E3
100
AcDbEntity
  8
Z_OM_DIM
100
AcDbLine
 10
651.2289088937525
 20
-71.00640233321994
 30
0.0
 11
651.2289088937525
 21
-55.94082744320814
 31
0.0
  0
LINE
  5
4648
330
44E3
100
AcDbEntity
  8
Z_OM_DIM
100
AcDbLine
 10
634.7289088937525
 20
-72.92719340738765
 30
0.0
 11
634.7289088937525
 21
-55.94082744320814
 31
0.0
  0
LINE
  5
4649
330
44E3
100
AcDbEntity
  8
Z_OM_DIM
100
AcDbLine
 10
648.7289088937525
 20
-57.19082744320814
 30
0.0
 11
637.2289088937525
 21
-57.19082744320814
 31
0.0
  0
INSERT
  5
464A
330
44E3
100
AcDbEntity
  8
Z_OM_DIM
100
AcDbBlockReference
  2
_OPEN30
 10
651.2289088937525
 20
-57.19082744320814
 30
0.0
 41
2.5
 42
2.5
 43
2.5
  0
INSERT
  5
464B
330
44E3
100
AcDbEntity
  8
Z_OM_DIM
100
AcDbBlockReference
  2
_OPEN30
 10
634.7289088937525
 20
-57.19082744320814
 30
0.0
 41
2.5
 42
2.5
 43
2.5
 50
180.0
  0
MTEXT
  5
464C
330
44E3
100
AcDbEntity
  8
Z_OM_DIM
100
AcDbMText
 10
642.9789088937525
 20
-55.31582744320814
 30
0.0
 40
2.5
 41
0.0
 71
     5
 72
     1
  1
16.5
  7
CatalogDxf
 73
     1
 44
1.0
1001
ACAD
1000
MTEXTBEGIN
1070
    73
1070
     1
1070
    44
1040
1.0
1070
    74
1070
     0
1000
MTEXTEND
  0
POINT
  5
464D
330
44E3
100
AcDbEntity
  8
DEFPOINTS
 62
     0
100
AcDbPoint
 10
651.2289088937525
 20
-71.63140233321994
 30
0.0
  0
POINT
  5
464E
330
44E3
100
AcDbEntity
  8
DEFPOINTS
 62
     0
100
AcDbPoint
 10
634.7289088937525
 20
-73.55219340738765
 30
0.0
  0
POINT
  5
464F
330
44E3
100
AcDbEntity
  8
DEFPOINTS
 62
     0
100
AcDbPoint
 10
634.7289088937525
 20
-57.19082744320814
 30
0.0
  0
ENDBLK
  5
44EE
330
44E3
100
AcDbEntity
  8
0
100
AcDbBlockEnd
  0
BLOCK
  5
44FC
330
44F0
100
AcDbEntity
  8
0
100
AcDbBlockBegin
  2
*D7
 70
     1
 10
0.0
 20
0.0
 30
0.0
  3
*D7
  1

  0
LINE
  5
465B
330
44F0
100
AcDbEntity
  8
Z_OM_DIM
100
AcDbLine
 10
634.7289088937525
 20
-72.92719340738765
 30
0.0
 11
634.7289088937525
 21
-55.94082744320814
 31
0.0
  0
LINE
  5
465C
330
44F0
100
AcDbEntity
  8
Z_OM_DIM
100
AcDbLine
 10
630.7289088937525
 20
-76.21715233321999
 30
0.0
 11
630.7289088937525
 21
-55.94082744320814
 31
0.0
  0
LINE
  5
465D
330
44F0
100
AcDbEntity
  8
Z_OM_DIM
100
AcDbLine
 10
637.2289088937525
 20
-57.19082744320814
 30
0.0
 11
639.7289088937525
 21
-57.19082744320814
 31
0.0
  0
LINE
  5
465E
330
44F0
100
AcDbEntity
  8
Z_OM_DIM
100
AcDbLine
 10
628.2289088937525
 20
-57.19082744320814
 30
0.0
 11
625.7289088937525
 21
-57.19082744320814
 31
0.0
  0
LINE
  5
465F
330
44F0
100
AcDbEntity
  8
Z_OM_DIM
100
AcDbLine
 10
634.7289088937525
 20
-57.19082744320814
 30
0.0
 11
630.7289088937525
 21
-57.19082744320814
 31
0.0
  0
INSERT
  5
4660
330
44F0
100
AcDbEntity
  8
Z_OM_DIM
100
AcDbBlockReference
  2
_OPEN30
 10
634.7289088937525
 20
-57.19082744320814
 30
0.0
 41
2.5
 42
2.5
 43
2.5
 50
180.0
  0
INSERT
  5
4661
330
44F0
100
AcDbEntity
  8
Z_OM_DIM
100
AcDbBlockReference
  2
_OPEN30
 10
630.7289088937525
 20
-57.19082744320814
 30
0.0
 41
2.5
 42
2.5
 43
2.5
  0
MTEXT
  5
4662
330
44F0
100
AcDbEntity
  8
Z_OM_DIM
100
AcDbMText
 10
632.7289088937525
 20
-55.31582744320814
 30
0.0
 40
2.5
 41
0.0
 71
     5
 72
     1
  1
4
  7
CatalogDxf
 73
     1
 44
1.0
1001
ACAD
1000
MTEXTBEGIN
1070
    73
1070
     1
1070
    44
1040
1.0
1070
    74
1070
     0
1000
MTEXTEND
  0
POINT
  5
4663
330
44F0
100
AcDbEntity
  8
DEFPOINTS
 62
     0
100
AcDbPoint
 10
634.7289088937525
 20
-73.55219340738765
 30
0.0
  0
POINT
  5
4664
330
44F0
100
AcDbEntity
  8
DEFPOINTS
 62
     0
100
AcDbPoint
 10
630.7289088937525
 20
-76.84215233321999
 30
0.0
  0
POINT
  5
4665
330
44F0
100
AcDbEntity
  8
DEFPOINTS
 62
     0
100
AcDbPoint
 10
630.7289088937525
 20
-57.19082744320814
 30
0.0
  0
ENDBLK
  5
44FD
330
44F0
100
AcDbEntity
  8
0
100
AcDbBlockEnd
  0
BLOCK
  5
4509
330
44FF
100
AcDbEntity
  8
0
100
AcDbBlockBegin
  2
*D8
 70
     1
 10
0.0
 20
0.0
 30
0.0
  3
*D8
  1

  0
LINE
  5
46D7
330
44FF
100
AcDbEntity
  8
Z_OM_DIM
100
AcDbLine
 10
630.6039088937525
 20
-76.34215233322001
 30
0.0
 11
619.7045258118862
 21
-76.34215233322001
 31
0.0
  0
LINE
  5
46D8
330
44FF
100
AcDbEntity
  8
Z_OM_DIM
100
AcDbLine
 10
630.6039088937525
 20
-86.32065233321998
 30
0.0
 11
619.7045258118862
 21
-86.32065233321998
 31
0.0
  0
LINE
  5
46D9
330
44FF
100
AcDbEntity
  8
Z_OM_DIM
100
AcDbLine
 10
620.9545258118862
 20
-78.84215233322001
 30
0.0
 11
620.9545258118862
 21
-83.82065233321998
 31
0.0
  0
MTEXT
  5
46DA
330
44FF
100
AcDbEntity
  8
Z_OM_DIM
100
AcDbMText
 10
618.3688767764713
 20
-81.5097181672383
 30
0.0
 40
2.5
 41
0.0
 71
     5
 72
     1
  1
%%c10
  7
CatalogDxf
 11
0.0000000000000001
 21
1.0
 31
0.0
 73
     1
 44
1.0
1001
ACAD
1000
MTEXTBEGIN
1070
    73
1070
     1
1070
    44
1040
1.0
1070
    74
1070
     0
1000
MTEXTEND
  0
INSERT
  5
46DB
330
44FF
100
AcDbEntity
  8
Z_OM_DIM
100
AcDbBlockReference
  2
_OPEN30
 10
620.9545258118862
 20
-76.34215233322001
 30
0.0
 41
2.5
 42
2.5
 43
2.5
 50
90.0
  0
INSERT
  5
46DC
330
44FF
100
AcDbEntity
  8
Z_OM_DIM
100
AcDbBlockReference
  2
_OPEN30
 10
620.9545258118862
 20
-86.32065233321998
 30
0.0
 41
2.5
 42
2.5
 43
2.5
 50
270.0
  0
POINT
  5
46DD
330
44FF
100
AcDbEntity
  8
DEFPOINTS
 62
     0
100
AcDbPoint
 10
631.2289088937525
 20
-76.34215233322001
 30
0.0
  0
POINT
  5
46DE
330
44FF
100
AcDbEntity
  8
DEFPOINTS
 62
     0
100
AcDbPoint
 10
631.2289088937525
 20
-86.32065233321998
 30
0.0
  0
POINT
  5
46DF
330
44FF
100
AcDbEntity
  8
DEFPOINTS
 62
     0
100
AcDbPoint
 10
620.9545258118862
 20
-86.32065233321998
 30
0.0
  0
ENDBLK
  5
450A
330
44FF
100
AcDbEntity
  8
0
100
AcDbBlockEnd
  0
BLOCK
  5
451F
330
4515
100
AcDbEntity
  8
0
100
AcDbBlockBegin
  2
*D9
 70
     1
 10
0.0
 20
0.0
 30
0.0
  3
*D9
  1

  0
LINE
  5
46E9
330
4515
100
AcDbEntity
  8
Z_OM_DIM
100
AcDbLine
 10
672.8840775077874
 20
-71.63140233321991
 30
0.0
 11
696.5312628599305
 21
-71.63140233321991
 31
0.0
  0
LINE
  5
46EA
330
4515
100
AcDbEntity
  8
Z_OM_DIM
100
AcDbLine
 10
672.8840775077874
 20
-91.03140233321985
 30
0.0
 11
696.5312628599305
 21
-91.03140233321985
 31
0.0
  0
LINE
  5
46EB
330
4515
100
AcDbEntity
  8
Z_OM_DIM
100
AcDbLine
 10
695.2812628599304
 20
-74.13140233321991
 30
0.0
 11
695.2812628599304
 21
-88.53140233321985
 31
0.0
  0
INSERT
  5
46EC
330
4515
100
AcDbEntity
  8
Z_OM_DIM
100
AcDbBlockReference
  2
_OPEN30
 10
695.2812628599304
 20
-71.63140233321991
 30
0.0
 41
2.5
 42
2.5
 43
2.5
 50
90.0
  0
INSERT
  5
46ED
330
4515
100
AcDbEntity
  8
Z_OM_DIM
100
AcDbBlockReference
  2
_OPEN30
 10
695.2812628599304
 20
-91.03140233321985
 30
0.0
 41
2.5
 42
2.5
 43
2.5
 50
270.0
  0
MTEXT
  5
46EE
330
4515
100
AcDbEntity
  8
Z_OM_DIM
100
AcDbMText
 10
693.4062628599305
 20
-81.33140233321977
 30
0.0
 40
2.5
 41
0.0
 71
     5
 72
     1
  1
19.4
  7
CatalogDxf
 11
0.0000000000000001
 21
1.0
 31
0.0
 73
     1
 44
1.0
1001
ACAD
1000
MTEXTBEGIN
1070
    73
1070
     1
1070
    44
1040
1.0
1070
    74
1070
     0
1000
MTEXTEND
  0
POINT
  5
46EF
330
4515
100
AcDbEntity
  8
DEFPOINTS
 62
     0
100
AcDbPoint
 10
672.2590775077874
 20
-71.63140233321991
 30
0.0
  0
POINT
  5
46F0
330
4515
100
AcDbEntity
  8
DEFPOINTS
 62
     0
100
AcDbPoint
 10
672.2590775077874
 20
-91.03140233321985
 30
0.0
  0
POINT
  5
46F1
330
4515
100
AcDbEntity
  8
DEFPOINTS
 62
     0
100
AcDbPoint
 10
695.2812628599304
 20
-91.03140233321985
 30
0.0
  0
ENDBLK
  5
4520
330
4515
100
AcDbEntity
  8
0
100
AcDbBlockEnd
  0
BLOCK
  5
452C
330
4522
100
AcDbEntity
  8
0
100
AcDbBlockBegin
  2
*D10
 70
     1
 10
0.0
 20
0.0
 30
0.0
  3
*D10
  1

  0
LINE
  5
46F2
330
4522
100
AcDbEntity
  8
Z_OM_DIM
100
AcDbLine
 10
556.0702310665963
 20
-93.96890233321991
 30
0.0
 11
556.0702310665963
 21
-108.8253828754252
 31
0.0
  0
LINE
  5
46F3
330
4522
100
AcDbEntity
  8
Z_OM_DIM
100
AcDbLine
 10
585.0702310665963
 20
-93.96890233321991
 30
0.0
 11
585.0702310665963
 21
-108.8253828754252
 31
0.0
  0
LINE
  5
46F4
330
4522
100
AcDbEntity
  8
Z_OM_DIM
100
AcDbLine
 10
558.5702310665963
 20
-107.5753828754252
 30
0.0
 11
582.5702310665962
 21
-107.5753828754252
 31
0.0
  0
INSERT
  5
46F5
330
4522
100
AcDbEntity
  8
Z_OM_DIM
100
AcDbBlockReference
  2
_OPEN30
 10
556.0702310665963
 20
-107.5753828754252
 30
0.0
 41
2.5
 42
2.5
 43
2.5
 50
180.0
  0
INSERT
  5
46F6
330
4522
100
AcDbEntity
  8
Z_OM_DIM
100
AcDbBlockReference
  2
_OPEN30
 10
585.0702310665963
 20
-107.5753828754252
 30
0.0
 41
2.5
 42
2.5
 43
2.5
  0
MTEXT
  5
46F7
330
4522
100
AcDbEntity
  8
Z_OM_DIM
100
AcDbMText
 10
570.5702310665962
 20
-105.7003828754252
 30
0.0
 40
2.5
 41
0.0
 71
     5
 72
     1
  1
29
  7
CatalogDxf
 73
     1
 44
1.0
1001
ACAD
1000
MTEXTBEGIN
1070
    73
1070
     1
1070
    44
1040
1.0
1070
    74
1070
     0
1000
MTEXTEND
  0
POINT
  5
46F8
330
4522
100
AcDbEntity
  8
DEFPOINTS
 62
     0
100
AcDbPoint
 10
556.0702310665963
 20
-93.34390233321991
 30
0.0
  0
POINT
  5
46F9
330
4522
100
AcDbEntity
  8
DEFPOINTS
 62
     0
100
AcDbPoint
 10
585.0702310665963
 20
-93.34390233321991
 30
0.0
  0
POINT
  5
46FA
330
4522
100
AcDbEntity
  8
DEFPOINTS
 62
     0
100
AcDbPoint
 10
585.0702310665963
 20
-107.5753828754252
 30
0.0
  0
ENDBLK
  5
452D
330
4522
100
AcDbEntity
  8
0
100
AcDbBlockEnd
  0
BLOCK
  5
4539
330
452F
100
AcDbEntity
  8
0
100
AcDbBlockBegin
  2
*D11
 70
     1
 10
0.0
 20
0.0
 30
0.0
  3
*D11
  1

  0
LINE
  5
4610
330
452F
100
AcDbEntity
  8
Z_OM_DIM
100
AcDbLine
 10
585.6952310665962
 20
-69.31890233321993
 30
0.0
 11
601.6966928445977
 21
-69.31890233321993
 31
0.0
  0
LINE
  5
4611
330
452F
100
AcDbEntity
  8
Z_OM_DIM
100
AcDbLine
 10
585.6952310665962
 20
-93.34390233321991
 30
0.0
 11
601.6966928445977
 21
-93.34390233321991
 31
0.0
  0
LINE
  5
4612
330
452F
100
AcDbEntity
  8
Z_OM_DIM
100
AcDbLine
 10
600.4466928445978
 20
-71.81890233321993
 30
0.0
 11
600.4466928445978
 21
-90.84390233321991
 31
0.0
  0
INSERT
  5
4613
330
452F
100
AcDbEntity
  8
Z_OM_DIM
100
AcDbBlockReference
  2
_OPEN30
 10
600.4466928445978
 20
-69.31890233321993
 30
0.0
 41
2.5
 42
2.5
 43
2.5
 50
90.0
  0
INSERT
  5
4614
330
452F
100
AcDbEntity
  8
Z_OM_DIM
100
AcDbBlockReference
  2
_OPEN30
 10
600.4466928445978
 20
-93.34390233321991
 30
0.0
 41
2.5
 42
2.5
 43
2.5
 50
270.0
  0
MTEXT
  5
4615
330
452F
100
AcDbEntity
  8
Z_OM_DIM
100
AcDbMText
 10
598.5716928445977
 20
-81.33140233321984
 30
0.0
 40
2.5
 41
0.0
 71
     5
 72
     1
  1
24
  7
CatalogDxf
 11
0.0000000000000001
 21
1.0
 31
0.0
 73
     1
 44
1.0
1001
ACAD
1000
MTEXTBEGIN
1070
    73
1070
     1
1070
    44
1040
1.0
1070
    74
1070
     0
1000
MTEXTEND
  0
POINT
  5
4616
330
452F
100
AcDbEntity
  8
DEFPOINTS
 62
     0
100
AcDbPoint
 10
585.0702310665963
 20
-69.31890233321993
 30
0.0
  0
POINT
  5
4617
330
452F
100
AcDbEntity
  8
DEFPOINTS
 62
     0
100
AcDbPoint
 10
585.0702310665963
 20
-93.34390233321991
 30
0.0
  0
POINT
  5
4618
330
452F
100
AcDbEntity
  8
DEFPOINTS
 62
     0
100
AcDbPoint
 10
600.4466928445978
 20
-93.34390233321991
 30
0.0
  0
ENDBLK
  5
453A
330
452F
100
AcDbEntity
  8
0
100
AcDbBlockEnd
  0
BLOCK
  5
4708
330
46FE
100
AcDbEntity
  8
0
100
AcDbBlockBegin
  2
*D12
 70
     1
 10
0.0
 20
0.0
 30
0.0
  3
*D12
  1

  0
LINE
  5
470A
330
46FE
100
AcDbEntity
  8
Z_OM_DIM
100
AcDbLine
 10
669.2289088937525
 20
-68.07683155378899
 30
0.0
 11
669.2289088937525
 21
-55.94082744320814
 31
0.0
  0
LINE
  5
470B
330
46FE
100
AcDbEntity
  8
Z_OM_DIM
100
AcDbLine
 10
681.2289088937525
 20
-68.69390233321991
 30
0.0
 11
681.2289088937525
 21
-55.94082744320814
 31
0.0
  0
LINE
  5
470C
330
46FE
100
AcDbEntity
  8
Z_OM_DIM
100
AcDbLine
 10
671.7289088937525
 20
-57.19082744320814
 30
0.0
 11
678.7289088937525
 21
-57.19082744320814
 31
0.0
  0
INSERT
  5
470D
330
46FE
100
AcDbEntity
  8
Z_OM_DIM
100
AcDbBlockReference
  2
_OPEN30
 10
669.2289088937525
 20
-57.19082744320814
 30
0.0
 41
2.5
 42
2.5
 43
2.5
 50
180.0
  0
INSERT
  5
470E
330
46FE
100
AcDbEntity
  8
Z_OM_DIM
100
AcDbBlockReference
  2
_OPEN30
 10
681.2289088937525
 20
-57.19082744320814
 30
0.0
 41
2.5
 42
2.5
 43
2.5
  0
MTEXT
  5
470F
330
46FE
100
AcDbEntity
  8
Z_OM_DIM
100
AcDbMText
 10
675.2289088937525
 20
-55.31582744320814
 30
0.0
 40
2.5
 41
0.0
 71
     5
 72
     1
  1
12
  7
CatalogDxf
 73
     1
 44
1.0
1001
ACAD
1000
MTEXTBEGIN
1070
    73
1070
     1
1070
    44
1040
1.0
1070
    74
1070
     0
1000
MTEXTEND
  0
POINT
  5
4710
330
46FE
100
AcDbEntity
  8
DEFPOINTS
 62
     0
100
AcDbPoint
 10
669.2289088937525
 20
-68.70183155378899
 30
0.0
  0
POINT
  5
4711
330
46FE
100
AcDbEntity
  8
DEFPOINTS
 62
     0
100
AcDbPoint
 10
681.2289088937525
 20
-69.31890233321991
 30
0.0
  0
POINT
  5
4712
330
46FE
100
AcDbEntity
  8
DEFPOINTS
 62
     0
100
AcDbPoint
 10
681.2289088937525
 20
-57.19082744320814
 30
0.0
  0
ENDBLK
  5
4709
330
46FE
100
AcDbEntity
  8
0
100
AcDbBlockEnd
  0
BLOCK
  5
4723
330
4719
100
AcDbEntity
  8
0
100
AcDbBlockBegin
  2
*D13
 70
     1
 10
0.0
 20
0.0
 30
0.0
  3
*D13
  1

  0
LINE
  5
4737
330
4719
100
AcDbEntity
  8
Z_OM_DIM
100
AcDbLine
 10
641.2289088937525
 20
-26.44762700642576
 30
0.0
 11
641.2289088937525
 21
-36.13703559046974
 31
0.0
  0
LINE
  5
4738
330
4719
100
AcDbEntity
  8
Z_OM_DIM
100
AcDbLine
 10
651.2289088937525
 20
-28.3839718748265
 30
0.0
 11
651.2289088937525
 21
-36.13703559046974
 31
0.0
  0
LINE
  5
4739
330
4719
100
AcDbEntity
  8
Z_OM_DIM
100
AcDbLine
 10
643.7289088937525
 20
-34.88703559046974
 30
0.0
 11
648.7289088937525
 21
-34.88703559046974
 31
0.0
  0
INSERT
  5
473A
330
4719
100
AcDbEntity
  8
Z_OM_DIM
100
AcDbBlockReference
  2
_OPEN30
 10
641.2289088937525
 20
-34.88703559046974
 30
0.0
 41
2.5
 42
2.5
 43
2.5
 50
180.0
  0
INSERT
  5
473B
330
4719
100
AcDbEntity
  8
Z_OM_DIM
100
AcDbBlockReference
  2
_OPEN30
 10
651.2289088937525
 20
-34.88703559046974
 30
0.0
 41
2.5
 42
2.5
 43
2.5
  0
MTEXT
  5
473C
330
4719
100
AcDbEntity
  8
Z_OM_DIM
100
AcDbMText
 10
646.2289088937525
 20
-33.01203559046974
 30
0.0
 40
2.5
 41
0.0
 71
     5
 72
     1
  1
10
  7
CatalogDxf
 73
     1
 44
1.0
1001
ACAD
1000
MTEXTBEGIN
1070
    73
1070
     1
1070
    44
1040
1.0
1070
    74
1070
     0
1000
MTEXTEND
  0
POINT
  5
473D
330
4719
100
AcDbEntity
  8
DEFPOINTS
 62
     0
100
AcDbPoint
 10
641.2289088937525
 20
-25.82262700642576
 30
0.0
  0
POINT
  5
473E
330
4719
100
AcDbEntity
  8
DEFPOINTS
 62
     0
100
AcDbPoint
 10
651.2289088937525
 20
-27.7589718748265
 30
0.0
  0
POINT
  5
473F
330
4719
100
AcDbEntity
  8
DEFPOINTS
 62
     0
100
AcDbPoint
 10
651.2289088937525
 20
-34.88703559046974
 30
0.0
  0
ENDBLK
  5
4724
330
4719
100
AcDbEntity
  8
0
100
AcDbBlockEnd
  0
ENDSEC
  0
SECTION
  2
ENTITIES
  0
MTEXT
  5
4130
330
17
100
AcDbEntity
  8
Z_OM_DIM
100
AcDbMText
 10
687.6990844377728
 20
-125.3376084428261
 30
0.0
 40
3.0
 41
93.92693936784551
 71
     1
 72
     5
  1
TAKAHA KIKO Co., Ltd\PCAD DRAWING No. CA1040
  7
CatalogDxf
 73
     1
 44
1.0
1001
ACAD
1000
MTEXTBEGIN
1070
    73
1070
     1
1070
    44
1040
1.0
1070
    74
1070
     0
1000
MTEXTEND
  0
MTEXT
  5
42AA
330
17
100
AcDbEntity
  8
Z_OM_DIM
100
AcDbMText
 10
518.2403390249668
 20
9.708725966229959
 30
0.0
 40
3.0
 41
47.03999999999999
 71
     1
 72
     1
  1
Adsorbed position
  7
CatalogDxf
 73
     1
 44
1.0
1001
ACAD
1000
MTEXTBEGIN
1070
    73
1070
     1
1070
    44
1040
1.0
1070
    74
1070
     0
1000
MTEXTEND
  0
LINE
  5
4301
330
17
100
AcDbEntity
  8
0
 48
0.5
100
AcDbLine
 10
705.4435123930662
 20
-11.32262700642573
 30
0.0
 11
705.4435123930659
 21
-12.32262700642573
 31
0.0
  0
SPLINE
  5
4302
330
17
100
AcDbEntity
  8
additional
 48
0.5
100
AcDbSpline
210
0.0
220
0.0
230
1.0
 70
     8
 71
     3
 72
    18
 73
    14
 74
    12
 42
0.0000000001
 43
0.0000000001
 44
0.0000000001
 40
0.0
 40
0.0
 40
0.0
 40
0.0
 40
0.3913118960626157
 40
0.7826237921250917
 40
1.482623792125051
 40
1.873935688187565
 40
2.265247584250105
 40
2.656559480312479
 40
3.047871376374942
 40
4.097871376374982
 40
4.489183272437407
 40
4.880495168499806
 40
5.271807064562397
 40
5.271807064562397
 40
5.271807064562397
 40
5.271807064562397
 10
687.0226827090414
 20
-8.805253792843913
 30
0.0
 10
687.0789675506878
 20
-8.922893526198324
 30
0.0
 10
687.1915372339807
 20
-9.158172992907104
 30
0.0
 10
687.4513609231211
 20
-9.581771964221269
 30
0.0
 10
687.4514384110852
 20
-10.1287545827511
 30
0.0
 10
687.1914072827146
 20
-10.55229094293691
 30
0.0
 10
687.0231682158055
 20
-10.90542246681751
 30
0.0
 10
686.8520161083123
 20
-11.25754194685574
 30
0.0
 10
686.5442425466717
 20
-11.78580136526796
 30
0.0
 10
686.5438457594239
 20
-12.47485158912793
 30
0.0
 10
686.8524597299415
 20
-13.00276273147859
 30
0.0
 10
687.0214884538163
 20
-13.35587655818528
 30
0.0
 10
687.1389512906331
 20
-13.58879471462431
 30
0.0
 10
687.1976827090417
 20
-13.70525379284386
 30
0.0
 11
687.0226827090414
 21
-8.805253792843913
 31
0.0
 11
687.1976827090417
 21
-9.155253792843936
 31
0.0
 11
687.3726827090417
 21
-9.505253792843916
 31
0.0
 11
687.3726827090417
 21
-10.20525379284388
 31
0.0
 11
687.1976827090417
 21
-10.5552537928439
 31
0.0
 11
687.0226827090414
 21
-10.90525379284383
 31
0.0
 11
686.8476827090415
 21
-11.25525379284382
 31
0.0
 11
686.6726827090416
 21
-11.60525379284384
 31
0.0
 11
686.6726827090416
 21
-12.65525379284388
 31
0.0
 11
686.8476827090415
 21
-13.00525379284386
 31
0.0
 11
687.0226827090414
 21
-13.35525379284387
 31
0.0
 11
687.1976827090417
 21
-13.70525379284386
 31
0.0
  0
SPLINE
  5
4303
330
17
100
AcDbEntity
  8
additional
 48
0.5
100
AcDbSpline
210
0.0
220
0.0
230
1.0
 70
     8
 71
     3
 72
    18
 73
    14
 74
    12
 42
0.0000000001
 43
0.0000000001
 44
0.0000000001
 40
0.0
 40
0.0
 40
0.0
 40
0.0
 40
0.3913118960624632
 40
0.7826237921249391
 40
1.482623792124899
 40
1.873935688187413
 40
2.2652475842498
 40
2.656559480312326
 40
3.047871376374739
 40
4.097871376374778
 40
4.489183272437153
 40
4.880495168499705
 40
5.271807064562143
 40
5.271807064562143
 40
5.271807064562143
 40
5.271807064562143
 10
687.8976827090418
 20
-8.805253792843913
 30
0.0
 10
687.9539675506879
 20
-8.922893526198336
 30
0.0
 10
688.0665372339806
 20
-9.158172992907188
 30
0.0
 10
688.3263609231213
 20
-9.581771964221244
 30
0.0
 10
688.3264384110852
 20
-10.12875458275114
 30
0.0
 10
688.0664072827145
 20
-10.5522909429368
 30
0.0
 10
687.898168215806
 20
-10.90542246681771
 30
0.0
 10
687.7270161083122
 20
-11.2575419468556
 30
0.0
 10
687.4192425466721
 20
-11.78580136526809
 30
0.0
 10
687.4188457594246
 20
-12.47485158912781
 30
0.0
 10
687.727459729941
 20
-13.00276273147872
 30
0.0
 10
687.8964884538169
 20
-13.35587655818511
 30
0.0
 10
688.0139512906334
 20
-13.58879471462429
 30
0.0
 10
688.0726827090417
 20
-13.70525379284386
 30
0.0
 11
687.8976827090418
 21
-8.805253792843913
 31
0.0
 11
688.0726827090417
 21
-9.155253792843936
 31
0.0
 11
688.2476827090417
 21
-9.505253792843916
 31
0.0
 11
688.2476827090417
 21
-10.20525379284388
 31
0.0
 11
688.0726827090417
 21
-10.5552537928439
 31
0.0
 11
687.8976827090418
 21
-10.90525379284383
 31
0.0
 11
687.7226827090415
 21
-11.25525379284382
 31
0.0
 11
687.5476827090417
 21
-11.60525379284384
 31
0.0
 11
687.5476827090417
 21
-12.65525379284388
 31
0.0
 11
687.7226827090415
 21
-13.00525379284386
 31
0.0
 11
687.8976827090418
 21
-13.35525379284387
 31
0.0
 11
688.0726827090417
 21
-13.70525379284386
 31
0.0
  0
LINE
  5
4304
330
17
100
AcDbEntity
  8
0
100
AcDbLine
 10
678.0289088937524
 20
-12.32262700642573
 30
0.0
 11
686.5884307948524
 21
-12.32262700642573
 31
0.0
  0
LINE
  5
4305
330
17
100
AcDbEntity
  8
0
100
AcDbLine
 10
678.0289088937524
 20
-11.32262700642573
 30
0.0
 11
686.811321644259
 21
-11.32262700642573
 31
0.0
  0
LINE
  5
4306
330
17
100
AcDbEntity
  8
0
100
AcDbLine
 10
678.0289088937524
 20
-10.32262700642573
 30
0.0
 11
687.3229363092137
 21
-10.32262700642573
 31
0.0
  0
LINE
  5
4307
330
17
100
AcDbEntity
  8
0
100
AcDbLine
 10
705.4435123930662
 20
-10.32262700642573
 30
0.0
 11
705.4435123930662
 21
-12.32262700642573
 31
0.0
  0
LINE
  5
4308
330
17
100
AcDbEntity
  8
0
100
AcDbLine
 10
688.1979363092137
 20
-10.32262700642573
 30
0.0
 11
705.4435123930659
 21
-10.32262700642573
 31
0.0
  0
LINE
  5
4309
330
17
100
AcDbEntity
  8
0
100
AcDbLine
 10
687.4634307948524
 20
-12.32262700642573
 30
0.0
 11
705.4435123930662
 21
-12.32262700642573
 31
0.0
  0
LINE
  5
430A
330
17
100
AcDbEntity
  8
0
100
AcDbLine
 10
687.686321644259
 20
-11.32262700642573
 30
0.0
 11
705.4435123930662
 21
-11.32262700642573
 31
0.0
  0
POINT
  5
430B
330
17
100
AcDbEntity
  8
0
100
AcDbPoint
 10
705.4435123930659
 20
-10.32262700642573
 30
0.0
  0
POINT
  5
430C
330
17
100
AcDbEntity
  8
0
100
AcDbPoint
 10
705.4435123930662
 20
-10.82262700642573
 30
0.0
  0
POINT
  5
430D
330
17
100
AcDbEntity
  8
0
100
AcDbPoint
 10
705.4435123930659
 20
-12.32262700642573
 30
0.0
  0
POINT
  5
430E
330
17
100
AcDbEntity
  8
0
100
AcDbPoint
 10
705.4435123930662
 20
-11.82262700642573
 30
0.0
  0
LINE
  5
430F
330
17
100
AcDbEntity
  8
0
100
AcDbLine
 10
705.4435123930662
 20
-12.07262700642573
 30
0.0
 11
712.4435123930663
 21
-12.07262700642573
 31
0.0
  0
LINE
  5
4310
330
17
100
AcDbEntity
  8
0
100
AcDbLine
 10
705.4435123930662
 20
-11.57262700642573
 30
0.0
 11
712.4435123930663
 21
-11.57262700642573
 31
0.0
  0
LINE
  5
4311
330
17
100
AcDbEntity
  8
0
100
AcDbLine
 10
705.4435123930662
 20
-11.07262700642573
 30
0.0
 11
712.4435123930663
 21
-11.07262700642573
 31
0.0
  0
LINE
  5
4312
330
17
100
AcDbEntity
  8
0
100
AcDbLine
 10
705.4435123930662
 20
-10.57262700642573
 30
0.0
 11
712.4435123930663
 21
-10.57262700642573
 31
0.0
  0
DIMENSION
  5
4313
330
17
100
AcDbEntity
  8
Z_OM_DIM
100
AcDbDimension
  2
*D1
 10
712.4435123930663
 20
-39.92387681043448
 30
0.0
 11
696.8362106434094
 21
-38.04887681043448
 31
0.0
 70
    32
  1
180 - 200
 71
     5
 42
31.21460349931374
  3
CatalogDxf
100
AcDbAlignedDimension
 13
681.2289088937525
 23
-24.32262700642573
 33
0.0
 14
712.4435123930663
 24
-12.07262700642573
 34
0.0
100
AcDbRotatedDimension
  0
LINE
  5
43DE
330
17
100
AcDbEntity
  8
additional
  6
CENTER2
 48
0.5
100
AcDbLine
 10
627.722252375355
 20
-81.33140233322007
 30
0.0
 11
684.5555014638641
 21
-81.33140233322004
 31
0.0
  0
LINE
  5
43DF
330
17
100
AcDbEntity
  8
additional
  6
CENTER2
 48
0.5
100
AcDbLine
 10
651.2289088937525
 20
-68.70183155378899
 30
0.0
 11
651.2289088937525
 21
-93.84513424761943
 31
0.0
  0
LINE
  5
43E0
330
17
100
AcDbEntity
  8
additional
  6
CENTER2
 48
0.5
100
AcDbLine
 10
648.4483492755296
 20
-71.63140233321994
 30
0.0
 11
672.2590775077874
 21
-71.63140233321991
 31
0.0
  0
LINE
  5
43E1
330
17
100
AcDbEntity
  8
0
 48
0.5
100
AcDbLine
 10
641.2289088937525
 20
-76.40640233321988
 30
0.0
 11
641.2289088937525
 21
-86.25640233321991
 31
0.0
  0
LINE
  5
43E2
330
17
100
AcDbEntity
  8
0
 48
0.5
100
AcDbLine
 10
641.2289088937525
 20
-86.25640233321991
 30
0.0
 11
645.2289088937525
 21
-86.25640233321991
 31
0.0
  0
LINE
  5
43E3
330
17
100
AcDbEntity
  8
0
 48
0.5
100
AcDbLine
 10
645.2289088937525
 20
-86.25640233321991
 30
0.0
 11
645.2289088937525
 21
-93.34390233321988
 31
0.0
  0
LINE
  5
43E4
330
17
100
AcDbEntity
  8
0
 48
0.5
100
AcDbLine
 10
645.2289088937525
 20
-93.34390233321988
 30
0.0
 11
681.2289088937525
 21
-93.34390233321988
 31
0.0
  0
LINE
  5
43E5
330
17
100
AcDbEntity
  8
0
 48
0.5
100
AcDbLine
 10
681.2289088937525
 20
-93.34390233321988
 30
0.0
 11
681.2289088937525
 21
-69.31890233321991
 31
0.0
  0
LINE
  5
43E6
330
17
100
AcDbEntity
  8
0
 48
0.5
100
AcDbLine
 10
681.2289088937525
 20
-69.31890233321991
 30
0.0
 11
645.2289088937525
 21
-69.31890233321991
 31
0.0
  0
LINE
  5
43E7
330
17
100
AcDbEntity
  8
0
 48
0.5
100
AcDbLine
 10
645.2289088937525
 20
-69.31890233321991
 30
0.0
 11
645.2289088937523
 21
-76.40640233321988
 31
0.0
  0
LINE
  5
43E8
330
17
100
AcDbEntity
  8
0
 48
0.5
100
AcDbLine
 10
641.2289088937525
 20
-76.40640233321988
 30
0.0
 11
645.2289088937525
 21
-76.40640233321988
 31
0.0
  0
CIRCLE
  5
43E9
330
17
100
AcDbEntity
  8
additional
  6
HIDDEN2
 48
0.5
100
AcDbCircle
 10
651.2289088937525
 20
-91.03140233321989
 30
0.0
 40
1.5
  0
LINE
  5
43EA
330
17
100
AcDbEntity
  8
0
 48
0.5
100
AcDbLine
 10
641.2289088937525
 20
-25.82262700642576
 30
0.0
 11
641.2289088937525
 21
-24.22262700642577
 31
0.0
  0
LINE
  5
43EB
330
17
100
AcDbEntity
  8
0
 48
0.5
100
AcDbLine
 10
641.2289088937525
 20
-24.22262700642577
 30
0.0
 11
642.0289088937525
 21
-24.22262700642582
 31
0.0
  0
LINE
  5
43EC
330
17
100
AcDbEntity
  8
0
 48
0.5
100
AcDbLine
 10
679.6289088937523
 20
-24.22262700642577
 30
0.0
 11
679.6289088937523
 21
-12.32262700642573
 31
0.0
  0
LINE
  5
43ED
330
17
100
AcDbEntity
  8
0
 48
0.5
100
AcDbLine
 10
679.6289088937526
 20
-10.32262700642573
 30
0.0
 11
679.6289088937523
 21
1.577372993574243
 31
0.0
  0
LINE
  5
43EE
330
17
100
AcDbEntity
  8
0
 48
0.5
100
AcDbLine
 10
679.6289088937523
 20
1.577372993574243
 30
0.0
 11
645.2289088937525
 21
1.577372993574243
 31
0.0
  0
LINE
  5
43EF
330
17
100
AcDbEntity
  8
0
 48
0.5
100
AcDbLine
 10
641.2289088937525
 20
1.577372993574243
 30
0.0
 11
641.2289088937525
 21
3.177372993574266
 31
0.0
  0
LINE
  5
43F0
330
17
100
AcDbEntity
  8
0
 48
0.5
100
AcDbLine
 10
641.2289088937525
 20
3.177372993574266
 30
0.0
 11
679.7289088937525
 21
3.177372993574266
 31
0.0
  0
LINE
  5
43F1
330
17
100
AcDbEntity
  8
0
 48
0.5
100
AcDbLine
 10
681.2289088937525
 20
1.677372993574266
 30
0.0
 11
681.2289088937525
 21
-10.32262700642573
 31
0.0
  0
LINE
  5
43F2
330
17
100
AcDbEntity
  8
0
 48
0.5
100
AcDbLine
 10
681.2289088937525
 20
-12.32262700642573
 30
0.0
 11
681.2289088937525
 21
-24.32262700642573
 31
0.0
  0
LINE
  5
43F3
330
17
100
AcDbEntity
  8
0
 48
0.5
100
AcDbLine
 10
679.7289088937525
 20
-25.82262700642576
 30
0.0
 11
641.2289088937525
 21
-25.82262700642576
 31
0.0
  0
ARC
  5
43F4
330
17
100
AcDbEntity
  8
0
 48
0.5
100
AcDbCircle
 10
679.7289088937525
 20
-24.32262700642573
 30
0.0
 40
1.5
100
AcDbArc
 50
270.0
 51
0.0
  0
ARC
  5
43F5
330
17
100
AcDbEntity
  8
0
 48
0.5
100
AcDbCircle
 10
679.7289088937525
 20
1.677372993574266
 30
0.0
 40
1.5
100
AcDbArc
 50
0.0
 51
90.0
  0
LINE
  5
43F6
330
17
100
AcDbEntity
  8
0
 48
0.5
100
AcDbLine
 10
642.0289088937525
 20
3.177372993574266
 30
0.0
 11
642.0289088937525
 21
-25.82262700642576
 31
0.0
  0
LINE
  5
43F7
330
17
100
AcDbEntity
  8
0
 48
0.5
100
AcDbLine
 10
643.6289088937524
 20
3.177372993574266
 30
0.0
 11
643.6289088937524
 21
-25.82262700642576
 31
0.0
  0
LINE
  5
43F8
330
17
100
AcDbEntity
  8
0
 48
0.5
100
AcDbLine
 10
645.2289088937525
 20
3.177372993574266
 30
0.0
 11
645.2289088937525
 21
-25.82262700642576
 31
0.0
  0
LINE
  5
43F9
330
17
100
AcDbEntity
  8
0
 48
0.5
100
AcDbLine
 10
642.0289088937525
 20
1.577372993574243
 30
0.0
 11
641.2289088937525
 21
1.577372993574243
 31
0.0
  0
LINE
  5
43FA
330
17
100
AcDbEntity
  8
0
 48
0.5
100
AcDbLine
 10
645.2289088937523
 20
-24.22262700642582
 30
0.0
 11
679.6289088937523
 21
-24.22262700642577
 31
0.0
  0
LINE
  5
43FB
330
17
100
AcDbEntity
  8
0
 48
0.5
100
AcDbLine
 10
678.0289088937524
 20
0.5773729935742438
 30
0.0
 11
646.8289088937524
 21
0.5773729935742438
 31
0.0
  0
LINE
  5
43FC
330
17
100
AcDbEntity
  8
0
 48
0.5
100
AcDbLine
 10
678.0289088937522
 20
-23.2226270064256
 30
0.0
 11
646.8289088937524
 21
-23.22262700642582
 31
0.0
  0
LINE
  5
43FD
330
17
100
AcDbEntity
  8
additional
 48
0.5
100
AcDbLine
 10
669.2289088937525
 20
-21.24239444828615
 30
0.0
 11
669.2289088937525
 21
-27.75897187482647
 31
0.0
  0
LINE
  5
43FE
330
17
100
AcDbEntity
  8
additional
 48
0.5
100
AcDbLine
 10
651.2289088937525
 20
-21.24239444828621
 30
0.0
 11
651.2289088937525
 21
-27.7589718748265
 31
0.0
  0
LINE
  5
43FF
330
17
100
AcDbEntity
  8
additional
 48
0.5
100
AcDbLine
 10
669.2289088937525
 20
-1.402859564565375
 30
0.0
 11
669.2289088937525
 21
5.113717861974947
 31
0.0
  0
LINE
  5
4400
330
17
100
AcDbEntity
  8
additional
 48
0.5
100
AcDbLine
 10
651.2289088937525
 20
-1.402859564565375
 30
0.0
 11
651.2289088937525
 21
5.113717861975004
 31
0.0
  0
LINE
  5
4401
330
17
100
AcDbEntity
  8
0
 48
0.5
100
AcDbLine
 10
645.2289088937525
 20
-69.31890233321991
 30
0.0
 11
642.0289088937525
 21
-69.31890233321991
 31
0.0
  0
LINE
  5
4402
330
17
100
AcDbEntity
  8
0
 48
0.5
100
AcDbLine
 10
642.0289088937525
 20
-69.31890233321991
 30
0.0
 11
642.0289088937525
 21
-76.40640233321988
 31
0.0
  0
LINE
  5
4403
330
17
100
AcDbEntity
  8
0
 48
0.5
100
AcDbLine
 10
643.6289088937524
 20
-76.40640233321988
 30
0.0
 11
643.6289088937524
 21
-69.31890233321991
 31
0.0
  0
LINE
  5
4404
330
17
100
AcDbEntity
  8
0
 48
0.5
100
AcDbLine
 10
645.2289088937525
 20
-93.34390233321988
 30
0.0
 11
642.0289088937525
 21
-93.34390233321988
 31
0.0
  0
LINE
  5
4405
330
17
100
AcDbEntity
  8
0
 48
0.5
100
AcDbLine
 10
642.0289088937525
 20
-93.34390233321988
 30
0.0
 11
642.0289088937525
 21
-86.25640233321991
 31
0.0
  0
LINE
  5
4406
330
17
100
AcDbEntity
  8
0
 48
0.5
100
AcDbLine
 10
643.6289088937524
 20
-86.25640233321991
 30
0.0
 11
643.6289088937524
 21
-93.34390233321988
 31
0.0
  0
LINE
  5
4407
330
17
100
AcDbEntity
  8
0
 48
0.5
100
AcDbLine
 10
641.5589088937524
 20
-3.322627006425733
 30
0.0
 11
641.5589088937524
 21
-19.32262700642573
 31
0.0
  0
LINE
  5
4408
330
17
100
AcDbEntity
  8
0
 48
0.5
100
AcDbLine
 10
640.7589088937525
 20
-3.322627006425733
 30
0.0
 11
640.7589088937525
 21
-19.32262700642573
 31
0.0
  0
LINE
  5
4409
330
17
100
AcDbEntity
  8
0
 48
0.5
100
AcDbLine
 10
640.7589088937525
 20
-3.322627006425733
 30
0.0
 11
642.0289088937525
 21
-3.322627006425733
 31
0.0
  0
LINE
  5
440A
330
17
100
AcDbEntity
  8
0
 48
0.5
100
AcDbLine
 10
640.7589088937525
 20
-19.32262700642573
 30
0.0
 11
642.0289088937525
 21
-19.32262700642573
 31
0.0
  0
LINE
  5
440B
330
17
100
AcDbEntity
  8
0
 48
0.5
100
AcDbLine
 10
641.5589088937524
 20
-73.33140233321981
 30
0.0
 11
641.5589088937524
 21
-76.40640233321988
 31
0.0
  0
LINE
  5
440C
330
17
100
AcDbEntity
  8
0
 48
0.5
100
AcDbLine
 10
640.7589088937525
 20
-73.33140233321981
 30
0.0
 11
640.7589088937525
 21
-89.33140233322029
 31
0.0
  0
LINE
  5
440D
330
17
100
AcDbEntity
  8
0
 48
0.5
100
AcDbLine
 10
640.7589088937525
 20
-73.33140233321981
 30
0.0
 11
642.0289088937525
 21
-73.33140233321984
 31
0.0
  0
LINE
  5
440E
330
17
100
AcDbEntity
  8
0
 48
0.5
100
AcDbLine
 10
641.5589088937524
 20
-86.25640233321991
 30
0.0
 11
641.5589088937524
 21
-89.33140233321982
 31
0.0
  0
LINE
  5
440F
330
17
100
AcDbEntity
  8
0
 48
0.5
100
AcDbLine
 10
556.0702310665963
 20
-93.34390233321991
 30
0.0
 11
585.0702310665963
 21
-93.34390233321991
 31
0.0
  0
LINE
  5
4410
330
17
100
AcDbEntity
  8
0
 48
0.5
100
AcDbLine
 10
585.0702310665963
 20
-93.34390233321991
 30
0.0
 11
585.0702310665963
 21
-69.31890233321993
 31
0.0
  0
LINE
  5
4411
330
17
100
AcDbEntity
  8
0
 48
0.5
100
AcDbLine
 10
585.0702310665963
 20
-69.31890233321993
 30
0.0
 11
556.0702310665963
 21
-69.31890233321993
 31
0.0
  0
CIRCLE
  5
4412
330
17
100
AcDbEntity
  8
0
 48
0.5
100
AcDbCircle
 10
570.5702310665962
 20
-81.33140233321993
 30
0.0
 40
4.989249999999998
  0
LINE
  5
4413
330
17
100
AcDbEntity
  8
0
 48
0.5
100
AcDbLine
 10
569.0202310665963
 20
-76.5890278686189
 30
0.0
 11
569.0202310665963
 21
-86.07377679782098
 31
0.0
  0
LINE
  5
4414
330
17
100
AcDbEntity
  8
0
 48
0.5
100
AcDbLine
 10
572.1202310665963
 20
-76.5890278686189
 30
0.0
 11
572.1202310665963
 21
-86.07377679782098
 31
0.0
  0
ARC
  5
4415
330
17
100
AcDbEntity
  8
0
 48
0.5
100
AcDbCircle
 10
570.5702310665962
 20
-81.33140233321993
 30
0.0
 40
4.489249999999913
100
AcDbArc
 50
290.1982329139329
 51
69.80176708606703
  0
ARC
  5
4416
330
17
100
AcDbEntity
  8
0
 48
0.5
100
AcDbCircle
 10
570.5702310665962
 20
-81.33140233321993
 30
0.0
 40
4.489249999999913
100
AcDbArc
 50
110.198232913933
 51
249.801767086067
  0
LINE
  5
4417
330
17
100
AcDbEntity
  8
0
100
AcDbLine
 10
564.7684359610896
 20
-81.33140233321993
 30
0.0
 11
565.6418554882204
 21
-81.33140233321993
 31
0.0
  0
ARC
  5
4418
330
17
100
AcDbEntity
  8
0
100
AcDbCircle
 10
570.5702310665962
 20
-81.33140233321993
 30
0.0
 40
8.000000000000058
100
AcDbArc
 50
311.2421294362175
 51
228.757870563783
  0
ARC
  5
4419
330
17
100
AcDbEntity
  8
0
100
AcDbCircle
 10
570.5702310665962
 20
-81.33140233321993
 30
0.0
 40
6.254545454545499
100
AcDbArc
 50
114.3012223046754
 51
175.6987776953271
  0
CIRCLE
  5
441A
330
17
100
AcDbEntity
  8
0
 48
0.5
100
AcDbCircle
 10
570.5702310665962
 20
-81.33140233322004
 30
0.0
 40
8.000000000000058
  0
ARC
  5
441B
330
17
100
AcDbEntity
  8
0
100
AcDbCircle
 10
564.7684359610896
 20
-80.89503869685628
 30
0.0
 40
0.4363636363636395
100
AcDbArc
 50
175.6987776953271
 51
270.0
  0
ARC
  5
441C
330
17
100
AcDbEntity
  8
0
100
AcDbCircle
 10
576.3720261721029
 20
-80.89503869685628
 30
0.0
 40
0.4363636363636395
100
AcDbArc
 50
270.0
 51
4.301222304672901
  0
ARC
  5
441D
330
17
100
AcDbEntity
  8
0
100
AcDbCircle
 10
570.5702310665962
 20
-81.33140233321993
 30
0.0
 40
6.254545454545499
100
AcDbArc
 50
4.301222304672901
 51
65.69877769532459
  0
LINE
  5
441E
330
17
100
AcDbEntity
  8
0
100
AcDbLine
 10
565.9940079779237
 20
-87.16797539812066
 30
0.0
 11
566.8916881235845
 21
-84.70200129763545
 31
0.0
  0
ARC
  5
441F
330
17
100
AcDbEntity
  8
0
100
AcDbCircle
 10
565.5839602888536
 20
-87.01873024466951
 30
0.0
 40
0.4363636363636395
100
AcDbArc
 50
228.7578705637824
 51
340.0000000000024
  0
LINE
  5
4420
330
17
100
AcDbEntity
  8
0
100
AcDbLine
 10
574.2489664993377
 20
-84.7017912096544
 30
0.0
 11
575.1464541552693
 21
-87.16797539812038
 31
0.0
  0
LINE
  5
4421
330
17
100
AcDbEntity
  8
0
100
AcDbLine
 10
575.4986066449721
 20
-81.33140233321993
 30
0.0
 11
576.3720261721029
 21
-81.33140233321993
 31
0.0
  0
ARC
  5
4422
330
17
100
AcDbEntity
  8
0
100
AcDbCircle
 10
575.5565018443394
 20
-87.01873024466918
 30
0.0
 40
0.4363636363636395
100
AcDbArc
 50
199.9999999999976
 51
311.2421294362175
  0
LINE
  5
4423
330
17
100
AcDbEntity
  8
0
100
AcDbLine
 10
568.5859002730646
 20
-75.87949828526348
 30
0.0
 11
568.8626218998126
 21
-76.64347246002254
 31
0.0
  0
ARC
  5
4424
330
17
100
AcDbEntity
  8
0
100
AcDbCircle
 10
568.1758525839946
 20
-76.02874343871471
 30
0.0
 40
0.4363636363636395
100
AcDbArc
 50
19.99999999999759
 51
114.3012223046754
  0
LINE
  5
4425
330
17
100
AcDbEntity
  8
0
100
AcDbLine
 10
572.5545618601279
 20
-75.87949828526356
 30
0.0
 11
572.2846470761351
 21
-76.64595749748267
 31
0.0
  0
ARC
  5
4426
330
17
100
AcDbEntity
  8
0
100
AcDbCircle
 10
572.964609549198
 20
-76.02874343871474
 30
0.0
 40
0.4363636363636395
100
AcDbArc
 50
65.69877769532459
 51
160.0000000000077
  0
LINE
  5
4427
330
17
100
AcDbEntity
  8
0
 48
0.5
100
AcDbLine
 10
558.7202310665964
 20
-69.31890233321993
 30
0.0
 11
566.5702310665962
 21
-67.8189023332514
 31
0.0
  0
LINE
  5
4428
330
17
100
AcDbEntity
  8
0
 48
0.5
100
AcDbLine
 10
582.4202310665961
 20
-69.31890233321993
 30
0.0
 11
574.5702310665962
 21
-67.8189023332514
 31
0.0
  0
LINE
  5
4429
330
17
100
AcDbEntity
  8
0
 48
0.5
100
AcDbLine
 10
583.4702310665964
 20
-86.25640233322
 30
0.0
 11
583.4702310665964
 21
-76.40640233321994
 31
0.0
  0
LINE
  5
442A
330
17
100
AcDbEntity
  8
0
 48
0.5
100
AcDbLine
 10
583.4702310665964
 20
-76.40640233321992
 30
0.0
 11
585.0702310665963
 21
-76.40640233321992
 31
0.0
  0
LINE
  5
442B
330
17
100
AcDbEntity
  8
0
 48
0.5
100
AcDbLine
 10
583.4702310665964
 20
-86.25640233322
 30
0.0
 11
585.0702310665963
 21
-86.25640233322
 31
0.0
  0
LINE
  5
442C
330
17
100
AcDbEntity
  8
0
 48
0.5
100
AcDbLine
 10
646.8289088937524
 20
-69.31890233321991
 30
0.0
 11
662.5991699413159
 21
-67.81890233325137
 31
0.0
  0
LINE
  5
442D
330
17
100
AcDbEntity
  8
0
 48
0.5
100
AcDbLine
 10
662.5991699413154
 20
-67.81890233325137
 30
0.0
 11
678.028908893752
 21
-67.81890233325137
 31
0.0
  0
LINE
  5
442E
330
17
100
AcDbEntity
  8
0
 48
0.5
100
AcDbLine
 10
678.0289088937524
 20
-69.31890233321991
 30
0.0
 11
678.0289088937529
 21
-67.81890233325137
 31
0.0
  0
LINE
  5
442F
330
17
100
AcDbEntity
  8
0
 48
0.5
100
AcDbLine
 10
678.0289088937524
 20
-24.22262700642577
 30
0.0
 11
678.0289088937524
 21
1.577372993574243
 31
0.0
  0
LINE
  5
4430
330
17
100
AcDbEntity
  8
0
 48
0.5
100
AcDbLine
 10
646.8289088937524
 20
1.577372993574243
 30
0.0
 11
646.8289088937524
 21
-24.22262700642577
 31
0.0
  0
LINE
  5
4431
330
17
100
AcDbEntity
  8
0
 48
0.5
100
AcDbLine
 10
566.5702310665962
 20
-67.8189023332514
 30
0.0
 11
574.5702310665962
 21
-67.8189023332514
 31
0.0
  0
LINE
  5
4432
330
17
100
AcDbEntity
  8
0
100
AcDbLine
 10
630.7289088937525
 20
-76.84215233321999
 30
0.0
 11
630.7289088937525
 21
-85.82065233322015
 31
0.0
  0
LINE
  5
4433
330
17
100
AcDbEntity
  8
0
100
AcDbLine
 10
631.2289088937522
 20
-86.32065233321998
 30
0.0
 11
640.7589088937525
 21
-86.32065233321993
 31
0.0
  0
LINE
  5
4434
330
17
100
AcDbEntity
  8
0
100
AcDbLine
 10
640.7589088937525
 20
-86.32065233321993
 30
0.0
 11
640.7589088937525
 21
-76.34215233321993
 31
0.0
  0
LINE
  5
4435
330
17
100
AcDbEntity
  8
0
100
AcDbLine
 10
640.7589088937525
 20
-76.34215233321993
 30
0.0
 11
631.2289088937525
 21
-76.34215233322001
 31
0.0
  0
LINE
  5
4436
330
17
100
AcDbEntity
  8
0
100
AcDbLine
 10
630.7289088937525
 20
-85.82065233321998
 30
0.0
 11
631.2289088937525
 21
-86.32065233321998
 31
0.0
  0
LINE
  5
4437
330
17
100
AcDbEntity
  8
0
100
AcDbLine
 10
631.2289088937525
 20
-76.34215233321999
 30
0.0
 11
630.7289088937525
 21
-76.84215233321999
 31
0.0
  0
LINE
  5
4438
330
17
100
AcDbEntity
  8
0
100
AcDbLine
 10
631.2289088937525
 20
-76.34215233321993
 30
0.0
 11
631.2289088937522
 21
-86.32065233321995
 31
0.0
  0
CIRCLE
  5
4439
330
17
100
AcDbEntity
  8
0
 48
0.5
100
AcDbCircle
 10
634.7289088937525
 20
-81.30635604446945
 30
0.0
 40
1.550202346979324
  0
LINE
  5
443A
330
17
100
AcDbEntity
  8
0
 48
0.5
100
AcDbLine
 10
681.5789088937524
 20
-78.0814023332199
 30
0.0
 11
681.2289088937525
 21
-78.0814023332199
 31
0.0
  0
LINE
  5
443B
330
17
100
AcDbEntity
  8
0
 48
0.5
100
AcDbLine
 10
681.5789088937524
 20
-84.58140233321989
 30
0.0
 11
681.2289088937525
 21
-84.58140233321993
 31
0.0
  0
LINE
  5
443C
330
17
100
AcDbEntity
  8
0
 48
0.5
100
AcDbLine
 10
681.5789088937524
 20
-84.58140233321989
 30
0.0
 11
681.5789088937524
 21
-78.0814023332199
 31
0.0
  0
LINE
  5
443D
330
17
100
AcDbEntity
  8
0
 48
0.5
100
AcDbLine
 10
681.5789088937524
 20
-8.072627006425733
 30
0.0
 11
681.2289088937525
 21
-8.072627006425733
 31
0.0
  0
LINE
  5
443E
330
17
100
AcDbEntity
  8
0
 48
0.5
100
AcDbLine
 10
681.5789088937524
 20
-14.57262700642573
 30
0.0
 11
681.2289088937525
 21
-14.57262700642579
 31
0.0
  0
LINE
  5
443F
330
17
100
AcDbEntity
  8
0
 48
0.5
100
AcDbLine
 10
681.5789088937524
 20
-14.57262700642573
 30
0.0
 11
681.5789088937524
 21
-12.32262700642573
 31
0.0
  0
LINE
  5
4440
330
17
100
AcDbEntity
  8
0
 48
0.5
100
AcDbLine
 10
681.5789088937524
 20
-10.32262700642573
 30
0.0
 11
681.5789088937524
 21
-8.072627006425733
 31
0.0
  0
CIRCLE
  5
4441
330
17
100
AcDbEntity
  8
0
 48
0.5
100
AcDbCircle
 10
651.2289088937525
 20
-91.03140233321989
 30
0.0
 40
1.25
  0
CIRCLE
  5
4442
330
17
100
AcDbEntity
  8
additional
  6
HIDDEN2
 48
0.5
100
AcDbCircle
 10
669.2289088937525
 20
-91.03140233321989
 30
0.0
 40
1.5
  0
CIRCLE
  5
4443
330
17
100
AcDbEntity
  8
0
 48
0.5
100
AcDbCircle
 10
669.2289088937525
 20
-91.03140233321989
 30
0.0
 40
1.25
  0
CIRCLE
  5
4444
330
17
100
AcDbEntity
  8
additional
  6
HIDDEN2
 48
0.5
100
AcDbCircle
 10
669.2289088937522
 20
-71.63140233321991
 30
0.0
 40
1.5
  0
CIRCLE
  5
4445
330
17
100
AcDbEntity
  8
0
 48
0.5
100
AcDbCircle
 10
669.2289088937525
 20
-71.63140233321991
 30
0.0
 40
1.25
  0
CIRCLE
  5
4446
330
17
100
AcDbEntity
  8
additional
  6
HIDDEN2
 48
0.5
100
AcDbCircle
 10
651.2289088937525
 20
-71.63140233321994
 30
0.0
 40
1.5
  0
CIRCLE
  5
4447
330
17
100
AcDbEntity
  8
0
 48
0.5
100
AcDbCircle
 10
651.2289088937525
 20
-71.63140233321994
 30
0.0
 40
1.25
  0
LINE
  5
4448
330
17
100
AcDbEntity
  8
additional
 48
0.5
100
AcDbLine
 10
588.2167147425905
 20
-71.63140233321996
 30
0.0
 11
582.3578154743265
 21
-71.63140233321994
 31
0.0
  0
LINE
  5
4449
330
17
100
AcDbEntity
  8
additional
 48
0.5
100
AcDbLine
 10
588.2167147425905
 20
-91.03140233321989
 30
0.0
 11
582.3578154743265
 21
-91.03140233321992
 31
0.0
  0
LINE
  5
444A
330
17
100
AcDbEntity
  8
0
100
AcDbLine
 10
630.7289088937525
 20
-6.833377006425763
 30
0.0
 11
630.7289088937525
 21
-9.72262700642571
 31
0.0
  0
LINE
  5
444B
330
17
100
AcDbEntity
  8
0
100
AcDbLine
 10
631.2289088937525
 20
-16.31187700642576
 30
0.0
 11
640.7589088937525
 21
-16.31187700642576
 31
0.0
  0
LINE
  5
444C
330
17
100
AcDbEntity
  8
0
100
AcDbLine
 10
640.7589088937525
 20
-16.3118770064257
 30
0.0
 11
640.7589088937525
 21
-6.333377006425706
 31
0.0
  0
LINE
  5
444D
330
17
100
AcDbEntity
  8
0
100
AcDbLine
 10
640.7589088937525
 20
-6.333377006425706
 30
0.0
 11
631.2289088937525
 21
-6.333377006425763
 31
0.0
  0
LINE
  5
444E
330
17
100
AcDbEntity
  8
0
100
AcDbLine
 10
630.7289088937525
 20
-15.81187700642576
 30
0.0
 11
631.2289088937525
 21
-16.31187700642576
 31
0.0
  0
LINE
  5
444F
330
17
100
AcDbEntity
  8
0
100
AcDbLine
 10
631.2289088937525
 20
-6.333377006425763
 30
0.0
 11
630.7289088937525
 21
-6.833377006425763
 31
0.0
  0
LINE
  5
4450
330
17
100
AcDbEntity
  8
0
100
AcDbLine
 10
631.2289088937525
 20
-6.333377006425706
 30
0.0
 11
631.2289088937525
 21
-9.72262700642571
 31
0.0
  0
LINE
  5
4451
330
17
100
AcDbEntity
  8
0
100
AcDbLine
 10
631.2289088937525
 20
-12.9226270064257
 30
0.0
 11
631.2289088937525
 21
-16.31187700642576
 31
0.0
  0
LINE
  5
4452
330
17
100
AcDbEntity
  8
0
100
AcDbLine
 10
630.7289088937525
 20
-12.9226270064257
 30
0.0
 11
630.7289088937525
 21
-15.81187700642576
 31
0.0
  0
LINE
  5
4453
330
17
100
AcDbEntity
  8
additional
  6
HIDDEN2
 48
0.5
100
AcDbLine
 10
636.2789088937525
 20
-6.833377006425706
 30
0.0
 11
636.2789088937525
 21
-9.72262700642571
 31
0.0
  0
LINE
  5
4454
330
17
100
AcDbEntity
  8
additional
  6
HIDDEN2
 48
0.5
100
AcDbLine
 10
636.2789088937525
 20
-12.9226270064257
 30
0.0
 11
636.2789088937525
 21
-15.81187700642576
 31
0.0
  0
LINE
  5
4455
330
17
100
AcDbEntity
  8
additional
  6
HIDDEN2
 48
0.5
100
AcDbLine
 10
636.7789088937525
 20
-6.333377006425706
 30
0.0
 11
636.2789088937525
 21
-6.833377006425706
 31
0.0
  0
LINE
  5
4456
330
17
100
AcDbEntity
  8
additional
  6
HIDDEN2
 48
0.5
100
AcDbLine
 10
636.7789088937525
 20
-16.31187700642576
 30
0.0
 11
636.2789088937525
 21
-15.81187700642576
 31
0.0
  0
LINE
  5
4457
330
17
100
AcDbEntity
  8
additional
  6
HIDDEN2
 48
0.5
100
AcDbLine
 10
633.1789088937523
 20
-6.833377006425706
 30
0.0
 11
633.1789088937523
 21
-9.72262700642571
 31
0.0
  0
LINE
  5
4458
330
17
100
AcDbEntity
  8
additional
  6
HIDDEN2
 48
0.5
100
AcDbLine
 10
633.1789088937523
 20
-12.9226270064257
 30
0.0
 11
633.1789088937523
 21
-15.81187700642576
 31
0.0
  0
LINE
  5
4459
330
17
100
AcDbEntity
  8
additional
  6
HIDDEN2
 48
0.5
100
AcDbLine
 10
632.6789088937523
 20
-6.333377006425706
 30
0.0
 11
633.1789088937523
 21
-6.833377006425706
 31
0.0
  0
LINE
  5
445A
330
17
100
AcDbEntity
  8
additional
  6
HIDDEN2
 48
0.5
100
AcDbLine
 10
632.6789088937523
 20
-16.31187700642576
 30
0.0
 11
633.1789088937523
 21
-15.81187700642576
 31
0.0
  0
LINE
  5
445B
330
17
100
AcDbEntity
  8
0
100
AcDbLine
 10
630.7289088937525
 20
-9.72262700642571
 30
0.0
 11
639.2289088937525
 21
-9.72262700642571
 31
0.0
  0
LINE
  5
445C
330
17
100
AcDbEntity
  8
0
100
AcDbLine
 10
639.2289088937525
 20
-12.9226270064257
 30
0.0
 11
630.7289088937525
 21
-12.9226270064257
 31
0.0
  0
LINE
  5
445D
330
17
100
AcDbEntity
  8
0
100
AcDbLine
 10
639.2289088937525
 20
-9.72262700642571
 30
0.0
 11
639.2289088937525
 21
-12.9226270064257
 31
0.0
  0
LINE
  5
445E
330
17
100
AcDbEntity
  8
0
 48
0.5
100
AcDbLine
 10
556.0702310665963
 20
-93.34390233321991
 30
0.0
 11
556.0702310665963
 21
-69.31890233321993
 31
0.0
  0
LINE
  5
445F
330
17
100
AcDbEntity
  8
0
 48
0.5
100
AcDbLine
 10
557.6702310665962
 20
-86.25640233322
 30
0.0
 11
557.6702310665962
 21
-76.40640233321994
 31
0.0
  0
LINE
  5
4460
330
17
100
AcDbEntity
  8
0
 48
0.5
100
AcDbLine
 10
557.6702310665962
 20
-76.40640233321992
 30
0.0
 11
556.0702310665963
 21
-76.40640233321992
 31
0.0
  0
LINE
  5
4461
330
17
100
AcDbEntity
  8
0
 48
0.5
100
AcDbLine
 10
557.6702310665962
 20
-86.25640233322
 30
0.0
 11
556.0702310665963
 21
-86.25640233322
 31
0.0
  0
LINE
  5
4462
330
17
100
AcDbEntity
  8
additional
  6
CENTER2
 48
0.5
100
AcDbLine
 10
553.2334336262984
 20
-81.33140233321993
 30
0.0
 11
588.061449648053
 21
-81.33140233321993
 31
0.0
  0
LINE
  5
4463
330
17
100
AcDbEntity
  8
additional
  6
CENTER2
 48
0.5
100
AcDbLine
 10
570.5702310665962
 20
-65.18973548710355
 30
0.0
 11
570.5702310665962
 21
-96.10414738140557
 31
0.0
  0
LINE
  5
4464
330
17
100
AcDbEntity
  8
additional
  6
CENTER2
 48
0.5
100
AcDbLine
 10
648.4483492755296
 20
-91.03140233321989
 30
0.0
 11
672.2590775077874
 21
-91.03140233321985
 31
0.0
  0
LINE
  5
4465
330
17
100
AcDbEntity
  8
additional
  6
CENTER2
 48
0.5
100
AcDbLine
 10
669.2289088937525
 20
-68.70183155378899
 30
0.0
 11
669.2289088937525
 21
-93.84513424761943
 31
0.0
  0
LINE
  5
4466
330
17
100
AcDbEntity
  8
additional
  6
CENTER2
 48
0.5
100
AcDbLine
 10
634.7289088937525
 20
-89.12159012485568
 30
0.0
 11
634.7289088937525
 21
-73.55219340738765
 31
0.0
  0
LINE
  5
4467
330
17
100
AcDbEntity
  8
additional
  6
CENTER2
 48
0.5
100
AcDbLine
 10
634.7289088937525
 20
-19.11281479806135
 30
0.0
 11
634.7289088937525
 21
-3.543418080593284
 31
0.0
  0
LINE
  5
4468
330
17
100
AcDbEntity
  8
additional
  6
CENTER2
 48
0.5
100
AcDbLine
 10
627.722252375355
 20
-11.32262700642573
 30
0.0
 11
678.0289088937524
 21
-11.32262700642573
 31
0.0
  0
LINE
  5
446D
330
17
100
AcDbEntity
  8
additional
  6
HIDDEN2
 48
0.5
100
AcDbLine
 10
633.1789088937523
 20
-6.833377006425706
 30
0.0
 11
636.2789088937525
 21
-6.833377006425706
 31
0.0
  0
LINE
  5
446E
330
17
100
AcDbEntity
  8
additional
  6
HIDDEN2
 48
0.5
100
AcDbLine
 10
633.1789088937523
 20
-15.81187700642576
 30
0.0
 11
636.2789088937525
 21
-15.81187700642576
 31
0.0
  0
LINE
  5
446F
330
17
100
AcDbEntity
  8
additional
  6
HIDDEN2
 48
0.5
100
AcDbLine
 10
575.3042787319807
 20
-79.75615369749016
 30
0.0
 11
572.1202310665963
 21
-79.75615369749019
 31
0.0
  0
LINE
  5
4470
330
17
100
AcDbEntity
  8
additional
  6
HIDDEN2
 48
0.5
100
AcDbLine
 10
569.0202310665963
 20
-79.75615369749019
 30
0.0
 11
565.8361834012119
 21
-79.75615369749019
 31
0.0
  0
LINE
  5
4471
330
17
100
AcDbEntity
  8
additional
  6
HIDDEN2
 48
0.5
100
AcDbLine
 10
575.3042787319807
 20
-82.90665096894972
 30
0.0
 11
572.1202310665963
 21
-82.90665096894972
 31
0.0
  0
LINE
  5
4472
330
17
100
AcDbEntity
  8
additional
  6
HIDDEN2
 48
0.5
100
AcDbLine
 10
569.0202310665963
 20
-82.90665096894972
 30
0.0
 11
565.8361834012119
 21
-82.90665096894972
 31
0.0
  0
LINE
  5
4473
330
17
100
AcDbEntity
  8
0
 48
0.5
100
AcDbLine
 10
694.3335375156229
 20
-68.31890233323566
 30
0.0
 11
678.0289088937524
 21
-68.31890233325137
 31
0.0
  0
LINE
  5
4474
330
17
100
AcDbEntity
  8
0
 48
0.5
100
AcDbLine
 10
693.8591544213661
 20
-69.31890233323615
 30
0.0
 11
681.2289088937525
 21
-69.31890233321991
 31
0.0
  0
LINE
  5
4476
330
17
100
AcDbEntity
  8
additional
 48
0.5
100
AcDbLine
 10
552.9237473906021
 20
-71.63140233321996
 30
0.0
 11
558.782646658866
 21
-71.63140233321994
 31
0.0
  0
LINE
  5
4477
330
17
100
AcDbEntity
  8
additional
 48
0.5
100
AcDbLine
 10
552.9237473906021
 20
-91.03140233321989
 30
0.0
 11
558.782646658866
 21
-91.03140233321992
 31
0.0
  0
LINE
  5
4478
330
17
100
AcDbEntity
  8
0
 48
0.5
100
AcDbLine
 10
640.7589088937525
 20
-89.33140233322033
 30
0.0
 11
642.0289088937525
 21
-89.33140233322029
 31
0.0
  0
SPLINE
  5
4497
330
17
100
AcDbEntity
  8
additional
 48
0.5
100
AcDbSpline
210
0.0
220
0.0
230
1.0
 70
     8
 71
     3
 72
    18
 73
    14
 74
    12
 42
0.0000000001
 43
0.0000000001
 44
0.0000000001
 40
0.0
 40
0.0
 40
0.0
 40
0.0
 40
0.3913118960624632
 40
0.7826237921249391
 40
1.482623792124899
 40
1.873935688187413
 40
2.2652475842498
 40
2.656559480312326
 40
3.047871376374739
 40
4.097871376374778
 40
4.489183272437153
 40
4.880495168499705
 40
5.271807064562143
 40
5.271807064562143
 40
5.271807064562143
 40
5.271807064562143
 10
694.2542133556648
 20
-66.38277114436572
 30
0.0
 10
694.3104981973111
 20
-66.50041087772013
 30
0.0
 10
694.4230678806039
 20
-66.73569034442898
 30
0.0
 10
694.6828915697444
 20
-67.15928931574305
 30
0.0
 10
694.6829690577085
 20
-67.70627193427296
 30
0.0
 10
694.4229379293375
 20
-68.1298082944586
 30
0.0
 10
694.254698862429
 20
-68.48293981833951
 30
0.0
 10
694.0835467549353
 20
-68.83505929837738
 30
0.0
 10
693.7757731932951
 20
-69.36331871678992
 30
0.0
 10
693.7753764060475
 20
-70.05236894064961
 30
0.0
 10
694.0839903765643
 20
-70.58028008300053
 30
0.0
 10
694.25301910044
 20
-70.93339390970692
 30
0.0
 10
694.3704819372566
 20
-71.1663120661461
 30
0.0
 10
694.4292133556648
 20
-71.28277114436567
 30
0.0
 11
694.2542133556648
 21
-66.38277114436572
 31
0.0
 11
694.4292133556648
 21
-66.73277114436574
 31
0.0
 11
694.6042133556649
 21
-67.08277114436572
 31
0.0
 11
694.6042133556649
 21
-67.78277114436568
 31
0.0
 11
694.4292133556648
 21
-68.1327711443657
 31
0.0
 11
694.2542133556648
 21
-68.48277114436564
 31
0.0
 11
694.0792133556647
 21
-68.83277114436562
 31
0.0
 11
693.9042133556649
 21
-69.18277114436564
 31
0.0
 11
693.9042133556649
 21
-70.23277114436568
 31
0.0
 11
694.0792133556647
 21
-70.58277114436567
 31
0.0
 11
694.2542133556648
 21
-70.93277114436567
 31
0.0
 11
694.4292133556648
 21
-71.28277114436567
 31
0.0
  0
DIMENSION
  5
4498
330
17
100
AcDbEntity
  8
Z_OM_DIM
100
AcDbDimension
  2
*D2
 10
641.2289088937525
 20
-39.92387681043448
 30
0.0
 11
661.2289088937525
 21
-38.04887681043448
 31
0.0
 70
    32
 71
     5
 42
40.0
  3
CatalogDxf
100
AcDbAlignedDimension
 13
681.2289088937525
 23
-24.32262700642573
 33
0.0
 14
641.2289088937525
 24
-25.82262700642576
 34
0.0
100
AcDbRotatedDimension
  0
DIMENSION
  5
44A5
330
17
100
AcDbEntity
  8
Z_OM_DIM
100
AcDbDimension
  2
*D3
 10
620.5686005215843
 20
-12.92262700642569
 30
0.0
 11
620.5686005215843
 21
-2.014293673092275
 31
0.0
 70
   160
  1
3.1
 71
     5
 42
3.199999999999988
  3
CatalogDxf
100
AcDbAlignedDimension
 13
630.7289088937525
 23
-9.72262700642571
 33
0.0
 14
630.7289088937525
 24
-12.9226270064257
 34
0.0
 50
90.0
100
AcDbRotatedDimension
  0
DIMENSION
  5
44BF
330
17
100
AcDbEntity
  8
Z_OM_DIM
100
AcDbDimension
  2
*D4
 10
639.2289088937525
 20
-29.3863873316904
 30
0.0
 11
634.9225622064636
 21
-26.78570165514372
 31
0.0
 70
   160
  1
8.4
 71
     5
 42
8.5
  3
CatalogDxf
100
AcDbAlignedDimension
 13
630.7289088937525
 23
-15.81187700642576
 33
0.0
 14
639.2289088937525
 24
-12.9226270064257
 34
0.0
100
AcDbRotatedDimension
1001
ACAD
1000
DSTYLE
1002
{
1070
   279
1070
     2
1002
}
  0
DIMENSION
  5
44D5
330
17
100
AcDbEntity
  8
Z_OM_DIM
100
AcDbDimension
  2
*D5
 10
651.2289088937525
 20
-57.19082744320814
 30
0.0
 11
660.2289088937525
 21
-55.31582744320814
 31
0.0
 70
    32
 71
     5
 42
18.0
  3
CatalogDxf
100
AcDbAlignedDimension
 13
669.2289088937525
 23
-68.70183155378899
 33
0.0
 14
651.2289088937525
 24
-71.63140233321994
 34
0.0
100
AcDbRotatedDimension
  0
DIMENSION
  5
44E2
330
17
100
AcDbEntity
  8
Z_OM_DIM
100
AcDbDimension
  2
*D6
 10
634.7289088937525
 20
-57.19082744320814
 30
0.0
 11
642.9789088937525
 21
-55.31582744320814
 31
0.0
 70
    32
 71
     5
 42
16.5
  3
CatalogDxf
100
AcDbAlignedDimension
 13
651.2289088937525
 23
-71.63140233321994
 33
0.0
 14
634.7289088937525
 24
-73.55219340738765
 34
0.0
100
AcDbRotatedDimension
1001
ACAD
1000
DSTYLE
1002
{
1070
   279
1070
     1
1002
}
  0
DIMENSION
  5
44EF
330
17
100
AcDbEntity
  8
Z_OM_DIM
100
AcDbDimension
  2
*D7
 10
630.7289088937525
 20
-57.19082744320814
 30
0.0
 11
632.7289088937525
 21
-55.31582744320814
 31
0.0
 70
    32
 71
     5
 42
4.0
  3
CatalogDxf
100
AcDbAlignedDimension
 13
634.7289088937525
 23
-73.55219340738765
 33
0.0
 14
630.7289088937525
 24
-76.84215233321999
 34
0.0
100
AcDbRotatedDimension
1001
ACAD
1000
DSTYLE
1002
{
1070
   279
1070
     1
1002
}
  0
DIMENSION
  5
44FE
330
17
100
AcDbEntity
  8
Z_OM_DIM
100
AcDbDimension
  2
*D8
 10
620.9545258118862
 20
-86.32065233321998
 30
0.0
 11
618.3688767764713
 21
-81.5097181672383
 31
0.0
 70
   160
  1
%%c10
 71
     5
 42
9.978499999999968
  3
CatalogDxf
100
AcDbAlignedDimension
 13
631.2289088937525
 23
-76.34215233322001
 33
0.0
 14
631.2289088937525
 24
-86.32065233321998
 34
0.0
 50
90.0
100
AcDbRotatedDimension
1001
ACAD
1000
DSTYLE
1002
{
1070
   279
1070
     2
1002
}
  0
DIMENSION
  5
4514
330
17
100
AcDbEntity
  8
Z_OM_DIM
100
AcDbDimension
  2
*D9
 10
695.2812628599304
 20
-91.03140233321985
 30
0.0
 11
693.4062628599305
 21
-81.33140233321977
 31
0.0
 70
    32
 71
     5
 42
19.39999999999995
  3
CatalogDxf
100
AcDbAlignedDimension
 13
672.2590775077874
 23
-71.63140233321991
 33
0.0
 14
672.2590775077874
 24
-91.03140233321985
 34
0.0
 50
90.0
100
AcDbRotatedDimension
  0
DIMENSION
  5
4521
330
17
100
AcDbEntity
  8
Z_OM_DIM
100
AcDbDimension
  2
*D10
 10
585.0702310665963
 20
-107.5753828754252
 30
0.0
 11
570.5702310665962
 21
-105.7003828754252
 31
0.0
 70
    32
 71
     5
 42
29.0
  3
CatalogDxf
100
AcDbAlignedDimension
 13
556.0702310665963
 23
-93.34390233321991
 33
0.0
 14
585.0702310665963
 24
-93.34390233321991
 34
0.0
100
AcDbRotatedDimension
  0
DIMENSION
  5
452E
330
17
100
AcDbEntity
  8
Z_OM_DIM
100
AcDbDimension
  2
*D11
 10
600.4466928445978
 20
-93.34390233321991
 30
0.0
 11
598.5716928445977
 21
-81.33140233321984
 31
0.0
 70
    32
 71
     5
 42
24.02499999999998
  3
CatalogDxf
100
AcDbAlignedDimension
 13
585.0702310665963
 23
-69.31890233321993
 33
0.0
 14
585.0702310665963
 24
-93.34390233321991
 34
0.0
 50
90.0
100
AcDbRotatedDimension
  0
LEADER
  5
4563
330
17
100
AcDbEntity
  8
Z_OM_DIM
100
AcDbLeader
  3
ISO-25
 76
     3
 10
669.8404377210453
 20
-92.12160070663175
 30
0.0
 10
676.0896041860714
 20
-103.2622547711527
 30
0.0
 10
701.25937790316
 20
-103.2622547711527
 30
0.0
1001
ACAD
1000
DSTYLE
1002
{
1070
   341
1005
977
1070
   147
1040
0.625
1070
    77
1070
     0
1002
}
  0
MTEXT
  5
4564
330
17
100
AcDbEntity
  8
Z_OM_DIM
100
AcDbMText
 10
677.2636021900411
 20
-103.3027516858388
 30
0.0
 40
2.5
 41
24.05930144544266
 71
     4
 72
     1
  1
4-M3\Pboth faces
  7
CatalogDxf
 73
     1
 44
1.0
1001
ACAD
1000
MTEXTBEGIN
1070
    73
1070
     1
1070
    44
1040
1.0
1070
    74
1070
     0
1000
MTEXTEND
  0
MTEXT
  5
456D
330
17
100
AcDbEntity
  8
Z_OM_DIM
100
AcDbMText
 10
623.34771916193
 20
-96.35999411181872
 30
0.0
 40
2.5
 41
4.580851048175645
 71
     7
 72
     1
  1
%%C3
  7
CatalogDxf
 73
     1
 44
1.0
1001
ACAD
1000
MTEXTBEGIN
1070
    73
1070
     1
1070
    44
1040
1.0
1070
    74
1070
     0
1000
MTEXTEND
  0
LEADER
  5
456E
330
17
100
AcDbEntity
  8
Z_OM_DIM
100
AcDbLeader
  3
ISO-25
 76
     3
 10
634.1854545852294
 20
-82.75817722186285
 30
0.0
 10
628.7361828804022
 20
-97.06459435372604
 30
0.0
 10
622.208694310871
 20
-97.06459435372604
 30
0.0
211
-1.0
221
0.0
231
0.0
1001
ACAD
1000
DSTYLE
1002
{
1070
   341
1005
977
1070
   147
1040
0.625
1070
    77
1070
     0
1002
}
  0
MTEXT
  5
4577
330
17
100
AcDbEntity
  8
Z_OM_DIM
100
AcDbMText
 10
701.6656889702455
 20
-1.589017504878448
 30
0.0
 40
2.5
 41
42.8494883882687
 71
     7
 72
     1
  1
UL1007 AWG22 white
  7
CatalogDxf
 73
     1
 44
1.0
1001
ACAD
1000
ACAD_MTEXT_DEFINED_HEIGHT_BEGIN
1070
    46
1040
2.500000000000005
1000
ACAD_MTEXT_DEFINED_HEIGHT_END
1000
MTEXTBEGIN
1070
    73
1070
     1
1070
    44
1040
1.0
1070
    74
1070
     0
1000
MTEXTEND
  0
LEADER
  5
4578
330
17
100
AcDbEntity
  8
Z_OM_DIM
100
AcDbLeader
  3
ISO-25
 76
     3
 10
695.6474564444914
 20
-10.32262700642573
 30
0.0
 10
701.1015794764859
 20
-2.214017504878441
 30
0.0
 10
742.4598695486041
 20
-2.214017504878441
 30
0.0
1001
ACAD
1000
DSTYLE
1002
{
1070
   341
1005
977
1070
   147
1040
0.625
1070
    77
1070
     0
1002
}
  0
DIMENSION
  5
46FD
330
17
100
AcDbEntity
  8
Z_OM_DIM
100
AcDbDimension
  2
*D12
 10
681.2289088937525
 20
-57.19082744320814
 30
0.0
 11
675.2289088937525
 21
-55.31582744320814
 31
0.0
 70
    32
 71
     5
 42
12.0
  3
CatalogDxf
100
AcDbAlignedDimension
 13
669.2289088937525
 23
-68.70183155378899
 33
0.0
 14
681.2289088937525
 24
-69.31890233321991
 34
0.0
100
AcDbRotatedDimension
  0
DIMENSION
  5
4718
330
17
100
AcDbEntity
  8
Z_OM_DIM
100
AcDbDimension
  2
*D13
 10
651.2289088937525
 20
-34.88703559046974
 30
0.0
 11
646.2289088937525
 21
-33.01203559046974
 31
0.0
 70
    32
 71
     5
 42
10.0
  3
CatalogDxf
100
AcDbAlignedDimension
 13
641.2289088937525
 23
-25.82262700642576
 33
0.0
 14
651.2289088937525
 24
-27.7589718748265
 34
0.0
100
AcDbRotatedDimension
  0
ENDSEC
  0
SECTION
  2
OBJECTS
  0
DICTIONARY
  5
C
330
0
100
AcDbDictionary
281
     1
  3
ACAD_2007HEADERVARS_RT
350
4545
  3
ACAD_COLOR
350
3D57
  3
ACAD_GROUP
350
D
  3
ACAD_LAYOUT
350
3D5A
  3
ACAD_MATERIAL
350
3D42
  3
ACAD_MLINESTYLE
350
1A
  3
ACAD_PLOTSETTINGS
350
957
  3
ACAD_PLOTSTYLENAME
350
3D40
  3
ACAD_TABLESTYLE
350
3D58
  3
ACAD_VISUALSTYLE
350
3D46
  3
ACADDIM
350
1BB8
  3
ACDBHEADERROUNDTRIPXREC
350
4776
  3
AcDbVariableDictionary
350
4116
  3
DWGPROPS
350
4775
1001
ACAD
1000
TREAT_AS_HARD
1070
     0
  0
DICTIONARY
  5
4549
330
8
100
AcDbDictionary
280
     1
281
     1
  3
ACAD_XREC_ROUNDTRIP
360
454A
  0
DICTIONARY
  5
3DBA
330
2
100
AcDbDictionary
280
     1
281
     1
  3
ACAD_LAYERFILTERS
360
421C
  3
ACAD_LAYERSTATES
360
3DBB
  3
ACLYDICTIONARY
360
421B
  0
DICTIONARY
  5
454B
330
E
100
AcDbDictionary
280
     1
281
     1
  3
ACAD_XREC_ROUNDTRIP
360
454C
  0
DICTIONARY
  5
454D
330
27
100
AcDbDictionary
280
     1
281
     1
  3
ACAD_XREC_ROUNDTRIP
360
454E
  0
DICTIONARY
  5
454F
330
2B
100
AcDbDictionary
280
     1
281
     1
  3
ACAD_XREC_ROUNDTRIP
360
4550
  0
DICTIONARY
  5
4553
330
3DB5
100
AcDbDictionary
280
     1
281
     1
  3
ACAD_XREC_ROUNDTRIP
360
4554
  0
DICTIONARY
  5
1808
330
17
100
AcDbDictionary
280
     1
281
     1
  3
ACAD_LAYOUTSELFREF
360
3D3B
  3
ACAD_SORTENTS
360
4622
1001
ACAD
1000
TREAT_AS_HARD
1070
     1
  0
DICTIONARY
  5
1806
330
14
100
AcDbDictionary
280
     1
281
     1
  3
ACAD_LAYOUTSELFREF
360
3D3A
1001
ACAD
1000
TREAT_AS_HARD
1070
     1
  0
DICTIONARY
  5
4545
102
{ACAD_REACTORS
330
C
102
}
330
C
100
AcDbDictionary
281
     1
  3
DIMLTEX1
350
4547
  3
DIMLTEX2
350
4548
  3
DIMLTYPE
350
4546
  0
DICTIONARY
  5
3D57
102
{ACAD_REACTORS
330
C
102
}
330
C
100
AcDbDictionary
281
     1
  0
DICTIONARY
  5
D
102
{ACAD_REACTORS
330
C
102
}
330
C
100
AcDbDictionary
281
     1
1001
ACAD
1000
TREAT_AS_HARD
1070
     0
  0
DICTIONARY
  5
3D5A
102
{ACAD_REACTORS
330
C
102
}
330
C
100
AcDbDictionary
281
     1
  3
Model
350
3D5B
  3
レイアウト1
350
3D5C
  0
DICTIONARY
  5
3D42
102
{ACAD_REACTORS
330
C
102
}
330
C
100
AcDbDictionary
281
     1
  3
ByBlock
350
3D44
  3
ByLayer
350
3D43
  3
Global
350
3D45
  0
DICTIONARY
  5
1A
102
{ACAD_REACTORS
330
C
102
}
330
C
100
AcDbDictionary
281
     1
  3
STANDARD
350
1B
1001
ACAD
1000
TREAT_AS_HARD
1070
     0
  0
DICTIONARY
  5
957
102
{ACAD_REACTORS
330
C
102
}
330
C
100
AcDbDictionary
281
     1
1001
ACAD
1000
TREAT_AS_HARD
1070
     0
  0
ACDBDICTIONARYWDFLT
  5
3D40
102
{ACAD_REACTORS
330
C
102
}
330
C
100
AcDbDictionary
281
     1
  3
Normal
350
3D41
100
AcDbDictionaryWithDefault
340
3D41
  0
DICTIONARY
  5
3D58
102
{ACAD_REACTORS
330
C
102
}
330
C
100
AcDbDictionary
281
     1
  3
Standard
350
3D59
  0
DICTIONARY
  5
3D46
102
{ACAD_REACTORS
330
C
102
}
330
C
100
AcDbDictionary
281
     1
  3
2dWireframe
350
3D4C
  3
3D Hidden
350
3D4E
  3
3dWireframe
350
3D4D
  3
Basic
350
3D4B
  3
Brighten
350
3D52
  3
ColorChange
350
3D56
  3
Conceptual
350
3D4F
  3
Dim
350
3D51
  3
Facepattern
350
3D55
  3
Flat
350
3D47
  3
FlatWithEdges
350
3D48
  3
Gouraud
350
3D49
  3
GouraudWithEdges
350
3D4A
  3
Linepattern
350
3D54
  3
Realistic
350
3D50
  3
Thicken
350
3D53
  0
XRECORD
  5
1BB8
102
{ACAD_REACTORS
330
C
102
}
330
C
100
AcDbXrecord
280
     1
 90
   990106
  3

 60
     0
 61
     0
 62
     4
 63
     4
 64
     1
 65
     0
 66
     0
 67
     2
 68
     1
 69
     0
 70
     0
 71
     0
 72
     0
 40
10.6926485572867
170
     2
340
0
  0
DICTIONARY
  5
4776
102
{ACAD_REACTORS
330
C
102
}
330
C
100
AcDbDictionary
281
     1
  0
DICTIONARY
  5
4116
102
{ACAD_REACTORS
330
C
102
}
330
C
100
AcDbDictionary
281
     1
  3
CTABLESTYLE
350
4117
  3
DIMASSOC
350
4772
  3
PROJECTNAME
350
4773
  0
XRECORD
  5
4775
102
{ACAD_REACTORS
330
C
102
}
330
C
100
AcDbXrecord
280
     1
  1
DWGPROPS COOKIE
  2

  3

  4

  6

  7

  8
yakata
  9

300
=
301
=
302
=
303
=
304
=
305
=
306
=
307
=
308
=
309
=
 40
0.5818385416666667
 41
2455090.761732894
 42
2455678.571275243
  1

 90
        0
  0
XRECORD
  5
454A
102
{ACAD_REACTORS
330
4549
102
}
330
4549
100
AcDbXrecord
280
     1
102
VTR_0.000_0.000_1.000_1.000_VISUALSTYLE
340
3D4C
102
VTR_0.000_0.000_1.000_1.000_GRIDDISPLAY
 70
     3
102
VTR_0.000_0.000_1.000_1.000_GRIDMAJOR
 70
     5
102
VTR_0.000_0.000_1.000_1.000_DEFAULTLIGHTING
280
     1
102
VTR_0.000_0.000_1.000_1.000_DEFAULTLIGHTINGTYPE
 70
     1
102
VTR_0.000_0.000_1.000_1.000_BRIGHTNESS
141
0.0
102
VTR_0.000_0.000_1.000_1.000_CONTRAST
142
0.0
  0
DICTIONARY
  5
421C
102
{ACAD_REACTORS
330
3DBA
102
}
330
3DBA
100
AcDbDictionary
281
     1
  0
DICTIONARY
  5
3DBB
102
{ACAD_REACTORS
330
3DBA
102
}
330
3DBA
100
AcDbDictionary
281
     1
  0
DICTIONARY
  5
421B
102
{ACAD_REACTORS
330
3DBA
102
}
330
3DBA
100
AcDbDictionary
281
     1
1001
ACAD
1000
<All
  0
XRECORD
  5
454C
102
{ACAD_REACTORS
330
454B
102
}
330
454B
100
AcDbXrecord
280
     1
102
MATERIAL
340
3D45
  0
XRECORD
  5
454E
102
{ACAD_REACTORS
330
454D
102
}
330
454D
100
AcDbXrecord
280
     1
102
MATERIAL
340
3D45
  0
XRECORD
  5
4550
102
{ACAD_REACTORS
330
454F
102
}
330
454F
100
AcDbXrecord
280
     1
102
MATERIAL
340
3D45
  0
XRECORD
  5
4554
102
{ACAD_REACTORS
330
4553
102
}
330
4553
100
AcDbXrecord
280
     1
102
MATERIAL
340
3D45
  0
XRECORD
  5
3D3B
102
{ACAD_REACTORS
330
1808
102
}
330
1808
100
AcDbXrecord
280
     1
340
17
  0
SORTENTSTABLE
  5
4622
102
{ACAD_REACTORS
330
1808
102
}
330
1808
100
AcDbSortentsTable
330
17
331
4301
  5
4301
331
43E8
  5
43E8
331
43F0
  5
43F0
331
442F
  5
442F
331
4309
  5
4309
331
4466
  5
4466
331
43F8
  5
43F8
331
4437
  5
4437
331
4311
  5
4311
331
446E
  5
446E
331
4563
  5
4564
331
4476
  5
4477
331
4514
  5
4521
331
4400
  5
4400
331
443F
  5
443F
331
4408
  5
4408
331
44D5
  5
44E2
331
4447
  5
4447
331
4410
  5
4410
331
4418
  5
4418
331
444F
  5
444F
331
43E1
  5
43E1
331
4420
  5
4420
331
42AA
  5
42AA
331
4457
  5
4457
331
445F
  5
445F
331
43E9
  5
43E9
331
4428
  5
4428
331
4302
  5
4302
331
4467
  5
4467
331
430A
  5
430A
331
43F1
  5
43F1
331
4430
  5
4430
331
4438
  5
4438
331
446F
  5
446F
331
4312
  5
4312
331
43F9
  5
43F9
331
4564
  5
456D
331
4401
  5
4401
331
4477
  5
4478
331
4409
  5
4409
331
4440
  5
4440
331
4497
  5
4498
331
4411
  5
4411
331
4448
  5
4448
331
4450
  5
4450
331
4419
  5
4419
331
4458
  5
4458
331
43E2
  5
43E2
331
4421
  5
4421
331
4429
  5
4429
331
4460
  5
4460
331
4303
  5
4303
331
43EA
  5
43EA
331
44BF
  5
44D5
331
43F2
  5
43F2
331
4431
  5
4431
331
430B
  5
430B
331
4468
  5
4468
331
44FE
  5
4514
331
4470
  5
4470
331
43FA
  5
43FA
331
4439
  5
4439
331
4313
  5
4313
331
4478
  5
4497
331
4402
  5
4402
331
4441
  5
4441
331
440A
  5
440A
331
4412
  5
4412
331
4449
  5
4449
331
4498
  5
44A5
331
452E
  5
453B
331
441A
  5
441A
331
4451
  5
4451
331
44EF
  5
44FE
331
43E3
  5
43E3
331
4422
  5
4422
331
4459
  5
4459
331
4461
  5
4461
331
4304
  5
4304
331
43EB
  5
43EB
331
442A
  5
442A
331
430C
  5
430C
331
43F3
  5
43F3
331
4432
  5
4432
331
443A
  5
443A
331
4471
  5
4471
331
43FB
  5
43FB
331
4403
  5
4403
331
440B
  5
440B
331
4442
  5
4442
331
4413
  5
4413
331
444A
  5
444A
331
4452
  5
4452
331
441B
  5
441B
331
4423
  5
4423
331
445A
  5
445A
331
43E4
  5
43E4
331
442B
  5
442B
331
4462
  5
4462
331
4305
  5
4305
331
43EC
  5
43EC
331
43F4
  5
43F4
331
4433
  5
4433
331
430D
  5
430D
331
4472
  5
4472
331
43FC
  5
43FC
331
443B
  5
443B
331
4404
  5
4404
331
456D
  5
456E
331
4443
  5
4443
331
440C
  5
440C
331
4414
  5
4414
331
444B
  5
444B
331
441C
  5
441C
331
4453
  5
4453
331
43E5
  5
43E5
331
4424
  5
4424
331
445B
  5
445B
331
4463
  5
4463
331
4306
  5
4306
331
43ED
  5
43ED
331
442C
  5
442C
331
4434
  5
4434
331
430E
  5
430E
331
43F5
  5
43F5
331
443C
  5
443C
331
4473
  5
4473
331
43FD
  5
43FD
331
4405
  5
4405
331
456E
  5
4577
331
4521
  5
452E
331
440D
  5
440D
331
4444
  5
4444
331
44E2
  5
44EF
331
4415
  5
4415
331
444C
  5
444C
331
4454
  5
4454
331
43DE
  5
43DE
331
441D
  5
441D
331
4425
  5
4425
331
445C
  5
445C
331
43E6
  5
43E6
331
442D
  5
442D
331
4464
  5
4464
331
4307
  5
4307
331
43EE
  5
43EE
331
43F6
  5
43F6
331
4435
  5
4435
331
4130
  5
4130
331
430F
  5
430F
331
4474
  5
4476
331
43FE
  5
43FE
331
443D
  5
443D
331
4406
  5
4406
331
4577
  5
4578
331
4445
  5
4445
331
440E
  5
440E
331
4416
  5
4416
331
444D
  5
444D
331
43DF
  5
43DF
331
441E
  5
441E
331
4455
  5
4455
331
43E7
  5
43E7
331
4426
  5
4426
331
445D
  5
445D
331
4465
  5
4465
331
4308
  5
4308
331
43EF
  5
43EF
331
442E
  5
442E
331
4436
  5
4436
331
446D
  5
446D
331
4310
  5
4310
331
43F7
  5
43F7
331
443E
  5
443E
331
43FF
  5
43FF
331
4407
  5
4407
331
4578
  5
4621
331
440F
  5
440F
331
4446
  5
4446
331
444E
  5
444E
331
4417
  5
4417
331
4456
  5
4456
331
44A5
  5
44BF
331
43E0
  5
43E0
331
441F
  5
441F
331
4427
  5
4427
331
445E
  5
445E
  0
XRECORD
  5
3D3A
102
{ACAD_REACTORS
330
1806
102
}
330
1806
100
AcDbXrecord
280
     1
340
14
  0
XRECORD
  5
4547
102
{ACAD_REACTORS
330
4545
102
}
330
4545
100
AcDbXrecord
280
     1
340
12
  0
XRECORD
  5
4548
102
{ACAD_REACTORS
330
4545
102
}
330
4545
100
AcDbXrecord
280
     1
340
12
  0
XRECORD
  5
4546
102
{ACAD_REACTORS
330
4545
102
}
330
4545
100
AcDbXrecord
280
     1
340
12
  0
LAYOUT
  5
3D5B
102
{ACAD_XDICTIONARY
360
4777
102
}
102
{ACAD_REACTORS
330
3D5A
102
}
330
3D5A
100
AcDbPlotSettings
  1

  2
none_device
  4
Letter_(8.50_x_11.00_Inches)
  6

 40
6.349999904632568
 41
6.349999904632568
 42
6.350006103515625
 43
6.350006103515625
 44
215.8999938964844
 45
279.3999938964844
 46
0.1644732699631095
 47
-98.83321307435437
 48
0.0
 49
0.0
140
0.0
141
0.0
142
1.0
143
26.289
 70
 11940
 72
     0
 73
     1
 74
     0
  7
monochrome.ctb
 75
     0
147
0.038038723420442
148
-10675.38419044041
149
4285.148369175423
100
AcDbLayout
  1
Model
 70
     1
 71
     0
 10
0.0
 20
0.0
 11
12.0
 21
9.0
 12
0.0
 22
0.0
 32
0.0
 14
0.0
 24
0.0
 34
0.0
 15
0.0
 25
0.0
 35
0.0
146
0.0
 13
0.0
 23
0.0
 33
0.0
 16
1.0
 26
0.0
 36
0.0
 17
0.0
 27
1.0
 37
0.0
 76
     0
330
17
1001
ACAD_PSEXT
1000
なし
1000
なし
1000
適切ではありません
1000
新しいプロッタ環境設定名を選択しない限り、レイアウトは印刷されません。
1070
     0
  0
LAYOUT
  5
3D5C
102
{ACAD_XDICTIONARY
360
4779
102
}
102
{ACAD_REACTORS
330
3D5A
102
}
330
3D5A
100
AcDbPlotSettings
  1

  2
Microsoft XPS Document Writer
  4

  6

 40
0.0
 41
0.0
 42
0.0
 43
0.0
 44
0.0
 45
0.0
 46
0.0
 47
0.0
 48
0.0
 49
0.0
140
0.0
141
0.0
142
1.0
143
1.0
 70
   688
 72
     0
 73
     0
 74
     5
  7
monochrome.ctb
 75
    16
147
1.0
148
0.0
149
0.0
100
AcDbLayout
  1
レイアウト1
 70
     1
 71
     1
 10
0.0
 20
0.0
 11
12.0
 21
9.0
 12
0.0
 22
0.0
 32
0.0
 14
1.000000000000000E+20
 24
1.000000000000000E+20
 34
1.000000000000000E+20
 15
-1.000000000000000E+20
 25
-1.000000000000000E+20
 35
-1.000000000000000E+20
146
0.0
 13
0.0
 23
0.0
 33
0.0
 16
1.0
 26
0.0
 36
0.0
 17
0.0
 27
1.0
 37
0.0
 76
     0
330
14
  0
MATERIAL
  5
3D44
102
{ACAD_XDICTIONARY
360
419D
102
}
102
{ACAD_REACTORS
330
3D42
102
}
330
3D42
100
AcDbMaterial
  1
ByBlock
  0
MATERIAL
  5
3D43
102
{ACAD_XDICTIONARY
360
419B
102
}
102
{ACAD_REACTORS
330
3D42
102
}
330
3D42
100
AcDbMaterial
  1
ByLayer
  0
MATERIAL
  5
3D45
102
{ACAD_XDICTIONARY
360
419F
102
}
102
{ACAD_REACTORS
330
3D42
102
}
330
3D42
100
AcDbMaterial
  1
Global
  0
MLINESTYLE
  5
1B
102
{ACAD_REACTORS
330
1A
102
}
330
1A
100
AcDbMlineStyle
  2
STANDARD
 70
     0
  3

 62
   256
 51
90.0
 52
90.0
 71
     2
 49
0.5
 62
   256
  6
BYLAYER
 49
-0.5
 62
   256
  6
BYLAYER
  0
ACDBPLACEHOLDER
  5
3D41
102
{ACAD_REACTORS
330
3D40
102
}
330
3D40
  0
TABLESTYLE
  5
3D59
102
{ACAD_XDICTIONARY
360
4551
102
}
102
{ACAD_REACTORS
330
3D58
102
}
330
3D58
100
AcDbTableStyle
  3
Standard
 70
     0
 71
     0
 40
0.06
 41
0.06
280
     0
281
     0
  7
STANDARD
140
0.18
170
     2
 62
     0
 63
     7
283
     0
274
    -2
284
     1
 64
     0
275
    -2
285
     1
 65
     0
276
    -2
286
     1
 66
     0
277
    -2
287
     1
 67
     0
278
    -2
288
     1
 68
     0
279
    -2
289
     1
 69
     0
  7
STANDARD
140
0.25
170
     5
 62
     0
 63
     7
283
     0
274
    -2
284
     1
 64
     0
275
    -2
285
     1
 65
     0
276
    -2
286
     1
 66
     0
277
    -2
287
     1
 67
     0
278
    -2
288
     1
 68
     0
279
    -2
289
     1
 69
     0
  7
STANDARD
140
0.18
170
     5
 62
     0
 63
     7
283
     0
274
    -2
284
     1
 64
     0
275
    -2
285
     1
 65
     0
276
    -2
286
     1
 66
     0
277
    -2
287
     1
 67
     0
278
    -2
288
     1
 68
     0
279
    -2
289
     1
 69
     0
  0
ACAD_PROXY_OBJECT
  5
3D4C
102
{ACAD_REACTORS
330
3D46
102
}
330
3D46
100
AcDbProxyObject
 90
      499
 91
      503
 95
  2555929
 70
     0
 93
      598
310
430C9915DA5C99599C985B59401049028333333333333E3BF0000000000000FB023FFFFFF0802405048070000C3008000000C800405A000000320014050640A01C00030C010500920280D3
 94
        0
1001
ACAD
1000
AcDbSavedByObjectVersion
1070
     0
1000
AcDbSavedByObjectVersion
1070
     0
1000
AcDbSavedByObjectVersion
1070
     0
1000
AcDbSavedByObjectVersion
1070
     0
1000
AcDbSavedByObjectVersion
1070
     0
1000
AcDbSavedByObjectVersion
1070
     0
1000
AcDbSavedByObjectVersion
1070
     0
1000
AcDbSavedByObjectVersion
1070
     0
1000
AcRTDxfName
1000
VISUALSTYLE
  0
ACAD_PROXY_OBJECT
  5
3D4E
102
{ACAD_REACTORS
330
3D46
102
}
330
3D46
100
AcDbProxyObject
 90
      499
 91
      503
 95
  2555929
 70
     0
 93
      662
310
428CD108121A5919195B8010640502408333333333333E3BF0000000000000FB023FFFFFF0802409028070000C3008000000C8004080000000000004440A000000320014050640A01C00030C010300920280D0
 94
        0
1001
ACAD
1000
AcDbSavedByObjectVersion
1070
     0
1000
AcDbSavedByObjectVersion
1070
     0
1000
AcDbSavedByObjectVersion
1070
     0
1000
AcDbSavedByObjectVersion
1070
     0
1000
AcDbSavedByObjectVersion
1070
     0
1000
AcDbSavedByObjectVersion
1070
     0
1000
AcDbSavedByObjectVersion
1070
     0
1000
AcDbSavedByObjectVersion
1070
     0
1000
AcRTDxfName
1000
VISUALSTYLE
  0
ACAD_PROXY_OBJECT
  5
3D4D
102
{ACAD_REACTORS
330
3D46
102
}
330
3D46
100
AcDbProxyObject
 90
      499
 91
      503
 95
  2555929
 70
     0
 93
      598
310
430CD915DA5C99599C985B59401059028333333333333E3BF0000000000000FB023FFFFFF0802405048070000C3008000000C800405A000000320014050640A01C00030C010500920280D1
 94
        0
1001
ACAD
1000
AcDbSavedByObjectVersion
1070
     0
1000
AcDbSavedByObjectVersion
1070
     0
1000
AcDbSavedByObjectVersion
1070
     0
1000
AcDbSavedByObjectVersion
1070
     0
1000
AcDbSavedByObjectVersion
1070
     0
1000
AcDbSavedByObjectVersion
1070
     0
1000
AcDbSavedByObjectVersion
1070
     0
1000
AcDbSavedByObjectVersion
1070
     0
1000
AcRTDxfName
1000
VISUALSTYLE
  0
ACAD_PROXY_OBJECT
  5
3D4B
102
{ACAD_REACTORS
330
3D46
102
}
330
3D46
100
AcDbProxyObject
 90
      499
 91
      503
 95
  2555929
 70
     0
 93
      558
310
4190985CDA58C0107406404333333333333E3BF0000000000000FB023FFFFFF08029048070000C3008000000C80040542201C00030C014050640A01C00030C010500920280D6
 94
        0
1001
ACAD
1000
AcDbSavedByObjectVersion
1070
     0
1000
AcDbSavedByObjectVersion
1070
     0
1000
AcDbSavedByObjectVersion
1070
     0
1000
AcDbSavedByObjectVersion
1070
     0
1000
AcDbSavedByObjectVersion
1070
     0
1000
AcDbSavedByObjectVersion
1070
     0
1000
AcDbSavedByObjectVersion
1070
     0
1000
AcDbSavedByObjectVersion
1070
     0
1000
AcRTDxfName
1000
VISUALSTYLE
  0
ACAD_PROXY_OBJECT
  5
3D52
102
{ACAD_REACTORS
330
3D46
102
}
330
3D46
100
AcDbProxyObject
 90
      499
 91
      503
 95
  2555929
 70
     0
 93
      598
310
42509C9A59DA1D195B8010C409028333333333333E3BF0000000000000FB023FFFFFF0802405048070000C3008000000C80040542201C00030C014050640A01C00030C010500920280A657
 94
        0
1001
ACAD
1000
AcDbSavedByObjectVersion
1070
     0
1000
AcDbSavedByObjectVersion
1070
     0
1000
AcDbSavedByObjectVersion
1070
     0
1000
AcDbSavedByObjectVersion
1070
     0
1000
AcDbSavedByObjectVersion
1070
     0
1000
AcDbSavedByObjectVersion
1070
     0
1000
AcDbSavedByObjectVersion
1070
     0
1000
AcDbSavedByObjectVersion
1070
     0
1000
AcRTDxfName
1000
VISUALSTYLE
  0
ACAD_PROXY_OBJECT
  5
3D56
102
{ACAD_REACTORS
330
3D46
102
}
330
3D46
100
AcDbProxyObject
 90
      499
 91
      503
 95
  2555929
 70
     0
 93
      622
310
4310DBDB1BDC90DA185B99D9401104090240C333333333333E3BF0000000000000FB0220202030802405048070000C3008000000C800405422202020308014050640A01C00030C010500920280D7
 94
        0
1001
ACAD
1000
AcDbSavedByObjectVersion
1070
     0
1000
AcDbSavedByObjectVersion
1070
     0
1000
AcDbSavedByObjectVersion
1070
     0
1000
AcDbSavedByObjectVersion
1070
     0
1000
AcDbSavedByObjectVersion
1070
     0
1000
AcDbSavedByObjectVersion
1070
     0
1000
AcDbSavedByObjectVersion
1070
     0
1000
AcDbSavedByObjectVersion
1070
     0
1000
AcRTDxfName
1000
VISUALSTYLE
  0
ACAD_PROXY_OBJECT
  5
3D4F
102
{ACAD_REACTORS
330
3D46
102
}
330
3D46
100
AcDbProxyObject
 90
      499
 91
      503
 95
  2555929
 70
     0
 93
      670
310
42D0DBDB98D95C1D1D585B0010940D028333333333333E3BF0000000000000FB023FFFFFF0802409028070000C3008000000C800404000000000000444042201C00030C014050640A01C00030C010300920280D0
 94
        0
1001
ACAD
1000
AcDbSavedByObjectVersion
1070
     0
1000
AcDbSavedByObjectVersion
1070
     0
1000
AcDbSavedByObjectVersion
1070
     0
1000
AcDbSavedByObjectVersion
1070
     0
1000
AcDbSavedByObjectVersion
1070
     0
1000
AcDbSavedByObjectVersion
1070
     0
1000
AcDbSavedByObjectVersion
1070
     0
1000
AcDbSavedByObjectVersion
1070
     0
1000
AcRTDxfName
1000
VISUALSTYLE
  0
ACAD_PROXY_OBJECT
  5
3D51
102
{ACAD_REACTORS
330
3D46
102
}
330
3D46
100
AcDbProxyObject
 90
      499
 91
      503
 95
  2555929
 70
     0
 93
      582
310
41111A5B4010B409028333333333333E3BF0000000000000FB023FFFFFF0802405048070000C3008000000C80040542201C00030C014050640A01C00030C01050092028099DFFFFFF4
 94
        0
1001
ACAD
1000
AcDbSavedByObjectVersion
1070
     0
1000
AcDbSavedByObjectVersion
1070
     0
1000
AcDbSavedByObjectVersion
1070
     0
1000
AcDbSavedByObjectVersion
1070
     0
1000
AcDbSavedByObjectVersion
1070
     0
1000
AcDbSavedByObjectVersion
1070
     0
1000
AcDbSavedByObjectVersion
1070
     0
1000
AcDbSavedByObjectVersion
1070
     0
1000
AcRTDxfName
1000
VISUALSTYLE
  0
ACAD_PROXY_OBJECT
  5
3D55
102
{ACAD_REACTORS
330
3D46
102
}
330
3D46
100
AcDbProxyObject
 90
      499
 91
      503
 95
  2555929
 70
     0
 93
      614
310
43119858D95C185D1D195C9B8010F409028333333333333E3BF0000000000000FB023FFFFFF0802405048070000C3008000000C80040542201C00030C014050640A01C00030C010500920280D4
 94
        0
1001
ACAD
1000
AcDbSavedByObjectVersion
1070
     0
1000
AcDbSavedByObjectVersion
1070
     0
1000
AcDbSavedByObjectVersion
1070
     0
1000
AcDbSavedByObjectVersion
1070
     0
1000
AcDbSavedByObjectVersion
1070
     0
1000
AcDbSavedByObjectVersion
1070
     0
1000
AcDbSavedByObjectVersion
1070
     0
1000
AcDbSavedByObjectVersion
1070
     0
1000
AcRTDxfName
1000
VISUALSTYLE
  0
ACAD_PROXY_OBJECT
  5
3D47
102
{ACAD_REACTORS
330
3D46
102
}
330
3D46
100
AcDbProxyObject
 90
      499
 91
      503
 95
  2555929
 70
     0
 93
      558
310
41519B185D00240901404333333333333E3BF0000000000000F9023FFFFFF0801029048070000C3008000000C80040542201C00030C014050640A01C00030C010500920286D4
 94
        0
1001
ACAD
1000
AcDbSavedByObjectVersion
1070
     0
1000
AcDbSavedByObjectVersion
1070
     0
1000
AcDbSavedByObjectVersion
1070
     0
1000
AcDbSavedByObjectVersion
1070
     0
1000
AcDbSavedByObjectVersion
1070
     0
1000
AcDbSavedByObjectVersion
1070
     0
1000
AcDbSavedByObjectVersion
1070
     0
1000
AcDbSavedByObjectVersion
1070
     0
1000
AcRTDxfName
1000
VISUALSTYLE
  0
ACAD_PROXY_OBJECT
  5
3D48
102
{ACAD_REACTORS
330
3D46
102
}
330
3D46
100
AcDbProxyObject
 90
      499
 91
      503
 95
  2555929
 70
     0
 93
      638
310
43919B185D15DA5D1A115919D95CC010140901404333333333333E3BF0000000000000F9023FFFFFF080102405048070000C3008000000C800405A000000320014050640A01C00030C010500920286D4
 94
        0
1001
ACAD
1000
AcDbSavedByObjectVersion
1070
     0
1000
AcDbSavedByObjectVersion
1070
     0
1000
AcDbSavedByObjectVersion
1070
     0
1000
AcDbSavedByObjectVersion
1070
     0
1000
AcDbSavedByObjectVersion
1070
     0
1000
AcDbSavedByObjectVersion
1070
     0
1000
AcDbSavedByObjectVersion
1070
     0
1000
AcDbSavedByObjectVersion
1070
     0
1000
AcRTDxfName
1000
VISUALSTYLE
  0
ACAD_PROXY_OBJECT
  5
3D49
102
{ACAD_REACTORS
330
3D46
102
}
330
3D46
100
AcDbProxyObject
 90
      499
 91
      503
 95
  2555929
 70
     0
 93
      582
310
4211DBDD5C985D590010240902404333333333333E3BF0000000000000F9023FFFFFF0801029048070000C3008000000C800405A01C00030C014050640A01C00030C010500920286D4
 94
        0
1001
ACAD
1000
AcDbSavedByObjectVersion
1070
     0
1000
AcDbSavedByObjectVersion
1070
     0
1000
AcDbSavedByObjectVersion
1070
     0
1000
AcDbSavedByObjectVersion
1070
     0
1000
AcDbSavedByObjectVersion
1070
     0
1000
AcDbSavedByObjectVersion
1070
     0
1000
AcDbSavedByObjectVersion
1070
     0
1000
AcDbSavedByObjectVersion
1070
     0
1000
AcRTDxfName
1000
VISUALSTYLE
  0
ACAD_PROXY_OBJECT
  5
3D4A
102
{ACAD_REACTORS
330
3D46
102
}
330
3D46
100
AcDbProxyObject
 90
      499
 91
      503
 95
  2555929
 70
     0
 93
      662
310
4451DBDD5C985D5915DA5D1A115919D95CC010340902404333333333333E3BF0000000000000F9023FFFFFF080102405048070000C3008000000C800405A000000320014050640A01C00030C010500920286D4
 94
        0
1001
ACAD
1000
AcDbSavedByObjectVersion
1070
     0
1000
AcDbSavedByObjectVersion
1070
     0
1000
AcDbSavedByObjectVersion
1070
     0
1000
AcDbSavedByObjectVersion
1070
     0
1000
AcDbSavedByObjectVersion
1070
     0
1000
AcDbSavedByObjectVersion
1070
     0
1000
AcDbSavedByObjectVersion
1070
     0
1000
AcDbSavedByObjectVersion
1070
     0
1000
AcRTDxfName
1000
VISUALSTYLE
  0
ACAD_PROXY_OBJECT
  5
3D54
102
{ACAD_REACTORS
330
3D46
102
}
330
3D46
100
AcDbProxyObject
 90
      499
 91
      503
 95
  2555929
 70
     0
 93
      614
310
43131A5B995C185D1D195C9B8010E409028333333333333E3BF0000000000000FB023FFFFFF0802405048070000C3008000000C80041D42201C00030C014050640A01C00030C010500920E80D5
 94
        0
1001
ACAD
1000
AcDbSavedByObjectVersion
1070
     0
1000
AcDbSavedByObjectVersion
1070
     0
1000
AcDbSavedByObjectVersion
1070
     0
1000
AcDbSavedByObjectVersion
1070
     0
1000
AcDbSavedByObjectVersion
1070
     0
1000
AcDbSavedByObjectVersion
1070
     0
1000
AcDbSavedByObjectVersion
1070
     0
1000
AcDbSavedByObjectVersion
1070
     0
1000
AcRTDxfName
1000
VISUALSTYLE
  0
ACAD_PROXY_OBJECT
  5
3D50
102
{ACAD_REACTORS
330
3D46
102
}
330
3D46
100
AcDbProxyObject
 90
      499
 91
      503
 95
  2555929
 70
     0
 93
      590
310
429499585B1A5CDD1A58C0108409028333333333333E3BF0000000000000FB023FFFFFF08024068070000C3008000000C8004054221E1E1E308014050640A01C00030C010500920286D0
 94
        0
1001
ACAD
1000
AcDbSavedByObjectVersion
1070
     0
1000
AcDbSavedByObjectVersion
1070
     0
1000
AcDbSavedByObjectVersion
1070
     0
1000
AcDbSavedByObjectVersion
1070
     0
1000
AcDbSavedByObjectVersion
1070
     0
1000
AcDbSavedByObjectVersion
1070
     0
1000
AcDbSavedByObjectVersion
1070
     0
1000
AcDbSavedByObjectVersion
1070
     0
1000
AcRTDxfName
1000
VISUALSTYLE
  0
ACAD_PROXY_OBJECT
  5
3D53
102
{ACAD_REACTORS
330
3D46
102
}
330
3D46
100
AcDbProxyObject
 90
      499
 91
      503
 95
  2555929
 70
     0
 93
      582
310
42151A1A58DAD95B8010D409028333333333333E3BF0000000000000FB023FFFFFF0802405048070000C3008000000C80040543201C00030C014050640A01C00030C010500920280D4
 94
        0
1001
ACAD
1000
AcDbSavedByObjectVersion
1070
     0
1000
AcDbSavedByObjectVersion
1070
     0
1000
AcDbSavedByObjectVersion
1070
     0
1000
AcDbSavedByObjectVersion
1070
     0
1000
AcDbSavedByObjectVersion
1070
     0
1000
AcDbSavedByObjectVersion
1070
     0
1000
AcDbSavedByObjectVersion
1070
     0
1000
AcDbSavedByObjectVersion
1070
     0
1000
AcRTDxfName
1000
VISUALSTYLE
  0
DICTIONARYVAR
  5
4117
102
{ACAD_REACTORS
330
4116
102
}
330
4116
100
DictionaryVariables
280
     0
  1
STANDARD
  0
DICTIONARYVAR
  5
4772
102
{ACAD_REACTORS
330
4116
102
}
330
4116
100
DictionaryVariables
280
     0
  1
1
  0
DICTIONARYVAR
  5
4773
102
{ACAD_REACTORS
330
4116
102
}
330
4116
100
DictionaryVariables
280
     0
  1

  0
DICTIONARY
  5
4777
330
3D5B
100
AcDbDictionary
280
     1
281
     1
  3
ACAD_XREC_ROUNDTRIP
360
4778
  0
DICTIONARY
  5
4779
330
3D5C
100
AcDbDictionary
280
     1
281
     1
  3
ACAD_XREC_ROUNDTRIP
360
477A
  0
DICTIONARY
  5
419D
330
3D44
100
AcDbDictionary
280
     1
281
     1
  3
ACAD_XREC_ROUNDTRIP
360
419E
  0
DICTIONARY
  5
419B
330
3D43
100
AcDbDictionary
280
     1
281
     1
  3
ACAD_XREC_ROUNDTRIP
360
419C
  0
DICTIONARY
  5
419F
330
3D45
100
AcDbDictionary
280
     1
281
     1
  3
ACAD_XREC_ROUNDTRIP
360
41A0
  0
DICTIONARY
  5
4551
330
3D59
100
AcDbDictionary
280
     1
281
     1
  3
ACAD_XREC_ROUNDTRIP
360
4552
  0
XRECORD
  5
4778
102
{ACAD_REACTORS
330
4777
102
}
330
4777
100
AcDbXrecord
280
     1
102
SHADEPLOT
 70
     0
102
SHADEPLOTRESLEVEL
 70
     2
102
SHADEPLOTCUSTOMDPI
 70
   300
  0
XRECORD
  5
477A
102
{ACAD_REACTORS
330
4779
102
}
330
4779
100
AcDbXrecord
280
     1
102
SHADEPLOT
 70
     0
102
SHADEPLOTRESLEVEL
 70
     2
102
SHADEPLOTCUSTOMDPI
 70
   300
  0
XRECORD
  5
419E
102
{ACAD_REACTORS
330
419D
102
}
330
419D
100
AcDbXrecord
280
     1
102
MATERIAL
148
0.0
149
0.0
149
0.0
 93
        0
 94
       63
282
     0
 72
     1
 77
     1
171
     1
175
     1
179
     1
273
     0
  0
XRECORD
  5
419C
102
{ACAD_REACTORS
330
419B
102
}
330
419B
100
AcDbXrecord
280
     1
102
MATERIAL
148
0.0
149
0.0
149
0.0
 93
        0
 94
       63
282
     0
 72
     1
 77
     1
171
     1
175
     1
179
     1
273
     0
  0
XRECORD
  5
41A0
102
{ACAD_REACTORS
330
419F
102
}
330
419F
100
AcDbXrecord
280
     1
102
MATERIAL
148
0.0
149
0.0
149
0.0
 93
        0
 94
       63
282
     0
 72
     1
 77
     1
171
     1
175
     1
179
     1
273
     0
  0
XRECORD
  5
4552
102
{ACAD_REACTORS
330
4551
102
}
330
4551
100
AcDbXrecord
280
     1
102
ACAD_ROUNDTRIP_PRE2007_TABLESTYLE
 90
      512
 91
        0
  1

 92
      512
 93
        0
  2

 94
      512
 95
        0
  3

  0
ENDSEC
  0
EOF
