  0
SECTION
  2
HEADER
  9
$ACADVER
  1
AC1015
  9
$ACADMAINTVER
 70
    20
  9
$DWGCODEPAGE
  3
ANSI_932
  9
$INSBASE
 10
0.0
 20
0.0
 30
0.0
  9
$EXTMIN
 10
514.2656548460085
 20
-124.7474792197448
 30
-0.0000000349181948
  9
$EXTMAX
 10
725.705540464638
 20
19.55665741144798
 30
0.0000000814935746
  9
$LIMMIN
 10
0.0
 20
0.0
  9
$LIMMAX
 10
12.0
 20
9.0
  9
$ORTHOMODE
 70
     1
  9
$REGENMODE
 70
     1
  9
$FILLMODE
 70
     1
  9
$QTEXTMODE
 70
     0
  9
$MIRRTEXT
 70
     1
  9
$LTSCALE
 40
0.5
  9
$ATTMODE
 70
     1
  9
$TEXTSIZE
 40
2.5
  9
$TRACEWID
 40
0.05
  9
$TEXTSTYLE
  7
CatalogDxf
  9
$CLAYER
  8
Z_OM_DIM
  9
$CELTYPE
  6
BYLAYER
  9
$CECOLOR
 62
   256
  9
$CELTSCALE
 40
1.0
  9
$DISPSILH
 70
     0
  9
$DIMSCALE
 40
1.0
  9
$DIMASZ
 40
2.5
  9
$DIMEXO
 40
0.625
  9
$DIMDLI
 40
3.75
  9
$DIMRND
 40
0.0
  9
$DIMDLE
 40
0.0
  9
$DIMEXE
 40
1.25
  9
$DIMTP
 40
0.0
  9
$DIMTM
 40
0.0
  9
$DIMTXT
 40
2.5
  9
$DIMCEN
 40
2.5
  9
$DIMTSZ
 40
0.0
  9
$DIMTOL
 70
     0
  9
$DIMLIM
 70
     0
  9
$DIMTIH
 70
     0
  9
$DIMTOH
 70
     0
  9
$DIMSE1
 70
     0
  9
$DIMSE2
 70
     0
  9
$DIMTAD
 70
     1
  9
$DIMZIN
 70
     8
  9
$DIMBLK
  1
OPEN30
  9
$DIMASO
 70
     1
  9
$DIMSHO
 70
     1
  9
$DIMPOST
  1

  9
$DIMAPOST
  1

  9
$DIMALT
 70
     0
  9
$DIMALTD
 70
     3
  9
$DIMALTF
 40
0.03937007874016
  9
$DIMLFAC
 40
1.0
  9
$DIMTOFL
 70
     1
  9
$DIMTVP
 40
0.0
  9
$DIMTIX
 70
     0
  9
$DIMSOXD
 70
     0
  9
$DIMSAH
 70
     0
  9
$DIMBLK1
  1

  9
$DIMBLK2
  1

  9
$DIMSTYLE
  2
CatalogDxf
  9
$DIMCLRD
 70
   256
  9
$DIMCLRE
 70
   256
  9
$DIMCLRT
 70
   256
  9
$DIMTFAC
 40
1.0
  9
$DIMGAP
 40
0.625
  9
$DIMJUST
 70
     0
  9
$DIMSD1
 70
     0
  9
$DIMSD2
 70
     0
  9
$DIMTOLJ
 70
     0
  9
$DIMTZIN
 70
     8
  9
$DIMALTZ
 70
     0
  9
$DIMALTTZ
 70
     0
  9
$DIMUPT
 70
     0
  9
$DIMDEC
 70
     1
  9
$DIMTDEC
 70
     1
  9
$DIMALTU
 70
     2
  9
$DIMALTTD
 70
     3
  9
$DIMTXSTY
  7
CatalogDxf
  9
$DIMAUNIT
 70
     0
  9
$DIMADEC
 70
     0
  9
$DIMALTRND
 40
0.0
  9
$DIMAZIN
 70
     0
  9
$DIMDSEP
 70
    46
  9
$DIMATFIT
 70
     3
  9
$DIMFRAC
 70
     0
  9
$DIMLDRBLK
  1
OPEN30
  9
$DIMLUNIT
 70
     2
  9
$DIMLWD
 70
    -1
  9
$DIMLWE
 70
    -1
  9
$DIMTMOVE
 70
     0
  9
$LUNITS
 70
     2
  9
$LUPREC
 70
     2
  9
$SKETCHINC
 40
0.1
  9
$FILLETRAD
 40
0.0
  9
$AUNITS
 70
     0
  9
$AUPREC
 70
     2
  9
$MENU
  1
acad
  9
$ELEVATION
 40
0.0
  9
$PELEVATION
 40
0.0
  9
$THICKNESS
 40
0.0
  9
$LIMCHECK
 70
     0
  9
$CHAMFERA
 40
0.0
  9
$CHAMFERB
 40
0.0
  9
$CHAMFERC
 40
0.0
  9
$CHAMFERD
 40
0.0
  9
$SKPOLY
 70
     0
  9
$TDCREATE
 40
2455090.761732894
  9
$TDUCREATE
 40
2455090.386732893
  9
$TDUPDATE
 40
2455678.570746447
  9
$TDUUPDATE
 40
2455678.195746447
  9
$TDINDWG
 40
0.5503607639
  9
$TDUSRTIMER
 40
0.5503560532
  9
$USRTIMER
 70
     1
  9
$ANGBASE
 50
0.0
  9
$ANGDIR
 70
     0
  9
$PDMODE
 70
     0
  9
$PDSIZE
 40
0.0
  9
$PLINEWID
 40
0.0
  9
$SPLFRAME
 70
     0
  9
$SPLINETYPE
 70
     6
  9
$SPLINESEGS
 70
     8
  9
$HANDSEED
  5
4925
  9
$SURFTAB1
 70
     6
  9
$SURFTAB2
 70
     6
  9
$SURFTYPE
 70
     6
  9
$SURFU
 70
     6
  9
$SURFV
 70
     6
  9
$UCSBASE
  2

  9
$UCSNAME
  2

  9
$UCSORG
 10
0.0
 20
0.0
 30
0.0
  9
$UCSXDIR
 10
1.0
 20
0.0
 30
0.0
  9
$UCSYDIR
 10
0.0
 20
1.0
 30
0.0
  9
$UCSORTHOREF
  2

  9
$UCSORTHOVIEW
 70
     1
  9
$UCSORGTOP
 10
0.0
 20
0.0
 30
0.0
  9
$UCSORGBOTTOM
 10
0.0
 20
0.0
 30
0.0
  9
$UCSORGLEFT
 10
0.0
 20
0.0
 30
0.0
  9
$UCSORGRIGHT
 10
0.0
 20
0.0
 30
0.0
  9
$UCSORGFRONT
 10
0.0
 20
0.0
 30
0.0
  9
$UCSORGBACK
 10
0.0
 20
0.0
 30
0.0
  9
$PUCSBASE
  2

  9
$PUCSNAME
  2

  9
$PUCSORG
 10
0.0
 20
0.0
 30
0.0
  9
$PUCSXDIR
 10
1.0
 20
0.0
 30
0.0
  9
$PUCSYDIR
 10
0.0
 20
1.0
 30
0.0
  9
$PUCSORTHOREF
  2

  9
$PUCSORTHOVIEW
 70
     0
  9
$PUCSORGTOP
 10
0.0
 20
0.0
 30
0.0
  9
$PUCSORGBOTTOM
 10
0.0
 20
0.0
 30
0.0
  9
$PUCSORGLEFT
 10
0.0
 20
0.0
 30
0.0
  9
$PUCSORGRIGHT
 10
0.0
 20
0.0
 30
0.0
  9
$PUCSORGFRONT
 10
0.0
 20
0.0
 30
0.0
  9
$PUCSORGBACK
 10
0.0
 20
0.0
 30
0.0
  9
$USERI1
 70
     0
  9
$USERI2
 70
     0
  9
$USERI3
 70
     0
  9
$USERI4
 70
     0
  9
$USERI5
 70
     0
  9
$USERR1
 40
0.0
  9
$USERR2
 40
0.0
  9
$USERR3
 40
0.0
  9
$USERR4
 40
0.0
  9
$USERR5
 40
0.0
  9
$WORLDVIEW
 70
     1
  9
$SHADEDGE
 70
     3
  9
$SHADEDIF
 70
    70
  9
$TILEMODE
 70
     1
  9
$MAXACTVP
 70
    16
  9
$PINSBASE
 10
0.0
 20
0.0
 30
0.0
  9
$PLIMCHECK
 70
     0
  9
$PEXTMIN
 10
1.000000000000000E+20
 20
1.000000000000000E+20
 30
1.000000000000000E+20
  9
$PEXTMAX
 10
-1.000000000000000E+20
 20
-1.000000000000000E+20
 30
-1.000000000000000E+20
  9
$PLIMMIN
 10
0.0
 20
0.0
  9
$PLIMMAX
 10
12.0
 20
9.0
  9
$UNITMODE
 70
     0
  9
$VISRETAIN
 70
     0
  9
$PLINEGEN
 70
     0
  9
$PSLTSCALE
 70
     1
  9
$TREEDEPTH
 70
  3020
  9
$CMLSTYLE
  2
STANDARD
  9
$CMLJUST
 70
     0
  9
$CMLSCALE
 40
1.0
  9
$PROXYGRAPHICS
 70
     1
  9
$MEASUREMENT
 70
     0
  9
$CELWEIGHT
370
    -1
  9
$ENDCAPS
280
     0
  9
$JOINSTYLE
280
     0
  9
$LWDISPLAY
290
     0
  9
$INSUNITS
 70
     0
  9
$HYPERLINKBASE
  1

  9
$STYLESHEET
  1
monochrome.ctb
  9
$XEDIT
290
     1
  9
$CEPSNTYPE
380
     0
  9
$PSTYLEMODE
290
     1
  9
$FINGERPRINTGUID
  2
{AFC0AA2D-B3CD-48CF-B830-EF9C44F122D3}
  9
$VERSIONGUID
  2
{16065D40-5133-4C37-9562-BA948D1CF9F3}
  9
$EXTNAMES
290
     1
  9
$PSVPSCALE
 40
0.0
  9
$OLESTARTUP
290
     0
  0
ENDSEC
  0
SECTION
  2
CLASSES
  0
CLASS
  1
ACDBDICTIONARYWDFLT
  2
AcDbDictionaryWithDefault
  3
ObjectDBX Classes
 90
        0
280
     0
281
     0
  0
CLASS
  1
DICTIONARYVAR
  2
AcDbDictionaryVar
  3
ObjectDBX Classes
 90
        0
280
     0
281
     0
  0
CLASS
  1
MATERIAL
  2
AcDbMaterial
  3
ObjectDBX Classes
 90
        0
280
     0
281
     0
  0
CLASS
  1
VISUALSTYLE
  2
AcDbVisualStyle
  3
ObjectDBX Classes
 90
     4095
280
     0
281
     0
  0
CLASS
  1
TABLESTYLE
  2
AcDbTableStyle
  3
ObjectDBX Classes
 90
     2047
280
     0
281
     0
  0
CLASS
  1
DIMASSOC
  2
AcDbDimAssoc
  3
"AcDbDimAssoc|Product Desc:     AcDim ARX App For Dimension|Company:          Autodesk, Inc.|WEB Address:      www.autodesk.com"
 90
    32768
280
     0
281
     0
  0
CLASS
  1
SORTENTSTABLE
  2
AcDbSortentsTable
  3
ObjectDBX Classes
 90
        0
280
     0
281
     0
  0
CLASS
  1
ACDBPLACEHOLDER
  2
AcDbPlaceHolder
  3
ObjectDBX Classes
 90
        0
280
     0
281
     0
  0
CLASS
  1
LAYOUT
  2
AcDbLayout
  3
ObjectDBX Classes
 90
        0
280
     0
281
     0
  0
ENDSEC
  0
SECTION
  2
TABLES
  0
TABLE
  2
VPORT
  5
8
102
{ACAD_XDICTIONARY
360
45F5
102
}
330
0
100
AcDbSymbolTable
 70
     2
  0
VPORT
  5
491E
330
8
100
AcDbSymbolTableRecord
100
AcDbViewportTableRecord
  2
*Active
 70
     0
 10
0.0
 20
0.0
 11
1.0
 21
1.0
 12
670.4944581230075
 22
-49.18583164485198
 13
0.0
 23
0.0
 14
1.0
 24
1.0
 15
0.0
 25
0.0
 16
0.0
 26
0.0
 36
1.0
 17
0.0
 27
0.0
 37
0.0
 40
178.9547257304637
 41
2.288973384030418
 42
50.0
 43
0.0
 44
0.0
 50
0.0
 51
0.0
 71
     0
 72
   100
 73
     1
 74
     1
 75
     0
 76
     0
 77
     0
 78
     0
281
     0
 65
     1
110
0.0
120
0.0
130
0.0
111
1.0
121
0.0
131
0.0
112
0.0
122
1.0
132
0.0
 79
     0
146
0.0
  0
ENDTAB
  0
TABLE
  2
LTYPE
  5
5
330
0
100
AcDbSymbolTable
 70
     3
  0
LTYPE
  5
11
330
5
100
AcDbSymbolTableRecord
100
AcDbLinetypeTableRecord
  2
BYBLOCK
 70
     0
  3

 72
    65
 73
     0
 40
0.0
  0
LTYPE
  5
12
330
5
100
AcDbSymbolTableRecord
100
AcDbLinetypeTableRecord
  2
BYLAYER
 70
     0
  3

 72
    65
 73
     0
 40
0.0
  0
LTYPE
  5
13
330
5
100
AcDbSymbolTableRecord
100
AcDbLinetypeTableRecord
  2
CONTINUOUS
 70
     0
  3
Solid line
 72
    65
 73
     0
 40
0.0
  0
LTYPE
  5
3DB3
330
5
100
AcDbSymbolTableRecord
100
AcDbLinetypeTableRecord
  2
CENTER2
 70
     0
  3
Center (.5x) ___ _ ___ _ ___ _ ___ _ ___ _ ___
 72
    65
 73
     4
 40
28.575
 49
19.05
 74
     0
 49
-3.174999999999998
 74
     0
 49
3.174999999999998
 74
     0
 49
-3.174999999999998
 74
     0
  0
LTYPE
  5
3DB4
330
5
100
AcDbSymbolTableRecord
100
AcDbLinetypeTableRecord
  2
HIDDEN2
 70
     0
  3
Hidden (.5x) _ _ _ _ _ _ _ _ _ _ _ _ _ _ _ _ _
 72
    65
 73
     2
 40
4.762499999999998
 49
3.174999999999998
 74
     0
 49
-1.587499999999999
 74
     0
  0
ENDTAB
  0
TABLE
  2
LAYER
  5
2
102
{ACAD_XDICTIONARY
360
3DBA
102
}
330
0
100
AcDbSymbolTable
 70
     4
  0
LAYER
  5
E
102
{ACAD_XDICTIONARY
360
45F7
102
}
330
2
100
AcDbSymbolTableRecord
100
AcDbLayerTableRecord
  2
0
 70
     0
 62
     7
  6
CONTINUOUS
370
    -3
390
3D41
  0
LAYER
  5
27
102
{ACAD_XDICTIONARY
360
45F9
102
}
330
2
100
AcDbSymbolTableRecord
100
AcDbLayerTableRecord
  2
Z_OM_DIM
 70
     0
 62
     4
  6
CONTINUOUS
370
    -3
390
3D41
  0
LAYER
  5
2B
102
{ACAD_XDICTIONARY
360
45FB
102
}
330
2
100
AcDbSymbolTableRecord
100
AcDbLayerTableRecord
  2
DEFPOINTS
 70
     0
 62
     7
  6
CONTINUOUS
290
     0
370
    -3
390
3D41
  0
LAYER
  5
3DB5
102
{ACAD_XDICTIONARY
360
45FF
102
}
330
2
100
AcDbSymbolTableRecord
100
AcDbLayerTableRecord
  2
additional
 70
     0
 62
    50
  6
CONTINUOUS
370
    -3
390
3D41
1001
AcAecLayerStandard
1000

1000

  0
ENDTAB
  0
TABLE
  2
STYLE
  5
3
330
0
100
AcDbSymbolTable
 70
     5
  0
STYLE
  5
F
330
3
100
AcDbSymbolTableRecord
100
AcDbTextStyleTableRecord
  2
STANDARD
 70
     0
 40
0.0
 41
1.08
 50
0.0
 71
     0
 42
3.0
  3
txt.shx
  4
bigfont.shx
  0
STYLE
  5
3DB6
330
3
100
AcDbSymbolTableRecord
100
AcDbTextStyleTableRecord
  2
CatalogDxf
 70
     0
 40
0.0
 41
1.0
 50
0.0
 71
     0
 42
2.5
  3
txt.shx
  4
bigfont.shx
  0
STYLE
  5
4196
330
3
100
AcDbSymbolTableRecord
100
AcDbTextStyleTableRecord
  2

 70
     1
 40
0.0
 41
1.0
 50
0.0
 71
     0
 42
3.0
  3
ltypeshp.shx
  4

  0
ENDTAB
  0
TABLE
  2
VIEW
  5
6
330
0
100
AcDbSymbolTable
 70
     0
  0
ENDTAB
  0
TABLE
  2
UCS
  5
7
330
0
100
AcDbSymbolTable
 70
     0
  0
ENDTAB
  0
TABLE
  2
APPID
  5
9
330
0
100
AcDbSymbolTable
 70
     8
  0
APPID
  5
10
330
9
100
AcDbSymbolTableRecord
100
AcDbRegAppTableRecord
  2
ACAD
 70
     0
  0
APPID
  5
3D5E
330
9
100
AcDbSymbolTableRecord
100
AcDbRegAppTableRecord
  2
ACAD_PSEXT
 70
     0
  0
APPID
  5
3DB9
330
9
100
AcDbSymbolTableRecord
100
AcDbRegAppTableRecord
  2
AcAecLayerStandard
 70
     0
  0
APPID
  5
41A3
330
9
100
AcDbSymbolTableRecord
100
AcDbRegAppTableRecord
  2
ACAD_DSTYLE_DIM_LINETYPE
 70
     0
  0
APPID
  5
41A4
330
9
100
AcDbSymbolTableRecord
100
AcDbRegAppTableRecord
  2
ACAD_DSTYLE_DIM_EXT1_LINETYPE
 70
     0
  0
APPID
  5
41A5
330
9
100
AcDbSymbolTableRecord
100
AcDbRegAppTableRecord
  2
ACAD_DSTYLE_DIM_EXT2_LINETYPE
 70
     0
  0
APPID
  5
4517
330
9
100
AcDbSymbolTableRecord
100
AcDbRegAppTableRecord
  2
ACAD_EXEMPT_FROM_CAD_STANDARDS
 70
     0
  0
APPID
  5
4607
330
9
100
AcDbSymbolTableRecord
100
AcDbRegAppTableRecord
  2
ACAD_DSTYLE_DIMTEXT_FILL
 70
     0
  0
ENDTAB
  0
TABLE
  2
DIMSTYLE
  5
A
330
0
100
AcDbSymbolTable
 70
     5
100
AcDbDimStyleTable
 71
     2
340
3DB8
340
30
  0
DIMSTYLE
105
30
330
A
100
AcDbSymbolTableRecord
100
AcDbDimStyleTableRecord
  2
STANDARD
 70
     0
 41
6.0
 42
1.0
 43
16.0
 44
3.0
 73
     0
 74
     0
 77
     1
 78
     8
140
4.4
141
10.0
147
1.6
172
     1
176
   256
177
   256
178
   256
340
F
341
977
342
977
  0
DIMSTYLE
105
3DB8
102
{ACAD_REACTORS
330
4313
330
4536
330
4543
330
4552
330
455F
330
456C
330
4579
330
45A4
330
45BA
330
45C7
330
45D4
330
4731
102
}
330
A
100
AcDbSymbolTableRecord
100
AcDbDimStyleTableRecord
  2
CatalogDxf
 70
     0
 41
2.5
 42
0.625
 43
3.75
 44
1.25
 73
     0
 74
     0
 77
     1
 78
     8
140
2.5
141
2.5
143
0.03937007874016
147
0.625
171
     3
172
     1
176
   256
177
   256
178
   256
271
     1
272
     1
274
     3
283
     0
284
     8
340
3DB6
341
977
342
977
371
    -1
372
    -1
1001
ACAD_DSTYLE_DIM_LINETYPE
1070
   380
1005
12
1001
ACAD_DSTYLE_DIM_EXT1_LINETYPE
1070
   381
1005
12
1001
ACAD_DSTYLE_DIM_EXT2_LINETYPE
1070
   382
1005
12
  0
DIMSTYLE
105
4346
330
A
100
AcDbSymbolTableRecord
100
AcDbDimStyleTableRecord
  2
ISO-25
 70
     0
 41
2.5
 42
0.625
 43
3.75
 44
1.25
 73
     0
 74
     0
 77
     1
 78
     8
140
2.5
141
2.5
143
0.03937007874016
147
0.625
171
     3
172
     1
271
     2
272
     2
274
     3
278
    44
283
     0
284
     8
340
F
  0
ENDTAB
  0
TABLE
  2
BLOCK_RECORD
  5
1
330
0
100
AcDbSymbolTable
 70
    17
  0
BLOCK_RECORD
  5
17
102
{ACAD_XDICTIONARY
360
1808
102
}
330
1
100
AcDbSymbolTableRecord
100
AcDbBlockTableRecord
  2
*MODEL_SPACE
340
3D5B
  0
BLOCK_RECORD
  5
14
102
{ACAD_XDICTIONARY
360
1806
102
}
330
1
100
AcDbSymbolTableRecord
100
AcDbBlockTableRecord
  2
*PAPER_SPACE
340
3D5C
  0
BLOCK_RECORD
  5
977
330
1
100
AcDbSymbolTableRecord
100
AcDbBlockTableRecord
  2
_OPEN30
340
0
102
{BLKREFS
331
465B
331
465C
331
4664
331
4665
331
46EE
331
46EF
331
4720
331
4721
331
4754
331
4755
331
4774
331
4775
331
4787
331
4788
331
47E5
331
47E6
331
485A
331
485B
331
489E
331
489F
331
48B1
331
48B2
331
48C6
331
48C7
102
}
  0
BLOCK_RECORD
  5
4314
330
1
100
AcDbSymbolTableRecord
100
AcDbBlockTableRecord
  2
*D1
340
0
  0
BLOCK_RECORD
  5
433E
102
{ACAD_XDICTIONARY
360
433F
102
}
330
1
100
AcDbSymbolTableRecord
100
AcDbBlockTableRecord
  2
A$C70101BA6
340
0
102
{BLKREFS
331
43DF
331
4515
102
}
  0
BLOCK_RECORD
  5
4347
330
1
100
AcDbSymbolTableRecord
100
AcDbBlockTableRecord
  2
A$C7254680F
340
0
1001
ACAD
1000
DesignCenter Data
1002
{
1070
     1
1070
     4
1002
}
  0
BLOCK_RECORD
  5
4537
330
1
100
AcDbSymbolTableRecord
100
AcDbBlockTableRecord
  2
*D4
340
0
  0
BLOCK_RECORD
  5
4544
330
1
100
AcDbSymbolTableRecord
100
AcDbBlockTableRecord
  2
*D5
340
0
  0
BLOCK_RECORD
  5
4553
330
1
100
AcDbSymbolTableRecord
100
AcDbBlockTableRecord
  2
*D6
340
0
  0
BLOCK_RECORD
  5
4560
330
1
100
AcDbSymbolTableRecord
100
AcDbBlockTableRecord
  2
*D7
340
0
  0
BLOCK_RECORD
  5
456D
330
1
100
AcDbSymbolTableRecord
100
AcDbBlockTableRecord
  2
*D8
340
0
  0
BLOCK_RECORD
  5
457A
330
1
100
AcDbSymbolTableRecord
100
AcDbBlockTableRecord
  2
*D9
340
0
  0
BLOCK_RECORD
  5
45A5
330
1
100
AcDbSymbolTableRecord
100
AcDbBlockTableRecord
  2
*D10
340
0
  0
BLOCK_RECORD
  5
45BB
330
1
100
AcDbSymbolTableRecord
100
AcDbBlockTableRecord
  2
*D11
340
0
  0
BLOCK_RECORD
  5
45C8
330
1
100
AcDbSymbolTableRecord
100
AcDbBlockTableRecord
  2
*D12
340
0
  0
BLOCK_RECORD
  5
45D5
330
1
100
AcDbSymbolTableRecord
100
AcDbBlockTableRecord
  2
*D13
340
0
  0
BLOCK_RECORD
  5
4732
330
1
100
AcDbSymbolTableRecord
100
AcDbBlockTableRecord
  2
*D14
340
0
  0
ENDTAB
  0
ENDSEC
  0
SECTION
  2
BLOCKS
  0
BLOCK
  5
2E
330
17
100
AcDbEntity
  8
0
100
AcDbBlockBegin
  2
*MODEL_SPACE
 70
     0
 10
0.0
 20
0.0
 30
0.0
  3
*MODEL_SPACE
  1

  0
ENDBLK
  5
2F
330
17
100
AcDbEntity
  8
0
100
AcDbBlockEnd
  0
BLOCK
  5
2C
330
14
100
AcDbEntity
 67
     1
  8
0
100
AcDbBlockBegin
  2
*PAPER_SPACE
 70
     0
 10
0.0
 20
0.0
 30
0.0
  3
*PAPER_SPACE
  1

  0
ENDBLK
  5
2D
330
14
100
AcDbEntity
 67
     1
  8
0
100
AcDbBlockEnd
  0
BLOCK
  5
97B
330
977
100
AcDbEntity
  8
0
100
AcDbBlockBegin
  2
_OPEN30
 70
     0
 10
0.0
 20
0.0
 30
0.0
  3
_OPEN30
  1

  0
LINE
  5
978
330
977
100
AcDbEntity
  8
0
  6
ByBlock
 62
     0
100
AcDbLine
 10
-1.0
 20
0.26794919
 30
0.0
 11
0.0
 21
0.0
 31
0.0
  0
LINE
  5
979
330
977
100
AcDbEntity
  8
0
  6
ByBlock
 62
     0
100
AcDbLine
 10
0.0
 20
0.0
 30
0.0
 11
-1.0
 21
-0.26794919
 31
0.0
  0
LINE
  5
97A
330
977
100
AcDbEntity
  8
0
  6
ByBlock
 62
     0
100
AcDbLine
 10
0.0
 20
0.0
 30
0.0
 11
-1.0
 21
0.0
 31
0.0
  0
ENDBLK
  5
97C
330
977
100
AcDbEntity
  8
0
100
AcDbBlockEnd
  0
BLOCK
  5
431E
330
4314
100
AcDbEntity
  8
0
100
AcDbBlockBegin
  2
*D1
 70
     1
 10
0.0
 20
0.0
 30
0.0
  3
*D1
  1

  0
LINE
  5
4658
330
4314
100
AcDbEntity
  8
Z_OM_DIM
100
AcDbLine
 10
661.2457345521302
 20
-14.23508366609661
 30
0.0
 11
661.2457345521302
 21
-28.46133347010536
 31
0.0
  0
LINE
  5
4659
330
4314
100
AcDbEntity
  8
Z_OM_DIM
100
AcDbLine
 10
692.660338051444
 20
-2.485083666096613
 30
0.0
 11
692.660338051444
 21
-28.46133347010536
 31
0.0
  0
LINE
  5
465A
330
4314
100
AcDbEntity
  8
Z_OM_DIM
100
AcDbLine
 10
663.7457345521302
 20
-27.21133347010536
 30
0.0
 11
690.160338051444
 21
-27.21133347010536
 31
0.0
  0
INSERT
  5
465B
330
4314
100
AcDbEntity
  8
Z_OM_DIM
100
AcDbBlockReference
  2
_OPEN30
 10
661.2457345521302
 20
-27.21133347010536
 30
0.0
 41
2.5
 42
2.5
 43
2.5
 50
180.0
  0
INSERT
  5
465C
330
4314
100
AcDbEntity
  8
Z_OM_DIM
100
AcDbBlockReference
  2
_OPEN30
 10
692.660338051444
 20
-27.21133347010536
 30
0.0
 41
2.5
 42
2.5
 43
2.5
  0
MTEXT
  5
465D
330
4314
100
AcDbEntity
  8
Z_OM_DIM
100
AcDbMText
 10
676.953036301787
 20
-25.33633347010536
 30
0.0
 40
2.5
 41
0.0
 71
     5
 72
     1
  1
180 - 200
  7
CatalogDxf
 73
     1
 44
1.0
1001
ACAD
1000
MTEXTBEGIN
1070
    73
1070
     1
1070
    44
1040
1.0
1070
    74
1070
     0
1000
MTEXTEND
  0
POINT
  5
465E
330
4314
100
AcDbEntity
  8
DEFPOINTS
 62
     0
100
AcDbPoint
 10
661.2457345521302
 20
-13.61008366609661
 30
0.0
  0
POINT
  5
465F
330
4314
100
AcDbEntity
  8
DEFPOINTS
 62
     0
100
AcDbPoint
 10
692.660338051444
 20
-1.860083666096613
 30
0.0
  0
POINT
  5
4660
330
4314
100
AcDbEntity
  8
DEFPOINTS
 62
     0
100
AcDbPoint
 10
692.660338051444
 20
-27.21133347010536
 30
0.0
  0
ENDBLK
  5
431F
330
4314
100
AcDbEntity
  8
0
100
AcDbBlockEnd
  0
BLOCK
  5
4341
330
433E
100
AcDbEntity
  8
0
 62
     0
370
    -3
100
AcDbBlockBegin
  2
A$C70101BA6
 70
     0
 10
0.0
 20
0.0
 30
0.0
  3
A$C70101BA6
  1

  0
LINE
  5
4342
330
433E
100
AcDbEntity
  8
0
 62
     0
 48
0.5
370
    -3
100
AcDbLine
 10
-23.69999999999982
 20
0.0
 30
0.0
 11
-8.0
 21
2.999999999937102
 31
0.0
  0
LINE
  5
4343
330
433E
100
AcDbEntity
  8
0
 62
     0
 48
0.5
370
    -3
100
AcDbLine
 10
23.69999999999982
 20
0.0
 30
0.0
 11
8.0
 21
2.999999999937102
 31
0.0
  0
LINE
  5
4344
330
433E
100
AcDbEntity
  8
0
 62
     0
 48
0.5
370
    -3
100
AcDbLine
 10
-8.0
 20
2.999999999937102
 30
0.0
 11
8.0
 21
2.999999999937102
 31
0.0
  0
ENDBLK
  5
4345
330
433E
100
AcDbEntity
  8
0
 62
     0
370
    -3
100
AcDbBlockEnd
  0
BLOCK
  5
43E0
330
4347
100
AcDbEntity
  8
0
100
AcDbBlockBegin
  2
A$C7254680F
 70
     0
 10
0.0
 20
0.0
 30
0.0
  3
A$C7254680F
  1

  0
LINE
  5
4348
330
4347
100
AcDbEntity
  8
0
 48
0.5
100
AcDbLine
 10
148.6405004574618
 20
30.61348752015459
 30
0.0
 11
235.8048645423886
 21
30.61348752015465
 31
0.0
  0
LINE
  5
4349
330
4347
100
AcDbEntity
  8
0
 48
0.5
100
AcDbLine
 10
180.6538134942569
 20
156.3223923935418
 30
0.0
 11
180.6538134942569
 21
206.3223923935418
 31
0.0
  0
LINE
  5
434A
330
4347
100
AcDbEntity
  8
0
 48
0.5
100
AcDbLine
 10
223.2538134942569
 20
156.3223923935418
 30
0.0
 11
223.2538134942569
 21
206.3223923935418
 31
0.0
  0
LINE
  5
434B
330
4347
100
AcDbEntity
  8
0
 48
0.5
100
AcDbLine
 10
175.4538134942569
 20
206.3223923935418
 30
0.0
 11
175.4538134942569
 21
156.3223923935418
 31
0.0
  0
LINE
  5
434C
330
4347
100
AcDbEntity
  8
0
 48
0.5
100
AcDbLine
 10
172.2538134942571
 20
206.3223923935418
 30
0.0
 11
172.2538134942571
 21
156.3223923935418
 31
0.0
  0
LINE
  5
434D
330
4347
100
AcDbEntity
  8
0
 48
0.5
100
AcDbLine
 10
225.2538134942569
 20
206.3223923935418
 30
0.0
 11
225.2538134942569
 21
183.3223923935418
 31
0.0
  0
LINE
  5
434E
330
4347
100
AcDbEntity
  8
0
 48
0.5
100
AcDbLine
 10
225.2538134942569
 20
179.3223923935418
 30
0.0
 11
225.2538134942569
 21
156.3223923935418
 31
0.0
  0
LINE
  5
434F
330
4347
100
AcDbEntity
  8
0
 48
0.5
100
AcDbLine
 10
178.6538134942569
 20
156.3223923935418
 30
0.0
 11
178.6538134942569
 21
206.3223923935418
 31
0.0
  0
LINE
  5
4350
330
4347
100
AcDbEntity
  8
0
 48
0.5
100
AcDbLine
 10
178.6538134942569
 20
206.3223923935418
 30
0.0
 11
178.6538134942569
 21
156.3223923935418
 31
0.0
  0
LINE
  5
4351
330
4347
100
AcDbEntity
  8
0
 48
0.5
100
AcDbLine
 10
229.2538134942568
 20
206.3223923935419
 30
0.0
 11
229.253813494257
 21
183.3223923935418
 31
0.0
  0
LINE
  5
4352
330
4347
100
AcDbEntity
  8
0
 48
0.5
100
AcDbLine
 10
229.2538134942569
 20
179.3223923935418
 30
0.0
 11
229.2538134942569
 21
156.3223923935418
 31
0.0
  0
LINE
  5
4353
330
4347
100
AcDbEntity
  8
0
 48
0.5
100
AcDbLine
 10
169.6538134942569
 20
197.3223923935418
 30
0.0
 11
172.2538134942571
 21
197.3223923935418
 31
0.0
  0
LINE
  5
4354
330
4347
100
AcDbEntity
  8
0
 48
0.5
100
AcDbLine
 10
172.2538134942571
 20
165.3223923935418
 30
0.0
 11
169.6538134942569
 21
165.3223923935418
 31
0.0
  0
LINE
  5
4355
330
4347
100
AcDbEntity
  8
0
 48
0.5
100
AcDbLine
 10
170.6538134942569
 20
156.3223923935418
 30
0.0
 11
225.2538134942569
 21
156.3223923935418
 31
0.0
  0
LINE
  5
4356
330
4347
100
AcDbEntity
  8
0
 48
0.5
100
AcDbLine
 10
225.2538134942569
 20
152.3223923935418
 30
0.0
 11
170.6538134942569
 21
152.3223923935418
 31
0.0
  0
ARC
  5
4357
330
4347
100
AcDbEntity
  8
0
 48
0.5
100
AcDbCircle
 10
225.2538134942569
 20
156.3223923935418
 30
0.0
 40
4.0
100
AcDbArc
 50
270.0
 51
0.0
  0
LINE
  5
4358
330
4347
100
AcDbEntity
  8
0
 48
0.5
100
AcDbLine
 10
180.6538134942569
 20
157.3223923935418
 30
0.0
 11
223.2538134942569
 21
157.3223923935418
 31
0.0
  0
LINE
  5
4359
330
4347
100
AcDbEntity
  8
0
 48
0.5
100
AcDbLine
 10
170.6538134942569
 20
156.3223923935418
 30
0.0
 11
170.6538134942569
 21
152.3223923935418
 31
0.0
  0
LINE
  5
435A
330
4347
100
AcDbEntity
  8
0
 48
0.5
100
AcDbLine
 10
171.2538134942571
 20
165.3223923935418
 30
0.0
 11
171.2538134942571
 21
197.3223923935418
 31
0.0
  0
LINE
  5
435B
330
4347
100
AcDbEntity
  8
0
 48
0.5
100
AcDbLine
 10
169.6538134942569
 20
197.3223923935418
 30
0.0
 11
169.6538134942569
 21
165.3223923935418
 31
0.0
  0
LINE
  5
435C
330
4347
100
AcDbEntity
  8
0
 48
0.5
100
AcDbLine
 10
168.6538134942569
 20
178.7223923935418
 30
0.0
 11
154.6538134942569
 21
178.7223923935418
 31
0.0
  0
LINE
  5
435D
330
4347
100
AcDbEntity
  8
0
 48
0.5
100
AcDbLine
 10
168.6538134942569
 20
183.9223923935418
 30
0.0
 11
154.6538134942569
 21
183.9223923935418
 31
0.0
  0
LINE
  5
435E
330
4347
100
AcDbEntity
  8
0
 48
0.5
100
AcDbLine
 10
168.6538134942569
 20
178.7223923935418
 30
0.0
 11
168.6538134942569
 21
183.9223923935418
 31
0.0
  0
LINE
  5
435F
330
4347
100
AcDbEntity
  8
0
 48
0.5
100
AcDbLine
 10
170.6538134942569
 20
206.3223923935418
 30
0.0
 11
225.2538134942569
 21
206.3223923935418
 31
0.0
  0
LINE
  5
4360
330
4347
100
AcDbEntity
  8
0
 48
0.5
100
AcDbLine
 10
225.2538134942569
 20
210.3223923935419
 30
0.0
 11
170.6538134942569
 21
210.3223923935418
 31
0.0
  0
LINE
  5
4361
330
4347
100
AcDbEntity
  8
0
 48
0.5
100
AcDbLine
 10
180.6538134942569
 20
205.3223923935418
 30
0.0
 11
223.2538134942569
 21
205.3223923935418
 31
0.0
  0
ARC
  5
4362
330
4347
100
AcDbEntity
  8
0
 48
0.5
100
AcDbCircle
 10
225.2538134942569
 20
206.3223923935419
 30
0.0
 40
4.0
100
AcDbArc
 50
0.0
 51
90.0
  0
LINE
  5
4363
330
4347
100
AcDbEntity
  8
0
 48
0.5
100
AcDbLine
 10
170.6538134942569
 20
210.3223923935418
 30
0.0
 11
170.6538134942569
 21
206.3223923935418
 31
0.0
  0
LINE
  5
4364
330
4347
100
AcDbEntity
  8
0
 48
0.5
100
AcDbLine
 10
171.2538134942572
 20
20.61348752015459
 30
0.0
 11
171.2538134942567
 21
40.61348752015454
 31
0.0
  0
LINE
  5
4365
330
4347
100
AcDbEntity
  8
0
 48
0.5
100
AcDbLine
 10
169.6538134942568
 20
14.61348752015459
 30
0.0
 11
169.6538134942568
 21
46.61348752015459
 31
0.0
  0
LINE
  5
4366
330
4347
100
AcDbEntity
  8
0
 48
0.5
100
AcDbLine
 10
172.2538134942569
 20
40.61348752015459
 30
0.0
 11
172.2538134942569
 21
20.61348752015459
 31
0.0
  0
LINE
  5
4367
330
4347
100
AcDbEntity
  8
0
 48
0.5
100
AcDbLine
 10
175.4538134942568
 20
40.61348752015459
 30
0.0
 11
175.4538134942568
 21
20.61348752015459
 31
0.0
  0
LINE
  5
4368
330
4347
100
AcDbEntity
  8
0
 48
0.5
100
AcDbLine
 10
178.6538134942568
 20
20.61348752015459
 30
0.0
 11
178.6538134942568
 21
40.61348752015459
 31
0.0
  0
LINE
  5
4369
330
4347
100
AcDbEntity
  8
0
 48
0.5
100
AcDbLine
 10
170.6538134942568
 20
6.613487520154592
 30
0.0
 11
229.2538134942567
 21
6.613487520154592
 31
0.0
  0
CIRCLE
  5
436A
330
4347
100
AcDbEntity
  8
0
 48
0.5
100
AcDbCircle
 10
213.2538134942568
 20
11.21348752015461
 30
0.0
 40
2.299999999999999
  0
CIRCLE
  5
436B
330
4347
100
AcDbEntity
  8
0
 48
0.5
100
AcDbCircle
 10
213.2538134942568
 20
11.21348752015461
 30
0.0
 40
3.0
  0
CIRCLE
  5
436C
330
4347
100
AcDbEntity
  8
0
 48
0.5
100
AcDbCircle
 10
187.2538134942567
 20
11.21348752015461
 30
0.0
 40
2.299999999999999
  0
CIRCLE
  5
436D
330
4347
100
AcDbEntity
  8
0
 48
0.5
100
AcDbCircle
 10
187.2538134942567
 20
11.21348752015461
 30
0.0
 40
3.0
  0
LINE
  5
436E
330
4347
100
AcDbEntity
  8
0
 48
0.5
100
AcDbLine
 10
170.6538134942568
 20
20.61348752015459
 30
0.0
 11
178.6538134942568
 21
20.61348752015459
 31
0.0
  0
LINE
  5
436F
330
4347
100
AcDbEntity
  8
0
 48
0.5
100
AcDbLine
 10
170.6538134942568
 20
16.61348752015459
 30
0.0
 11
170.6538134942568
 21
6.613487520154592
 31
0.0
  0
LINE
  5
4370
330
4347
100
AcDbEntity
  8
0
 48
0.5
100
AcDbLine
 10
169.6538134942568
 20
14.61348752015459
 30
0.0
 11
170.6538134942568
 21
14.61348752015459
 31
0.0
  0
LINE
  5
4371
330
4347
100
AcDbEntity
  8
0
 48
0.5
100
AcDbLine
 10
170.6538134942568
 20
54.61348752015459
 30
0.0
 11
229.2538134942567
 21
54.61348752015459
 31
0.0
  0
CIRCLE
  5
4372
330
4347
100
AcDbEntity
  8
0
 48
0.5
100
AcDbCircle
 10
213.2538134942568
 20
50.01348752015457
 30
0.0
 40
2.299999999999999
  0
CIRCLE
  5
4373
330
4347
100
AcDbEntity
  8
0
 48
0.5
100
AcDbCircle
 10
213.2538134942568
 20
50.01348752015457
 30
0.0
 40
3.0
  0
LINE
  5
4374
330
4347
100
AcDbEntity
  8
0
 48
0.5
100
AcDbLine
 10
223.2538134942552
 20
57.61348752010775
 30
0.0
 11
223.2538134942568
 21
54.61348752015459
 31
0.0
  0
CIRCLE
  5
4375
330
4347
100
AcDbEntity
  8
0
 48
0.5
100
AcDbCircle
 10
187.2538134942567
 20
50.01348752015457
 30
0.0
 40
2.299999999999999
  0
CIRCLE
  5
4376
330
4347
100
AcDbEntity
  8
0
 48
0.5
100
AcDbCircle
 10
187.2538134942567
 20
50.01348752015457
 30
0.0
 40
3.0
  0
LINE
  5
4377
330
4347
100
AcDbEntity
  8
0
 48
0.5
100
AcDbLine
 10
170.6538134942568
 20
40.61348752015454
 30
0.0
 11
178.6538134942568
 21
40.61348752015459
 31
0.0
  0
LINE
  5
4378
330
4347
100
AcDbEntity
  8
0
 48
0.5
100
AcDbLine
 10
180.6538134942568
 20
54.61348752015465
 30
0.0
 11
197.0656678708661
 21
57.61348752010775
 31
0.0
  0
LINE
  5
4379
330
4347
100
AcDbEntity
  8
0
 48
0.5
100
AcDbLine
 10
170.6538134942568
 20
16.61348752015459
 30
0.0
 11
170.6538134942569
 21
20.61348752015459
 31
0.0
  0
LINE
  5
437A
330
4347
100
AcDbEntity
  8
0
 48
0.5
100
AcDbLine
 10
170.6538134942569
 20
40.61348752015454
 30
0.0
 11
170.6538134942568
 21
54.61348752015459
 31
0.0
  0
CIRCLE
  5
437B
330
4347
100
AcDbEntity
  8
0
 48
0.5
100
AcDbCircle
 10
159.6538134942568
 20
30.61348752015459
 30
0.0
 40
2.0
  0
LINE
  5
437C
330
4347
100
AcDbEntity
  8
0
 48
0.5
100
AcDbLine
 10
37.27359488426419
 20
20.95740135649635
 30
0.0
 11
37.27359488426419
 21
40.26957368381312
 31
0.0
  0
LINE
  5
437D
330
4347
100
AcDbEntity
  8
0
 48
0.5
100
AcDbLine
 10
32.07359488426391
 20
20.95740135649533
 30
0.0
 11
32.07359488426391
 21
40.26957368381312
 31
0.0
  0
ARC
  5
437E
330
4347
100
AcDbEntity
  8
0
 48
0.5
100
AcDbCircle
 10
34.67359488426405
 20
30.61348752015448
 30
0.0
 40
11.5
100
AcDbArc
 50
125.4650237999068
 51
184.5349762000938
  0
ARC
  5
437F
330
4347
100
AcDbEntity
  8
0
 48
0.5
100
AcDbCircle
 10
34.67359488426405
 20
30.61348752015448
 30
0.0
 40
11.5
100
AcDbArc
 50
355.4650237999062
 51
54.53497620009319
  0
CIRCLE
  5
4380
330
4347
100
AcDbEntity
  8
0
 48
0.5
100
AcDbCircle
 10
34.67359488426405
 20
30.61348752015448
 30
0.0
 40
16.0
  0
CIRCLE
  5
4381
330
4347
100
AcDbEntity
  8
0
 48
0.5
100
AcDbCircle
 10
34.67359488426405
 20
30.61348752015448
 30
0.0
 40
10.0
  0
LINE
  5
4382
330
4347
100
AcDbEntity
  8
0
 48
0.5
100
AcDbLine
 10
63.67359488426405
 20
6.613487520154535
 30
0.0
 11
63.67359488426405
 21
54.61348752015453
 31
0.0
  0
LINE
  5
4383
330
4347
100
AcDbEntity
  8
0
 48
0.5
100
AcDbLine
 10
5.673594884264048
 20
54.61348752015453
 30
0.0
 11
5.673594884264048
 21
6.613487520154535
 31
0.0
  0
LINE
  5
4384
330
4347
100
AcDbEntity
  8
0
 48
0.5
100
AcDbLine
 10
63.67359488426405
 20
6.613487520154535
 30
0.0
 11
5.673594884264048
 21
6.613487520154535
 31
0.0
  0
LINE
  5
4385
330
4347
100
AcDbEntity
  8
0
 48
0.5
100
AcDbLine
 10
59.67359488426405
 20
20.61348752015454
 30
0.0
 11
63.67359488426405
 21
20.61348752015454
 31
0.0
  0
LINE
  5
4386
330
4347
100
AcDbEntity
  8
0
 48
0.5
100
AcDbLine
 10
59.67359488426405
 20
20.61348752015454
 30
0.0
 11
59.67359488426405
 21
6.613487520154535
 31
0.0
  0
ARC
  5
4387
330
4347
100
AcDbEntity
  8
0
 48
0.5
100
AcDbCircle
 10
40.76575652814017
 20
39.16542101527034
 30
0.0
 40
1.0
100
AcDbArc
 50
54.53497620009319
 51
149.9999999999965
  0
LINE
  5
4388
330
4347
100
AcDbEntity
  8
0
 48
0.5
100
AcDbLine
 10
39.67359488426405
 20
39.27374155799891
 30
0.0
 11
39.89973112435587
 21
39.66542101527034
 31
0.0
  0
ARC
  5
4389
330
4347
100
AcDbEntity
  8
0
 48
0.5
100
AcDbCircle
 10
28.58143324038792
 20
39.16542101527034
 30
0.0
 40
1.0
100
AcDbArc
 50
30.0000000000005
 51
125.4650237999068
  0
LINE
  5
438A
330
4347
100
AcDbEntity
  8
0
 48
0.5
100
AcDbLine
 10
29.67359488426405
 20
39.27374155799891
 30
0.0
 11
29.44745864417246
 21
39.66542101527034
 31
0.0
  0
LINE
  5
438B
330
4347
100
AcDbEntity
  8
0
 48
0.5
100
AcDbLine
 10
63.67359488426405
 20
54.61348752015453
 30
0.0
 11
5.673594884264048
 21
54.61348752015453
 31
0.0
  0
LINE
  5
438C
330
4347
100
AcDbEntity
  8
0
 48
0.5
100
AcDbLine
 10
41.74466269612958
 20
23.542419708289
 30
0.0
 11
45.25660012852244
 21
20.03048227589613
 31
0.0
  0
ARC
  5
438D
330
4347
100
AcDbEntity
  8
0
 48
0.5
100
AcDbCircle
 10
45.14072203701175
 20
29.78327720450471
 30
0.0
 40
1.0
100
AcDbArc
 50
260.0000000000014
 51
355.4650237999062
  0
LINE
  5
438E
330
4347
100
AcDbEntity
  8
0
 48
0.5
100
AcDbLine
 10
44.96707385934473
 20
28.79846945149251
 30
0.0
 11
44.5216724143861
 21
28.8770057434852
 31
0.0
  0
ARC
  5
438F
330
4347
100
AcDbEntity
  8
0
 48
0.5
100
AcDbCircle
 10
45.96370690970888
 20
20.73758905708269
 30
0.0
 40
1.0
100
AcDbArc
 50
225.0000000000006
 51
318.8225537292768
  0
LINE
  5
4390
330
4347
100
AcDbEntity
  8
0
 48
0.5
100
AcDbLine
 10
27.60252707239852
 20
23.542419708289
 30
0.0
 11
24.09058964000565
 21
20.03048227589613
 31
0.0
  0
ARC
  5
4391
330
4347
100
AcDbEntity
  8
0
 48
0.5
100
AcDbCircle
 10
24.20646773151634
 20
29.7832772045046
 30
0.0
 40
1.0
100
AcDbArc
 50
184.5349762000938
 51
280.0000000000052
  0
LINE
  5
4392
330
4347
100
AcDbEntity
  8
0
 48
0.5
100
AcDbLine
 10
24.825517354142
 20
28.8770057434852
 30
0.0
 11
24.38011590918336
 21
28.79846945149251
 31
0.0
  0
ARC
  5
4393
330
4347
100
AcDbEntity
  8
0
 48
0.5
100
AcDbCircle
 10
23.38348285881921
 20
20.73758905708269
 30
0.0
 40
1.0
100
AcDbArc
 50
221.1774462707229
 51
314.9999999999995
  0
LINE
  5
4394
330
4347
100
AcDbEntity
  8
0
 48
0.5
100
AcDbLine
 10
229.2538134942567
 20
6.613487520154592
 30
0.0
 11
229.2538134942567
 21
54.61348752015459
 31
0.0
  0
LINE
  5
4395
330
4347
100
AcDbEntity
  8
0
 48
0.5
100
AcDbLine
 10
169.6538134942568
 20
46.61348752015459
 30
0.0
 11
170.6538134942568
 21
46.61348752015459
 31
0.0
  0
LINE
  5
4396
330
4347
100
AcDbEntity
  8
0
 48
0.5
100
AcDbLine
 10
59.67359488426405
 20
40.61348752015454
 30
0.0
 11
63.67359488426405
 21
40.61348752015454
 31
0.0
  0
LINE
  5
4397
330
4347
100
AcDbEntity
  8
0
 48
0.5
100
AcDbLine
 10
59.67359488426405
 20
40.61348752015454
 30
0.0
 11
59.67359488426405
 21
54.61348752015453
 31
0.0
  0
LINE
  5
4398
330
4347
100
AcDbEntity
  8
0
 48
0.5
100
AcDbLine
 10
9.673594884264048
 20
20.61348752015454
 30
0.0
 11
5.673594884264048
 21
20.61348752015454
 31
0.0
  0
LINE
  5
4399
330
4347
100
AcDbEntity
  8
0
 48
0.5
100
AcDbLine
 10
9.673594884264048
 20
20.61348752015454
 30
0.0
 11
9.673594884264048
 21
6.613487520154535
 31
0.0
  0
LINE
  5
439A
330
4347
100
AcDbEntity
  8
0
 48
0.5
100
AcDbLine
 10
9.673594884264048
 20
40.61348752015454
 30
0.0
 11
9.673594884264048
 21
54.61348752015453
 31
0.0
  0
LINE
  5
439B
330
4347
100
AcDbEntity
  8
0
 48
0.5
100
AcDbLine
 10
9.673594884264048
 20
40.61348752015454
 30
0.0
 11
5.673594884264048
 21
40.61348752015454
 31
0.0
  0
LINE
  5
439C
330
4347
100
AcDbEntity
  8
0
 48
0.5
100
AcDbLine
 10
223.2538134942569
 20
181.3223923935418
 30
0.0
 11
255.1178899441819
 21
181.3223923935418
 31
0.0
  0
LINE
  5
439D
330
4347
100
AcDbEntity
  8
0
 48
0.5
100
AcDbLine
 10
223.2538134942569
 20
183.3223923935418
 30
0.0
 11
256.272590482561
 21
183.3223923935418
 31
0.0
  0
LINE
  5
439E
330
4347
100
AcDbEntity
  8
0
 48
0.5
100
AcDbLine
 10
223.2538134942569
 20
179.3223923935418
 30
0.0
 11
253.9631894058026
 21
179.3223923935418
 31
0.0
  0
LINE
  5
439F
330
4347
100
AcDbEntity
  8
0
 48
0.3
100
AcDbLine
 10
252.3229154273571
 20
176.481354524541
 30
0.0
 11
257.9116660331127
 21
186.161354524541
 31
0.0
  0
LINE
  5
43A0
330
4347
100
AcDbEntity
  8
0
100
AcDbLine
 10
229.2538134942569
 20
176.3223923935418
 30
0.0
 11
230.2538134942569
 21
176.3223923935418
 31
0.0
  0
LINE
  5
43A1
330
4347
100
AcDbEntity
  8
0
100
AcDbLine
 10
230.2538134942569
 20
176.3223923935418
 30
0.0
 11
230.253813494257
 21
179.3223923935418
 31
0.0
  0
LINE
  5
43A2
330
4347
100
AcDbEntity
  8
0
100
AcDbLine
 10
230.2538134942569
 20
183.3223923935418
 30
0.0
 11
230.2538134942569
 21
186.3223923935418
 31
0.0
  0
LINE
  5
43A3
330
4347
100
AcDbEntity
  8
0
100
AcDbLine
 10
230.2538134942569
 20
186.3223923935418
 30
0.0
 11
229.2538134942569
 21
186.3223923935418
 31
0.0
  0
LINE
  5
43A4
330
4347
100
AcDbEntity
  8
0
 48
0.5
100
AcDbLine
 10
255.6952402133613
 20
56.61348752012333
 30
0.0
 11
223.2538134942557
 21
56.61348752009212
 31
0.0
  0
LINE
  5
43A5
330
4347
100
AcDbEntity
  8
0
 48
0.5
100
AcDbLine
 10
254.5405396749841
 20
54.61348752012213
 30
0.0
 11
229.2538134942567
 21
54.61348752015459
 31
0.0
  0
LINE
  5
43A6
330
4347
100
AcDbEntity
  8
0
 48
0.3
100
AcDbLine
 10
252.8823897018838
 20
51.74148752013628
 30
0.0
 11
257.35339018648
 21
59.48548752014102
 31
0.0
  0
LINE
  5
43A7
330
4347
100
AcDbEntity
  8
0
 48
0.5
100
AcDbLine
 10
223.2538134942578
 20
57.61348752010775
 30
0.0
 11
197.065667870866
 21
57.61348752010775
 31
0.0
  0
LINE
  5
43A8
330
4347
100
AcDbEntity
  8
0
100
AcDbLine
 10
229.2538134942567
 20
25.61348752015465
 30
0.0
 11
230.2538134942567
 21
25.61348752015465
 31
0.0
  0
LINE
  5
43A9
330
4347
100
AcDbEntity
  8
0
100
AcDbLine
 10
230.2538134942567
 20
25.61348752015465
 30
0.0
 11
230.2538134942567
 21
35.61348752015465
 31
0.0
  0
LINE
  5
43AA
330
4347
100
AcDbEntity
  8
0
100
AcDbLine
 10
230.2538134942567
 20
35.61348752015465
 30
0.0
 11
229.2538134942567
 21
35.61348752015465
 31
0.0
  0
LINE
  5
43AB
330
4347
100
AcDbEntity
  8
0
 48
0.5
100
AcDbLine
 10
0.0000000036683332
 20
30.61348752015454
 30
0.0
 11
69.65603204717751
 21
30.61348752015454
 31
0.0
  0
LINE
  5
43AC
330
4347
100
AcDbEntity
  8
0
 48
0.5
100
AcDbLine
 10
34.67359488426394
 20
60.85141314494871
 30
0.0
 11
34.67359488426394
 21
-0.0000002082933861
 31
0.0
  0
LINE
  5
43AD
330
4347
100
AcDbEntity
  8
0
 48
0.5
100
AcDbLine
 10
159.6538134942568
 20
15.02161193688323
 30
0.0
 11
159.6538134942568
 21
46.1604053718193
 31
0.0
  0
LINE
  5
43AE
330
4347
100
AcDbEntity
  8
0
 48
0.5
100
AcDbLine
 10
181.692694257811
 20
11.21348752015461
 30
0.0
 11
218.829185052581
 21
11.21348752015461
 31
0.0
  0
LINE
  5
43AF
330
4347
100
AcDbEntity
  8
0
 48
0.5
100
AcDbLine
 10
187.2538134942567
 20
55.87262907901646
 30
0.0
 11
187.2538134942567
 21
5.370209859575595
 31
0.0
  0
LINE
  5
43B0
330
4347
100
AcDbEntity
  8
0
 48
0.5
100
AcDbLine
 10
181.6926942578109
 20
50.01348752015457
 30
0.0
 11
218.8291850525809
 21
50.01348752015457
 31
0.0
  0
LINE
  5
43B1
330
4347
100
AcDbEntity
  8
0
 48
0.5
100
AcDbLine
 10
213.2538134942566
 20
55.87262907901646
 30
0.0
 11
213.2538134942566
 21
5.370209859575595
 31
0.0
  0
LINE
  5
43B2
330
4347
100
AcDbEntity
  8
0
 48
0.5
100
AcDbLine
 10
148.640500457462
 20
181.3223923935418
 30
0.0
 11
235.8048645423888
 21
181.3223923935418
 31
0.0
  0
LINE
  5
43B3
330
4347
100
AcDbEntity
  8
0
 48
0.5
100
AcDbLine
 10
159.653813494257
 20
165.7305168102704
 30
0.0
 11
159.653813494257
 21
196.8693102452065
 31
0.0
  0
LINE
  5
43B4
330
4347
100
AcDbEntity
  8
0
 48
0.5
100
AcDbLine
 10
187.2538134942568
 20
214.5289871369211
 30
0.0
 11
187.2538134942568
 21
201.6325259661506
 31
0.0
  0
LINE
  5
43B5
330
4347
100
AcDbEntity
  8
0
 48
0.5
100
AcDbLine
 10
213.253813494257
 20
214.5289871369211
 30
0.0
 11
213.253813494257
 21
201.6325259661506
 31
0.0
  0
LINE
  5
43B6
330
4347
100
AcDbEntity
  8
0
 48
0.5
100
AcDbLine
 10
187.2538134942568
 20
148.1157976501624
 30
0.0
 11
187.2538134942568
 21
161.012258820933
 31
0.0
  0
LINE
  5
43B7
330
4347
100
AcDbEntity
  8
0
 48
0.5
100
AcDbLine
 10
213.253813494257
 20
148.1157976501624
 30
0.0
 11
213.253813494257
 21
161.012258820933
 31
0.0
  0
LINE
  5
43B8
330
4347
100
AcDbEntity
  8
0
 48
0.5
100
AcDbLine
 10
154.653813494257
 20
190.3123923935418
 30
0.0
 11
154.653813494257
 21
183.9223923935419
 31
0.0
  0
LINE
  5
43B9
330
4347
100
AcDbEntity
  8
0
 48
0.5
100
AcDbLine
 10
155.653813494257
 20
171.3323923935419
 30
0.0
 11
169.6538134942571
 21
171.3323923935419
 31
0.0
  0
LINE
  5
43BA
330
4347
100
AcDbEntity
  8
0
 48
0.5
100
AcDbLine
 10
169.6538134942571
 20
171.3323923935419
 30
0.0
 11
169.6538134942571
 21
191.3123923935418
 31
0.0
  0
LINE
  5
43BB
330
4347
100
AcDbEntity
  8
0
 48
0.5
100
AcDbLine
 10
169.6538134942571
 20
191.3123923935418
 30
0.0
 11
155.653813494257
 21
191.3123923935418
 31
0.0
  0
LINE
  5
43BC
330
4347
100
AcDbEntity
  8
0
 48
0.5
100
AcDbLine
 10
168.653813494257
 20
183.9223923935419
 30
0.0
 11
168.653813494257
 21
178.7223923935419
 31
0.0
  0
LINE
  5
43BD
330
4347
100
AcDbEntity
  8
0
 48
0.5
100
AcDbLine
 10
154.653813494257
 20
178.7223923935419
 30
0.0
 11
168.653813494257
 21
178.7223923935419
 31
0.0
  0
LINE
  5
43BE
330
4347
100
AcDbEntity
  8
0
100
AcDbLine
 10
157.6038134942571
 20
172.3323923935419
 30
0.0
 11
157.6038134942571
 21
178.7223923935419
 31
0.0
  0
LINE
  5
43BF
330
4347
100
AcDbEntity
  8
0
100
AcDbLine
 10
161.703813494257
 20
172.3323923935419
 30
0.0
 11
161.703813494257
 21
178.7223923935419
 31
0.0
  0
LINE
  5
43C0
330
4347
100
AcDbEntity
  8
0
100
AcDbLine
 10
161.703813494257
 20
172.3323923935419
 30
0.0
 11
162.703813494257
 21
171.3323923935419
 31
0.0
  0
LINE
  5
43C1
330
4347
100
AcDbEntity
  8
0
100
AcDbLine
 10
157.6038134942571
 20
172.3323923935419
 30
0.0
 11
156.6038134942571
 21
171.3323923935419
 31
0.0
  0
LINE
  5
43C2
330
4347
100
AcDbEntity
  8
0
100
AcDbLine
 10
157.6038134942571
 20
190.3123923935418
 30
0.0
 11
157.6038134942571
 21
183.9223923935419
 31
0.0
  0
LINE
  5
43C3
330
4347
100
AcDbEntity
  8
0
100
AcDbLine
 10
161.703813494257
 20
190.3123923935418
 30
0.0
 11
161.703813494257
 21
183.9223923935419
 31
0.0
  0
LINE
  5
43C4
330
4347
100
AcDbEntity
  8
0
100
AcDbLine
 10
161.703813494257
 20
190.3123923935418
 30
0.0
 11
162.703813494257
 21
191.3123923935418
 31
0.0
  0
LINE
  5
43C5
330
4347
100
AcDbEntity
  8
0
100
AcDbLine
 10
157.6038134942571
 20
190.3123923935418
 30
0.0
 11
156.6038134942571
 21
191.3123923935418
 31
0.0
  0
LINE
  5
43C6
330
4347
100
AcDbEntity
  8
0
 48
0.5
100
AcDbLine
 10
154.653813494257
 20
183.9223923935419
 30
0.0
 11
168.653813494257
 21
183.9223923935419
 31
0.0
  0
LINE
  5
43C7
330
4347
100
AcDbEntity
  8
0
 48
0.5
100
AcDbLine
 10
154.653813494257
 20
172.3323923935419
 30
0.0
 11
155.653813494257
 21
171.3323923935419
 31
0.0
  0
LINE
  5
43C8
330
4347
100
AcDbEntity
  8
0
 48
0.5
100
AcDbLine
 10
154.653813494257
 20
190.3123923935418
 30
0.0
 11
155.653813494257
 21
191.3123923935418
 31
0.0
  0
LINE
  5
43C9
330
4347
100
AcDbEntity
  8
0
 48
0.5
100
AcDbLine
 10
154.653813494257
 20
178.7223923935419
 30
0.0
 11
154.653813494257
 21
172.3323923935419
 31
0.0
  0
LINE
  5
43CA
330
4347
100
AcDbEntity
  8
0
100
AcDbLine
 10
155.653813494257
 20
171.3323923935418
 30
0.0
 11
155.653813494257
 21
178.7223923935419
 31
0.0
  0
LINE
  5
43CB
330
4347
100
AcDbEntity
  8
0
100
AcDbLine
 10
155.6538134942571
 20
191.3123923935419
 30
0.0
 11
155.6538134942571
 21
183.922392393542
 31
0.0
  0
LINE
  5
43CC
330
4347
100
AcDbEntity
  8
0
 48
0.8
100
AcDbLine
 10
157.6038134942571
 20
172.3323923935419
 30
0.0
 11
161.703813494257
 21
172.3323923935419
 31
0.0
  0
LINE
  5
43CD
330
4347
100
AcDbEntity
  8
0
 48
0.8
100
AcDbLine
 10
157.6038134942571
 20
190.3123923935418
 30
0.0
 11
161.703813494257
 21
190.3123923935418
 31
0.0
  0
LINE
  5
43CE
330
4347
100
AcDbEntity
  8
0
 48
0.5
100
AcDbLine
 10
155.6538134942568
 20
20.6234875201547
 30
0.0
 11
169.6538134942568
 21
20.6234875201547
 31
0.0
  0
LINE
  5
43CF
330
4347
100
AcDbEntity
  8
0
 48
0.5
100
AcDbLine
 10
169.6538134942568
 20
20.6234875201547
 30
0.0
 11
169.6538134942568
 21
40.60348752015459
 31
0.0
  0
LINE
  5
43D0
330
4347
100
AcDbEntity
  8
0
 48
0.5
100
AcDbLine
 10
169.6538134942568
 20
40.60348752015459
 30
0.0
 11
155.6538134942568
 21
40.60348752015459
 31
0.0
  0
LINE
  5
43D1
330
4347
100
AcDbEntity
  8
0
 48
0.5
100
AcDbLine
 10
154.6538134942568
 20
21.6234875201547
 30
0.0
 11
155.6538134942568
 21
20.6234875201547
 31
0.0
  0
LINE
  5
43D2
330
4347
100
AcDbEntity
  8
0
 48
0.5
100
AcDbLine
 10
154.6538134942568
 20
39.6034875201546
 30
0.0
 11
155.6538134942568
 21
40.60348752015459
 31
0.0
  0
LINE
  5
43D3
330
4347
100
AcDbEntity
  8
0
 48
0.5
100
AcDbLine
 10
154.6538134942568
 20
39.60348752015466
 30
0.0
 11
154.6538134942568
 21
21.6234875201547
 31
0.0
  0
LINE
  5
43D4
330
4347
100
AcDbEntity
  8
0
100
AcDbLine
 10
155.6538134942568
 20
20.6234875201547
 30
0.0
 11
155.6538134942568
 21
40.60348752015459
 31
0.0
  0
ARC
  5
43D5
330
4347
100
AcDbEntity
  8
0
100
AcDbCircle
 10
34.67359488426382
 20
30.61348752015454
 30
0.0
 40
8.989999999999852
100
AcDbArc
 50
106.810679772669
 51
253.189320227331
  0
ARC
  5
43D6
330
4347
100
AcDbEntity
  8
0
100
AcDbCircle
 10
34.67359488426382
 20
30.61348752015454
 30
0.0
 40
8.989999999999852
100
AcDbArc
 50
286.8106797726757
 51
73.18932022732427
  0
LINE
  5
43D7
330
4347
100
AcDbEntity
  8
0
100
AcDbLine
 10
44.47155385539679
 20
32.61348752015448
 30
0.0
 11
37.27359488426419
 21
32.61348752015448
 31
0.0
  0
LINE
  5
43D8
330
4347
100
AcDbEntity
  8
0
100
AcDbLine
 10
32.07359488426391
 20
32.61348752015448
 30
0.0
 11
24.87563591313131
 21
32.61348752015448
 31
0.0
  0
LINE
  5
43D9
330
4347
100
AcDbEntity
  8
0
100
AcDbLine
 10
44.47155385539679
 20
28.61348752015459
 30
0.0
 11
37.27359488426419
 21
28.61348752015459
 31
0.0
  0
LINE
  5
43DA
330
4347
100
AcDbEntity
  8
0
100
AcDbLine
 10
32.07359488426391
 20
28.61348752015459
 30
0.0
 11
24.87563591313131
 21
28.61348752015459
 31
0.0
  0
LINE
  5
43DB
330
4347
100
AcDbEntity
  8
0
 48
0.5
100
AcDbLine
 10
68.34264804293844
 20
50.01348752015451
 30
0.0
 11
56.18068503721701
 21
50.01348752015451
 31
0.0
  0
LINE
  5
43DC
330
4347
100
AcDbEntity
  8
0
 48
0.5
100
AcDbLine
 10
68.34264804293844
 20
11.2134875201545
 30
0.0
 11
56.18068503721701
 21
11.2134875201545
 31
0.0
  0
LINE
  5
43DD
330
4347
100
AcDbEntity
  8
0
 48
0.5
100
AcDbLine
 10
1.004541725589433
 20
50.01348752015451
 30
0.0
 11
13.16650473131085
 21
50.01348752015451
 31
0.0
  0
LINE
  5
43DE
330
4347
100
AcDbEntity
  8
0
 48
0.5
100
AcDbLine
 10
1.004541725589433
 20
11.2134875201545
 30
0.0
 11
13.16650473131085
 21
11.2134875201545
 31
0.0
  0
INSERT
  5
43DF
330
4347
100
AcDbEntity
  8
0
100
AcDbBlockReference
  2
A$C70101BA6
 10
34.67359488426394
 20
54.61348752015453
 30
0.0
  0
ENDBLK
  5
43E1
330
4347
100
AcDbEntity
  8
0
100
AcDbBlockEnd
  0
BLOCK
  5
4541
330
4537
100
AcDbEntity
  8
0
100
AcDbBlockBegin
  2
*D4
 70
     1
 10
0.0
 20
0.0
 30
0.0
  3
*D4
  1

  0
LINE
  5
4661
330
4537
100
AcDbEntity
  8
Z_OM_DIM
100
AcDbLine
 10
661.2457345521302
 20
-14.86008366609661
 30
0.0
 11
661.2457345521302
 21
-28.48832669393642
 31
0.0
  0
LINE
  5
4662
330
4537
100
AcDbEntity
  8
Z_OM_DIM
100
AcDbLine
 10
631.9457345521303
 20
-16.23508366609661
 30
0.0
 11
631.9457345521303
 21
-28.48832669393642
 31
0.0
  0
LINE
  5
4663
330
4537
100
AcDbEntity
  8
Z_OM_DIM
100
AcDbLine
 10
658.7457345521301
 20
-27.23832669393642
 30
0.0
 11
634.4457345521302
 21
-27.23832669393642
 31
0.0
  0
INSERT
  5
4664
330
4537
100
AcDbEntity
  8
Z_OM_DIM
100
AcDbBlockReference
  2
_OPEN30
 10
661.2457345521302
 20
-27.23832669393642
 30
0.0
 41
2.5
 42
2.5
 43
2.5
  0
INSERT
  5
4665
330
4537
100
AcDbEntity
  8
Z_OM_DIM
100
AcDbBlockReference
  2
_OPEN30
 10
631.9457345521303
 20
-27.23832669393642
 30
0.0
 41
2.5
 42
2.5
 43
2.5
 50
180.0
  0
MTEXT
  5
4666
330
4537
100
AcDbEntity
  8
Z_OM_DIM
100
AcDbMText
 10
646.5957345521302
 20
-25.36332669393642
 30
0.0
 40
2.5
 41
0.0
 71
     5
 72
     1
  1
29.3
  7
CatalogDxf
 73
     1
 44
1.0
1001
ACAD
1000
MTEXTBEGIN
1070
    73
1070
     1
1070
    44
1040
1.0
1070
    74
1070
     0
1000
MTEXTEND
  0
POINT
  5
4667
330
4537
100
AcDbEntity
  8
DEFPOINTS
 62
     0
100
AcDbPoint
 10
661.2457345521302
 20
-14.23508366609661
 30
0.0
  0
POINT
  5
4668
330
4537
100
AcDbEntity
  8
DEFPOINTS
 62
     0
100
AcDbPoint
 10
631.9457345521303
 20
-15.61008366609661
 30
0.0
  0
POINT
  5
4669
330
4537
100
AcDbEntity
  8
DEFPOINTS
 62
     0
100
AcDbPoint
 10
631.9457345521303
 20
-27.23832669393642
 30
0.0
  0
ENDBLK
  5
4542
330
4537
100
AcDbEntity
  8
0
100
AcDbBlockEnd
  0
BLOCK
  5
4550
330
4544
100
AcDbEntity
  8
0
100
AcDbBlockBegin
  2
*D5
 70
     1
 10
0.0
 20
0.0
 30
0.0
  3
*D5
  1

  0
LINE
  5
48C1
330
4544
100
AcDbEntity
  8
Z_OM_DIM
100
AcDbLine
 10
623.3207345521302
 20
0.1899163339033977
 30
0.0
 11
610.7387420278201
 21
0.1899163339034013
 31
0.0
  0
LINE
  5
48C2
330
4544
100
AcDbEntity
  8
Z_OM_DIM
100
AcDbLine
 10
623.3207345521304
 20
-2.410083666096568
 30
0.0
 11
610.7387420278201
 21
-2.410083666096564
 31
0.0
  0
LINE
  5
48C3
330
4544
100
AcDbEntity
  8
Z_OM_DIM
100
AcDbLine
 10
611.9887420278201
 20
-4.910083666096564
 30
0.0
 11
611.9887420278201
 21
-7.410083666096564
 31
0.0
  0
LINE
  5
48C4
330
4544
100
AcDbEntity
  8
Z_OM_DIM
100
AcDbLine
 10
611.9887420278201
 20
2.689916333903401
 30
0.0
 11
611.9887420278201
 21
11.4399163339034
 31
0.0
  0
LINE
  5
48C5
330
4544
100
AcDbEntity
  8
Z_OM_DIM
100
AcDbLine
 10
611.9887420278201
 20
-2.410083666096564
 30
0.0
 11
611.9887420278201
 21
0.1899163339034009
 31
0.0
  0
INSERT
  5
48C6
330
4544
100
AcDbEntity
  8
Z_OM_DIM
100
AcDbBlockReference
  2
_OPEN30
 10
611.9887420278201
 20
-2.410083666096564
 30
0.0
 41
2.5
 42
2.5
 43
2.5
 50
90.0
  0
INSERT
  5
48C7
330
4544
100
AcDbEntity
  8
Z_OM_DIM
100
AcDbBlockReference
  2
_OPEN30
 10
611.9887420278201
 20
0.1899163339034009
 30
0.0
 41
2.5
 42
2.5
 43
2.5
 50
270.0
  0
MTEXT
  5
48C8
330
4544
100
AcDbEntity
  8
Z_OM_DIM
100
AcDbMText
 10
610.1137420278202
 20
8.314916333903498
 30
0.0
 40
2.5
 41
0.0
 71
     5
 72
     1
  1
2.6
  7
CatalogDxf
 11
0.0000000000000001
 21
1.0
 31
0.0
 73
     1
 44
1.0
1001
ACAD
1000
MTEXTBEGIN
1070
    73
1070
     1
1070
    44
1040
1.0
1070
    74
1070
     0
1000
MTEXTEND
  0
POINT
  5
48C9
330
4544
100
AcDbEntity
  8
DEFPOINTS
 62
     0
100
AcDbPoint
 10
623.9457345521302
 20
0.1899163339033976
 30
0.0
  0
POINT
  5
48CA
330
4544
100
AcDbEntity
  8
DEFPOINTS
 62
     0
100
AcDbPoint
 10
623.9457345521303
 20
-2.410083666096568
 30
0.0
  0
POINT
  5
48CB
330
4544
100
AcDbEntity
  8
DEFPOINTS
 62
     0
100
AcDbPoint
 10
611.9887420278201
 20
-2.410083666096564
 30
0.0
  0
ENDBLK
  5
4551
330
4544
100
AcDbEntity
  8
0
100
AcDbBlockEnd
  0
BLOCK
  5
455D
330
4553
100
AcDbEntity
  8
0
100
AcDbBlockBegin
  2
*D6
 70
     1
 10
0.0
 20
0.0
 30
0.0
  3
*D6
  1

  0
LINE
  5
47E2
330
4553
100
AcDbEntity
  8
Z_OM_DIM
100
AcDbLine
 10
623.9457345521303
 20
-6.230083666096561
 30
0.0
 11
623.9457345521303
 21
-19.13170270514633
 31
0.0
  0
LINE
  5
47E3
330
4553
100
AcDbEntity
  8
Z_OM_DIM
100
AcDbLine
 10
630.9457345521302
 20
-3.035083666096625
 30
0.0
 11
630.9457345521302
 21
-19.13170270514633
 31
0.0
  0
LINE
  5
47E4
330
4553
100
AcDbEntity
  8
Z_OM_DIM
100
AcDbLine
 10
626.4457345521304
 20
-17.88170270514633
 30
0.0
 11
628.4457345521302
 21
-17.88170270514633
 31
0.0
  0
INSERT
  5
47E5
330
4553
100
AcDbEntity
  8
Z_OM_DIM
100
AcDbBlockReference
  2
_OPEN30
 10
623.9457345521303
 20
-17.88170270514633
 30
0.0
 41
2.5
 42
2.5
 43
2.5
 50
180.0
  0
INSERT
  5
47E6
330
4553
100
AcDbEntity
  8
Z_OM_DIM
100
AcDbBlockReference
  2
_OPEN30
 10
630.9457345521302
 20
-17.88170270514633
 30
0.0
 41
2.5
 42
2.5
 43
2.5
  0
MTEXT
  5
47E7
330
4553
100
AcDbEntity
  8
Z_OM_DIM
100
AcDbMText
 10
627.6341255348645
 20
-16.00670270514633
 30
0.0
 40
2.5
 41
0.0
 71
     5
 72
     1
  1
7
  7
CatalogDxf
 73
     1
 44
1.0
1001
ACAD
1000
MTEXTBEGIN
1070
    73
1070
     1
1070
    44
1040
1.0
1070
    74
1070
     0
1000
MTEXTEND
  0
POINT
  5
47E8
330
4553
100
AcDbEntity
  8
DEFPOINTS
 62
     0
100
AcDbPoint
 10
623.9457345521303
 20
-5.605083666096561
 30
0.0
  0
POINT
  5
47E9
330
4553
100
AcDbEntity
  8
DEFPOINTS
 62
     0
100
AcDbPoint
 10
630.9457345521302
 20
-2.410083666096625
 30
0.0
  0
POINT
  5
47EA
330
4553
100
AcDbEntity
  8
DEFPOINTS
 62
     0
100
AcDbPoint
 10
630.9457345521302
 20
-17.88170270514633
 30
0.0
  0
ENDBLK
  5
455E
330
4553
100
AcDbEntity
  8
0
100
AcDbBlockEnd
  0
BLOCK
  5
456A
330
4560
100
AcDbEntity
  8
0
100
AcDbBlockBegin
  2
*D7
 70
     1
 10
0.0
 20
0.0
 30
0.0
  3
*D7
  1

  0
LINE
  5
46EB
330
4560
100
AcDbEntity
  8
Z_OM_DIM
100
AcDbLine
 10
653.2457345521302
 20
-62.33953610281367
 30
0.0
 11
653.2457345521302
 21
-48.97413718026166
 31
0.0
  0
LINE
  5
46EC
330
4560
100
AcDbEntity
  8
Z_OM_DIM
100
AcDbLine
 10
640.2457345521302
 20
-63.23631359223985
 30
0.0
 11
640.2457345521302
 21
-48.97413718026166
 31
0.0
  0
LINE
  5
46ED
330
4560
100
AcDbEntity
  8
Z_OM_DIM
100
AcDbLine
 10
650.7457345521302
 20
-50.22413718026166
 30
0.0
 11
642.7457345521302
 21
-50.22413718026166
 31
0.0
  0
INSERT
  5
46EE
330
4560
100
AcDbEntity
  8
Z_OM_DIM
100
AcDbBlockReference
  2
_OPEN30
 10
653.2457345521302
 20
-50.22413718026166
 30
0.0
 41
2.5
 42
2.5
 43
2.5
  0
INSERT
  5
46EF
330
4560
100
AcDbEntity
  8
Z_OM_DIM
100
AcDbBlockReference
  2
_OPEN30
 10
640.2457345521302
 20
-50.22413718026166
 30
0.0
 41
2.5
 42
2.5
 43
2.5
 50
180.0
  0
MTEXT
  5
46F0
330
4560
100
AcDbEntity
  8
Z_OM_DIM
100
AcDbMText
 10
646.7457345521302
 20
-48.34913718026166
 30
0.0
 40
2.5
 41
0.0
 71
     5
 72
     1
  1
13
  7
CatalogDxf
 73
     1
 44
1.0
1001
ACAD
1000
MTEXTBEGIN
1070
    73
1070
     1
1070
    44
1040
1.0
1070
    74
1070
     0
1000
MTEXTEND
  0
POINT
  5
46F1
330
4560
100
AcDbEntity
  8
DEFPOINTS
 62
     0
100
AcDbPoint
 10
653.2457345521302
 20
-62.96453610281367
 30
0.0
  0
POINT
  5
46F2
330
4560
100
AcDbEntity
  8
DEFPOINTS
 62
     0
100
AcDbPoint
 10
640.2457345521302
 20
-63.86131359223985
 30
0.0
  0
POINT
  5
46F3
330
4560
100
AcDbEntity
  8
DEFPOINTS
 62
     0
100
AcDbPoint
 10
640.2457345521302
 20
-50.22413718026166
 30
0.0
  0
ENDBLK
  5
456B
330
4560
100
AcDbEntity
  8
0
100
AcDbBlockEnd
  0
BLOCK
  5
4577
330
456D
100
AcDbEntity
  8
0
100
AcDbBlockBegin
  2
*D8
 70
     1
 10
0.0
 20
0.0
 30
0.0
  3
*D8
  1

  0
LINE
  5
471D
330
456D
100
AcDbEntity
  8
Z_OM_DIM
100
AcDbLine
 10
640.2457345521302
 20
-63.23631359223985
 30
0.0
 11
640.2457345521302
 21
-48.97413718026166
 31
0.0
  0
LINE
  5
471E
330
456D
100
AcDbEntity
  8
Z_OM_DIM
100
AcDbLine
 10
626.4457345521302
 20
-68.05483774405622
 30
0.0
 11
626.4457345521302
 21
-48.97413718026166
 31
0.0
  0
LINE
  5
471F
330
456D
100
AcDbEntity
  8
Z_OM_DIM
100
AcDbLine
 10
637.7457345521301
 20
-50.22413718026166
 30
0.0
 11
628.9457345521302
 21
-50.22413718026166
 31
0.0
  0
INSERT
  5
4720
330
456D
100
AcDbEntity
  8
Z_OM_DIM
100
AcDbBlockReference
  2
_OPEN30
 10
640.2457345521302
 20
-50.22413718026166
 30
0.0
 41
2.5
 42
2.5
 43
2.5
  0
INSERT
  5
4721
330
456D
100
AcDbEntity
  8
Z_OM_DIM
100
AcDbBlockReference
  2
_OPEN30
 10
626.4457345521302
 20
-50.22413718026166
 30
0.0
 41
2.5
 42
2.5
 43
2.5
 50
180.0
  0
MTEXT
  5
4722
330
456D
100
AcDbEntity
  8
Z_OM_DIM
100
AcDbMText
 10
633.3457345521302
 20
-48.34913718026166
 30
0.0
 40
2.5
 41
0.0
 71
     5
 72
     1
  1
13.8
  7
CatalogDxf
 73
     1
 44
1.0
1001
ACAD
1000
MTEXTBEGIN
1070
    73
1070
     1
1070
    44
1040
1.0
1070
    74
1070
     0
1000
MTEXTEND
  0
POINT
  5
4723
330
456D
100
AcDbEntity
  8
DEFPOINTS
 62
     0
100
AcDbPoint
 10
640.2457345521302
 20
-63.86131359223985
 30
0.0
  0
POINT
  5
4724
330
456D
100
AcDbEntity
  8
DEFPOINTS
 62
     0
100
AcDbPoint
 10
626.4457345521302
 20
-68.67983774405622
 30
0.0
  0
POINT
  5
4725
330
456D
100
AcDbEntity
  8
DEFPOINTS
 62
     0
100
AcDbPoint
 10
626.4457345521302
 20
-50.22413718026166
 30
0.0
  0
ENDBLK
  5
4578
330
456D
100
AcDbEntity
  8
0
100
AcDbBlockEnd
  0
BLOCK
  5
4589
330
457A
100
AcDbEntity
  8
0
100
AcDbBlockBegin
  2
*D9
 70
     1
 10
0.0
 20
0.0
 30
0.0
  3
*D9
  1

  0
LINE
  5
476F
330
457A
100
AcDbEntity
  8
Z_OM_DIM
100
AcDbLine
 10
626.4457345521302
 20
-68.05483774405622
 30
0.0
 11
626.4457345521302
 21
-48.97413718026166
 31
0.0
  0
LINE
  5
4770
330
457A
100
AcDbEntity
  8
Z_OM_DIM
100
AcDbLine
 10
623.9457345521302
 20
-71.34453610279024
 30
0.0
 11
623.9457345521302
 21
-48.97413718026166
 31
0.0
  0
LINE
  5
4771
330
457A
100
AcDbEntity
  8
Z_OM_DIM
100
AcDbLine
 10
628.9457345521302
 20
-50.22413718026166
 30
0.0
 11
631.4457345521303
 21
-50.22413718026166
 31
0.0
  0
LINE
  5
4772
330
457A
100
AcDbEntity
  8
Z_OM_DIM
100
AcDbLine
 10
621.4457345521302
 20
-50.22413718026166
 30
0.0
 11
612.6957345521303
 21
-50.22413718026166
 31
0.0
  0
LINE
  5
4773
330
457A
100
AcDbEntity
  8
Z_OM_DIM
100
AcDbLine
 10
626.4457345521302
 20
-50.22413718026166
 30
0.0
 11
623.9457345521302
 21
-50.22413718026166
 31
0.0
  0
INSERT
  5
4774
330
457A
100
AcDbEntity
  8
Z_OM_DIM
100
AcDbBlockReference
  2
_OPEN30
 10
626.4457345521302
 20
-50.22413718026166
 30
0.0
 41
2.5
 42
2.5
 43
2.5
 50
180.0
  0
INSERT
  5
4775
330
457A
100
AcDbEntity
  8
Z_OM_DIM
100
AcDbBlockReference
  2
_OPEN30
 10
623.9457345521302
 20
-50.22413718026166
 30
0.0
 41
2.5
 42
2.5
 43
2.5
  0
MTEXT
  5
4776
330
457A
100
AcDbEntity
  8
Z_OM_DIM
100
AcDbMText
 10
615.8207345521303
 20
-48.34913718026166
 30
0.0
 40
2.5
 41
0.0
 71
     5
 72
     1
  1
2.5
  7
CatalogDxf
 73
     1
 44
1.0
1001
ACAD
1000
MTEXTBEGIN
1070
    73
1070
     1
1070
    44
1040
1.0
1070
    74
1070
     0
1000
MTEXTEND
  0
POINT
  5
4777
330
457A
100
AcDbEntity
  8
DEFPOINTS
 62
     0
100
AcDbPoint
 10
626.4457345521302
 20
-68.67983774405622
 30
0.0
  0
POINT
  5
4778
330
457A
100
AcDbEntity
  8
DEFPOINTS
 62
     0
100
AcDbPoint
 10
623.9457345521302
 20
-71.96953610279024
 30
0.0
  0
POINT
  5
4779
330
457A
100
AcDbEntity
  8
DEFPOINTS
 62
     0
100
AcDbPoint
 10
623.9457345521302
 20
-50.22413718026166
 30
0.0
  0
ENDBLK
  5
458A
330
457A
100
AcDbEntity
  8
0
100
AcDbBlockEnd
  0
BLOCK
  5
45AF
330
45A5
100
AcDbEntity
  8
0
100
AcDbBlockBegin
  2
*D10
 70
     1
 10
0.0
 20
0.0
 30
0.0
  3
*D10
  1

  0
LINE
  5
4783
330
45A5
100
AcDbEntity
  8
Z_OM_DIM
100
AcDbLine
 10
623.8207345521303
 20
-71.46953610279024
 30
0.0
 11
610.7387420278201
 21
-71.46953610279024
 31
0.0
  0
LINE
  5
4784
330
45A5
100
AcDbEntity
  8
Z_OM_DIM
100
AcDbLine
 10
623.8207345521303
 20
-81.4595361027902
 30
0.0
 11
610.7387420278201
 21
-81.4595361027902
 31
0.0
  0
LINE
  5
4785
330
45A5
100
AcDbEntity
  8
Z_OM_DIM
100
AcDbLine
 10
611.9887420278201
 20
-73.96953610279024
 30
0.0
 11
611.9887420278201
 21
-78.95953610279019
 31
0.0
  0
MTEXT
  5
4786
330
45A5
100
AcDbEntity
  8
Z_OM_DIM
100
AcDbMText
 10
609.8997141754149
 20
-77.04362970251384
 30
0.0
 40
2.5
 41
0.0
 71
     5
 72
     1
  1
%%c10
  7
CatalogDxf
 11
0.0000000000000001
 21
1.0
 31
0.0
 73
     1
 44
1.0
1001
ACAD
1000
MTEXTBEGIN
1070
    73
1070
     1
1070
    44
1040
1.0
1070
    74
1070
     0
1000
MTEXTEND
  0
INSERT
  5
4787
330
45A5
100
AcDbEntity
  8
Z_OM_DIM
100
AcDbBlockReference
  2
_OPEN30
 10
611.9887420278201
 20
-71.46953610279024
 30
0.0
 41
2.5
 42
2.5
 43
2.5
 50
90.0
  0
INSERT
  5
4788
330
45A5
100
AcDbEntity
  8
Z_OM_DIM
100
AcDbBlockReference
  2
_OPEN30
 10
611.9887420278201
 20
-81.4595361027902
 30
0.0
 41
2.5
 42
2.5
 43
2.5
 50
270.0
  0
POINT
  5
4789
330
45A5
100
AcDbEntity
  8
DEFPOINTS
 62
     0
100
AcDbPoint
 10
624.4457345521302
 20
-71.46953610279024
 30
0.0
  0
POINT
  5
478A
330
45A5
100
AcDbEntity
  8
DEFPOINTS
 62
     0
100
AcDbPoint
 10
624.4457345521302
 20
-81.4595361027902
 30
0.0
  0
POINT
  5
478B
330
45A5
100
AcDbEntity
  8
DEFPOINTS
 62
     0
100
AcDbPoint
 10
611.9887420278201
 20
-81.4595361027902
 30
0.0
  0
ENDBLK
  5
45B0
330
45A5
100
AcDbEntity
  8
0
100
AcDbBlockEnd
  0
BLOCK
  5
45C5
330
45BB
100
AcDbEntity
  8
0
100
AcDbBlockBegin
  2
*D11
 70
     1
 10
0.0
 20
0.0
 30
0.0
  3
*D11
  1

  0
LINE
  5
489B
330
45BB
100
AcDbEntity
  8
Z_OM_DIM
100
AcDbLine
 10
656.6584203312922
 20
-66.76453610279025
 30
0.0
 11
677.0167955380339
 21
-66.76453610279027
 31
0.0
  0
LINE
  5
489C
330
45BB
100
AcDbEntity
  8
Z_OM_DIM
100
AcDbLine
 10
656.6584203312922
 20
-86.16453610279023
 30
0.0
 11
677.0167955380339
 21
-86.16453610279025
 31
0.0
  0
LINE
  5
489D
330
45BB
100
AcDbEntity
  8
Z_OM_DIM
100
AcDbLine
 10
675.7667955380338
 20
-69.26453610279027
 30
0.0
 11
675.7667955380338
 21
-83.66453610279025
 31
0.0
  0
INSERT
  5
489E
330
45BB
100
AcDbEntity
  8
Z_OM_DIM
100
AcDbBlockReference
  2
_OPEN30
 10
675.7667955380338
 20
-66.76453610279027
 30
0.0
 41
2.5
 42
2.5
 43
2.5
 50
90.0
  0
INSERT
  5
489F
330
45BB
100
AcDbEntity
  8
Z_OM_DIM
100
AcDbBlockReference
  2
_OPEN30
 10
675.7667955380338
 20
-86.16453610279025
 30
0.0
 41
2.5
 42
2.5
 43
2.5
 50
270.0
  0
MTEXT
  5
48A0
330
45BB
100
AcDbEntity
  8
Z_OM_DIM
100
AcDbMText
 10
673.8917955380339
 20
-76.46453610279015
 30
0.0
 40
2.5
 41
0.0
 71
     5
 72
     1
  1
19.4
  7
CatalogDxf
 11
0.0000000000000001
 21
1.0
 31
0.0
 73
     1
 44
1.0
1001
ACAD
1000
MTEXTBEGIN
1070
    73
1070
     1
1070
    44
1040
1.0
1070
    74
1070
     0
1000
MTEXTEND
  0
POINT
  5
48A1
330
45BB
100
AcDbEntity
  8
DEFPOINTS
 62
     0
100
AcDbPoint
 10
656.0334203312923
 20
-66.76453610279025
 30
0.0
  0
POINT
  5
48A2
330
45BB
100
AcDbEntity
  8
DEFPOINTS
 62
     0
100
AcDbPoint
 10
656.0334203312923
 20
-86.16453610279023
 30
0.0
  0
POINT
  5
48A3
330
45BB
100
AcDbEntity
  8
DEFPOINTS
 62
     0
100
AcDbPoint
 10
675.7667955380338
 20
-86.16453610279025
 30
0.0
  0
ENDBLK
  5
45C6
330
45BB
100
AcDbEntity
  8
0
100
AcDbBlockEnd
  0
BLOCK
  5
45D2
330
45C8
100
AcDbEntity
  8
0
100
AcDbBlockBegin
  2
*D12
 70
     1
 10
0.0
 20
0.0
 30
0.0
  3
*D12
  1

  0
LINE
  5
48AE
330
45C8
100
AcDbEntity
  8
Z_OM_DIM
100
AcDbLine
 10
547.4556252471338
 20
-89.08953610279025
 30
0.0
 11
547.4556252471338
 21
-104.5748885637628
 31
0.0
  0
LINE
  5
48AF
330
45C8
100
AcDbEntity
  8
Z_OM_DIM
100
AcDbLine
 10
576.4556252471338
 20
-89.08953610279025
 30
0.0
 11
576.4556252471338
 21
-104.5748885637628
 31
0.0
  0
LINE
  5
48B0
330
45C8
100
AcDbEntity
  8
Z_OM_DIM
100
AcDbLine
 10
549.9556252471339
 20
-103.3248885637628
 30
0.0
 11
573.9556252471338
 21
-103.3248885637628
 31
0.0
  0
INSERT
  5
48B1
330
45C8
100
AcDbEntity
  8
Z_OM_DIM
100
AcDbBlockReference
  2
_OPEN30
 10
547.4556252471338
 20
-103.3248885637628
 30
0.0
 41
2.5
 42
2.5
 43
2.5
 50
180.0
  0
INSERT
  5
48B2
330
45C8
100
AcDbEntity
  8
Z_OM_DIM
100
AcDbBlockReference
  2
_OPEN30
 10
576.4556252471338
 20
-103.3248885637628
 30
0.0
 41
2.5
 42
2.5
 43
2.5
  0
MTEXT
  5
48B3
330
45C8
100
AcDbEntity
  8
Z_OM_DIM
100
AcDbMText
 10
561.9556252471339
 20
-101.4498885637628
 30
0.0
 40
2.5
 41
0.0
 71
     5
 72
     1
  1
29
  7
CatalogDxf
 73
     1
 44
1.0
1001
ACAD
1000
MTEXTBEGIN
1070
    73
1070
     1
1070
    44
1040
1.0
1070
    74
1070
     0
1000
MTEXTEND
  0
POINT
  5
48B4
330
45C8
100
AcDbEntity
  8
DEFPOINTS
 62
     0
100
AcDbPoint
 10
547.4556252471338
 20
-88.46453610279025
 30
0.0
  0
POINT
  5
48B5
330
45C8
100
AcDbEntity
  8
DEFPOINTS
 62
     0
100
AcDbPoint
 10
576.4556252471338
 20
-88.46453610279025
 30
0.0
  0
POINT
  5
48B6
330
45C8
100
AcDbEntity
  8
DEFPOINTS
 62
     0
100
AcDbPoint
 10
576.4556252471338
 20
-103.3248885637628
 30
0.0
  0
ENDBLK
  5
45D3
330
45C8
100
AcDbEntity
  8
0
100
AcDbBlockEnd
  0
BLOCK
  5
45DF
330
45D5
100
AcDbEntity
  8
0
100
AcDbBlockBegin
  2
*D13
 70
     1
 10
0.0
 20
0.0
 30
0.0
  3
*D13
  1

  0
LINE
  5
4857
330
45D5
100
AcDbEntity
  8
Z_OM_DIM
100
AcDbLine
 10
577.0806252471338
 20
-64.46453610279025
 30
0.0
 11
592.5862892827967
 21
-64.46453610279025
 31
0.0
  0
LINE
  5
4858
330
45D5
100
AcDbEntity
  8
Z_OM_DIM
100
AcDbLine
 10
577.0806252471338
 20
-88.46453610279025
 30
0.0
 11
592.5862892827967
 21
-88.46453610279025
 31
0.0
  0
LINE
  5
4859
330
45D5
100
AcDbEntity
  8
Z_OM_DIM
100
AcDbLine
 10
591.3362892827968
 20
-66.96453610279025
 30
0.0
 11
591.3362892827968
 21
-85.96453610279025
 31
0.0
  0
INSERT
  5
485A
330
45D5
100
AcDbEntity
  8
Z_OM_DIM
100
AcDbBlockReference
  2
_OPEN30
 10
591.3362892827968
 20
-64.46453610279025
 30
0.0
 41
2.5
 42
2.5
 43
2.5
 50
90.0
  0
INSERT
  5
485B
330
45D5
100
AcDbEntity
  8
Z_OM_DIM
100
AcDbBlockReference
  2
_OPEN30
 10
591.3362892827968
 20
-88.46453610279025
 30
0.0
 41
2.5
 42
2.5
 43
2.5
 50
270.0
  0
MTEXT
  5
485C
330
45D5
100
AcDbEntity
  8
Z_OM_DIM
100
AcDbMText
 10
589.4612892827967
 20
-76.46453610279016
 30
0.0
 40
2.5
 41
0.0
 71
     5
 72
     1
  1
24
  7
CatalogDxf
 11
0.0000000000000001
 21
1.0
 31
0.0
 73
     1
 44
1.0
1001
ACAD
1000
MTEXTBEGIN
1070
    73
1070
     1
1070
    44
1040
1.0
1070
    74
1070
     0
1000
MTEXTEND
  0
POINT
  5
485D
330
45D5
100
AcDbEntity
  8
DEFPOINTS
 62
     0
100
AcDbPoint
 10
576.4556252471338
 20
-64.46453610279025
 30
0.0
  0
POINT
  5
485E
330
45D5
100
AcDbEntity
  8
DEFPOINTS
 62
     0
100
AcDbPoint
 10
576.4556252471338
 20
-88.46453610279025
 30
0.0
  0
POINT
  5
485F
330
45D5
100
AcDbEntity
  8
DEFPOINTS
 62
     0
100
AcDbPoint
 10
591.3362892827968
 20
-88.46453610279025
 30
0.0
  0
ENDBLK
  5
45E0
330
45D5
100
AcDbEntity
  8
0
100
AcDbBlockEnd
  0
BLOCK
  5
473C
330
4732
100
AcDbEntity
  8
0
100
AcDbBlockBegin
  2
*D14
 70
     1
 10
0.0
 20
0.0
 30
0.0
  3
*D14
  1

  0
LINE
  5
4750
330
4732
100
AcDbEntity
  8
Z_OM_DIM
100
AcDbLine
 10
631.9457345521303
 20
-63.83953610279025
 30
0.0
 11
631.9457345521303
 21
-54.85522538625076
 31
0.0
  0
LINE
  5
4751
330
4732
100
AcDbEntity
  8
Z_OM_DIM
100
AcDbLine
 10
640.2457345521302
 20
-63.20996532335931
 30
0.0
 11
640.2457345521302
 21
-54.85522538625076
 31
0.0
  0
LINE
  5
4752
330
4732
100
AcDbEntity
  8
Z_OM_DIM
100
AcDbLine
 10
634.4457345521302
 20
-56.10522538625076
 30
0.0
 11
637.7457345521301
 21
-56.10522538625076
 31
0.0
  0
MTEXT
  5
4753
330
4732
100
AcDbEntity
  8
Z_OM_DIM
100
AcDbMText
 10
636.0716555133621
 20
-53.50679567968512
 30
0.0
 40
2.5
 41
0.0
 71
     5
 72
     1
  1
8.3
  7
CatalogDxf
 73
     1
 44
1.0
1001
ACAD
1000
MTEXTBEGIN
1070
    73
1070
     1
1070
    44
1040
1.0
1070
    74
1070
     0
1000
MTEXTEND
  0
INSERT
  5
4754
330
4732
100
AcDbEntity
  8
Z_OM_DIM
100
AcDbBlockReference
  2
_OPEN30
 10
631.9457345521303
 20
-56.10522538625076
 30
0.0
 41
2.5
 42
2.5
 43
2.5
 50
180.0
  0
INSERT
  5
4755
330
4732
100
AcDbEntity
  8
Z_OM_DIM
100
AcDbBlockReference
  2
_OPEN30
 10
640.2457345521302
 20
-56.10522538625076
 30
0.0
 41
2.5
 42
2.5
 43
2.5
  0
POINT
  5
4756
330
4732
100
AcDbEntity
  8
DEFPOINTS
 62
     0
100
AcDbPoint
 10
631.9457345521303
 20
-64.46453610279025
 30
0.0
  0
POINT
  5
4757
330
4732
100
AcDbEntity
  8
DEFPOINTS
 62
     0
100
AcDbPoint
 10
640.2457345521302
 20
-63.83496532335931
 30
0.0
  0
POINT
  5
4758
330
4732
100
AcDbEntity
  8
DEFPOINTS
 62
     0
100
AcDbPoint
 10
640.2457345521302
 20
-56.10522538625076
 30
0.0
  0
ENDBLK
  5
473D
330
4732
100
AcDbEntity
  8
0
100
AcDbBlockEnd
  0
ENDSEC
  0
SECTION
  2
ENTITIES
  0
MTEXT
  5
4130
330
17
100
AcDbEntity
  8
Z_OM_DIM
100
AcDbMText
 10
667.760629393765
 20
-116.7404059066778
 30
0.0
 40
3.0
 41
93.92693936784551
 71
     1
 72
     5
  1
TAKAHA KIKO Co., Ltd\PCAD DRAWING No. CA1029
  7
CatalogDxf
 73
     1
 44
1.0
1001
ACAD
1000
MTEXTBEGIN
1070
    73
1070
     1
1070
    44
1040
1.0
1070
    74
1070
     0
1000
MTEXTEND
  0
MTEXT
  5
42AA
330
17
100
AcDbEntity
  8
Z_OM_DIM
100
AcDbMText
 10
514.2997642754949
 20
19.55615080620873
 30
0.0
 40
3.0
 41
47.03999999999999
 71
     1
 72
     1
  1
Adsorbed position
  7
CatalogDxf
 73
     1
 44
1.0
1001
ACAD
1000
MTEXTBEGIN
1070
    73
1070
     1
1070
    44
1040
1.0
1070
    74
1070
     0
1000
MTEXTEND
  0
LINE
  5
4301
330
17
100
AcDbEntity
  8
0
 48
0.5
100
AcDbLine
 10
685.660338051444
 20
-1.110083666096613
 30
0.0
 11
685.6603380514436
 21
-2.110083666096613
 31
0.0
  0
SPLINE
  5
4302
330
17
100
AcDbEntity
  8
additional
 48
0.5
100
AcDbSpline
210
0.0
220
0.0
230
1.0
 70
     8
 71
     3
 72
    18
 73
    14
 74
    12
 42
0.0000000001
 43
0.0000000001
 44
0.0000000001
 40
0.0
 40
0.0
 40
0.0
 40
0.0
 40
0.3913118960626157
 40
0.7826237921250917
 40
1.482623792125051
 40
1.873935688187565
 40
2.265247584250105
 40
2.656559480312479
 40
3.047871376374942
 40
4.097871376374982
 40
4.489183272437407
 40
4.880495168499806
 40
5.271807064562397
 40
5.271807064562397
 40
5.271807064562397
 40
5.271807064562397
 10
667.2395083674191
 20
1.407289547485206
 30
0.0
 10
667.2957932090655
 20
1.289649814130794
 30
0.0
 10
667.4083628923583
 20
1.054370347422014
 30
0.0
 10
667.6681865814989
 20
0.630771376107849
 30
0.0
 10
667.668264069463
 20
0.0837887575780192
 30
0.0
 10
667.4082329410923
 20
-0.3397476026077955
 30
0.0
 10
667.2399938741831
 20
-0.6928791264883937
 30
0.0
 10
667.0688417666899
 20
-1.044998606526619
 30
0.0
 10
666.7610682050495
 20
-1.573258024938837
 30
0.0
 10
666.7606714178019
 20
-2.262308248798817
 30
0.0
 10
667.069285388319
 20
-2.790219391149471
 30
0.0
 10
667.238314112194
 20
-3.143333217856166
 30
0.0
 10
667.3557769490108
 20
-3.376251374295198
 30
0.0
 10
667.4145083674194
 20
-3.492710452514742
 30
0.0
 11
667.2395083674191
 21
1.407289547485206
 31
0.0
 11
667.4145083674194
 21
1.057289547485183
 31
0.0
 11
667.5895083674195
 21
0.7072895474852033
 31
0.0
 11
667.5895083674195
 21
0.007289547485243
 31
0.0
 11
667.4145083674194
 21
-0.3427104525147797
 31
0.0
 11
667.2395083674191
 21
-0.6927104525147172
 31
0.0
 11
667.0645083674193
 21
-1.042710452514697
 31
0.0
 11
666.8895083674193
 21
-1.39271045251472
 31
0.0
 11
666.8895083674193
 21
-2.442710452514759
 31
0.0
 11
667.0645083674193
 21
-2.792710452514739
 31
0.0
 11
667.2395083674191
 21
-3.142710452514748
 31
0.0
 11
667.4145083674194
 21
-3.492710452514742
 31
0.0
  0
SPLINE
  5
4303
330
17
100
AcDbEntity
  8
additional
 48
0.5
100
AcDbSpline
210
0.0
220
0.0
230
1.0
 70
     8
 71
     3
 72
    18
 73
    14
 74
    12
 42
0.0000000001
 43
0.0000000001
 44
0.0000000001
 40
0.0
 40
0.0
 40
0.0
 40
0.0
 40
0.3913118960624632
 40
0.7826237921249391
 40
1.482623792124899
 40
1.873935688187413
 40
2.2652475842498
 40
2.656559480312326
 40
3.047871376374739
 40
4.097871376374778
 40
4.489183272437153
 40
4.880495168499705
 40
5.271807064562143
 40
5.271807064562143
 40
5.271807064562143
 40
5.271807064562143
 10
668.1145083674195
 20
1.407289547485206
 30
0.0
 10
668.1707932090658
 20
1.289649814130783
 30
0.0
 10
668.2833628923584
 20
1.054370347421933
 30
0.0
 10
668.543186581499
 20
0.6307713761078736
 30
0.0
 10
668.5432640694631
 20
0.083788757577983
 30
0.0
 10
668.2832329410922
 20
-0.3397476026076874
 30
0.0
 10
668.1149938741837
 20
-0.6928791264885889
 30
0.0
 10
667.9438417666898
 20
-1.044998606526481
 30
0.0
 10
667.6360682050499
 20
-1.573258024938965
 30
0.0
 10
667.6356714178023
 20
-2.262308248798692
 30
0.0
 10
667.9442853883188
 20
-2.790219391149604
 30
0.0
 10
668.1133141121947
 20
-3.143333217855989
 30
0.0
 10
668.2307769490112
 20
-3.37625137429517
 30
0.0
 10
668.2895083674194
 20
-3.492710452514742
 30
0.0
 11
668.1145083674195
 21
1.407289547485206
 31
0.0
 11
668.2895083674194
 21
1.057289547485183
 31
0.0
 11
668.4645083674195
 21
0.7072895474852033
 31
0.0
 11
668.4645083674195
 21
0.007289547485243
 31
0.0
 11
668.2895083674194
 21
-0.3427104525147797
 31
0.0
 11
668.1145083674195
 21
-0.6927104525147172
 31
0.0
 11
667.9395083674193
 21
-1.042710452514697
 31
0.0
 11
667.7645083674194
 21
-1.39271045251472
 31
0.0
 11
667.7645083674194
 21
-2.442710452514759
 31
0.0
 11
667.9395083674193
 21
-2.792710452514739
 31
0.0
 11
668.1145083674195
 21
-3.142710452514748
 31
0.0
 11
668.2895083674194
 21
-3.492710452514742
 31
0.0
  0
LINE
  5
4304
330
17
100
AcDbEntity
  8
0
100
AcDbLine
 10
658.2457345521302
 20
-2.110083666096613
 30
0.0
 11
666.8052564532302
 21
-2.110083666096613
 31
0.0
  0
LINE
  5
4305
330
17
100
AcDbEntity
  8
0
100
AcDbLine
 10
658.2457345521302
 20
-1.110083666096613
 30
0.0
 11
667.0281473026367
 21
-1.110083666096613
 31
0.0
  0
LINE
  5
4306
330
17
100
AcDbEntity
  8
0
100
AcDbLine
 10
658.2457345521302
 20
-0.1100836660966138
 30
0.0
 11
667.5397619675915
 21
-0.1100836660966138
 31
0.0
  0
LINE
  5
4307
330
17
100
AcDbEntity
  8
0
100
AcDbLine
 10
685.660338051444
 20
-0.1100836660966138
 30
0.0
 11
685.660338051444
 21
-2.110083666096613
 31
0.0
  0
LINE
  5
4308
330
17
100
AcDbEntity
  8
0
100
AcDbLine
 10
668.4147619675915
 20
-0.1100836660966138
 30
0.0
 11
685.6603380514436
 21
-0.1100836660966138
 31
0.0
  0
LINE
  5
4309
330
17
100
AcDbEntity
  8
0
100
AcDbLine
 10
667.6802564532302
 20
-2.110083666096613
 30
0.0
 11
685.660338051444
 21
-2.110083666096613
 31
0.0
  0
LINE
  5
430A
330
17
100
AcDbEntity
  8
0
100
AcDbLine
 10
667.9031473026367
 20
-1.110083666096613
 30
0.0
 11
685.660338051444
 21
-1.110083666096613
 31
0.0
  0
POINT
  5
430B
330
17
100
AcDbEntity
  8
0
100
AcDbPoint
 10
685.6603380514436
 20
-0.1100836660966138
 30
0.0
  0
POINT
  5
430C
330
17
100
AcDbEntity
  8
0
100
AcDbPoint
 10
685.660338051444
 20
-0.6100836660966138
 30
0.0
  0
POINT
  5
430D
330
17
100
AcDbEntity
  8
0
100
AcDbPoint
 10
685.6603380514436
 20
-2.110083666096613
 30
0.0
  0
POINT
  5
430E
330
17
100
AcDbEntity
  8
0
100
AcDbPoint
 10
685.660338051444
 20
-1.610083666096613
 30
0.0
  0
LINE
  5
430F
330
17
100
AcDbEntity
  8
0
100
AcDbLine
 10
685.660338051444
 20
-1.860083666096613
 30
0.0
 11
692.660338051444
 21
-1.860083666096613
 31
0.0
  0
LINE
  5
4310
330
17
100
AcDbEntity
  8
0
100
AcDbLine
 10
685.660338051444
 20
-1.360083666096613
 30
0.0
 11
692.660338051444
 21
-1.360083666096613
 31
0.0
  0
LINE
  5
4311
330
17
100
AcDbEntity
  8
0
100
AcDbLine
 10
685.660338051444
 20
-0.8600836660966137
 30
0.0
 11
692.660338051444
 21
-0.8600836660966137
 31
0.0
  0
LINE
  5
4312
330
17
100
AcDbEntity
  8
0
100
AcDbLine
 10
685.660338051444
 20
-0.3600836660966138
 30
0.0
 11
692.660338051444
 21
-0.3600836660966138
 31
0.0
  0
DIMENSION
  5
4313
330
17
100
AcDbEntity
  8
Z_OM_DIM
100
AcDbDimension
  2
*D1
 10
692.660338051444
 20
-27.21133347010536
 30
0.0
 11
676.953036301787
 21
-25.33633347010536
 31
0.0
 70
    32
  1
180 - 200
 71
     5
 42
31.41460349931378
  3
CatalogDxf
100
AcDbAlignedDimension
 13
661.2457345521302
 23
-13.61008366609661
 33
0.0
 14
692.660338051444
 24
-1.860083666096613
 34
0.0
100
AcDbRotatedDimension
  0
LINE
  5
447E
330
17
100
AcDbEntity
  8
additional
  6
CENTER2
 48
0.5
100
AcDbLine
 10
620.9390780337328
 20
-76.46453610279024
 30
0.0
 11
664.521260076196
 21
-76.46453610279019
 31
0.0
  0
LINE
  5
447F
330
17
100
AcDbEntity
  8
0
 48
0.5
100
AcDbLine
 10
636.9457345521302
 20
-13.61008366609661
 30
0.0
 11
636.9457345521302
 21
11.38991633390338
 31
0.0
  0
LINE
  5
4480
330
17
100
AcDbEntity
  8
0
 48
0.5
100
AcDbLine
 10
658.2457345521302
 20
-13.61008366609661
 30
0.0
 11
658.2457345521302
 21
11.38991633390338
 31
0.0
  0
LINE
  5
4481
330
17
100
AcDbEntity
  8
0
 48
0.5
100
AcDbLine
 10
634.3457345521303
 20
11.38991633390338
 30
0.0
 11
634.3457345521303
 21
-13.61008366609661
 31
0.0
  0
LINE
  5
4482
330
17
100
AcDbEntity
  8
0
 48
0.5
100
AcDbLine
 10
632.7457345521304
 20
11.38991633390338
 30
0.0
 11
632.7457345521304
 21
-13.61008366609661
 31
0.0
  0
LINE
  5
4483
330
17
100
AcDbEntity
  8
0
 48
0.5
100
AcDbLine
 10
659.2457345521302
 20
11.38991633390338
 30
0.0
 11
659.2457345521302
 21
-0.1100836660966138
 31
0.0
  0
LINE
  5
4484
330
17
100
AcDbEntity
  8
0
 48
0.5
100
AcDbLine
 10
659.2457345521302
 20
-2.110083666096613
 30
0.0
 11
659.2457345521302
 21
-13.61008366609661
 31
0.0
  0
LINE
  5
4485
330
17
100
AcDbEntity
  8
0
 48
0.5
100
AcDbLine
 10
635.9457345521303
 20
-13.61008366609661
 30
0.0
 11
635.9457345521303
 21
11.38991633390338
 31
0.0
  0
LINE
  5
4486
330
17
100
AcDbEntity
  8
0
 48
0.5
100
AcDbLine
 10
635.9457345521303
 20
11.38991633390338
 30
0.0
 11
635.9457345521303
 21
-13.61008366609661
 31
0.0
  0
LINE
  5
4487
330
17
100
AcDbEntity
  8
0
 48
0.5
100
AcDbLine
 10
661.2457345521302
 20
11.38991633390344
 30
0.0
 11
661.2457345521303
 21
-0.1100836660966138
 31
0.0
  0
LINE
  5
4488
330
17
100
AcDbEntity
  8
0
 48
0.5
100
AcDbLine
 10
661.2457345521302
 20
-2.110083666096613
 30
0.0
 11
661.2457345521302
 21
-13.61008366609661
 31
0.0
  0
LINE
  5
4489
330
17
100
AcDbEntity
  8
0
 48
0.5
100
AcDbLine
 10
631.4457345521303
 20
6.889916333903386
 30
0.0
 11
632.7457345521304
 21
6.889916333903386
 31
0.0
  0
LINE
  5
448A
330
17
100
AcDbEntity
  8
0
 48
0.5
100
AcDbLine
 10
632.7457345521304
 20
-9.110083666096613
 30
0.0
 11
631.4457345521303
 21
-9.110083666096613
 31
0.0
  0
LINE
  5
448B
330
17
100
AcDbEntity
  8
0
 48
0.5
100
AcDbLine
 10
631.9457345521303
 20
-13.61008366609661
 30
0.0
 11
659.2457345521302
 21
-13.61008366609661
 31
0.0
  0
LINE
  5
448C
330
17
100
AcDbEntity
  8
0
 48
0.5
100
AcDbLine
 10
659.2457345521302
 20
-15.61008366609661
 30
0.0
 11
631.9457345521303
 21
-15.61008366609661
 31
0.0
  0
ARC
  5
448D
330
17
100
AcDbEntity
  8
0
 48
0.5
100
AcDbCircle
 10
659.2457345521302
 20
-13.61008366609661
 30
0.0
 40
2.0
100
AcDbArc
 50
270.0
 51
0.0
  0
LINE
  5
448E
330
17
100
AcDbEntity
  8
0
 48
0.5
100
AcDbLine
 10
636.9457345521302
 20
-13.11008366609661
 30
0.0
 11
658.2457345521302
 21
-13.11008366609661
 31
0.0
  0
LINE
  5
448F
330
17
100
AcDbEntity
  8
0
 48
0.5
100
AcDbLine
 10
631.9457345521303
 20
-13.61008366609661
 30
0.0
 11
631.9457345521303
 21
-15.61008366609661
 31
0.0
  0
LINE
  5
4490
330
17
100
AcDbEntity
  8
0
 48
0.5
100
AcDbLine
 10
632.2457345521304
 20
-9.110083666096613
 30
0.0
 11
632.2457345521304
 21
6.889916333903386
 31
0.0
  0
LINE
  5
4491
330
17
100
AcDbEntity
  8
0
 48
0.5
100
AcDbLine
 10
631.4457345521303
 20
6.889916333903386
 30
0.0
 11
631.4457345521303
 21
-9.110083666096613
 31
0.0
  0
LINE
  5
4492
330
17
100
AcDbEntity
  8
0
 48
0.5
100
AcDbLine
 10
630.9457345521302
 20
-2.410083666096625
 30
0.0
 11
623.9457345521302
 21
-2.410083666096625
 31
0.0
  0
LINE
  5
4493
330
17
100
AcDbEntity
  8
0
 48
0.5
100
AcDbLine
 10
630.9457345521302
 20
0.1899163339033976
 30
0.0
 11
623.9457345521302
 21
0.1899163339033976
 31
0.0
  0
LINE
  5
4494
330
17
100
AcDbEntity
  8
0
 48
0.5
100
AcDbLine
 10
630.9457345521302
 20
-2.410083666096625
 30
0.0
 11
630.9457345521302
 21
0.1899163339033976
 31
0.0
  0
LINE
  5
4495
330
17
100
AcDbEntity
  8
0
 48
0.5
100
AcDbLine
 10
631.9457345521303
 20
11.38991633390338
 30
0.0
 11
659.2457345521302
 21
11.38991633390338
 31
0.0
  0
LINE
  5
4496
330
17
100
AcDbEntity
  8
0
 48
0.5
100
AcDbLine
 10
659.2457345521302
 20
13.38991633390338
 30
0.0
 11
631.9457345521303
 21
13.38991633390338
 31
0.0
  0
LINE
  5
4497
330
17
100
AcDbEntity
  8
0
 48
0.5
100
AcDbLine
 10
636.9457345521302
 20
10.88991633390338
 30
0.0
 11
658.2457345521302
 21
10.88991633390338
 31
0.0
  0
ARC
  5
4498
330
17
100
AcDbEntity
  8
0
 48
0.5
100
AcDbCircle
 10
659.2457345521302
 20
11.38991633390338
 30
0.0
 40
2.0
100
AcDbArc
 50
0.0
 51
90.0
  0
LINE
  5
4499
330
17
100
AcDbEntity
  8
0
 48
0.5
100
AcDbLine
 10
631.9457345521303
 20
13.38991633390338
 30
0.0
 11
631.9457345521303
 21
11.38991633390338
 31
0.0
  0
LINE
  5
449A
330
17
100
AcDbEntity
  8
0
 48
0.5
100
AcDbLine
 10
632.2457345521304
 20
-81.46453610279024
 30
0.0
 11
632.2457345521302
 21
-71.46453610279024
 31
0.0
  0
LINE
  5
449B
330
17
100
AcDbEntity
  8
0
 48
0.5
100
AcDbLine
 10
631.4457345521303
 20
-84.46453610279025
 30
0.0
 11
631.4457345521303
 21
-68.46453610279024
 31
0.0
  0
LINE
  5
449C
330
17
100
AcDbEntity
  8
0
 48
0.5
100
AcDbLine
 10
632.7457345521303
 20
-71.46453610279024
 30
0.0
 11
632.7457345521303
 21
-81.46453610279024
 31
0.0
  0
LINE
  5
449D
330
17
100
AcDbEntity
  8
0
 48
0.5
100
AcDbLine
 10
634.3457345521302
 20
-71.46453610279024
 30
0.0
 11
634.3457345521302
 21
-81.46453610279024
 31
0.0
  0
LINE
  5
449E
330
17
100
AcDbEntity
  8
0
 48
0.5
100
AcDbLine
 10
635.9457345521303
 20
-81.46453610279024
 30
0.0
 11
635.9457345521303
 21
-71.46453610279024
 31
0.0
  0
LINE
  5
449F
330
17
100
AcDbEntity
  8
0
 48
0.5
100
AcDbLine
 10
631.9457345521303
 20
-88.46453610279025
 30
0.0
 11
661.2457345521302
 21
-88.46453610279025
 31
0.0
  0
CIRCLE
  5
44A0
330
17
100
AcDbEntity
  8
0
 48
0.5
100
AcDbCircle
 10
653.2457345521302
 20
-86.16453610279023
 30
0.0
 40
1.149999999999999
  0
CIRCLE
  5
44A1
330
17
100
AcDbEntity
  8
additional
  6
HIDDEN2
 48
0.5
100
AcDbCircle
 10
653.2457345521302
 20
-86.16453610279023
 30
0.0
 40
1.5
  0
CIRCLE
  5
44A2
330
17
100
AcDbEntity
  8
0
 48
0.5
100
AcDbCircle
 10
640.2457345521302
 20
-86.16453610279023
 30
0.0
 40
1.149999999999999
  0
CIRCLE
  5
44A3
330
17
100
AcDbEntity
  8
additional
  6
HIDDEN2
 48
0.5
100
AcDbCircle
 10
640.2457345521302
 20
-86.16453610279023
 30
0.0
 40
1.5
  0
LINE
  5
44A4
330
17
100
AcDbEntity
  8
0
 48
0.5
100
AcDbLine
 10
631.9457345521303
 20
-81.46453610279024
 30
0.0
 11
635.9457345521303
 21
-81.46453610279024
 31
0.0
  0
LINE
  5
44A5
330
17
100
AcDbEntity
  8
0
 48
0.5
100
AcDbLine
 10
631.9457345521303
 20
-83.46453610279025
 30
0.0
 11
631.9457345521303
 21
-88.46453610279025
 31
0.0
  0
LINE
  5
44A6
330
17
100
AcDbEntity
  8
0
 48
0.5
100
AcDbLine
 10
631.4457345521303
 20
-84.46453610279025
 30
0.0
 11
631.9457345521303
 21
-84.46453610279025
 31
0.0
  0
LINE
  5
44A7
330
17
100
AcDbEntity
  8
0
 48
0.5
100
AcDbLine
 10
631.9457345521303
 20
-64.46453610279025
 30
0.0
 11
661.2457345521302
 21
-64.46453610279025
 31
0.0
  0
CIRCLE
  5
44A8
330
17
100
AcDbEntity
  8
0
 48
0.5
100
AcDbCircle
 10
653.2457345521302
 20
-66.76453610279025
 30
0.0
 40
1.149999999999999
  0
CIRCLE
  5
44A9
330
17
100
AcDbEntity
  8
additional
  6
HIDDEN2
 48
0.5
100
AcDbCircle
 10
653.2457345521302
 20
-66.76453610279025
 30
0.0
 40
1.5
  0
LINE
  5
44AA
330
17
100
AcDbEntity
  8
0
 48
0.5
100
AcDbLine
 10
658.2457345521294
 20
-62.96453610281367
 30
0.0
 11
658.2457345521302
 21
-64.46453610279025
 31
0.0
  0
CIRCLE
  5
44AB
330
17
100
AcDbEntity
  8
0
 48
0.5
100
AcDbCircle
 10
640.2457345521302
 20
-66.76453610279025
 30
0.0
 40
1.149999999999999
  0
CIRCLE
  5
44AC
330
17
100
AcDbEntity
  8
additional
  6
HIDDEN2
 48
0.5
100
AcDbCircle
 10
640.2457345521302
 20
-66.76453610279025
 30
0.0
 40
1.5
  0
LINE
  5
44AD
330
17
100
AcDbEntity
  8
0
 48
0.5
100
AcDbLine
 10
631.9457345521303
 20
-71.46453610279024
 30
0.0
 11
635.9457345521303
 21
-71.46453610279024
 31
0.0
  0
LINE
  5
44AE
330
17
100
AcDbEntity
  8
0
 48
0.5
100
AcDbLine
 10
636.9457345521302
 20
-64.46453610279019
 30
0.0
 11
645.1516617404349
 21
-62.96453610281367
 31
0.0
  0
LINE
  5
44AF
330
17
100
AcDbEntity
  8
0
 48
0.5
100
AcDbLine
 10
631.9457345521303
 20
-83.46453610279025
 30
0.0
 11
631.9457345521303
 21
-81.46453610279024
 31
0.0
  0
LINE
  5
44B0
330
17
100
AcDbEntity
  8
0
 48
0.5
100
AcDbLine
 10
631.9457345521303
 20
-71.46453610279024
 30
0.0
 11
631.9457345521303
 21
-64.46453610279025
 31
0.0
  0
CIRCLE
  5
44B1
330
17
100
AcDbEntity
  8
0
 48
0.5
100
AcDbCircle
 10
626.4457345521302
 20
-76.46453610279024
 30
0.0
 40
1.0
  0
LINE
  5
44B2
330
17
100
AcDbEntity
  8
0
 48
0.5
100
AcDbLine
 10
563.2556252471339
 20
-81.29257918461934
 30
0.0
 11
563.2556252471339
 21
-71.63649302096098
 31
0.0
  0
LINE
  5
44B3
330
17
100
AcDbEntity
  8
0
 48
0.5
100
AcDbLine
 10
560.6556252471338
 20
-81.29257918461986
 30
0.0
 11
560.6556252471338
 21
-71.63649302096098
 31
0.0
  0
ARC
  5
44B4
330
17
100
AcDbEntity
  8
0
 48
0.5
100
AcDbCircle
 10
561.9556252471339
 20
-76.46453610279031
 30
0.0
 40
5.75
100
AcDbArc
 50
125.4650237999068
 51
184.5349762000936
  0
ARC
  5
44B5
330
17
100
AcDbEntity
  8
0
 48
0.5
100
AcDbCircle
 10
561.9556252471339
 20
-76.46453610279031
 30
0.0
 40
5.75
100
AcDbArc
 50
355.4650237999064
 51
54.53497620009319
  0
CIRCLE
  5
44B6
330
17
100
AcDbEntity
  8
0
 48
0.5
100
AcDbCircle
 10
561.9556252471339
 20
-76.46453610279031
 30
0.0
 40
8.0
  0
CIRCLE
  5
44B7
330
17
100
AcDbEntity
  8
0
 48
0.5
100
AcDbCircle
 10
561.9556252471339
 20
-76.46453610279031
 30
0.0
 40
5.0
  0
LINE
  5
44B8
330
17
100
AcDbEntity
  8
0
 48
0.5
100
AcDbLine
 10
576.4556252471338
 20
-88.46453610279025
 30
0.0
 11
576.4556252471338
 21
-64.46453610279025
 31
0.0
  0
LINE
  5
44B9
330
17
100
AcDbEntity
  8
0
 48
0.5
100
AcDbLine
 10
547.4556252471338
 20
-64.46453610279025
 30
0.0
 11
547.4556252471338
 21
-88.46453610279025
 31
0.0
  0
LINE
  5
44BA
330
17
100
AcDbEntity
  8
0
 48
0.5
100
AcDbLine
 10
576.4556252471338
 20
-88.46453610279025
 30
0.0
 11
547.4556252471338
 21
-88.46453610279025
 31
0.0
  0
LINE
  5
44BB
330
17
100
AcDbEntity
  8
0
 48
0.5
100
AcDbLine
 10
574.4556252471339
 20
-81.46453610279024
 30
0.0
 11
576.4556252471338
 21
-81.46453610279024
 31
0.0
  0
LINE
  5
44BC
330
17
100
AcDbEntity
  8
0
 48
0.5
100
AcDbLine
 10
574.4556252471339
 20
-81.46453610279024
 30
0.0
 11
574.4556252471339
 21
-88.46453610279025
 31
0.0
  0
ARC
  5
44BD
330
17
100
AcDbEntity
  8
0
 48
0.5
100
AcDbCircle
 10
565.0017060690719
 20
-72.18856935523234
 30
0.0
 40
0.5
100
AcDbArc
 50
54.53497620009319
 51
149.9999999999966
  0
LINE
  5
44BE
330
17
100
AcDbEntity
  8
0
 48
0.5
100
AcDbLine
 10
564.4556252471338
 20
-72.13440908386809
 30
0.0
 11
564.5686933671798
 21
-71.93856935523235
 31
0.0
  0
ARC
  5
44BF
330
17
100
AcDbEntity
  8
0
 48
0.5
100
AcDbCircle
 10
558.9095444251958
 20
-72.18856935523234
 30
0.0
 40
0.5
100
AcDbArc
 50
30.00000000000055
 51
125.4650237999068
  0
LINE
  5
44C0
330
17
100
AcDbEntity
  8
0
 48
0.5
100
AcDbLine
 10
559.4556252471338
 20
-72.13440908386809
 30
0.0
 11
559.3425571270881
 21
-71.93856935523235
 31
0.0
  0
LINE
  5
44C1
330
17
100
AcDbEntity
  8
0
 48
0.5
100
AcDbLine
 10
576.4556252471338
 20
-64.46453610279025
 30
0.0
 11
547.4556252471338
 21
-64.46453610279025
 31
0.0
  0
LINE
  5
44C2
330
17
100
AcDbEntity
  8
0
 48
0.5
100
AcDbLine
 10
565.4911591530666
 20
-80.00007000872301
 30
0.0
 11
567.247127869263
 21
-81.75603872491945
 31
0.0
  0
ARC
  5
44C3
330
17
100
AcDbEntity
  8
0
 48
0.5
100
AcDbCircle
 10
567.1891888235077
 20
-76.87964126061519
 30
0.0
 40
0.5
100
AcDbArc
 50
260.0000000000014
 51
355.4650237999064
  0
LINE
  5
44C4
330
17
100
AcDbEntity
  8
0
 48
0.5
100
AcDbLine
 10
567.1023647346742
 20
-77.37204513712129
 30
0.0
 11
566.8796640121948
 21
-77.33277699112495
 31
0.0
  0
ARC
  5
44C5
330
17
100
AcDbEntity
  8
0
 48
0.5
100
AcDbCircle
 10
567.6006812598562
 20
-81.40248533432616
 30
0.0
 40
0.5
100
AcDbArc
 50
225.0
 51
318.8225537292762
  0
LINE
  5
44C6
330
17
100
AcDbEntity
  8
0
 48
0.5
100
AcDbLine
 10
558.420091341201
 20
-80.00007000872301
 30
0.0
 11
556.6641226250046
 21
-81.75603872491945
 31
0.0
  0
ARC
  5
44C7
330
17
100
AcDbEntity
  8
0
 48
0.5
100
AcDbCircle
 10
556.72206167076
 20
-76.87964126061524
 30
0.0
 40
0.5
100
AcDbArc
 50
184.5349762000936
 51
280.0000000000052
  0
LINE
  5
44C8
330
17
100
AcDbEntity
  8
0
 48
0.5
100
AcDbLine
 10
557.0315864820728
 20
-77.33277699112495
 30
0.0
 11
556.8088857595935
 21
-77.37204513712129
 31
0.0
  0
ARC
  5
44C9
330
17
100
AcDbEntity
  8
0
 48
0.5
100
AcDbCircle
 10
556.3105692344114
 20
-81.40248533432616
 30
0.0
 40
0.5
100
AcDbArc
 50
221.1774462707237
 51
315.0
  0
LINE
  5
44CA
330
17
100
AcDbEntity
  8
0
 48
0.5
100
AcDbLine
 10
661.2457345521302
 20
-88.46453610279025
 30
0.0
 11
661.2457345521302
 21
-64.46453610279025
 31
0.0
  0
LINE
  5
44CB
330
17
100
AcDbEntity
  8
0
 48
0.5
100
AcDbLine
 10
631.4457345521303
 20
-68.46453610279024
 30
0.0
 11
631.9457345521303
 21
-68.46453610279024
 31
0.0
  0
LINE
  5
44CC
330
17
100
AcDbEntity
  8
0
 48
0.5
100
AcDbLine
 10
574.4556252471339
 20
-71.46453610279024
 30
0.0
 11
576.4556252471338
 21
-71.46453610279024
 31
0.0
  0
LINE
  5
44CD
330
17
100
AcDbEntity
  8
0
 48
0.5
100
AcDbLine
 10
574.4556252471339
 20
-71.46453610279024
 30
0.0
 11
574.4556252471339
 21
-64.46453610279025
 31
0.0
  0
LINE
  5
44CE
330
17
100
AcDbEntity
  8
0
 48
0.5
100
AcDbLine
 10
549.4556252471339
 20
-81.46453610279024
 30
0.0
 11
547.4556252471338
 21
-81.46453610279024
 31
0.0
  0
LINE
  5
44CF
330
17
100
AcDbEntity
  8
0
 48
0.5
100
AcDbLine
 10
549.4556252471339
 20
-81.46453610279024
 30
0.0
 11
549.4556252471339
 21
-88.46453610279025
 31
0.0
  0
LINE
  5
44D0
330
17
100
AcDbEntity
  8
0
 48
0.5
100
AcDbLine
 10
549.4556252471339
 20
-71.46453610279024
 30
0.0
 11
549.4556252471339
 21
-64.46453610279025
 31
0.0
  0
LINE
  5
44D1
330
17
100
AcDbEntity
  8
0
 48
0.5
100
AcDbLine
 10
549.4556252471339
 20
-71.46453610279024
 30
0.0
 11
547.4556252471338
 21
-71.46453610279024
 31
0.0
  0
LINE
  5
44D6
330
17
100
AcDbEntity
  8
0
100
AcDbLine
 10
661.2457345521302
 20
-3.610083666096613
 30
0.0
 11
661.7457345521302
 21
-3.610083666096613
 31
0.0
  0
LINE
  5
44D7
330
17
100
AcDbEntity
  8
0
100
AcDbLine
 10
661.7457345521302
 20
-3.610083666096613
 30
0.0
 11
661.7457345521303
 21
-2.110083666096613
 31
0.0
  0
LINE
  5
44D8
330
17
100
AcDbEntity
  8
0
100
AcDbLine
 10
661.7457345521302
 20
-0.1100836660966138
 30
0.0
 11
661.7457345521302
 21
1.389916333903386
 31
0.0
  0
LINE
  5
44D9
330
17
100
AcDbEntity
  8
0
100
AcDbLine
 10
661.7457345521302
 20
1.389916333903386
 30
0.0
 11
661.2457345521302
 21
1.389916333903386
 31
0.0
  0
LINE
  5
44DA
330
17
100
AcDbEntity
  8
0
 48
0.5
100
AcDbLine
 10
674.4117417750747
 20
-63.46453610280593
 30
0.0
 11
658.2457345521297
 21
-63.46453610282146
 31
0.0
  0
LINE
  5
44DB
330
17
100
AcDbEntity
  8
0
 48
0.5
100
AcDbLine
 10
673.9527962074361
 20
-64.46453610280653
 30
0.0
 11
661.2457345521302
 21
-64.46453610279025
 31
0.0
  0
LINE
  5
44DD
330
17
100
AcDbEntity
  8
0
 48
0.5
100
AcDbLine
 10
658.2457345521306
 20
-62.96453610281367
 30
0.0
 11
645.1516617404348
 21
-62.96453610281367
 31
0.0
  0
LINE
  5
44DE
330
17
100
AcDbEntity
  8
0
100
AcDbLine
 10
661.2457345521302
 20
-78.96453610279019
 30
0.0
 11
661.7457345521302
 21
-78.96453610279019
 31
0.0
  0
LINE
  5
44DF
330
17
100
AcDbEntity
  8
0
100
AcDbLine
 10
661.7457345521302
 20
-78.96453610279019
 30
0.0
 11
661.7457345521302
 21
-73.96453610279019
 31
0.0
  0
LINE
  5
44E0
330
17
100
AcDbEntity
  8
0
100
AcDbLine
 10
661.7457345521302
 20
-73.96453610279019
 30
0.0
 11
661.2457345521302
 21
-73.96453610279019
 31
0.0
  0
LINE
  5
44E1
330
17
100
AcDbEntity
  8
additional
  6
CENTER2
 48
0.5
100
AcDbLine
 10
544.6188278068359
 20
-76.46453610279024
 30
0.0
 11
579.4468438285905
 21
-76.46453610279024
 31
0.0
  0
LINE
  5
44E2
330
17
100
AcDbEntity
  8
additional
  6
CENTER2
 48
0.5
100
AcDbLine
 10
561.9556252471339
 20
-61.34557329039319
 30
0.0
 11
561.9556252471339
 21
-91.7712799670142
 31
0.0
  0
LINE
  5
44E4
330
17
100
AcDbEntity
  8
additional
  6
CENTER2
 48
0.5
100
AcDbLine
 10
637.4651749339072
 20
-86.16453610279023
 30
0.0
 11
656.0334203312923
 21
-86.16453610279023
 31
0.0
  0
LINE
  5
44E5
330
17
100
AcDbEntity
  8
additional
  6
CENTER2
 48
0.5
100
AcDbLine
 10
640.2457345521302
 20
-63.83496532335931
 30
0.0
 11
640.2457345521302
 21
-89.08617493307975
 31
0.0
  0
LINE
  5
44E6
330
17
100
AcDbEntity
  8
additional
  6
CENTER2
 48
0.5
100
AcDbLine
 10
637.4651749339072
 20
-66.76453610279025
 30
0.0
 11
656.0334203312923
 21
-66.76453610279025
 31
0.0
  0
LINE
  5
44E7
330
17
100
AcDbEntity
  8
additional
  6
CENTER2
 48
0.5
100
AcDbLine
 10
653.2457345521302
 20
-63.83496532335931
 30
0.0
 11
653.2457345521302
 21
-89.08617493307975
 31
0.0
  0
LINE
  5
44E8
330
17
100
AcDbEntity
  8
additional
  6
CENTER2
 48
0.5
100
AcDbLine
 10
620.9390780337328
 20
-1.110083666096613
 30
0.0
 11
658.2457345521302
 21
-1.110083666096613
 31
0.0
  0
LINE
  5
44E9
330
17
100
AcDbEntity
  8
additional
  6
CENTER2
 48
0.5
100
AcDbLine
 10
626.4457345521304
 20
-8.906021457732322
 30
0.0
 11
626.4457345521304
 21
6.663375259735744
 31
0.0
  0
LINE
  5
44EA
330
17
100
AcDbEntity
  8
additional
 48
0.5
100
AcDbLine
 10
640.2457345521302
 20
15.49321370559306
 30
0.0
 11
640.2457345521302
 21
9.044983120207746
 31
0.0
  0
LINE
  5
44EB
330
17
100
AcDbEntity
  8
additional
 48
0.5
100
AcDbLine
 10
653.2457345521303
 20
15.49321370559306
 30
0.0
 11
653.2457345521303
 21
9.044983120207746
 31
0.0
  0
LINE
  5
44EC
330
17
100
AcDbEntity
  8
additional
 48
0.5
100
AcDbLine
 10
640.2457345521302
 20
-17.71338103778629
 30
0.0
 11
640.2457345521302
 21
-11.265150452401
 31
0.0
  0
LINE
  5
44ED
330
17
100
AcDbEntity
  8
additional
 48
0.5
100
AcDbLine
 10
653.2457345521303
 20
-17.71338103778629
 30
0.0
 11
653.2457345521303
 21
-11.26515045240103
 31
0.0
  0
LINE
  5
44EE
330
17
100
AcDbEntity
  8
0
 48
0.5
100
AcDbLine
 10
623.9457345521303
 20
3.38491633390339
 30
0.0
 11
623.9457345521303
 21
0.1899163339034544
 31
0.0
  0
LINE
  5
44EF
330
17
100
AcDbEntity
  8
0
 48
0.5
100
AcDbLine
 10
624.4457345521303
 20
-6.105083666096561
 30
0.0
 11
631.4457345521303
 21
-6.105083666096561
 31
0.0
  0
LINE
  5
44F0
330
17
100
AcDbEntity
  8
0
 48
0.5
100
AcDbLine
 10
631.4457345521303
 20
-6.105083666096561
 30
0.0
 11
631.4457345521303
 21
3.88491633390339
 31
0.0
  0
LINE
  5
44F1
330
17
100
AcDbEntity
  8
0
 48
0.5
100
AcDbLine
 10
631.4457345521303
 20
3.88491633390339
 30
0.0
 11
624.4457345521303
 21
3.88491633390339
 31
0.0
  0
LINE
  5
44F2
330
17
100
AcDbEntity
  8
0
 48
0.5
100
AcDbLine
 10
630.9457345521304
 20
0.1899163339034544
 30
0.0
 11
630.9457345521304
 21
-2.410083666096568
 31
0.0
  0
LINE
  5
44F3
330
17
100
AcDbEntity
  8
0
 48
0.5
100
AcDbLine
 10
623.9457345521303
 20
-2.410083666096568
 30
0.0
 11
630.9457345521304
 21
-2.410083666096568
 31
0.0
  0
LINE
  5
44F4
330
17
100
AcDbEntity
  8
additional
  6
HIDDEN2
100
AcDbLine
 10
625.4207345521304
 20
-5.605083666096561
 30
0.0
 11
625.4207345521304
 21
-2.410083666096568
 31
0.0
  0
LINE
  5
44F5
330
17
100
AcDbEntity
  8
additional
  6
HIDDEN2
100
AcDbLine
 10
627.4707345521303
 20
-5.605083666096561
 30
0.0
 11
627.4707345521303
 21
-2.410083666096568
 31
0.0
  0
LINE
  5
44F6
330
17
100
AcDbEntity
  8
additional
  6
HIDDEN2
100
AcDbLine
 10
627.4707345521303
 20
-5.605083666096561
 30
0.0
 11
627.9707345521303
 21
-6.105083666096561
 31
0.0
  0
LINE
  5
44F7
330
17
100
AcDbEntity
  8
additional
  6
HIDDEN2
100
AcDbLine
 10
625.4207345521304
 20
-5.605083666096561
 30
0.0
 11
624.9207345521304
 21
-6.105083666096561
 31
0.0
  0
LINE
  5
44F8
330
17
100
AcDbEntity
  8
additional
  6
HIDDEN2
100
AcDbLine
 10
625.4207345521304
 20
3.38491633390339
 30
0.0
 11
625.4207345521304
 21
0.1899163339034544
 31
0.0
  0
LINE
  5
44F9
330
17
100
AcDbEntity
  8
additional
  6
HIDDEN2
100
AcDbLine
 10
627.4707345521303
 20
3.38491633390339
 30
0.0
 11
627.4707345521303
 21
0.1899163339034544
 31
0.0
  0
LINE
  5
44FA
330
17
100
AcDbEntity
  8
additional
  6
HIDDEN2
100
AcDbLine
 10
627.4707345521303
 20
3.38491633390339
 30
0.0
 11
627.9707345521303
 21
3.88491633390339
 31
0.0
  0
LINE
  5
44FB
330
17
100
AcDbEntity
  8
additional
  6
HIDDEN2
100
AcDbLine
 10
625.4207345521304
 20
3.38491633390339
 30
0.0
 11
624.9207345521304
 21
3.88491633390339
 31
0.0
  0
LINE
  5
44FC
330
17
100
AcDbEntity
  8
0
 48
0.5
100
AcDbLine
 10
623.9457345521303
 20
0.1899163339034544
 30
0.0
 11
630.9457345521304
 21
0.1899163339034544
 31
0.0
  0
LINE
  5
44FD
330
17
100
AcDbEntity
  8
0
 48
0.5
100
AcDbLine
 10
623.9457345521303
 20
-5.605083666096561
 30
0.0
 11
624.4457345521303
 21
-6.105083666096561
 31
0.0
  0
LINE
  5
44FE
330
17
100
AcDbEntity
  8
0
 48
0.5
100
AcDbLine
 10
623.9457345521303
 20
3.38491633390339
 30
0.0
 11
624.4457345521303
 21
3.88491633390339
 31
0.0
  0
LINE
  5
44FF
330
17
100
AcDbEntity
  8
0
 48
0.5
100
AcDbLine
 10
623.9457345521303
 20
-2.410083666096568
 30
0.0
 11
623.9457345521303
 21
-5.605083666096561
 31
0.0
  0
LINE
  5
4500
330
17
100
AcDbEntity
  8
0
100
AcDbLine
 10
624.4457345521303
 20
-6.105083666096589
 30
0.0
 11
624.4457345521303
 21
-2.410083666096568
 31
0.0
  0
LINE
  5
4501
330
17
100
AcDbEntity
  8
0
100
AcDbLine
 10
624.4457345521304
 20
3.884916333903419
 30
0.0
 11
624.4457345521304
 21
0.1899163339034544
 31
0.0
  0
LINE
  5
4502
330
17
100
AcDbEntity
  8
additional
  6
HIDDEN2
 48
0.8
100
AcDbLine
 10
625.4207345521304
 20
-5.605083666096561
 30
0.0
 11
627.4707345521303
 21
-5.605083666096561
 31
0.0
  0
LINE
  5
4503
330
17
100
AcDbEntity
  8
additional
  6
HIDDEN2
 48
0.8
100
AcDbLine
 10
625.4207345521304
 20
3.38491633390339
 30
0.0
 11
627.4707345521303
 21
3.38491633390339
 31
0.0
  0
LINE
  5
4504
330
17
100
AcDbEntity
  8
0
 48
0.5
100
AcDbLine
 10
624.4457345521302
 20
-81.4595361027902
 30
0.0
 11
631.4457345521303
 21
-81.4595361027902
 31
0.0
  0
LINE
  5
4505
330
17
100
AcDbEntity
  8
0
 48
0.5
100
AcDbLine
 10
631.4457345521303
 20
-81.4595361027902
 30
0.0
 11
631.4457345521303
 21
-71.46953610279024
 31
0.0
  0
LINE
  5
4506
330
17
100
AcDbEntity
  8
0
 48
0.5
100
AcDbLine
 10
631.4457345521303
 20
-71.46953610279024
 30
0.0
 11
624.4457345521302
 21
-71.46953610279024
 31
0.0
  0
LINE
  5
4507
330
17
100
AcDbEntity
  8
0
 48
0.5
100
AcDbLine
 10
623.9457345521302
 20
-80.95953610279019
 30
0.0
 11
624.4457345521302
 21
-81.4595361027902
 31
0.0
  0
LINE
  5
4508
330
17
100
AcDbEntity
  8
0
 48
0.5
100
AcDbLine
 10
623.9457345521302
 20
-71.96953610279024
 30
0.0
 11
624.4457345521302
 21
-71.46953610279024
 31
0.0
  0
LINE
  5
4509
330
17
100
AcDbEntity
  8
0
 48
0.5
100
AcDbLine
 10
623.9457345521302
 20
-71.96953610279019
 30
0.0
 11
623.9457345521302
 21
-80.95953610279019
 31
0.0
  0
LINE
  5
450A
330
17
100
AcDbEntity
  8
0
100
AcDbLine
 10
624.4457345521302
 20
-81.4595361027902
 30
0.0
 11
624.4457345521302
 21
-71.46953610279024
 31
0.0
  0
ARC
  5
450B
330
17
100
AcDbEntity
  8
0
100
AcDbCircle
 10
561.9556252471337
 20
-76.46453610279024
 30
0.0
 40
4.494999999999926
100
AcDbArc
 50
106.810679772669
 51
253.189320227331
  0
ARC
  5
450C
330
17
100
AcDbEntity
  8
0
100
AcDbCircle
 10
561.9556252471337
 20
-76.46453610279024
 30
0.0
 40
4.494999999999926
100
AcDbArc
 50
286.8106797726757
 51
73.18932022732427
  0
LINE
  5
450D
330
17
100
AcDbEntity
  8
additional
  6
HIDDEN2
100
AcDbLine
 10
566.8546047327001
 20
-75.4645361027903
 30
0.0
 11
563.2556252471339
 21
-75.4645361027903
 31
0.0
  0
LINE
  5
450E
330
17
100
AcDbEntity
  8
additional
  6
HIDDEN2
100
AcDbLine
 10
560.6556252471338
 20
-75.4645361027903
 30
0.0
 11
557.0566457615675
 21
-75.4645361027903
 31
0.0
  0
LINE
  5
450F
330
17
100
AcDbEntity
  8
additional
  6
HIDDEN2
100
AcDbLine
 10
566.8546047327001
 20
-77.46453610279025
 30
0.0
 11
563.2556252471339
 21
-77.46453610279025
 31
0.0
  0
LINE
  5
4510
330
17
100
AcDbEntity
  8
additional
  6
HIDDEN2
100
AcDbLine
 10
560.6556252471338
 20
-77.46453610279025
 30
0.0
 11
557.0566457615675
 21
-77.46453610279025
 31
0.0
  0
LINE
  5
4511
330
17
100
AcDbEntity
  8
additional
 48
0.5
100
AcDbLine
 10
578.790151826471
 20
-66.76453610279025
 30
0.0
 11
572.7091703236103
 21
-66.76453610279025
 31
0.0
  0
LINE
  5
4512
330
17
100
AcDbEntity
  8
additional
 48
0.5
100
AcDbLine
 10
578.790151826471
 20
-86.16453610279029
 30
0.0
 11
572.7091703236103
 21
-86.16453610279029
 31
0.0
  0
LINE
  5
4513
330
17
100
AcDbEntity
  8
additional
 48
0.5
100
AcDbLine
 10
545.1210986677965
 20
-66.76453610279025
 30
0.0
 11
551.2020801706572
 21
-66.76453610279025
 31
0.0
  0
LINE
  5
4514
330
17
100
AcDbEntity
  8
additional
 48
0.5
100
AcDbLine
 10
545.1210986677965
 20
-86.16453610279029
 30
0.0
 11
551.2020801706572
 21
-86.16453610279029
 31
0.0
  0
INSERT
  5
4515
330
17
100
AcDbEntity
  8
0
100
AcDbBlockReference
  2
A$C70101BA6
 10
561.9556252471339
 20
-64.46453610279025
 30
0.0
 41
0.5
 42
0.5
 43
0.5
  0
SPLINE
  5
4535
330
17
100
AcDbEntity
  8
additional
 48
0.5
100
AcDbSpline
210
0.0
220
0.0
230
1.0
 70
     8
 71
     3
 72
    18
 73
    14
 74
    12
 42
0.0000000001
 43
0.0000000001
 44
0.0000000001
 40
0.0
 40
0.0
 40
0.0
 40
0.0
 40
0.3913118960624632
 40
0.7826237921249391
 40
1.482623792124899
 40
1.873935688187413
 40
2.2652475842498
 40
2.656559480312326
 40
3.047871376374739
 40
4.097871376374778
 40
4.489183272437153
 40
4.880495168499705
 40
5.271807064562143
 40
5.271807064562143
 40
5.271807064562143
 40
5.271807064562143
 10
674.3638381648455
 20
-61.4639747328347
 30
0.0
 10
674.4201230064918
 20
-61.58161446618911
 30
0.0
 10
674.5326926897844
 20
-61.81689393289797
 30
0.0
 10
674.7925163789251
 20
-62.24049290421203
 30
0.0
 10
674.7925938668892
 20
-62.78747552274193
 30
0.0
 10
674.5325627385182
 20
-63.21101188292757
 30
0.0
 10
674.3643236716097
 20
-63.56414340680849
 30
0.0
 10
674.193171564116
 20
-63.91626288684637
 30
0.0
 10
673.8853980024758
 20
-64.4445223052589
 30
0.0
 10
673.8850012152283
 20
-65.13357252911859
 30
0.0
 10
674.1936151857449
 20
-65.66148367146951
 30
0.0
 10
674.3626439096208
 20
-66.0145974981759
 30
0.0
 10
674.4801067464371
 20
-66.24751565461508
 30
0.0
 10
674.5388381648455
 20
-66.36397473283465
 30
0.0
 11
674.3638381648455
 21
-61.4639747328347
 31
0.0
 11
674.5388381648455
 21
-61.81397473283472
 31
0.0
 11
674.7138381648455
 21
-62.1639747328347
 31
0.0
 11
674.7138381648455
 21
-62.86397473283466
 31
0.0
 11
674.5388381648455
 21
-63.21397473283468
 31
0.0
 11
674.3638381648455
 21
-63.56397473283462
 31
0.0
 11
674.1888381648453
 21
-63.9139747328346
 31
0.0
 11
674.0138381648455
 21
-64.26397473283462
 31
0.0
 11
674.0138381648455
 21
-65.31397473283466
 31
0.0
 11
674.1888381648453
 21
-65.66397473283465
 31
0.0
 11
674.3638381648455
 21
-66.01397473283466
 31
0.0
 11
674.5388381648455
 21
-66.36397473283465
 31
0.0
  0
DIMENSION
  5
4536
330
17
100
AcDbEntity
  8
Z_OM_DIM
100
AcDbDimension
  2
*D4
 10
631.9457345521303
 20
-27.23832669393642
 30
0.0
 11
646.5957345521302
 21
-25.36332669393642
 31
0.0
 70
    32
 71
     5
 42
29.29999999999996
  3
CatalogDxf
100
AcDbAlignedDimension
 13
661.2457345521302
 23
-14.23508366609661
 33
0.0
 14
631.9457345521303
 24
-15.61008366609661
 34
0.0
100
AcDbRotatedDimension
  0
DIMENSION
  5
4543
330
17
100
AcDbEntity
  8
Z_OM_DIM
100
AcDbDimension
  2
*D5
 10
611.9887420278201
 20
-2.410083666096564
 30
0.0
 11
611.9887420278201
 21
8.314916333903498
 31
0.0
 70
   160
 71
     5
 42
2.599999999999965
  3
CatalogDxf
100
AcDbAlignedDimension
 13
623.9457345521302
 23
0.1899163339033976
 33
0.0
 14
623.9457345521303
 24
-2.410083666096568
 34
0.0
 50
90.0
100
AcDbRotatedDimension
  0
DIMENSION
  5
4552
330
17
100
AcDbEntity
  8
Z_OM_DIM
100
AcDbDimension
  2
*D6
 10
630.9457345521302
 20
-17.88170270514633
 30
0.0
 11
627.6341255348645
 21
-17.88170270514633
 31
0.0
 70
   160
 71
     5
 42
6.999999999999886
  3
CatalogDxf
100
AcDbAlignedDimension
 13
623.9457345521303
 23
-5.605083666096561
 33
0.0
 14
630.9457345521302
 24
-2.410083666096625
 34
0.0
100
AcDbRotatedDimension
  0
DIMENSION
  5
455F
330
17
100
AcDbEntity
  8
Z_OM_DIM
100
AcDbDimension
  2
*D7
 10
640.2457345521302
 20
-50.22413718026166
 30
0.0
 11
646.7457345521302
 21
-48.34913718026166
 31
0.0
 70
    32
 71
     5
 42
13.0
  3
CatalogDxf
100
AcDbAlignedDimension
 13
653.2457345521302
 23
-62.96453610281367
 33
0.0
 14
640.2457345521302
 24
-63.86131359223985
 34
0.0
100
AcDbRotatedDimension
  0
DIMENSION
  5
456C
330
17
100
AcDbEntity
  8
Z_OM_DIM
100
AcDbDimension
  2
*D8
 10
626.4457345521302
 20
-50.22413718026166
 30
0.0
 11
633.3457345521302
 21
-48.34913718026166
 31
0.0
 70
    32
 71
     5
 42
13.79999999999995
  3
CatalogDxf
100
AcDbAlignedDimension
 13
640.2457345521302
 23
-63.86131359223985
 33
0.0
 14
626.4457345521302
 24
-68.67983774405622
 34
0.0
100
AcDbRotatedDimension
1001
ACAD
1000
DSTYLE
1002
{
1070
   279
1070
     1
1002
}
  0
DIMENSION
  5
4579
330
17
100
AcDbEntity
  8
Z_OM_DIM
100
AcDbDimension
  2
*D9
 10
623.9457345521302
 20
-50.22413718026166
 30
0.0
 11
615.8207345521303
 21
-50.22413718026166
 31
0.0
 70
   160
 71
     5
 42
2.5
  3
CatalogDxf
100
AcDbAlignedDimension
 13
626.4457345521302
 23
-68.67983774405622
 33
0.0
 14
623.9457345521302
 24
-71.96953610279024
 34
0.0
100
AcDbRotatedDimension
  0
DIMENSION
  5
45A4
330
17
100
AcDbEntity
  8
Z_OM_DIM
100
AcDbDimension
  2
*D10
 10
611.9887420278201
 20
-81.4595361027902
 30
0.0
 11
609.8997141754149
 21
-77.04362970251384
 31
0.0
 70
   160
  1
%%c10
 71
     5
 42
9.989999999999952
  3
CatalogDxf
100
AcDbAlignedDimension
 13
624.4457345521302
 23
-71.46953610279024
 33
0.0
 14
624.4457345521302
 24
-81.4595361027902
 34
0.0
 50
90.0
100
AcDbRotatedDimension
1001
ACAD
1000
DSTYLE
1002
{
1070
   279
1070
     2
1002
}
  0
DIMENSION
  5
45BA
330
17
100
AcDbEntity
  8
Z_OM_DIM
100
AcDbDimension
  2
*D11
 10
675.7667955380338
 20
-86.16453610279025
 30
0.0
 11
673.8917955380339
 21
-76.46453610279015
 31
0.0
 70
    32
 71
     5
 42
19.39999999999997
  3
CatalogDxf
100
AcDbAlignedDimension
 13
656.0334203312923
 23
-66.76453610279025
 33
0.0
 14
656.0334203312923
 24
-86.16453610279023
 34
0.0
 50
90.0
100
AcDbRotatedDimension
  0
DIMENSION
  5
45C7
330
17
100
AcDbEntity
  8
Z_OM_DIM
100
AcDbDimension
  2
*D12
 10
576.4556252471338
 20
-103.3248885637628
 30
0.0
 11
561.9556252471339
 21
-101.4498885637628
 31
0.0
 70
    32
 71
     5
 42
29.0
  3
CatalogDxf
100
AcDbAlignedDimension
 13
547.4556252471338
 23
-88.46453610279025
 33
0.0
 14
576.4556252471338
 24
-88.46453610279025
 34
0.0
100
AcDbRotatedDimension
  0
DIMENSION
  5
45D4
330
17
100
AcDbEntity
  8
Z_OM_DIM
100
AcDbDimension
  2
*D13
 10
591.3362892827968
 20
-88.46453610279025
 30
0.0
 11
589.4612892827967
 21
-76.46453610279016
 31
0.0
 70
    32
 71
     5
 42
24.0
  3
CatalogDxf
100
AcDbAlignedDimension
 13
576.4556252471338
 23
-64.46453610279025
 33
0.0
 14
576.4556252471338
 24
-88.46453610279025
 34
0.0
 50
90.0
100
AcDbRotatedDimension
  0
LINE
  5
471C
330
17
100
AcDbEntity
  8
additional
  6
CENTER2
 48
0.5
100
AcDbLine
 10
626.4457345521302
 20
-84.24923446152428
 30
0.0
 11
626.4457345521302
 21
-68.67983774405622
 31
0.0
  0
DIMENSION
  5
4731
330
17
100
AcDbEntity
  8
Z_OM_DIM
100
AcDbDimension
  2
*D14
 10
640.2457345521302
 20
-56.10522538625076
 30
0.0
 11
636.0716555133621
 21
-53.50679567968512
 31
0.0
 70
   160
 71
     5
 42
8.299999999999954
  3
CatalogDxf
100
AcDbAlignedDimension
 13
631.9457345521303
 23
-64.46453610279025
 33
0.0
 14
640.2457345521302
 24
-63.83496532335931
 34
0.0
100
AcDbRotatedDimension
1001
ACAD
1000
DSTYLE
1002
{
1070
   279
1070
     2
1002
}
  0
MTEXT
  5
4794
330
17
100
AcDbEntity
  8
Z_OM_DIM
100
AcDbMText
 10
617.0461987985954
 20
-90.99571903699349
 30
0.0
 40
2.5
 41
2.830179177230547
 71
     7
 72
     1
  1
%%C2
  7
CatalogDxf
 73
     1
 44
1.0
1001
ACAD
1000
MTEXTBEGIN
1070
    73
1070
     1
1070
    44
1040
1.0
1070
    74
1070
     0
1000
MTEXTEND
  0
LEADER
  5
4795
330
17
100
AcDbEntity
  8
Z_OM_DIM
100
AcDbLeader
  3
ISO-25
 76
     3
 10
626.0875926804986
 20
-77.39756356241724
 30
0.0
 10
622.4346625170676
 20
-91.70031927890081
 30
0.0
 10
615.9071739475364
 20
-91.70031927890081
 30
0.0
211
-1.0
221
0.0
231
0.0
1001
ACAD
1000
DSTYLE
1002
{
1070
   341
1005
977
1070
   147
1040
0.625
1070
    77
1070
     0
1002
}
  0
LEADER
  5
47A5
330
17
100
AcDbEntity
  8
Z_OM_DIM
100
AcDbLeader
  3
ISO-25
 76
     3
 10
653.958791624839
 20
-65.86228912382063
 30
0.0
 10
664.9998984805062
 20
-51.89173096476259
 30
0.0
 10
690.1696721975947
 20
-51.89173096476259
 30
0.0
1001
ACAD
1000
DSTYLE
1002
{
1070
   341
1005
977
1070
   147
1040
0.625
1070
    77
1070
     0
1002
}
  0
MTEXT
  5
47A6
330
17
100
AcDbEntity
  8
Z_OM_DIM
100
AcDbMText
 10
666.1738964844759
 20
-51.9322278794487
 30
0.0
 40
2.5
 41
24.05930144544266
 71
     4
 72
     1
  1
4-M3\Pboth faces
  7
CatalogDxf
 73
     1
 44
1.0
1001
ACAD
1000
MTEXTBEGIN
1070
    73
1070
     1
1070
    44
1040
1.0
1070
    74
1070
     0
1000
MTEXTEND
  0
MTEXT
  5
47AF
330
17
100
AcDbEntity
  8
Z_OM_DIM
100
AcDbMText
 10
681.5778854473172
 20
8.589623207852959
 30
0.0
 40
2.5
 41
42.8494883882687
 71
     7
 72
     1
  1
UL1007 AWG22 white
  7
CatalogDxf
 73
     1
 44
1.0
1001
ACAD
1000
ACAD_MTEXT_DEFINED_HEIGHT_BEGIN
1070
    46
1040
2.500000000000005
1000
ACAD_MTEXT_DEFINED_HEIGHT_END
1000
MTEXTBEGIN
1070
    73
1070
     1
1070
    44
1040
1.0
1070
    74
1070
     0
1000
MTEXTEND
  0
LEADER
  5
47B0
330
17
100
AcDbEntity
  8
Z_OM_DIM
100
AcDbLeader
  3
ISO-25
 76
     3
 10
675.5596529215631
 20
-0.1100836660966138
 30
0.0
 10
681.0137759535576
 20
7.964623207852966
 30
0.0
 10
722.3720660256758
 20
7.964623207852966
 30
0.0
1001
ACAD
1000
DSTYLE
1002
{
1070
   341
1005
977
1070
   147
1040
0.625
1070
    77
1070
     0
1002
}
  0
ENDSEC
  0
SECTION
  2
OBJECTS
  0
DICTIONARY
  5
C
330
0
100
AcDbDictionary
281
     1
  3
ACAD_2007HEADERVARS_RT
350
45F1
  3
ACAD_COLOR
350
3D57
  3
ACAD_GROUP
350
D
  3
ACAD_LAYOUT
350
3D5A
  3
ACAD_MATERIAL
350
3D42
  3
ACAD_MLINESTYLE
350
1A
  3
ACAD_PLOTSETTINGS
350
957
  3
ACAD_PLOTSTYLENAME
350
3D40
  3
ACAD_TABLESTYLE
350
3D58
  3
ACAD_VISUALSTYLE
350
3D46
  3
ACADDIM
350
1BB8
  3
ACDBHEADERROUNDTRIPXREC
350
4920
  3
AcDbVariableDictionary
350
4116
  3
DWGPROPS
350
491F
1001
ACAD
1000
TREAT_AS_HARD
1070
     0
  0
DICTIONARY
  5
45F5
330
8
100
AcDbDictionary
280
     1
281
     1
  3
ACAD_XREC_ROUNDTRIP
360
45F6
  0
DICTIONARY
  5
3DBA
330
2
100
AcDbDictionary
280
     1
281
     1
  3
ACAD_LAYERFILTERS
360
421C
  3
ACAD_LAYERSTATES
360
3DBB
  3
ACLYDICTIONARY
360
421B
  0
DICTIONARY
  5
45F7
330
E
100
AcDbDictionary
280
     1
281
     1
  3
ACAD_XREC_ROUNDTRIP
360
45F8
  0
DICTIONARY
  5
45F9
330
27
100
AcDbDictionary
280
     1
281
     1
  3
ACAD_XREC_ROUNDTRIP
360
45FA
  0
DICTIONARY
  5
45FB
330
2B
100
AcDbDictionary
280
     1
281
     1
  3
ACAD_XREC_ROUNDTRIP
360
45FC
  0
DICTIONARY
  5
45FF
330
3DB5
100
AcDbDictionary
280
     1
281
     1
  3
ACAD_XREC_ROUNDTRIP
360
4600
  0
DICTIONARY
  5
1808
330
17
100
AcDbDictionary
280
     1
281
     1
  3
ACAD_LAYOUTSELFREF
360
3D3B
  3
ACAD_SORTENTS
360
4861
1001
ACAD
1000
TREAT_AS_HARD
1070
     1
  0
DICTIONARY
  5
1806
330
14
100
AcDbDictionary
280
     1
281
     1
  3
ACAD_LAYOUTSELFREF
360
3D3A
1001
ACAD
1000
TREAT_AS_HARD
1070
     1
  0
DICTIONARY
  5
433F
330
433E
100
AcDbDictionary
280
     1
281
     1
  3
ACAD_SORTENTS
360
4340
  0
DICTIONARY
  5
45F1
102
{ACAD_REACTORS
330
C
102
}
330
C
100
AcDbDictionary
281
     1
  3
DIMLTEX1
350
45F3
  3
DIMLTEX2
350
45F4
  3
DIMLTYPE
350
45F2
  0
DICTIONARY
  5
3D57
102
{ACAD_REACTORS
330
C
102
}
330
C
100
AcDbDictionary
281
     1
  0
DICTIONARY
  5
D
102
{ACAD_REACTORS
330
C
102
}
330
C
100
AcDbDictionary
281
     1
1001
ACAD
1000
TREAT_AS_HARD
1070
     0
  0
DICTIONARY
  5
3D5A
102
{ACAD_REACTORS
330
C
102
}
330
C
100
AcDbDictionary
281
     1
  3
Model
350
3D5B
  3
レイアウト1
350
3D5C
  0
DICTIONARY
  5
3D42
102
{ACAD_REACTORS
330
C
102
}
330
C
100
AcDbDictionary
281
     1
  3
ByBlock
350
3D44
  3
ByLayer
350
3D43
  3
Global
350
3D45
  0
DICTIONARY
  5
1A
102
{ACAD_REACTORS
330
C
102
}
330
C
100
AcDbDictionary
281
     1
  3
STANDARD
350
1B
1001
ACAD
1000
TREAT_AS_HARD
1070
     0
  0
DICTIONARY
  5
957
102
{ACAD_REACTORS
330
C
102
}
330
C
100
AcDbDictionary
281
     1
1001
ACAD
1000
TREAT_AS_HARD
1070
     0
  0
ACDBDICTIONARYWDFLT
  5
3D40
102
{ACAD_REACTORS
330
C
102
}
330
C
100
AcDbDictionary
281
     1
  3
Normal
350
3D41
100
AcDbDictionaryWithDefault
340
3D41
  0
DICTIONARY
  5
3D58
102
{ACAD_REACTORS
330
C
102
}
330
C
100
AcDbDictionary
281
     1
  3
Standard
350
3D59
  0
DICTIONARY
  5
3D46
102
{ACAD_REACTORS
330
C
102
}
330
C
100
AcDbDictionary
281
     1
  3
2dWireframe
350
3D4C
  3
3D Hidden
350
3D4E
  3
3dWireframe
350
3D4D
  3
Basic
350
3D4B
  3
Brighten
350
3D52
  3
ColorChange
350
3D56
  3
Conceptual
350
3D4F
  3
Dim
350
3D51
  3
Facepattern
350
3D55
  3
Flat
350
3D47
  3
FlatWithEdges
350
3D48
  3
Gouraud
350
3D49
  3
GouraudWithEdges
350
3D4A
  3
Linepattern
350
3D54
  3
Realistic
350
3D50
  3
Thicken
350
3D53
  0
XRECORD
  5
1BB8
102
{ACAD_REACTORS
330
C
102
}
330
C
100
AcDbXrecord
280
     1
 90
   990106
  3

 60
     0
 61
     0
 62
     4
 63
     4
 64
     1
 65
     0
 66
     0
 67
     2
 68
     1
 69
     0
 70
     0
 71
     0
 72
     0
 40
29.44001355955743
170
     2
340
0
  0
DICTIONARY
  5
4920
102
{ACAD_REACTORS
330
C
102
}
330
C
100
AcDbDictionary
281
     1
  0
DICTIONARY
  5
4116
102
{ACAD_REACTORS
330
C
102
}
330
C
100
AcDbDictionary
281
     1
  3
CTABLESTYLE
350
4117
  3
DIMASSOC
350
491C
  3
PROJECTNAME
350
491D
  0
XRECORD
  5
491F
102
{ACAD_REACTORS
330
C
102
}
330
C
100
AcDbXrecord
280
     1
  1
DWGPROPS COOKIE
  2

  3

  4

  6

  7

  8
yakata
  9

300
=
301
=
302
=
303
=
304
=
305
=
306
=
307
=
308
=
309
=
 40
0.5503605902777778
 41
2455090.761732894
 42
2455678.570746447
  1

 90
        0
  0
XRECORD
  5
45F6
102
{ACAD_REACTORS
330
45F5
102
}
330
45F5
100
AcDbXrecord
280
     1
102
VTR_0.000_0.000_1.000_1.000_VISUALSTYLE
340
3D4C
102
VTR_0.000_0.000_1.000_1.000_GRIDDISPLAY
 70
     3
102
VTR_0.000_0.000_1.000_1.000_GRIDMAJOR
 70
     5
102
VTR_0.000_0.000_1.000_1.000_DEFAULTLIGHTING
280
     1
102
VTR_0.000_0.000_1.000_1.000_DEFAULTLIGHTINGTYPE
 70
     1
102
VTR_0.000_0.000_1.000_1.000_BRIGHTNESS
141
0.0
102
VTR_0.000_0.000_1.000_1.000_CONTRAST
142
0.0
  0
DICTIONARY
  5
421C
102
{ACAD_REACTORS
330
3DBA
102
}
330
3DBA
100
AcDbDictionary
281
     1
  0
DICTIONARY
  5
3DBB
102
{ACAD_REACTORS
330
3DBA
102
}
330
3DBA
100
AcDbDictionary
281
     1
  0
DICTIONARY
  5
421B
102
{ACAD_REACTORS
330
3DBA
102
}
330
3DBA
100
AcDbDictionary
281
     1
1001
ACAD
1000
<All
  0
XRECORD
  5
45F8
102
{ACAD_REACTORS
330
45F7
102
}
330
45F7
100
AcDbXrecord
280
     1
102
MATERIAL
340
3D45
  0
XRECORD
  5
45FA
102
{ACAD_REACTORS
330
45F9
102
}
330
45F9
100
AcDbXrecord
280
     1
102
MATERIAL
340
3D45
  0
XRECORD
  5
45FC
102
{ACAD_REACTORS
330
45FB
102
}
330
45FB
100
AcDbXrecord
280
     1
102
MATERIAL
340
3D45
  0
XRECORD
  5
4600
102
{ACAD_REACTORS
330
45FF
102
}
330
45FF
100
AcDbXrecord
280
     1
102
MATERIAL
340
3D45
  0
XRECORD
  5
3D3B
102
{ACAD_REACTORS
330
1808
102
}
330
1808
100
AcDbXrecord
280
     1
340
17
  0
SORTENTSTABLE
  5
4861
102
{ACAD_REACTORS
330
1808
102
}
330
1808
100
AcDbSortentsTable
330
17
331
4511
  5
4513
331
449B
  5
449C
331
4307
  5
4308
331
430F
  5
4310
331
44A3
  5
44A4
331
4130
  5
42AA
331
44DA
  5
44DB
331
44E2
  5
44E5
331
44AB
  5
44AC
331
44EA
  5
44EC
331
44B3
  5
44B4
331
44F2
  5
44F4
331
4484
  5
4485
331
44BB
  5
44BC
331
44FA
  5
44FC
331
4502
  5
4504
331
448C
  5
448D
331
44C3
  5
44C4
331
450A
  5
450C
331
4494
  5
4495
331
44CB
  5
44CC
331
471C
  5
4794
331
455F
  5
4579
331
4512
  5
4514
331
4308
  5
4309
331
449C
  5
449D
331
44A4
  5
44A5
331
44DB
  5
44DE
331
4310
  5
4311
331
44AC
  5
44AD
331
44EB
  5
44ED
331
44F3
  5
44F5
331
44B4
  5
44B5
331
44BC
  5
44BD
331
44FB
  5
44FD
331
4485
  5
4486
331
44C4
  5
44C5
331
4503
  5
4505
331
448D
  5
448E
331
4495
  5
4496
331
44CC
  5
44CD
331
450B
  5
450D
331
45C7
  5
471C
331
4301
  5
4302
331
4513
  5
4515
331
449D
  5
449E
331
4309
  5
430A
331
4311
  5
4312
331
44A5
  5
44A6
331
44E4
  5
44E6
331
4543
  5
455F
331
44AD
  5
44AE
331
44EC
  5
44EE
331
4794
  5
47A5
331
44B5
  5
44B6
331
44F4
  5
44F6
331
447E
  5
447F
331
4486
  5
4487
331
44BD
  5
44BE
331
44FC
  5
44FE
331
4504
  5
4506
331
42AA
  5
4301
331
448E
  5
448F
331
44C5
  5
44C6
331
44CD
  5
44CE
331
450C
  5
450E
331
4496
  5
4497
331
4302
  5
4303
331
4514
  5
4535
331
430A
  5
430B
331
449E
  5
449F
331
44A6
  5
44A7
331
44DD
  5
44DF
331
4312
  5
4313
331
44AE
  5
44AF
331
44E5
  5
44E7
331
4579
  5
45BA
331
44ED
  5
44EF
331
4795
  5
47A6
331
47A5
  5
47AF
331
44F5
  5
44F7
331
447F
  5
4480
331
44B6
  5
44B7
331
44BE
  5
44BF
331
44FD
  5
44FF
331
4487
  5
4488
331
44C6
  5
44C7
331
4505
  5
4507
331
4552
  5
456C
331
448F
  5
4490
331
4497
  5
4498
331
44CE
  5
44CF
331
450D
  5
450F
331
4303
  5
4304
331
4515
  5
4536
331
430B
  5
430C
331
449F
  5
44A0
331
44D6
  5
44D7
331
44DE
  5
44E0
331
4535
  5
4543
331
4313
  5
447E
331
44A7
  5
44A8
331
44E6
  5
44E8
331
44AF
  5
44B0
331
44EE
  5
44F0
331
47A6
  5
47B0
331
4480
  5
4481
331
44B7
  5
44B8
331
44F6
  5
44F8
331
4488
  5
4489
331
44BF
  5
44C0
331
44FE
  5
4500
331
4506
  5
4508
331
4490
  5
4491
331
44C7
  5
44C8
331
44CF
  5
44D0
331
450E
  5
4510
331
45BA
  5
45D4
331
4304
  5
4305
331
4498
  5
4499
331
44D7
  5
44D8
331
430C
  5
430D
331
44A0
  5
44A1
331
44A8
  5
44A9
331
44DF
  5
44E1
331
4536
  5
4552
331
44E7
  5
44E9
331
44EF
  5
44F1
331
47AF
  5
4860
331
44B0
  5
44B1
331
44F7
  5
44F9
331
4481
  5
4482
331
44B8
  5
44B9
331
44C0
  5
44C1
331
44FF
  5
4501
331
4489
  5
448A
331
4491
  5
4492
331
44C8
  5
44C9
331
4507
  5
4509
331
450F
  5
4511
331
456C
  5
45A4
331
4731
  5
4795
331
4499
  5
449A
331
44D0
  5
44D1
331
4305
  5
4306
331
430D
  5
430E
331
44A1
  5
44A2
331
44D8
  5
44D9
331
44E0
  5
44E2
331
44A9
  5
44AA
331
44E8
  5
44EA
331
45A4
  5
45C7
331
44B1
  5
44B2
331
44F0
  5
44F2
331
4482
  5
4483
331
44B9
  5
44BA
331
44F8
  5
44FA
331
4500
  5
4502
331
448A
  5
448B
331
44C1
  5
44C2
331
4508
  5
450A
331
4492
  5
4493
331
44C9
  5
44CA
331
47B0
  5
48B7
331
44D1
  5
44D6
331
4510
  5
4512
331
4306
  5
4307
331
449A
  5
449B
331
44A2
  5
44A3
331
44D9
  5
44DA
331
430E
  5
430F
331
44AA
  5
44AB
331
44E1
  5
44E4
331
44E9
  5
44EB
331
45D4
  5
4731
331
44F1
  5
44F3
331
44B2
  5
44B3
331
44F9
  5
44FB
331
4483
  5
4484
331
44BA
  5
44BB
331
44C2
  5
44C3
331
4501
  5
4503
331
448B
  5
448C
331
4493
  5
4494
331
44CA
  5
44CB
331
4509
  5
450B
  0
XRECORD
  5
3D3A
102
{ACAD_REACTORS
330
1806
102
}
330
1806
100
AcDbXrecord
280
     1
340
14
  0
SORTENTSTABLE
  5
4340
102
{ACAD_REACTORS
330
433F
102
}
330
433F
100
AcDbSortentsTable
330
433E
  0
XRECORD
  5
45F3
102
{ACAD_REACTORS
330
45F1
102
}
330
45F1
100
AcDbXrecord
280
     1
340
12
  0
XRECORD
  5
45F4
102
{ACAD_REACTORS
330
45F1
102
}
330
45F1
100
AcDbXrecord
280
     1
340
12
  0
XRECORD
  5
45F2
102
{ACAD_REACTORS
330
45F1
102
}
330
45F1
100
AcDbXrecord
280
     1
340
12
  0
LAYOUT
  5
3D5B
102
{ACAD_XDICTIONARY
360
4921
102
}
102
{ACAD_REACTORS
330
3D5A
102
}
330
3D5A
100
AcDbPlotSettings
  1

  2
none_device
  4
Letter_(8.50_x_11.00_Inches)
  6

 40
6.349999904632568
 41
6.349999904632568
 42
6.350006103515625
 43
6.350006103515625
 44
215.8999938964844
 45
279.3999938964844
 46
-29.57158429027533
 47
-166.8982573757366
 48
0.0
 49
0.0
140
0.0
141
0.0
142
1.0
143
24.71674
 70
 11940
 72
     0
 73
     1
 74
     0
  7
monochrome.ctb
 75
     0
147
0.0404584099683049
148
-11907.4775464279
149
4643.151856759415
100
AcDbLayout
  1
Model
 70
     1
 71
     0
 10
0.0
 20
0.0
 11
12.0
 21
9.0
 12
0.0
 22
0.0
 32
0.0
 14
0.0
 24
0.0
 34
0.0
 15
0.0
 25
0.0
 35
0.0
146
0.0
 13
0.0
 23
0.0
 33
0.0
 16
1.0
 26
0.0
 36
0.0
 17
0.0
 27
1.0
 37
0.0
 76
     0
330
17
1001
ACAD_PSEXT
1000
なし
1000
なし
1000
適切ではありません
1000
新しいプロッタ環境設定名を選択しない限り、レイアウトは印刷されません。
1070
     0
  0
LAYOUT
  5
3D5C
102
{ACAD_XDICTIONARY
360
4923
102
}
102
{ACAD_REACTORS
330
3D5A
102
}
330
3D5A
100
AcDbPlotSettings
  1

  2
Microsoft XPS Document Writer
  4

  6

 40
0.0
 41
0.0
 42
0.0
 43
0.0
 44
0.0
 45
0.0
 46
0.0
 47
0.0
 48
0.0
 49
0.0
140
0.0
141
0.0
142
1.0
143
1.0
 70
   688
 72
     0
 73
     0
 74
     5
  7
monochrome.ctb
 75
    16
147
1.0
148
0.0
149
0.0
100
AcDbLayout
  1
レイアウト1
 70
     1
 71
     1
 10
0.0
 20
0.0
 11
12.0
 21
9.0
 12
0.0
 22
0.0
 32
0.0
 14
1.000000000000000E+20
 24
1.000000000000000E+20
 34
1.000000000000000E+20
 15
-1.000000000000000E+20
 25
-1.000000000000000E+20
 35
-1.000000000000000E+20
146
0.0
 13
0.0
 23
0.0
 33
0.0
 16
1.0
 26
0.0
 36
0.0
 17
0.0
 27
1.0
 37
0.0
 76
     0
330
14
  0
MATERIAL
  5
3D44
102
{ACAD_XDICTIONARY
360
419D
102
}
102
{ACAD_REACTORS
330
3D42
102
}
330
3D42
100
AcDbMaterial
  1
ByBlock
  0
MATERIAL
  5
3D43
102
{ACAD_XDICTIONARY
360
419B
102
}
102
{ACAD_REACTORS
330
3D42
102
}
330
3D42
100
AcDbMaterial
  1
ByLayer
  0
MATERIAL
  5
3D45
102
{ACAD_XDICTIONARY
360
419F
102
}
102
{ACAD_REACTORS
330
3D42
102
}
330
3D42
100
AcDbMaterial
  1
Global
  0
MLINESTYLE
  5
1B
102
{ACAD_REACTORS
330
1A
102
}
330
1A
100
AcDbMlineStyle
  2
STANDARD
 70
     0
  3

 62
   256
 51
90.0
 52
90.0
 71
     2
 49
0.5
 62
   256
  6
BYLAYER
 49
-0.5
 62
   256
  6
BYLAYER
  0
ACDBPLACEHOLDER
  5
3D41
102
{ACAD_REACTORS
330
3D40
102
}
330
3D40
  0
TABLESTYLE
  5
3D59
102
{ACAD_XDICTIONARY
360
45FD
102
}
102
{ACAD_REACTORS
330
3D58
102
}
330
3D58
100
AcDbTableStyle
  3
Standard
 70
     0
 71
     0
 40
0.06
 41
0.06
280
     0
281
     0
  7
STANDARD
140
0.18
170
     2
 62
     0
 63
     7
283
     0
274
    -2
284
     1
 64
     0
275
    -2
285
     1
 65
     0
276
    -2
286
     1
 66
     0
277
    -2
287
     1
 67
     0
278
    -2
288
     1
 68
     0
279
    -2
289
     1
 69
     0
  7
STANDARD
140
0.25
170
     5
 62
     0
 63
     7
283
     0
274
    -2
284
     1
 64
     0
275
    -2
285
     1
 65
     0
276
    -2
286
     1
 66
     0
277
    -2
287
     1
 67
     0
278
    -2
288
     1
 68
     0
279
    -2
289
     1
 69
     0
  7
STANDARD
140
0.18
170
     5
 62
     0
 63
     7
283
     0
274
    -2
284
     1
 64
     0
275
    -2
285
     1
 65
     0
276
    -2
286
     1
 66
     0
277
    -2
287
     1
 67
     0
278
    -2
288
     1
 68
     0
279
    -2
289
     1
 69
     0
  0
ACAD_PROXY_OBJECT
  5
3D4C
102
{ACAD_REACTORS
330
3D46
102
}
330
3D46
100
AcDbProxyObject
 90
      499
 91
      503
 95
  2555929
 70
     0
 93
      598
310
430C9915DA5C99599C985B59401049028333333333333E3BF0000000000000FB023FFFFFF0802405048070000C3008000000C800405A000000320014050640A01C00030C010500920280D3
 94
        0
1001
ACAD
1000
AcDbSavedByObjectVersion
1070
     0
1000
AcDbSavedByObjectVersion
1070
     0
1000
AcDbSavedByObjectVersion
1070
     0
1000
AcDbSavedByObjectVersion
1070
     0
1000
AcDbSavedByObjectVersion
1070
     0
1000
AcDbSavedByObjectVersion
1070
     0
1000
AcDbSavedByObjectVersion
1070
     0
1000
AcRTDxfName
1000
VISUALSTYLE
  0
ACAD_PROXY_OBJECT
  5
3D4E
102
{ACAD_REACTORS
330
3D46
102
}
330
3D46
100
AcDbProxyObject
 90
      499
 91
      503
 95
  2555929
 70
     0
 93
      662
310
428CD108121A5919195B8010640502408333333333333E3BF0000000000000FB023FFFFFF0802409028070000C3008000000C8004080000000000004440A000000320014050640A01C00030C010300920280D0
 94
        0
1001
ACAD
1000
AcDbSavedByObjectVersion
1070
     0
1000
AcDbSavedByObjectVersion
1070
     0
1000
AcDbSavedByObjectVersion
1070
     0
1000
AcDbSavedByObjectVersion
1070
     0
1000
AcDbSavedByObjectVersion
1070
     0
1000
AcDbSavedByObjectVersion
1070
     0
1000
AcDbSavedByObjectVersion
1070
     0
1000
AcRTDxfName
1000
VISUALSTYLE
  0
ACAD_PROXY_OBJECT
  5
3D4D
102
{ACAD_REACTORS
330
3D46
102
}
330
3D46
100
AcDbProxyObject
 90
      499
 91
      503
 95
  2555929
 70
     0
 93
      598
310
430CD915DA5C99599C985B59401059028333333333333E3BF0000000000000FB023FFFFFF0802405048070000C3008000000C800405A000000320014050640A01C00030C010500920280D0
 94
        0
1001
ACAD
1000
AcDbSavedByObjectVersion
1070
     0
1000
AcDbSavedByObjectVersion
1070
     0
1000
AcDbSavedByObjectVersion
1070
     0
1000
AcDbSavedByObjectVersion
1070
     0
1000
AcDbSavedByObjectVersion
1070
     0
1000
AcDbSavedByObjectVersion
1070
     0
1000
AcDbSavedByObjectVersion
1070
     0
1000
AcRTDxfName
1000
VISUALSTYLE
  0
ACAD_PROXY_OBJECT
  5
3D4B
102
{ACAD_REACTORS
330
3D46
102
}
330
3D46
100
AcDbProxyObject
 90
      499
 91
      503
 95
  2555929
 70
     0
 93
      558
310
4190985CDA58C0107406404333333333333E3BF0000000000000FB023FFFFFF08029048070000C3008000000C80040542201C00030C014050640A01C00030C010500920280D4
 94
        0
1001
ACAD
1000
AcDbSavedByObjectVersion
1070
     0
1000
AcDbSavedByObjectVersion
1070
     0
1000
AcDbSavedByObjectVersion
1070
     0
1000
AcDbSavedByObjectVersion
1070
     0
1000
AcDbSavedByObjectVersion
1070
     0
1000
AcDbSavedByObjectVersion
1070
     0
1000
AcDbSavedByObjectVersion
1070
     0
1000
AcRTDxfName
1000
VISUALSTYLE
  0
ACAD_PROXY_OBJECT
  5
3D52
102
{ACAD_REACTORS
330
3D46
102
}
330
3D46
100
AcDbProxyObject
 90
      499
 91
      503
 95
  2555929
 70
     0
 93
      598
310
42509C9A59DA1D195B8010C409028333333333333E3BF0000000000000FB023FFFFFF0802405048070000C3008000000C80040542201C00030C014050640A01C00030C010500920280A657
 94
        0
1001
ACAD
1000
AcDbSavedByObjectVersion
1070
     0
1000
AcDbSavedByObjectVersion
1070
     0
1000
AcDbSavedByObjectVersion
1070
     0
1000
AcDbSavedByObjectVersion
1070
     0
1000
AcDbSavedByObjectVersion
1070
     0
1000
AcDbSavedByObjectVersion
1070
     0
1000
AcDbSavedByObjectVersion
1070
     0
1000
AcRTDxfName
1000
VISUALSTYLE
  0
ACAD_PROXY_OBJECT
  5
3D56
102
{ACAD_REACTORS
330
3D46
102
}
330
3D46
100
AcDbProxyObject
 90
      499
 91
      503
 95
  2555929
 70
     0
 93
      622
310
4310DBDB1BDC90DA185B99D9401104090240C333333333333E3BF0000000000000FB0220202030802405048070000C3008000000C800405422202020308014050640A01C00030C010500920280D7
 94
        0
1001
ACAD
1000
AcDbSavedByObjectVersion
1070
     0
1000
AcDbSavedByObjectVersion
1070
     0
1000
AcDbSavedByObjectVersion
1070
     0
1000
AcDbSavedByObjectVersion
1070
     0
1000
AcDbSavedByObjectVersion
1070
     0
1000
AcDbSavedByObjectVersion
1070
     0
1000
AcDbSavedByObjectVersion
1070
     0
1000
AcRTDxfName
1000
VISUALSTYLE
  0
ACAD_PROXY_OBJECT
  5
3D4F
102
{ACAD_REACTORS
330
3D46
102
}
330
3D46
100
AcDbProxyObject
 90
      499
 91
      503
 95
  2555929
 70
     0
 93
      670
310
42D0DBDB98D95C1D1D585B0010940D028333333333333E3BF0000000000000FB023FFFFFF0802409028070000C3008000000C800404000000000000444042201C00030C014050640A01C00030C010300920280D0
 94
        0
1001
ACAD
1000
AcDbSavedByObjectVersion
1070
     0
1000
AcDbSavedByObjectVersion
1070
     0
1000
AcDbSavedByObjectVersion
1070
     0
1000
AcDbSavedByObjectVersion
1070
     0
1000
AcDbSavedByObjectVersion
1070
     0
1000
AcDbSavedByObjectVersion
1070
     0
1000
AcDbSavedByObjectVersion
1070
     0
1000
AcRTDxfName
1000
VISUALSTYLE
  0
ACAD_PROXY_OBJECT
  5
3D51
102
{ACAD_REACTORS
330
3D46
102
}
330
3D46
100
AcDbProxyObject
 90
      499
 91
      503
 95
  2555929
 70
     0
 93
      582
310
41111A5B4010B409028333333333333E3BF0000000000000FB023FFFFFF0802405048070000C3008000000C80040542201C00030C014050640A01C00030C01050092028099DFFFFFF4
 94
        0
1001
ACAD
1000
AcDbSavedByObjectVersion
1070
     0
1000
AcDbSavedByObjectVersion
1070
     0
1000
AcDbSavedByObjectVersion
1070
     0
1000
AcDbSavedByObjectVersion
1070
     0
1000
AcDbSavedByObjectVersion
1070
     0
1000
AcDbSavedByObjectVersion
1070
     0
1000
AcDbSavedByObjectVersion
1070
     0
1000
AcRTDxfName
1000
VISUALSTYLE
  0
ACAD_PROXY_OBJECT
  5
3D55
102
{ACAD_REACTORS
330
3D46
102
}
330
3D46
100
AcDbProxyObject
 90
      499
 91
      503
 95
  2555929
 70
     0
 93
      614
310
43119858D95C185D1D195C9B8010F409028333333333333E3BF0000000000000FB023FFFFFF0802405048070000C3008000000C80040542201C00030C014050640A01C00030C010500920280D4
 94
        0
1001
ACAD
1000
AcDbSavedByObjectVersion
1070
     0
1000
AcDbSavedByObjectVersion
1070
     0
1000
AcDbSavedByObjectVersion
1070
     0
1000
AcDbSavedByObjectVersion
1070
     0
1000
AcDbSavedByObjectVersion
1070
     0
1000
AcDbSavedByObjectVersion
1070
     0
1000
AcDbSavedByObjectVersion
1070
     0
1000
AcRTDxfName
1000
VISUALSTYLE
  0
ACAD_PROXY_OBJECT
  5
3D47
102
{ACAD_REACTORS
330
3D46
102
}
330
3D46
100
AcDbProxyObject
 90
      499
 91
      503
 95
  2555929
 70
     0
 93
      558
310
41519B185D00240901404333333333333E3BF0000000000000F9023FFFFFF0801029048070000C3008000000C80040542201C00030C014050640A01C00030C010500920286D4
 94
        0
1001
ACAD
1000
AcDbSavedByObjectVersion
1070
     0
1000
AcDbSavedByObjectVersion
1070
     0
1000
AcDbSavedByObjectVersion
1070
     0
1000
AcDbSavedByObjectVersion
1070
     0
1000
AcDbSavedByObjectVersion
1070
     0
1000
AcDbSavedByObjectVersion
1070
     0
1000
AcDbSavedByObjectVersion
1070
     0
1000
AcRTDxfName
1000
VISUALSTYLE
  0
ACAD_PROXY_OBJECT
  5
3D48
102
{ACAD_REACTORS
330
3D46
102
}
330
3D46
100
AcDbProxyObject
 90
      499
 91
      503
 95
  2555929
 70
     0
 93
      638
310
43919B185D15DA5D1A115919D95CC010140901404333333333333E3BF0000000000000F9023FFFFFF080102405048070000C3008000000C800405A000000320014050640A01C00030C010500920286D4
 94
        0
1001
ACAD
1000
AcDbSavedByObjectVersion
1070
     0
1000
AcDbSavedByObjectVersion
1070
     0
1000
AcDbSavedByObjectVersion
1070
     0
1000
AcDbSavedByObjectVersion
1070
     0
1000
AcDbSavedByObjectVersion
1070
     0
1000
AcDbSavedByObjectVersion
1070
     0
1000
AcDbSavedByObjectVersion
1070
     0
1000
AcRTDxfName
1000
VISUALSTYLE
  0
ACAD_PROXY_OBJECT
  5
3D49
102
{ACAD_REACTORS
330
3D46
102
}
330
3D46
100
AcDbProxyObject
 90
      499
 91
      503
 95
  2555929
 70
     0
 93
      582
310
4211DBDD5C985D590010240902404333333333333E3BF0000000000000F9023FFFFFF0801029048070000C3008000000C800405A01C00030C014050640A01C00030C010500920286D4
 94
        0
1001
ACAD
1000
AcDbSavedByObjectVersion
1070
     0
1000
AcDbSavedByObjectVersion
1070
     0
1000
AcDbSavedByObjectVersion
1070
     0
1000
AcDbSavedByObjectVersion
1070
     0
1000
AcDbSavedByObjectVersion
1070
     0
1000
AcDbSavedByObjectVersion
1070
     0
1000
AcDbSavedByObjectVersion
1070
     0
1000
AcRTDxfName
1000
VISUALSTYLE
  0
ACAD_PROXY_OBJECT
  5
3D4A
102
{ACAD_REACTORS
330
3D46
102
}
330
3D46
100
AcDbProxyObject
 90
      499
 91
      503
 95
  2555929
 70
     0
 93
      662
310
4451DBDD5C985D5915DA5D1A115919D95CC010340902404333333333333E3BF0000000000000F9023FFFFFF080102405048070000C3008000000C800405A000000320014050640A01C00030C010500920286D4
 94
        0
1001
ACAD
1000
AcDbSavedByObjectVersion
1070
     0
1000
AcDbSavedByObjectVersion
1070
     0
1000
AcDbSavedByObjectVersion
1070
     0
1000
AcDbSavedByObjectVersion
1070
     0
1000
AcDbSavedByObjectVersion
1070
     0
1000
AcDbSavedByObjectVersion
1070
     0
1000
AcDbSavedByObjectVersion
1070
     0
1000
AcRTDxfName
1000
VISUALSTYLE
  0
ACAD_PROXY_OBJECT
  5
3D54
102
{ACAD_REACTORS
330
3D46
102
}
330
3D46
100
AcDbProxyObject
 90
      499
 91
      503
 95
  2555929
 70
     0
 93
      614
310
43131A5B995C185D1D195C9B8010E409028333333333333E3BF0000000000000FB023FFFFFF0802405048070000C3008000000C80041D42201C00030C014050640A01C00030C010500920E80D5
 94
        0
1001
ACAD
1000
AcDbSavedByObjectVersion
1070
     0
1000
AcDbSavedByObjectVersion
1070
     0
1000
AcDbSavedByObjectVersion
1070
     0
1000
AcDbSavedByObjectVersion
1070
     0
1000
AcDbSavedByObjectVersion
1070
     0
1000
AcDbSavedByObjectVersion
1070
     0
1000
AcDbSavedByObjectVersion
1070
     0
1000
AcRTDxfName
1000
VISUALSTYLE
  0
ACAD_PROXY_OBJECT
  5
3D50
102
{ACAD_REACTORS
330
3D46
102
}
330
3D46
100
AcDbProxyObject
 90
      499
 91
      503
 95
  2555929
 70
     0
 93
      590
310
429499585B1A5CDD1A58C0108409028333333333333E3BF0000000000000FB023FFFFFF08024068070000C3008000000C8004054221E1E1E308014050640A01C00030C010500920286D0
 94
        0
1001
ACAD
1000
AcDbSavedByObjectVersion
1070
     0
1000
AcDbSavedByObjectVersion
1070
     0
1000
AcDbSavedByObjectVersion
1070
     0
1000
AcDbSavedByObjectVersion
1070
     0
1000
AcDbSavedByObjectVersion
1070
     0
1000
AcDbSavedByObjectVersion
1070
     0
1000
AcDbSavedByObjectVersion
1070
     0
1000
AcRTDxfName
1000
VISUALSTYLE
  0
ACAD_PROXY_OBJECT
  5
3D53
102
{ACAD_REACTORS
330
3D46
102
}
330
3D46
100
AcDbProxyObject
 90
      499
 91
      503
 95
  2555929
 70
     0
 93
      582
310
42151A1A58DAD95B8010D409028333333333333E3BF0000000000000FB023FFFFFF0802405048070000C3008000000C80040543201C00030C014050640A01C00030C010500920280D4
 94
        0
1001
ACAD
1000
AcDbSavedByObjectVersion
1070
     0
1000
AcDbSavedByObjectVersion
1070
     0
1000
AcDbSavedByObjectVersion
1070
     0
1000
AcDbSavedByObjectVersion
1070
     0
1000
AcDbSavedByObjectVersion
1070
     0
1000
AcDbSavedByObjectVersion
1070
     0
1000
AcDbSavedByObjectVersion
1070
     0
1000
AcRTDxfName
1000
VISUALSTYLE
  0
DICTIONARYVAR
  5
4117
102
{ACAD_REACTORS
330
4116
102
}
330
4116
100
DictionaryVariables
280
     0
  1
STANDARD
  0
DICTIONARYVAR
  5
491C
102
{ACAD_REACTORS
330
4116
102
}
330
4116
100
DictionaryVariables
280
     0
  1
1
  0
DICTIONARYVAR
  5
491D
102
{ACAD_REACTORS
330
4116
102
}
330
4116
100
DictionaryVariables
280
     0
  1

  0
DICTIONARY
  5
4921
330
3D5B
100
AcDbDictionary
280
     1
281
     1
  3
ACAD_XREC_ROUNDTRIP
360
4922
  0
DICTIONARY
  5
4923
330
3D5C
100
AcDbDictionary
280
     1
281
     1
  3
ACAD_XREC_ROUNDTRIP
360
4924
  0
DICTIONARY
  5
419D
330
3D44
100
AcDbDictionary
280
     1
281
     1
  3
ACAD_XREC_ROUNDTRIP
360
419E
  0
DICTIONARY
  5
419B
330
3D43
100
AcDbDictionary
280
     1
281
     1
  3
ACAD_XREC_ROUNDTRIP
360
419C
  0
DICTIONARY
  5
419F
330
3D45
100
AcDbDictionary
280
     1
281
     1
  3
ACAD_XREC_ROUNDTRIP
360
41A0
  0
DICTIONARY
  5
45FD
330
3D59
100
AcDbDictionary
280
     1
281
     1
  3
ACAD_XREC_ROUNDTRIP
360
45FE
  0
XRECORD
  5
4922
102
{ACAD_REACTORS
330
4921
102
}
330
4921
100
AcDbXrecord
280
     1
102
SHADEPLOT
 70
     0
102
SHADEPLOTRESLEVEL
 70
     2
102
SHADEPLOTCUSTOMDPI
 70
   300
  0
XRECORD
  5
4924
102
{ACAD_REACTORS
330
4923
102
}
330
4923
100
AcDbXrecord
280
     1
102
SHADEPLOT
 70
     0
102
SHADEPLOTRESLEVEL
 70
     2
102
SHADEPLOTCUSTOMDPI
 70
   300
  0
XRECORD
  5
419E
102
{ACAD_REACTORS
330
419D
102
}
330
419D
100
AcDbXrecord
280
     1
102
MATERIAL
148
0.0
149
0.0
149
0.0
 93
        0
 94
       63
282
     0
 72
     1
 77
     1
171
     1
175
     1
179
     1
273
     0
  0
XRECORD
  5
419C
102
{ACAD_REACTORS
330
419B
102
}
330
419B
100
AcDbXrecord
280
     1
102
MATERIAL
148
0.0
149
0.0
149
0.0
 93
        0
 94
       63
282
     0
 72
     1
 77
     1
171
     1
175
     1
179
     1
273
     0
  0
XRECORD
  5
41A0
102
{ACAD_REACTORS
330
419F
102
}
330
419F
100
AcDbXrecord
280
     1
102
MATERIAL
148
0.0
149
0.0
149
0.0
 93
        0
 94
       63
282
     0
 72
     1
 77
     1
171
     1
175
     1
179
     1
273
     0
  0
XRECORD
  5
45FE
102
{ACAD_REACTORS
330
45FD
102
}
330
45FD
100
AcDbXrecord
280
     1
102
ACAD_ROUNDTRIP_PRE2007_TABLESTYLE
 90
      512
 91
        0
  1

 92
      512
 93
        0
  2

 94
      512
 95
        0
  3

  0
ENDSEC
  0
EOF
