  0
SECTION
  2
HEADER
  9
$ACADVER
  1
AC1015
  9
$ACADMAINTVER
 70
    20
  9
$DWGCODEPAGE
  3
ANSI_932
  9
$INSBASE
 10
0.0
 20
0.0
 30
0.0
  9
$EXTMIN
 10
519.8799157549208
 20
-140.7473815513037
 30
0.0
  9
$EXTMAX
 10
749.4170380839396
 20
-3.018785966199406
 30
0.0
  9
$LIMMIN
 10
0.0
 20
0.0
  9
$LIMMAX
 10
12.0
 20
9.0
  9
$ORTHOMODE
 70
     1
  9
$REGENMODE
 70
     1
  9
$FILLMODE
 70
     1
  9
$QTEXTMODE
 70
     0
  9
$MIRRTEXT
 70
     1
  9
$LTSCALE
 40
0.5
  9
$ATTMODE
 70
     1
  9
$TEXTSIZE
 40
2.5
  9
$TRACEWID
 40
0.05
  9
$TEXTSTYLE
  7
CatalogDxf
  9
$CLAYER
  8
0
  9
$CELTYPE
  6
BYLAYER
  9
$CECOLOR
 62
   256
  9
$CELTSCALE
 40
1.0
  9
$DISPSILH
 70
     0
  9
$DIMSCALE
 40
1.0
  9
$DIMASZ
 40
2.5
  9
$DIMEXO
 40
0.625
  9
$DIMDLI
 40
3.75
  9
$DIMRND
 40
0.0
  9
$DIMDLE
 40
0.0
  9
$DIMEXE
 40
1.25
  9
$DIMTP
 40
0.0
  9
$DIMTM
 40
0.0
  9
$DIMTXT
 40
2.5
  9
$DIMCEN
 40
2.5
  9
$DIMTSZ
 40
0.0
  9
$DIMTOL
 70
     0
  9
$DIMLIM
 70
     0
  9
$DIMTIH
 70
     0
  9
$DIMTOH
 70
     0
  9
$DIMSE1
 70
     0
  9
$DIMSE2
 70
     0
  9
$DIMTAD
 70
     1
  9
$DIMZIN
 70
     8
  9
$DIMBLK
  1
OPEN30
  9
$DIMASO
 70
     1
  9
$DIMSHO
 70
     1
  9
$DIMPOST
  1

  9
$DIMAPOST
  1

  9
$DIMALT
 70
     0
  9
$DIMALTD
 70
     3
  9
$DIMALTF
 40
0.03937007874016
  9
$DIMLFAC
 40
1.0
  9
$DIMTOFL
 70
     1
  9
$DIMTVP
 40
0.0
  9
$DIMTIX
 70
     0
  9
$DIMSOXD
 70
     0
  9
$DIMSAH
 70
     0
  9
$DIMBLK1
  1

  9
$DIMBLK2
  1

  9
$DIMSTYLE
  2
CatalogDxf
  9
$DIMCLRD
 70
   256
  9
$DIMCLRE
 70
   256
  9
$DIMCLRT
 70
   256
  9
$DIMTFAC
 40
1.0
  9
$DIMGAP
 40
0.625
  9
$DIMJUST
 70
     0
  9
$DIMSD1
 70
     0
  9
$DIMSD2
 70
     0
  9
$DIMTOLJ
 70
     0
  9
$DIMTZIN
 70
     8
  9
$DIMALTZ
 70
     0
  9
$DIMALTTZ
 70
     0
  9
$DIMUPT
 70
     0
  9
$DIMDEC
 70
     1
  9
$DIMTDEC
 70
     1
  9
$DIMALTU
 70
     2
  9
$DIMALTTD
 70
     3
  9
$DIMTXSTY
  7
CatalogDxf
  9
$DIMAUNIT
 70
     0
  9
$DIMADEC
 70
     0
  9
$DIMALTRND
 40
0.0
  9
$DIMAZIN
 70
     0
  9
$DIMDSEP
 70
    46
  9
$DIMATFIT
 70
     3
  9
$DIMFRAC
 70
     0
  9
$DIMLDRBLK
  1
OPEN30
  9
$DIMLUNIT
 70
     2
  9
$DIMLWD
 70
    -1
  9
$DIMLWE
 70
    -1
  9
$DIMTMOVE
 70
     0
  9
$LUNITS
 70
     2
  9
$LUPREC
 70
     2
  9
$SKETCHINC
 40
0.1
  9
$FILLETRAD
 40
0.0
  9
$AUNITS
 70
     0
  9
$AUPREC
 70
     2
  9
$MENU
  1
acad
  9
$ELEVATION
 40
0.0
  9
$PELEVATION
 40
0.0
  9
$THICKNESS
 40
0.0
  9
$LIMCHECK
 70
     0
  9
$CHAMFERA
 40
0.0
  9
$CHAMFERB
 40
0.0
  9
$CHAMFERC
 40
0.0
  9
$CHAMFERD
 40
0.0
  9
$SKPOLY
 70
     0
  9
$TDCREATE
 40
2455090.761732894
  9
$TDUCREATE
 40
2455090.386732893
  9
$TDUPDATE
 40
2457486.682501169
  9
$TDUUPDATE
 40
2457486.307501169
  9
$TDINDWG
 40
0.5864664236
  9
$TDUSRTIMER
 40
0.5864620833
  9
$USRTIMER
 70
     1
  9
$ANGBASE
 50
0.0
  9
$ANGDIR
 70
     0
  9
$PDMODE
 70
     0
  9
$PDSIZE
 40
0.0
  9
$PLINEWID
 40
0.0
  9
$SPLFRAME
 70
     0
  9
$SPLINETYPE
 70
     6
  9
$SPLINESEGS
 70
     8
  9
$HANDSEED
  5
4C03
  9
$SURFTAB1
 70
     6
  9
$SURFTAB2
 70
     6
  9
$SURFTYPE
 70
     6
  9
$SURFU
 70
     6
  9
$SURFV
 70
     6
  9
$UCSBASE
  2

  9
$UCSNAME
  2

  9
$UCSORG
 10
0.0
 20
0.0
 30
0.0
  9
$UCSXDIR
 10
1.0
 20
0.0
 30
0.0
  9
$UCSYDIR
 10
0.0
 20
1.0
 30
0.0
  9
$UCSORTHOREF
  2

  9
$UCSORTHOVIEW
 70
     1
  9
$UCSORGTOP
 10
0.0
 20
0.0
 30
0.0
  9
$UCSORGBOTTOM
 10
0.0
 20
0.0
 30
0.0
  9
$UCSORGLEFT
 10
0.0
 20
0.0
 30
0.0
  9
$UCSORGRIGHT
 10
0.0
 20
0.0
 30
0.0
  9
$UCSORGFRONT
 10
0.0
 20
0.0
 30
0.0
  9
$UCSORGBACK
 10
0.0
 20
0.0
 30
0.0
  9
$PUCSBASE
  2

  9
$PUCSNAME
  2

  9
$PUCSORG
 10
0.0
 20
0.0
 30
0.0
  9
$PUCSXDIR
 10
1.0
 20
0.0
 30
0.0
  9
$PUCSYDIR
 10
0.0
 20
1.0
 30
0.0
  9
$PUCSORTHOREF
  2

  9
$PUCSORTHOVIEW
 70
     0
  9
$PUCSORGTOP
 10
0.0
 20
0.0
 30
0.0
  9
$PUCSORGBOTTOM
 10
0.0
 20
0.0
 30
0.0
  9
$PUCSORGLEFT
 10
0.0
 20
0.0
 30
0.0
  9
$PUCSORGRIGHT
 10
0.0
 20
0.0
 30
0.0
  9
$PUCSORGFRONT
 10
0.0
 20
0.0
 30
0.0
  9
$PUCSORGBACK
 10
0.0
 20
0.0
 30
0.0
  9
$USERI1
 70
     0
  9
$USERI2
 70
     0
  9
$USERI3
 70
     0
  9
$USERI4
 70
     0
  9
$USERI5
 70
     0
  9
$USERR1
 40
0.0
  9
$USERR2
 40
0.0
  9
$USERR3
 40
0.0
  9
$USERR4
 40
0.0
  9
$USERR5
 40
0.0
  9
$WORLDVIEW
 70
     1
  9
$SHADEDGE
 70
     3
  9
$SHADEDIF
 70
    70
  9
$TILEMODE
 70
     1
  9
$MAXACTVP
 70
    16
  9
$PINSBASE
 10
0.0
 20
0.0
 30
0.0
  9
$PLIMCHECK
 70
     0
  9
$PEXTMIN
 10
1.000000000000000E+20
 20
1.000000000000000E+20
 30
1.000000000000000E+20
  9
$PEXTMAX
 10
-1.000000000000000E+20
 20
-1.000000000000000E+20
 30
-1.000000000000000E+20
  9
$PLIMMIN
 10
0.0
 20
0.0
  9
$PLIMMAX
 10
12.0
 20
9.0
  9
$UNITMODE
 70
     0
  9
$VISRETAIN
 70
     0
  9
$PLINEGEN
 70
     0
  9
$PSLTSCALE
 70
     1
  9
$TREEDEPTH
 70
  3020
  9
$CMLSTYLE
  2
STANDARD
  9
$CMLJUST
 70
     0
  9
$CMLSCALE
 40
1.0
  9
$PROXYGRAPHICS
 70
     1
  9
$MEASUREMENT
 70
     0
  9
$CELWEIGHT
370
    -1
  9
$ENDCAPS
280
     0
  9
$JOINSTYLE
280
     0
  9
$LWDISPLAY
290
     0
  9
$INSUNITS
 70
     0
  9
$HYPERLINKBASE
  1

  9
$STYLESHEET
  1
MONOCHROME.CTB
  9
$XEDIT
290
     1
  9
$CEPSNTYPE
380
     0
  9
$PSTYLEMODE
290
     1
  9
$FINGERPRINTGUID
  2
{AFC0AA2D-B3CD-48CF-B830-EF9C44F122D3}
  9
$VERSIONGUID
  2
{F607A9EE-BA9D-45B7-817D-5C1947F287F4}
  9
$EXTNAMES
290
     1
  9
$PSVPSCALE
 40
0.0
  9
$OLESTARTUP
290
     0
  0
ENDSEC
  0
SECTION
  2
CLASSES
  0
CLASS
  1
ACDBDICTIONARYWDFLT
  2
AcDbDictionaryWithDefault
  3
ObjectDBX Classes
 90
        0
280
     0
281
     0
  0
CLASS
  1
DICTIONARYVAR
  2
AcDbDictionaryVar
  3
ObjectDBX Classes
 90
        0
280
     0
281
     0
  0
CLASS
  1
MATERIAL
  2
AcDbMaterial
  3
ObjectDBX Classes
 90
     1153
280
     0
281
     0
  0
CLASS
  1
VISUALSTYLE
  2
AcDbVisualStyle
  3
ObjectDBX Classes
 90
     4095
280
     0
281
     0
  0
CLASS
  1
TABLESTYLE
  2
AcDbTableStyle
  3
ObjectDBX Classes
 90
     4095
280
     0
281
     0
  0
CLASS
  1
DIMASSOC
  2
AcDbDimAssoc
  3
"AcDbDimAssoc|Product Desc:     AcDim ARX App For Dimension|Company:          Autodesk, Inc.|WEB Address:      www.autodesk.com"
 90
    32768
280
     0
281
     0
  0
CLASS
  1
SORTENTSTABLE
  2
AcDbSortentsTable
  3
ObjectDBX Classes
 90
        0
280
     0
281
     0
  0
CLASS
  1
ACDBPLACEHOLDER
  2
AcDbPlaceHolder
  3
ObjectDBX Classes
 90
        0
280
     0
281
     0
  0
CLASS
  1
LAYOUT
  2
AcDbLayout
  3
ObjectDBX Classes
 90
        0
280
     0
281
     0
  0
CLASS
  1
SCALE
  2
AcDbScale
  3
ObjectDBX Classes
 90
     1153
280
     0
281
     0
  0
CLASS
  1
MLEADERSTYLE
  2
AcDbMLeaderStyle
  3
ACDB_MLEADERSTYLE_CLASS
 90
     4095
280
     0
281
     0
  0
CLASS
  1
ACDBSECTIONVIEWSTYLE
  2
AcDbSectionViewStyle
  3
ObjectDBX Classes
 90
     1025
280
     0
281
     0
  0
CLASS
  1
ACDBDETAILVIEWSTYLE
  2
AcDbDetailViewStyle
  3
ObjectDBX Classes
 90
     1025
280
     0
281
     0
  0
CLASS
  1
CELLSTYLEMAP
  2
AcDbCellStyleMap
  3
ObjectDBX Classes
 90
     1152
280
     0
281
     0
  0
ENDSEC
  0
SECTION
  2
TABLES
  0
TABLE
  2
VPORT
  5
8
330
0
100
AcDbSymbolTable
 70
     1
  0
VPORT
  5
4906
330
8
100
AcDbSymbolTableRecord
100
AcDbViewportTableRecord
  2
*Active
 70
     0
 10
0.0
 20
0.0
 11
1.0
 21
1.0
 12
666.7386022279523
 22
-69.59962481095221
 13
0.0
 23
0.0
 14
1.0
 24
1.0
 15
0.0
 25
0.0
 16
0.0
 26
0.0
 36
1.0
 17
0.0
 27
0.0
 37
0.0
 40
48.84289800090176
 41
1.90625
 42
50.0
 43
0.0
 44
0.0
 50
0.0
 51
0.0
 71
     0
 72
   100
 73
     1
 74
     1
 75
     0
 76
     0
 77
     0
 78
     0
281
     0
 65
     1
110
0.0
120
0.0
130
0.0
111
1.0
121
0.0
131
0.0
112
0.0
122
1.0
132
0.0
 79
     0
146
0.0
1001
ACAD_NAV_VCDISPLAY
1070
     3
  0
ENDTAB
  0
TABLE
  2
LTYPE
  5
5
330
0
100
AcDbSymbolTable
 70
     3
  0
LTYPE
  5
11
330
5
100
AcDbSymbolTableRecord
100
AcDbLinetypeTableRecord
  2
BYBLOCK
 70
     0
  3

 72
    65
 73
     0
 40
0.0
  0
LTYPE
  5
12
330
5
100
AcDbSymbolTableRecord
100
AcDbLinetypeTableRecord
  2
BYLAYER
 70
     0
  3

 72
    65
 73
     0
 40
0.0
  0
LTYPE
  5
13
330
5
100
AcDbSymbolTableRecord
100
AcDbLinetypeTableRecord
  2
CONTINUOUS
 70
     0
  3
Solid line
 72
    65
 73
     0
 40
0.0
  0
LTYPE
  5
3DB3
330
5
100
AcDbSymbolTableRecord
100
AcDbLinetypeTableRecord
  2
CENTER2
 70
     0
  3
Center (.5x) ___ _ ___ _ ___ _ ___ _ ___ _ ___
 72
    65
 73
     4
 40
28.575
 49
19.05
 74
     0
 49
-3.174999999999998
 74
     0
 49
3.174999999999998
 74
     0
 49
-3.174999999999998
 74
     0
  0
LTYPE
  5
3DB4
330
5
100
AcDbSymbolTableRecord
100
AcDbLinetypeTableRecord
  2
HIDDEN2
 70
     0
  3
Hidden (.5x) _ _ _ _ _ _ _ _ _ _ _ _ _ _ _ _ _
 72
    65
 73
     2
 40
4.762499999999998
 49
3.174999999999998
 74
     0
 49
-1.587499999999999
 74
     0
  0
ENDTAB
  0
TABLE
  2
LAYER
  5
2
102
{ACAD_XDICTIONARY
360
3DBA
102
}
330
0
100
AcDbSymbolTable
 70
     4
  0
LAYER
  5
E
102
{ACAD_XDICTIONARY
360
4A65
102
}
330
2
100
AcDbSymbolTableRecord
100
AcDbLayerTableRecord
  2
0
 70
     0
 62
     7
  6
CONTINUOUS
370
    -3
390
3D41
  0
LAYER
  5
27
102
{ACAD_XDICTIONARY
360
4A67
102
}
330
2
100
AcDbSymbolTableRecord
100
AcDbLayerTableRecord
  2
Z_OM_DIM
 70
     0
 62
     4
  6
CONTINUOUS
370
    -3
390
3D41
  0
LAYER
  5
2B
330
2
100
AcDbSymbolTableRecord
100
AcDbLayerTableRecord
  2
DEFPOINTS
 70
     0
 62
     7
  6
CONTINUOUS
290
     0
370
    -3
390
3D41
  0
LAYER
  5
3DB5
102
{ACAD_XDICTIONARY
360
4A69
102
}
330
2
100
AcDbSymbolTableRecord
100
AcDbLayerTableRecord
  2
additional
 70
     0
 62
    50
  6
CONTINUOUS
370
    -3
390
3D41
1001
AcAecLayerStandard
1000

1000

  0
ENDTAB
  0
TABLE
  2
STYLE
  5
3
330
0
100
AcDbSymbolTable
 70
     3
  0
STYLE
  5
F
330
3
100
AcDbSymbolTableRecord
100
AcDbTextStyleTableRecord
  2
STANDARD
 70
     0
 40
0.0
 41
1.08
 50
0.0
 71
     0
 42
3.0
  3
txt.shx
  4
bigfont.shx
  0
STYLE
  5
3DB6
330
3
100
AcDbSymbolTableRecord
100
AcDbTextStyleTableRecord
  2
CatalogDxf
 70
     0
 40
0.0
 41
1.0
 50
0.0
 71
     0
 42
2.5
  3
txt.shx
  4
bigfont.shx
  0
STYLE
  5
4196
330
3
100
AcDbSymbolTableRecord
100
AcDbTextStyleTableRecord
  2

 70
     1
 40
0.0
 41
1.0
 50
0.0
 71
     0
 42
3.0
  3
ltypeshp.shx
  4

  0
ENDTAB
  0
TABLE
  2
VIEW
  5
6
330
0
100
AcDbSymbolTable
 70
     0
  0
ENDTAB
  0
TABLE
  2
UCS
  5
7
330
0
100
AcDbSymbolTable
 70
     0
  0
ENDTAB
  0
TABLE
  2
APPID
  5
9
330
0
100
AcDbSymbolTable
 70
     9
  0
APPID
  5
10
330
9
100
AcDbSymbolTableRecord
100
AcDbRegAppTableRecord
  2
ACAD
 70
     0
  0
APPID
  5
3D5E
330
9
100
AcDbSymbolTableRecord
100
AcDbRegAppTableRecord
  2
ACAD_PSEXT
 70
     0
  0
APPID
  5
3DB9
330
9
100
AcDbSymbolTableRecord
100
AcDbRegAppTableRecord
  2
AcAecLayerStandard
 70
     0
  0
APPID
  5
41A3
330
9
100
AcDbSymbolTableRecord
100
AcDbRegAppTableRecord
  2
ACAD_DSTYLE_DIM_LINETYPE
 70
     0
  0
APPID
  5
41A4
330
9
100
AcDbSymbolTableRecord
100
AcDbRegAppTableRecord
  2
ACAD_DSTYLE_DIM_EXT1_LINETYPE
 70
     0
  0
APPID
  5
41A5
330
9
100
AcDbSymbolTableRecord
100
AcDbRegAppTableRecord
  2
ACAD_DSTYLE_DIM_EXT2_LINETYPE
 70
     0
  0
APPID
  5
465E
330
9
100
AcDbSymbolTableRecord
100
AcDbRegAppTableRecord
  2
ACAD_DSTYLE_DIMTEXT_FILL
 70
     0
  0
APPID
  5
4A72
330
9
100
AcDbSymbolTableRecord
100
AcDbRegAppTableRecord
  2
ACAD_NAV_VCDISPLAY
 70
     0
  0
APPID
  5
4AB4
330
9
100
AcDbSymbolTableRecord
100
AcDbRegAppTableRecord
  2
ACAD_MLEADERVER
 70
     0
  0
ENDTAB
  0
TABLE
  2
DIMSTYLE
  5
A
330
0
100
AcDbSymbolTable
 70
     3
100
AcDbDimStyleTable
 71
     2
340
3DB8
340
30
  0
DIMSTYLE
105
30
330
A
100
AcDbSymbolTableRecord
100
AcDbDimStyleTableRecord
  2
STANDARD
 70
     0
 41
6.0
 42
1.0
 43
16.0
 44
3.0
 73
     0
 74
     0
 77
     1
 78
     8
140
4.4
141
10.0
147
1.6
172
     1
176
   256
177
   256
178
   256
340
F
341
977
342
977
  0
DIMSTYLE
105
3DB8
102
{ACAD_REACTORS
330
446C
330
4486
330
449C
330
44AB
330
44B8
330
44D2
330
4506
330
451A
330
4530
330
453D
330
45FC
330
4518
330
4519
330
4B9F
102
}
330
A
100
AcDbSymbolTableRecord
100
AcDbDimStyleTableRecord
  2
CatalogDxf
 70
     0
 41
2.5
 42
0.625
 43
3.75
 44
1.25
 73
     0
 74
     0
 77
     1
 78
     8
140
2.5
141
2.5
143
0.03937007874016
147
0.625
171
     3
172
     1
176
   256
177
   256
178
   256
271
     1
272
     1
274
     3
283
     0
284
     8
340
3DB6
341
977
342
977
371
    -1
372
    -1
1001
ACAD_DSTYLE_DIM_LINETYPE
1070
   380
1005
12
1001
ACAD_DSTYLE_DIM_EXT1_LINETYPE
1070
   381
1005
12
1001
ACAD_DSTYLE_DIM_EXT2_LINETYPE
1070
   382
1005
12
  0
DIMSTYLE
105
42E5
330
A
100
AcDbSymbolTableRecord
100
AcDbDimStyleTableRecord
  2
ISO-25
 70
     0
 41
2.5
 42
0.625
 43
3.75
 44
1.25
 73
     0
 74
     0
 77
     1
 78
     8
140
2.5
141
2.5
143
0.03937007874016
147
0.625
171
     3
172
     1
271
     2
272
     2
274
     3
278
    44
283
     0
284
     8
340
F
  0
ENDTAB
  0
TABLE
  2
BLOCK_RECORD
  5
1
330
0
100
AcDbSymbolTable
 70
    16
  0
BLOCK_RECORD
  5
17
102
{ACAD_XDICTIONARY
360
1808
102
}
330
1
100
AcDbSymbolTableRecord
100
AcDbBlockTableRecord
  2
*MODEL_SPACE
340
3D5B
  0
BLOCK_RECORD
  5
14
102
{ACAD_XDICTIONARY
360
1806
102
}
330
1
100
AcDbSymbolTableRecord
100
AcDbBlockTableRecord
  2
*PAPER_SPACE
340
3D5C
  0
BLOCK_RECORD
  5
977
330
1
100
AcDbSymbolTableRecord
100
AcDbBlockTableRecord
  2
_OPEN30
340
0
102
{BLKREFS
331
4BB8
331
4BB9
331
4B32
331
4B33
331
4B3B
331
4B3C
331
4B44
331
4B45
331
4B4D
331
4B4E
331
4B56
331
4B57
331
4B5F
331
4B60
331
4B6A
331
4B6B
331
4B74
331
4B75
331
4B7D
331
4B7E
331
4B85
331
4B86
331
4B8E
331
4B8F
331
4B97
331
4B98
331
4A35
331
4A36
102
}
  0
BLOCK_RECORD
  5
42DD
102
{ACAD_XDICTIONARY
360
42DE
102
}
330
1
100
AcDbSymbolTableRecord
100
AcDbBlockTableRecord
  2
A$C253E3049
340
0
  0
BLOCK_RECORD
  5
446D
330
1
100
AcDbSymbolTableRecord
100
AcDbBlockTableRecord
  2
*D2
340
0
  0
BLOCK_RECORD
  5
4487
330
1
100
AcDbSymbolTableRecord
100
AcDbBlockTableRecord
  2
*D3
340
0
  0
BLOCK_RECORD
  5
449D
330
1
100
AcDbSymbolTableRecord
100
AcDbBlockTableRecord
  2
*D4
340
0
  0
BLOCK_RECORD
  5
44AC
330
1
100
AcDbSymbolTableRecord
100
AcDbBlockTableRecord
  2
*D5
340
0
  0
BLOCK_RECORD
  5
44B9
330
1
100
AcDbSymbolTableRecord
100
AcDbBlockTableRecord
  2
*D6
340
0
  0
BLOCK_RECORD
  5
44C6
330
1
100
AcDbSymbolTableRecord
100
AcDbBlockTableRecord
  2
*D7
340
0
  0
BLOCK_RECORD
  5
44D3
330
1
100
AcDbSymbolTableRecord
100
AcDbBlockTableRecord
  2
*D8
340
0
  0
BLOCK_RECORD
  5
4507
330
1
100
AcDbSymbolTableRecord
100
AcDbBlockTableRecord
  2
*D9
340
0
  0
BLOCK_RECORD
  5
451B
330
1
100
AcDbSymbolTableRecord
100
AcDbBlockTableRecord
  2
*D10
340
0
  0
BLOCK_RECORD
  5
4531
330
1
100
AcDbSymbolTableRecord
100
AcDbBlockTableRecord
  2
*D11
340
0
  0
BLOCK_RECORD
  5
453E
330
1
100
AcDbSymbolTableRecord
100
AcDbBlockTableRecord
  2
*D12
340
0
  0
BLOCK_RECORD
  5
45FD
330
1
100
AcDbSymbolTableRecord
100
AcDbBlockTableRecord
  2
*D13
340
0
  0
BLOCK_RECORD
  5
4A17
330
1
100
AcDbSymbolTableRecord
100
AcDbBlockTableRecord
  2
*D14
340
0
  0
BLOCK_RECORD
  5
4BA0
330
1
100
AcDbSymbolTableRecord
100
AcDbBlockTableRecord
  2
*D15
340
0
  0
ENDTAB
  0
ENDSEC
  0
SECTION
  2
BLOCKS
  0
BLOCK
  5
2E
330
17
100
AcDbEntity
  8
0
100
AcDbBlockBegin
  2
*MODEL_SPACE
 70
     0
 10
0.0
 20
0.0
 30
0.0
  3
*MODEL_SPACE
  1

  0
ENDBLK
  5
2F
330
17
100
AcDbEntity
  8
0
100
AcDbBlockEnd
  0
BLOCK
  5
2C
330
14
100
AcDbEntity
 67
     1
  8
0
100
AcDbBlockBegin
  2
*PAPER_SPACE
 70
     0
 10
0.0
 20
0.0
 30
0.0
  3
*PAPER_SPACE
  1

  0
ENDBLK
  5
2D
330
14
100
AcDbEntity
 67
     1
  8
0
100
AcDbBlockEnd
  0
BLOCK
  5
97B
330
977
100
AcDbEntity
  8
0
100
AcDbBlockBegin
  2
_OPEN30
 70
     0
 10
0.0
 20
0.0
 30
0.0
  3
_OPEN30
  1

  0
LINE
  5
978
330
977
100
AcDbEntity
  8
0
  6
ByBlock
 62
     0
100
AcDbLine
 10
-1.0
 20
0.26794919
 30
0.0
 11
0.0
 21
0.0
 31
0.0
  0
LINE
  5
979
330
977
100
AcDbEntity
  8
0
  6
ByBlock
 62
     0
100
AcDbLine
 10
0.0
 20
0.0
 30
0.0
 11
-1.0
 21
-0.26794919
 31
0.0
  0
LINE
  5
97A
330
977
100
AcDbEntity
  8
0
  6
ByBlock
 62
     0
100
AcDbLine
 10
0.0
 20
0.0
 30
0.0
 11
-1.0
 21
0.0
 31
0.0
  0
ENDBLK
  5
97C
330
977
100
AcDbEntity
  8
0
100
AcDbBlockEnd
  0
BLOCK
  5
42E0
330
42DD
100
AcDbEntity
  8
0
 62
     0
370
    -3
100
AcDbBlockBegin
  2
A$C253E3049
 70
     0
 10
0.0
 20
0.0
 30
0.0
  3
A$C253E3049
  1

  0
LINE
  5
42E1
330
42DD
100
AcDbEntity
  8
0
 62
     0
 48
0.5
370
    -3
100
AcDbLine
 10
24.84142671910559
 20
2.0
 30
0.0
 11
0.0
 21
2.0
 31
0.0
  0
LINE
  5
42E2
330
42DD
100
AcDbEntity
  8
0
 62
     0
 48
0.5
370
    -3
100
AcDbLine
 10
23.68672618072628
 20
-0.0000000000000036
 30
0.0
 11
0.0
 21
0.0
 31
0.0
  0
LINE
  5
42E3
330
42DD
100
AcDbEntity
  8
0
 62
     0
 48
0.3
370
    -3
100
AcDbLine
 10
22.02857620762291
 20
-2.871999999984033
 30
0.0
 11
26.49957669222738
 21
4.872000000015936
 31
0.0
  0
ENDBLK
  5
42E4
330
42DD
100
AcDbEntity
  8
0
 62
     0
370
    -3
100
AcDbBlockEnd
  0
BLOCK
  5
4479
330
446D
100
AcDbEntity
  8
0
100
AcDbBlockBegin
  2
*D2
 70
     1
 10
0.0
 20
0.0
 30
0.0
  3
*D2
  1

  0
LINE
  5
4B2D
330
446D
100
AcDbEntity
  8
Z_OM_DIM
100
AcDbLine
 10
636.2524106007624
 20
-18.82110126357619
 30
0.0
 11
625.4489010678447
 21
-18.82110126357618
 31
0.0
  0
LINE
  5
4B2E
330
446D
100
AcDbEntity
  8
Z_OM_DIM
100
AcDbLine
 10
636.2524106007624
 20
-21.07110126357619
 30
0.0
 11
625.4489010678447
 21
-21.07110126357619
 31
0.0
  0
LINE
  5
4B2F
330
446D
100
AcDbEntity
  8
Z_OM_DIM
100
AcDbLine
 10
626.6989010678448
 20
-23.57110126357619
 30
0.0
 11
626.6989010678448
 21
-26.07110126357619
 31
0.0
  0
LINE
  5
4B30
330
446D
100
AcDbEntity
  8
Z_OM_DIM
100
AcDbLine
 10
626.6989010678448
 20
-16.32110126357618
 30
0.0
 11
626.6989010678448
 21
-10.90443459690952
 31
0.0
  0
LINE
  5
4B31
330
446D
100
AcDbEntity
  8
Z_OM_DIM
100
AcDbLine
 10
626.6989010678448
 20
-21.07110126357619
 30
0.0
 11
626.6989010678448
 21
-18.82110126357618
 31
0.0
  0
INSERT
  5
4B32
330
446D
100
AcDbEntity
  8
Z_OM_DIM
100
AcDbBlockReference
  2
_OPEN30
 10
626.6989010678448
 20
-21.07110126357619
 30
0.0
 41
2.5
 42
2.5
 43
2.5
 50
90.0
  0
INSERT
  5
4B33
330
446D
100
AcDbEntity
  8
Z_OM_DIM
100
AcDbBlockReference
  2
_OPEN30
 10
626.6989010678448
 20
-18.82110126357618
 30
0.0
 41
2.5
 42
2.5
 43
2.5
 50
270.0
  0
MTEXT
  5
4B34
330
446D
100
AcDbEntity
  8
Z_OM_DIM
100
AcDbMText
 10
624.8239010678447
 20
-12.36276793024275
 30
0.0
 40
2.5
 41
0.0
 71
     5
 72
     1
  1
2
  7
CatalogDxf
 11
0.0000000000000001
 21
1.0
 31
0.0
 73
     1
 44
1.0
1001
ACAD
1000
MTEXTBEGIN
1070
    73
1070
     1
1070
    44
1040
1.0
1070
    74
1070
     0
1000
MTEXTEND
  0
POINT
  5
4B35
330
446D
100
AcDbEntity
  8
DEFPOINTS
 62
     0
100
AcDbPoint
 10
636.8774106007625
 20
-18.82110126357619
 30
0.0
  0
POINT
  5
4B36
330
446D
100
AcDbEntity
  8
DEFPOINTS
 62
     0
100
AcDbPoint
 10
636.8774106007625
 20
-21.07110126357619
 30
0.0
  0
POINT
  5
4B37
330
446D
100
AcDbEntity
  8
DEFPOINTS
 62
     0
100
AcDbPoint
 10
626.6989010678448
 20
-21.07110126357619
 30
0.0
  0
ENDBLK
  5
447A
330
446D
100
AcDbEntity
  8
0
100
AcDbBlockEnd
  0
BLOCK
  5
4491
330
4487
100
AcDbEntity
  8
0
100
AcDbBlockBegin
  2
*D3
 70
     1
 10
0.0
 20
0.0
 30
0.0
  3
*D3
  1

  0
LINE
  5
4B38
330
4487
100
AcDbEntity
  8
Z_OM_DIM
100
AcDbLine
 10
645.0274106007626
 20
-21.69610126357619
 30
0.0
 11
645.0274106007626
 21
-36.19762335612853
 31
0.0
  0
LINE
  5
4B39
330
4487
100
AcDbEntity
  8
Z_OM_DIM
100
AcDbLine
 10
636.8774106007625
 20
-24.02210126357622
 30
0.0
 11
636.8774106007625
 21
-36.19762335612853
 31
0.0
  0
LINE
  5
4B3A
330
4487
100
AcDbEntity
  8
Z_OM_DIM
100
AcDbLine
 10
642.5274106007626
 20
-34.94762335612853
 30
0.0
 11
639.3774106007624
 21
-34.94762335612853
 31
0.0
  0
INSERT
  5
4B3B
330
4487
100
AcDbEntity
  8
Z_OM_DIM
100
AcDbBlockReference
  2
_OPEN30
 10
645.0274106007626
 20
-34.94762335612853
 30
0.0
 41
2.5
 42
2.5
 43
2.5
  0
INSERT
  5
4B3C
330
4487
100
AcDbEntity
  8
Z_OM_DIM
100
AcDbBlockReference
  2
_OPEN30
 10
636.8774106007625
 20
-34.94762335612853
 30
0.0
 41
2.5
 42
2.5
 43
2.5
 50
180.0
  0
MTEXT
  5
4B3D
330
4487
100
AcDbEntity
  8
Z_OM_DIM
100
AcDbMText
 10
640.9524106007625
 20
-33.07262335612853
 30
0.0
 40
2.5
 41
0.0
 71
     5
 72
     1
  1
8
  7
CatalogDxf
 73
     1
 44
1.0
1001
ACAD
1000
MTEXTBEGIN
1070
    73
1070
     1
1070
    44
1040
1.0
1070
    74
1070
     0
1000
MTEXTEND
  0
POINT
  5
4B3E
330
4487
100
AcDbEntity
  8
DEFPOINTS
 62
     0
100
AcDbPoint
 10
645.0274106007626
 20
-21.07110126357619
 30
0.0
  0
POINT
  5
4B3F
330
4487
100
AcDbEntity
  8
DEFPOINTS
 62
     0
100
AcDbPoint
 10
636.8774106007625
 20
-23.39710126357622
 30
0.0
  0
POINT
  5
4B40
330
4487
100
AcDbEntity
  8
DEFPOINTS
 62
     0
100
AcDbPoint
 10
636.8774106007625
 20
-34.94762335612853
 30
0.0
  0
ENDBLK
  5
4492
330
4487
100
AcDbEntity
  8
0
100
AcDbBlockEnd
  0
BLOCK
  5
44A7
330
449D
100
AcDbEntity
  8
0
100
AcDbBlockBegin
  2
*D4
 70
     1
 10
0.0
 20
0.0
 30
0.0
  3
*D4
  1

  0
LINE
  5
4B41
330
449D
100
AcDbEntity
  8
Z_OM_DIM
100
AcDbLine
 10
646.9724106007625
 20
-33.67110126357622
 30
0.0
 11
646.9724106007625
 21
-46.34856275131414
 31
0.0
  0
LINE
  5
4B42
330
449D
100
AcDbEntity
  8
Z_OM_DIM
100
AcDbLine
 10
683.9724106007622
 20
-32.07110126357623
 30
0.0
 11
683.9724106007622
 21
-46.34856275131414
 31
0.0
  0
LINE
  5
4B43
330
449D
100
AcDbEntity
  8
Z_OM_DIM
100
AcDbLine
 10
649.4724106007624
 20
-45.09856275131414
 30
0.0
 11
681.4724106007623
 21
-45.09856275131414
 31
0.0
  0
INSERT
  5
4B44
330
449D
100
AcDbEntity
  8
Z_OM_DIM
100
AcDbBlockReference
  2
_OPEN30
 10
646.9724106007625
 20
-45.09856275131414
 30
0.0
 41
2.5
 42
2.5
 43
2.5
 50
180.0
  0
INSERT
  5
4B45
330
449D
100
AcDbEntity
  8
Z_OM_DIM
100
AcDbBlockReference
  2
_OPEN30
 10
683.9724106007622
 20
-45.09856275131414
 30
0.0
 41
2.5
 42
2.5
 43
2.5
  0
MTEXT
  5
4B46
330
449D
100
AcDbEntity
  8
Z_OM_DIM
100
AcDbMText
 10
665.4724106007623
 20
-43.22356275131414
 30
0.0
 40
2.5
 41
0.0
 71
     5
 72
     1
  1
37
  7
CatalogDxf
 73
     1
 44
1.0
1001
ACAD
1000
MTEXTBEGIN
1070
    73
1070
     1
1070
    44
1040
1.0
1070
    74
1070
     0
1000
MTEXTEND
  0
POINT
  5
4B47
330
449D
100
AcDbEntity
  8
DEFPOINTS
 62
     0
100
AcDbPoint
 10
646.9724106007625
 20
-33.04610126357622
 30
0.0
  0
POINT
  5
4B48
330
449D
100
AcDbEntity
  8
DEFPOINTS
 62
     0
100
AcDbPoint
 10
683.9724106007622
 20
-31.44610126357623
 30
0.0
  0
POINT
  5
4B49
330
449D
100
AcDbEntity
  8
DEFPOINTS
 62
     0
100
AcDbPoint
 10
683.9724106007622
 20
-45.09856275131414
 30
0.0
  0
ENDBLK
  5
44A8
330
449D
100
AcDbEntity
  8
0
100
AcDbBlockEnd
  0
BLOCK
  5
44B6
330
44AC
100
AcDbEntity
  8
0
100
AcDbBlockBegin
  2
*D5
 70
     1
 10
0.0
 20
0.0
 30
0.0
  3
*D5
  1

  0
LINE
  5
4B4A
330
44AC
100
AcDbEntity
  8
Z_OM_DIM
100
AcDbLine
 10
677.1351312901584
 20
-85.01028004530361
 30
0.0
 11
698.6851358310275
 21
-85.01028004530361
 31
0.0
  0
LINE
  5
4B4B
330
44AC
100
AcDbEntity
  8
Z_OM_DIM
100
AcDbLine
 10
677.1351312901584
 20
-93.01028004530364
 30
0.0
 11
698.6851358310275
 21
-93.01028004530364
 31
0.0
  0
LINE
  5
4B4C
330
44AC
100
AcDbEntity
  8
Z_OM_DIM
100
AcDbLine
 10
697.4351358310275
 20
-87.51028004530361
 30
0.0
 11
697.4351358310275
 21
-90.51028004530364
 31
0.0
  0
INSERT
  5
4B4D
330
44AC
100
AcDbEntity
  8
Z_OM_DIM
100
AcDbBlockReference
  2
_OPEN30
 10
697.4351358310275
 20
-85.01028004530361
 30
0.0
 41
2.5
 42
2.5
 43
2.5
 50
90.0
  0
INSERT
  5
4B4E
330
44AC
100
AcDbEntity
  8
Z_OM_DIM
100
AcDbBlockReference
  2
_OPEN30
 10
697.4351358310275
 20
-93.01028004530364
 30
0.0
 41
2.5
 42
2.5
 43
2.5
 50
270.0
  0
MTEXT
  5
4B4F
330
44AC
100
AcDbEntity
  8
Z_OM_DIM
100
AcDbMText
 10
695.5601358310275
 20
-89.01028004530351
 30
0.0
 40
2.5
 41
0.0
 71
     5
 72
     1
  1
8
  7
CatalogDxf
 11
0.0000000000000001
 21
1.0
 31
0.0
 73
     1
 44
1.0
1001
ACAD
1000
MTEXTBEGIN
1070
    73
1070
     1
1070
    44
1040
1.0
1070
    74
1070
     0
1000
MTEXTEND
  0
POINT
  5
4B50
330
44AC
100
AcDbEntity
  8
DEFPOINTS
 62
     0
100
AcDbPoint
 10
676.5101312901585
 20
-85.01028004530361
 30
0.0
  0
POINT
  5
4B51
330
44AC
100
AcDbEntity
  8
DEFPOINTS
 62
     0
100
AcDbPoint
 10
676.5101312901585
 20
-93.01028004530364
 30
0.0
  0
POINT
  5
4B52
330
44AC
100
AcDbEntity
  8
DEFPOINTS
 62
     0
100
AcDbPoint
 10
697.4351358310275
 20
-93.01028004530364
 30
0.0
  0
ENDBLK
  5
44B7
330
44AC
100
AcDbEntity
  8
0
100
AcDbBlockEnd
  0
BLOCK
  5
44C3
330
44B9
100
AcDbEntity
  8
0
100
AcDbBlockBegin
  2
*D6
 70
     1
 10
0.0
 20
0.0
 30
0.0
  3
*D6
  1

  0
LINE
  5
4B53
330
44B9
100
AcDbEntity
  8
Z_OM_DIM
100
AcDbLine
 10
673.6724106007625
 20
-81.46364121501411
 30
0.0
 11
673.6724106007625
 21
-64.2114950826134
 31
0.0
  0
LINE
  5
4B54
330
44B9
100
AcDbEntity
  8
Z_OM_DIM
100
AcDbLine
 10
653.6724106007625
 20
-81.46364121501411
 30
0.0
 11
653.6724106007625
 21
-64.2114950826134
 31
0.0
  0
LINE
  5
4B55
330
44B9
100
AcDbEntity
  8
Z_OM_DIM
100
AcDbLine
 10
671.1724106007625
 20
-65.4614950826134
 30
0.0
 11
656.1724106007625
 21
-65.4614950826134
 31
0.0
  0
INSERT
  5
4B56
330
44B9
100
AcDbEntity
  8
Z_OM_DIM
100
AcDbBlockReference
  2
_OPEN30
 10
673.6724106007625
 20
-65.4614950826134
 30
0.0
 41
2.5
 42
2.5
 43
2.5
  0
INSERT
  5
4B57
330
44B9
100
AcDbEntity
  8
Z_OM_DIM
100
AcDbBlockReference
  2
_OPEN30
 10
653.6724106007625
 20
-65.4614950826134
 30
0.0
 41
2.5
 42
2.5
 43
2.5
 50
180.0
  0
MTEXT
  5
4B58
330
44B9
100
AcDbEntity
  8
Z_OM_DIM
100
AcDbMText
 10
663.6724106007625
 20
-63.5864950826134
 30
0.0
 40
2.5
 41
0.0
 71
     5
 72
     1
  1
20
  7
CatalogDxf
 73
     1
 44
1.0
1001
ACAD
1000
MTEXTBEGIN
1070
    73
1070
     1
1070
    44
1040
1.0
1070
    74
1070
     0
1000
MTEXTEND
  0
POINT
  5
4B59
330
44B9
100
AcDbEntity
  8
DEFPOINTS
 62
     0
100
AcDbPoint
 10
673.6724106007625
 20
-82.08864121501411
 30
0.0
  0
POINT
  5
4B5A
330
44B9
100
AcDbEntity
  8
DEFPOINTS
 62
     0
100
AcDbPoint
 10
653.6724106007625
 20
-82.08864121501411
 30
0.0
  0
POINT
  5
4B5B
330
44B9
100
AcDbEntity
  8
DEFPOINTS
 62
     0
100
AcDbPoint
 10
653.6724106007625
 20
-65.4614950826134
 30
0.0
  0
ENDBLK
  5
44C4
330
44B9
100
AcDbEntity
  8
0
100
AcDbBlockEnd
  0
BLOCK
  5
44D0
330
44C6
100
AcDbEntity
  8
0
100
AcDbBlockBegin
  2
*D7
 70
     1
 10
0.0
 20
0.0
 30
0.0
  3
*D7
  1

  0
LINE
  5
4B5C
330
44C6
100
AcDbEntity
  8
Z_OM_DIM
100
AcDbLine
 10
653.6724106007625
 20
-81.46364121501411
 30
0.0
 11
653.6724106007625
 21
-64.2114950826134
 31
0.0
  0
LINE
  5
4B5D
330
44C6
100
AcDbEntity
  8
Z_OM_DIM
100
AcDbLine
 10
640.3774106007624
 20
-81.63834225366883
 30
0.0
 11
640.3774106007624
 21
-64.2114950826134
 31
0.0
  0
LINE
  5
4B5E
330
44C6
100
AcDbEntity
  8
Z_OM_DIM
100
AcDbLine
 10
651.1724106007625
 20
-65.4614950826134
 30
0.0
 11
642.8774106007624
 21
-65.4614950826134
 31
0.0
  0
INSERT
  5
4B5F
330
44C6
100
AcDbEntity
  8
Z_OM_DIM
100
AcDbBlockReference
  2
_OPEN30
 10
653.6724106007625
 20
-65.4614950826134
 30
0.0
 41
2.5
 42
2.5
 43
2.5
  0
INSERT
  5
4B60
330
44C6
100
AcDbEntity
  8
Z_OM_DIM
100
AcDbBlockReference
  2
_OPEN30
 10
640.3774106007624
 20
-65.4614950826134
 30
0.0
 41
2.5
 42
2.5
 43
2.5
 50
180.0
  0
MTEXT
  5
4B61
330
44C6
100
AcDbEntity
  8
Z_OM_DIM
100
AcDbMText
 10
647.0249106007624
 20
-63.5864950826134
 30
0.0
 40
2.5
 41
0.0
 71
     5
 72
     1
  1
13.5
  7
CatalogDxf
 73
     1
 44
1.0
1001
ACAD
1000
MTEXTBEGIN
1070
    73
1070
     1
1070
    44
1040
1.0
1070
    74
1070
     0
1000
MTEXTEND
  0
POINT
  5
4B62
330
44C6
100
AcDbEntity
  8
DEFPOINTS
 62
     0
100
AcDbPoint
 10
653.6724106007625
 20
-82.08864121501411
 30
0.0
  0
POINT
  5
4B63
330
44C6
100
AcDbEntity
  8
DEFPOINTS
 62
     0
100
AcDbPoint
 10
640.3774106007624
 20
-82.26334225366883
 30
0.0
  0
POINT
  5
4B64
330
44C6
100
AcDbEntity
  8
DEFPOINTS
 62
     0
100
AcDbPoint
 10
640.3774106007624
 20
-65.4614950826134
 30
0.0
  0
ENDBLK
  5
44D1
330
44C6
100
AcDbEntity
  8
0
100
AcDbBlockEnd
  0
BLOCK
  5
44E2
330
44D3
100
AcDbEntity
  8
0
100
AcDbBlockBegin
  2
*D8
 70
     1
 10
0.0
 20
0.0
 30
0.0
  3
*D8
  1

  0
LINE
  5
4B65
330
44D3
100
AcDbEntity
  8
Z_OM_DIM
100
AcDbLine
 10
640.3774106007624
 20
-81.63834225366883
 30
0.0
 11
640.3774106007624
 21
-64.2114950826134
 31
0.0
  0
LINE
  5
4B66
330
44D3
100
AcDbEntity
  8
Z_OM_DIM
100
AcDbLine
 10
636.8774106007625
 20
-84.93428004530455
 30
0.0
 11
636.8774106007625
 21
-64.2114950826134
 31
0.0
  0
LINE
  5
4B67
330
44D3
100
AcDbEntity
  8
Z_OM_DIM
100
AcDbLine
 10
642.8774106007624
 20
-65.4614950826134
 30
0.0
 11
645.3774106007625
 21
-65.4614950826134
 31
0.0
  0
LINE
  5
4B68
330
44D3
100
AcDbEntity
  8
Z_OM_DIM
100
AcDbLine
 10
634.3774106007624
 20
-65.4614950826134
 30
0.0
 11
625.6274106007624
 21
-65.4614950826134
 31
0.0
  0
LINE
  5
4B69
330
44D3
100
AcDbEntity
  8
Z_OM_DIM
100
AcDbLine
 10
640.3774106007624
 20
-65.4614950826134
 30
0.0
 11
636.8774106007625
 21
-65.4614950826134
 31
0.0
  0
INSERT
  5
4B6A
330
44D3
100
AcDbEntity
  8
Z_OM_DIM
100
AcDbBlockReference
  2
_OPEN30
 10
640.3774106007624
 20
-65.4614950826134
 30
0.0
 41
2.5
 42
2.5
 43
2.5
 50
180.0
  0
INSERT
  5
4B6B
330
44D3
100
AcDbEntity
  8
Z_OM_DIM
100
AcDbBlockReference
  2
_OPEN30
 10
636.8774106007625
 20
-65.4614950826134
 30
0.0
 41
2.5
 42
2.5
 43
2.5
  0
MTEXT
  5
4B6C
330
44D3
100
AcDbEntity
  8
Z_OM_DIM
100
AcDbMText
 10
628.7524106007624
 20
-63.5864950826134
 30
0.0
 40
2.5
 41
0.0
 71
     5
 72
     1
  1
3.5
  7
CatalogDxf
 73
     1
 44
1.0
1001
ACAD
1000
MTEXTBEGIN
1070
    73
1070
     1
1070
    44
1040
1.0
1070
    74
1070
     0
1000
MTEXTEND
  0
POINT
  5
4B6D
330
44D3
100
AcDbEntity
  8
DEFPOINTS
 62
     0
100
AcDbPoint
 10
640.3774106007624
 20
-82.26334225366883
 30
0.0
  0
POINT
  5
4B6E
330
44D3
100
AcDbEntity
  8
DEFPOINTS
 62
     0
100
AcDbPoint
 10
636.8774106007625
 20
-85.55928004530455
 30
0.0
  0
POINT
  5
4B6F
330
44D3
100
AcDbEntity
  8
DEFPOINTS
 62
     0
100
AcDbPoint
 10
636.8774106007625
 20
-65.4614950826134
 30
0.0
  0
ENDBLK
  5
44E3
330
44D3
100
AcDbEntity
  8
0
100
AcDbBlockEnd
  0
BLOCK
  5
4511
330
4507
100
AcDbEntity
  8
0
100
AcDbBlockBegin
  2
*D9
 70
     1
 10
0.0
 20
0.0
 30
0.0
  3
*D9
  1

  0
LINE
  5
4B70
330
4507
100
AcDbEntity
  8
Z_OM_DIM
100
AcDbLine
 10
653.6724106007625
 20
-81.46364121501411
 30
0.0
 11
653.6724106007625
 21
-70.85242081924497
 31
0.0
  0
LINE
  5
4B71
330
4507
100
AcDbEntity
  8
Z_OM_DIM
100
AcDbLine
 10
646.9724106007625
 20
-78.38528004530362
 30
0.0
 11
646.9724106007625
 21
-70.85242081924497
 31
0.0
  0
LINE
  5
4B72
330
4507
100
AcDbEntity
  8
Z_OM_DIM
100
AcDbLine
 10
651.1724106007625
 20
-72.10242081924497
 30
0.0
 11
649.4724106007624
 21
-72.10242081924497
 31
0.0
  0
MTEXT
  5
4B73
330
4507
100
AcDbEntity
  8
Z_OM_DIM
100
AcDbMText
 10
650.287547600922
 20
-69.56563690514849
 30
0.0
 40
2.5
 41
0.0
 71
     5
 72
     1
  1
6.7
  7
CatalogDxf
 73
     1
 44
1.0
1001
ACAD
1000
MTEXTBEGIN
1070
    73
1070
     1
1070
    44
1040
1.0
1070
    74
1070
     0
1000
MTEXTEND
  0
INSERT
  5
4B74
330
4507
100
AcDbEntity
  8
Z_OM_DIM
100
AcDbBlockReference
  2
_OPEN30
 10
653.6724106007625
 20
-72.10242081924497
 30
0.0
 41
2.5
 42
2.5
 43
2.5
  0
INSERT
  5
4B75
330
4507
100
AcDbEntity
  8
Z_OM_DIM
100
AcDbBlockReference
  2
_OPEN30
 10
646.9724106007625
 20
-72.10242081924497
 30
0.0
 41
2.5
 42
2.5
 43
2.5
 50
180.0
  0
POINT
  5
4B76
330
4507
100
AcDbEntity
  8
DEFPOINTS
 62
     0
100
AcDbPoint
 10
653.6724106007625
 20
-82.08864121501411
 30
0.0
  0
POINT
  5
4B77
330
4507
100
AcDbEntity
  8
DEFPOINTS
 62
     0
100
AcDbPoint
 10
646.9724106007625
 20
-79.01028004530362
 30
0.0
  0
POINT
  5
4B78
330
4507
100
AcDbEntity
  8
DEFPOINTS
 62
     0
100
AcDbPoint
 10
646.9724106007625
 20
-72.10242081924497
 30
0.0
  0
ENDBLK
  5
4512
330
4507
100
AcDbEntity
  8
0
100
AcDbBlockEnd
  0
BLOCK
  5
4525
330
451B
100
AcDbEntity
  8
0
100
AcDbBlockBegin
  2
*D10
 70
     1
 10
0.0
 20
0.0
 30
0.0
  3
*D10
  1

  0
LINE
  5
4B79
330
451B
100
AcDbEntity
  8
Z_OM_DIM
100
AcDbLine
 10
636.7524106007624
 20
-85.05928004530449
 30
0.0
 11
625.4489010678447
 21
-85.05928004530449
 31
0.0
  0
LINE
  5
4B7A
330
451B
100
AcDbEntity
  8
Z_OM_DIM
100
AcDbLine
 10
636.7524106007624
 20
-92.96128004530364
 30
0.0
 11
625.4489010678447
 21
-92.96128004530364
 31
0.0
  0
LINE
  5
4B7B
330
451B
100
AcDbEntity
  8
Z_OM_DIM
100
AcDbLine
 10
626.6989010678448
 20
-87.55928004530449
 30
0.0
 11
626.6989010678448
 21
-90.46128004530364
 31
0.0
  0
MTEXT
  5
4B7C
330
451B
100
AcDbEntity
  8
Z_OM_DIM
100
AcDbMText
 10
624.1949346980693
 20
-89.29812891470119
 30
0.0
 40
2.5
 41
0.0
 71
     5
 72
     1
  1
%%c8
  7
CatalogDxf
 11
0.0000000000000001
 21
1.0
 31
0.0
 73
     1
 44
1.0
1001
ACAD
1000
MTEXTBEGIN
1070
    73
1070
     1
1070
    44
1040
1.0
1070
    74
1070
     0
1000
MTEXTEND
  0
INSERT
  5
4B7D
330
451B
100
AcDbEntity
  8
Z_OM_DIM
100
AcDbBlockReference
  2
_OPEN30
 10
626.6989010678448
 20
-85.05928004530449
 30
0.0
 41
2.5
 42
2.5
 43
2.5
 50
90.0
  0
INSERT
  5
4B7E
330
451B
100
AcDbEntity
  8
Z_OM_DIM
100
AcDbBlockReference
  2
_OPEN30
 10
626.6989010678448
 20
-92.96128004530364
 30
0.0
 41
2.5
 42
2.5
 43
2.5
 50
270.0
  0
POINT
  5
4B7F
330
451B
100
AcDbEntity
  8
DEFPOINTS
 62
     0
100
AcDbPoint
 10
637.3774106007624
 20
-85.05928004530449
 30
0.0
  0
POINT
  5
4B80
330
451B
100
AcDbEntity
  8
DEFPOINTS
 62
     0
100
AcDbPoint
 10
637.3774106007624
 20
-92.96128004530364
 30
0.0
  0
POINT
  5
4B81
330
451B
100
AcDbEntity
  8
DEFPOINTS
 62
     0
100
AcDbPoint
 10
626.6989010678448
 20
-92.96128004530364
 30
0.0
  0
ENDBLK
  5
4526
330
451B
100
AcDbEntity
  8
0
100
AcDbBlockEnd
  0
BLOCK
  5
453B
330
4531
100
AcDbEntity
  8
0
100
AcDbBlockBegin
  2
*D11
 70
     1
 10
0.0
 20
0.0
 30
0.0
  3
*D11
  1

  0
LINE
  5
4B82
330
4531
100
AcDbEntity
  8
Z_OM_DIM
100
AcDbLine
 10
587.3063918964606
 20
-79.01028004530362
 30
0.0
 11
601.3907741263749
 21
-79.01028004530362
 31
0.0
  0
LINE
  5
4B83
330
4531
100
AcDbEntity
  8
Z_OM_DIM
100
AcDbLine
 10
587.3063918964606
 20
-99.01028004530365
 30
0.0
 11
601.3907741263749
 21
-99.01028004530365
 31
0.0
  0
LINE
  5
4B84
330
4531
100
AcDbEntity
  8
Z_OM_DIM
100
AcDbLine
 10
600.1407741263749
 20
-81.51028004530362
 30
0.0
 11
600.1407741263749
 21
-96.51028004530365
 31
0.0
  0
INSERT
  5
4B85
330
4531
100
AcDbEntity
  8
Z_OM_DIM
100
AcDbBlockReference
  2
_OPEN30
 10
600.1407741263749
 20
-79.01028004530362
 30
0.0
 41
2.5
 42
2.5
 43
2.5
 50
90.0
  0
INSERT
  5
4B86
330
4531
100
AcDbEntity
  8
Z_OM_DIM
100
AcDbBlockReference
  2
_OPEN30
 10
600.1407741263749
 20
-99.01028004530365
 30
0.0
 41
2.5
 42
2.5
 43
2.5
 50
270.0
  0
MTEXT
  5
4B87
330
4531
100
AcDbEntity
  8
Z_OM_DIM
100
AcDbMText
 10
598.2657741263749
 20
-89.01028004530354
 30
0.0
 40
2.5
 41
0.0
 71
     5
 72
     1
  1
20
  7
CatalogDxf
 11
0.0000000000000001
 21
1.0
 31
0.0
 73
     1
 44
1.0
1001
ACAD
1000
MTEXTBEGIN
1070
    73
1070
     1
1070
    44
1040
1.0
1070
    74
1070
     0
1000
MTEXTEND
  0
POINT
  5
4B88
330
4531
100
AcDbEntity
  8
DEFPOINTS
 62
     0
100
AcDbPoint
 10
586.6813918964607
 20
-79.01028004530362
 30
0.0
  0
POINT
  5
4B89
330
4531
100
AcDbEntity
  8
DEFPOINTS
 62
     0
100
AcDbPoint
 10
586.6813918964607
 20
-99.01028004530365
 30
0.0
  0
POINT
  5
4B8A
330
4531
100
AcDbEntity
  8
DEFPOINTS
 62
     0
100
AcDbPoint
 10
600.1407741263749
 20
-99.01028004530365
 30
0.0
  0
ENDBLK
  5
453C
330
4531
100
AcDbEntity
  8
0
100
AcDbBlockEnd
  0
BLOCK
  5
4548
330
453E
100
AcDbEntity
  8
0
100
AcDbBlockBegin
  2
*D12
 70
     1
 10
0.0
 20
0.0
 30
0.0
  3
*D12
  1

  0
LINE
  5
4B8B
330
453E
100
AcDbEntity
  8
Z_OM_DIM
100
AcDbLine
 10
560.4813918964607
 20
-99.63528004530365
 30
0.0
 11
560.4813918964607
 21
-114.1788620299673
 31
0.0
  0
LINE
  5
4B8C
330
453E
100
AcDbEntity
  8
Z_OM_DIM
100
AcDbLine
 10
586.6813918964607
 20
-99.63528004530365
 30
0.0
 11
586.6813918964607
 21
-114.1788620299673
 31
0.0
  0
LINE
  5
4B8D
330
453E
100
AcDbEntity
  8
Z_OM_DIM
100
AcDbLine
 10
562.9813918964607
 20
-112.9288620299673
 30
0.0
 11
584.1813918964606
 21
-112.9288620299673
 31
0.0
  0
INSERT
  5
4B8E
330
453E
100
AcDbEntity
  8
Z_OM_DIM
100
AcDbBlockReference
  2
_OPEN30
 10
560.4813918964607
 20
-112.9288620299673
 30
0.0
 41
2.5
 42
2.5
 43
2.5
 50
180.0
  0
INSERT
  5
4B8F
330
453E
100
AcDbEntity
  8
Z_OM_DIM
100
AcDbBlockReference
  2
_OPEN30
 10
586.6813918964607
 20
-112.9288620299673
 30
0.0
 41
2.5
 42
2.5
 43
2.5
  0
MTEXT
  5
4B90
330
453E
100
AcDbEntity
  8
Z_OM_DIM
100
AcDbMText
 10
573.5813918964606
 20
-111.0538620299673
 30
0.0
 40
2.5
 41
0.0
 71
     5
 72
     1
  1
26
  7
CatalogDxf
 73
     1
 44
1.0
1001
ACAD
1000
MTEXTBEGIN
1070
    73
1070
     1
1070
    44
1040
1.0
1070
    74
1070
     0
1000
MTEXTEND
  0
POINT
  5
4B91
330
453E
100
AcDbEntity
  8
DEFPOINTS
 62
     0
100
AcDbPoint
 10
560.4813918964607
 20
-99.01028004530365
 30
0.0
  0
POINT
  5
4B92
330
453E
100
AcDbEntity
  8
DEFPOINTS
 62
     0
100
AcDbPoint
 10
586.6813918964607
 20
-99.01028004530365
 30
0.0
  0
POINT
  5
4B93
330
453E
100
AcDbEntity
  8
DEFPOINTS
 62
     0
100
AcDbPoint
 10
586.6813918964607
 20
-112.9288620299673
 30
0.0
  0
ENDBLK
  5
4549
330
453E
100
AcDbEntity
  8
0
100
AcDbBlockEnd
  0
BLOCK
  5
4607
330
45FD
100
AcDbEntity
  8
0
100
AcDbBlockBegin
  2
*D13
 70
     1
 10
0.0
 20
0.0
 30
0.0
  3
*D13
  1

  0
LINE
  5
4B94
330
45FD
100
AcDbEntity
  8
Z_OM_DIM
100
AcDbLine
 10
683.9724106007622
 20
-32.69610126357623
 30
0.0
 11
683.9724106007622
 21
-46.34856275131414
 31
0.0
  0
LINE
  5
4B95
330
45FD
100
AcDbEntity
  8
Z_OM_DIM
100
AcDbLine
 10
715.9870141000761
 20
-21.32110126357624
 30
0.0
 11
715.9870141000761
 21
-46.34856275131414
 31
0.0
  0
LINE
  5
4B96
330
45FD
100
AcDbEntity
  8
Z_OM_DIM
100
AcDbLine
 10
686.4724106007622
 20
-45.09856275131414
 30
0.0
 11
713.4870141000761
 21
-45.09856275131414
 31
0.0
  0
INSERT
  5
4B97
330
45FD
100
AcDbEntity
  8
Z_OM_DIM
100
AcDbBlockReference
  2
_OPEN30
 10
683.9724106007622
 20
-45.09856275131414
 30
0.0
 41
2.5
 42
2.5
 43
2.5
 50
180.0
  0
INSERT
  5
4B98
330
45FD
100
AcDbEntity
  8
Z_OM_DIM
100
AcDbBlockReference
  2
_OPEN30
 10
715.9870141000761
 20
-45.09856275131414
 30
0.0
 41
2.5
 42
2.5
 43
2.5
  0
MTEXT
  5
4B99
330
45FD
100
AcDbEntity
  8
Z_OM_DIM
100
AcDbMText
 10
699.9797123504192
 20
-43.22356275131414
 30
0.0
 40
2.5
 41
0.0
 71
     5
 72
     1
  1
180 - 200
  7
CatalogDxf
 73
     1
 44
1.0
1001
ACAD
1000
MTEXTBEGIN
1070
    73
1070
     1
1070
    44
1040
1.0
1070
    74
1070
     0
1000
MTEXTEND
  0
POINT
  5
4B9A
330
45FD
100
AcDbEntity
  8
DEFPOINTS
 62
     0
100
AcDbPoint
 10
683.9724106007622
 20
-32.07110126357623
 30
0.0
  0
POINT
  5
4B9B
330
45FD
100
AcDbEntity
  8
DEFPOINTS
 62
     0
100
AcDbPoint
 10
715.9870141000761
 20
-20.69610126357624
 30
0.0
  0
POINT
  5
4B9C
330
45FD
100
AcDbEntity
  8
DEFPOINTS
 62
     0
100
AcDbPoint
 10
715.9870141000761
 20
-45.09856275131414
 30
0.0
  0
ENDBLK
  5
4608
330
45FD
100
AcDbEntity
  8
0
100
AcDbBlockEnd
  0
BLOCK
  5
4A18
330
4A17
100
AcDbEntity
  8
0
100
AcDbBlockBegin
  2
*D14
 70
     1
 10
0.0
 20
0.0
 30
0.0
  3
*D14
  1

  0
LINE
  5
4A32
330
4A17
100
AcDbEntity
  8
0
100
AcDbLine
 10
640.3774106007624
 20
-81.63834225366883
 30
0.0
 11
640.3774106007624
 21
-75.15179525775271
 31
0.0
  0
LINE
  5
4A33
330
4A17
100
AcDbEntity
  8
0
100
AcDbLine
 10
653.6724106007625
 20
-81.46364121501411
 30
0.0
 11
653.6724106007625
 21
-75.15179525775271
 31
0.0
  0
LINE
  5
4A34
330
4A17
100
AcDbEntity
  8
0
100
AcDbLine
 10
642.8774106007624
 20
-76.40179525775271
 30
0.0
 11
651.1724106007625
 21
-76.40179525775271
 31
0.0
  0
INSERT
  5
4A35
330
4A17
100
AcDbEntity
  8
0
100
AcDbBlockReference
  2
_OPEN30
 10
640.3774106007624
 20
-76.40179525775271
 30
0.0
 41
2.5
 42
2.5
 43
2.5
 50
180.0
  0
INSERT
  5
4A36
330
4A17
100
AcDbEntity
  8
0
100
AcDbBlockReference
  2
_OPEN30
 10
653.6724106007625
 20
-76.40179525775271
 30
0.0
 41
2.5
 42
2.5
 43
2.5
  0
MTEXT
  5
4A37
330
4A17
100
AcDbEntity
  8
0
100
AcDbMText
 10
647.0249106007623
 20
-74.52679525775271
 30
0.0
 40
2.5
 41
0.0
 71
     5
 72
     1
  1
13.3
  7
CatalogDxf
 73
     1
 44
1.0
1001
ACAD
1000
MTEXTBEGIN
1070
    73
1070
     1
1070
    44
1040
1.0
1070
    74
1070
     0
1000
MTEXTEND
  0
POINT
  5
4A38
330
4A17
100
AcDbEntity
  8
DEFPOINTS
 62
     0
100
AcDbPoint
 10
640.3774106007624
 20
-82.26334225366883
 30
0.0
  0
POINT
  5
4A39
330
4A17
100
AcDbEntity
  8
DEFPOINTS
 62
     0
100
AcDbPoint
 10
653.6724106007625
 20
-82.08864121501411
 30
0.0
  0
POINT
  5
4A3A
330
4A17
100
AcDbEntity
  8
DEFPOINTS
 62
     0
100
AcDbPoint
 10
653.6724106007625
 20
-76.40179525775271
 30
0.0
  0
ENDBLK
  5
4A19
330
4A17
100
AcDbEntity
  8
0
100
AcDbBlockEnd
  0
BLOCK
  5
4BA1
330
4BA0
100
AcDbEntity
  8
0
100
AcDbBlockBegin
  2
*D15
 70
     1
 10
0.0
 20
0.0
 30
0.0
  3
*D15
  1

  0
LINE
  5
4BB5
330
4BA0
100
AcDbEntity
  8
Z_OM_DIM
100
AcDbLine
 10
640.3774106007624
 20
-81.63834225366883
 30
0.0
 11
640.3774106007624
 21
-64.2114950826134
 31
0.0
  0
LINE
  5
4BB6
330
4BA0
100
AcDbEntity
  8
Z_OM_DIM
100
AcDbLine
 10
653.6724106007625
 20
-81.46364121501411
 30
0.0
 11
653.6724106007625
 21
-64.2114950826134
 31
0.0
  0
LINE
  5
4BB7
330
4BA0
100
AcDbEntity
  8
Z_OM_DIM
100
AcDbLine
 10
642.8774106007624
 20
-65.4614950826134
 30
0.0
 11
651.1724106007625
 21
-65.4614950826134
 31
0.0
  0
INSERT
  5
4BB8
330
4BA0
100
AcDbEntity
  8
Z_OM_DIM
100
AcDbBlockReference
  2
_OPEN30
 10
640.3774106007624
 20
-65.4614950826134
 30
0.0
 41
2.5
 42
2.5
 43
2.5
 50
180.0
  0
INSERT
  5
4BB9
330
4BA0
100
AcDbEntity
  8
Z_OM_DIM
100
AcDbBlockReference
  2
_OPEN30
 10
653.6724106007625
 20
-65.4614950826134
 30
0.0
 41
2.5
 42
2.5
 43
2.5
  0
MTEXT
  5
4BBA
330
4BA0
100
AcDbEntity
  8
Z_OM_DIM
100
AcDbMText
 10
647.0249106007624
 20
-63.5864950826134
 30
0.0
 40
2.5
 41
0.0
 71
     5
 72
     1
  1
13.3
  7
CatalogDxf
 73
     1
 44
1.0
1001
ACAD
1000
MTEXTBEGIN
1070
    73
1070
     1
1070
    44
1040
1.0
1070
    74
1070
     0
1000
MTEXTEND
  0
POINT
  5
4BBB
330
4BA0
100
AcDbEntity
  8
DEFPOINTS
 62
     0
100
AcDbPoint
 10
640.3774106007624
 20
-82.26334225366883
 30
0.0
  0
POINT
  5
4BBC
330
4BA0
100
AcDbEntity
  8
DEFPOINTS
 62
     0
100
AcDbPoint
 10
653.6724106007625
 20
-82.08864121501411
 30
0.0
  0
POINT
  5
4BBD
330
4BA0
100
AcDbEntity
  8
DEFPOINTS
 62
     0
100
AcDbPoint
 10
653.6724106007625
 20
-65.4614950826134
 30
0.0
  0
ENDBLK
  5
4BA2
330
4BA0
100
AcDbEntity
  8
0
100
AcDbBlockEnd
  0
ENDSEC
  0
SECTION
  2
ENTITIES
  0
MTEXT
  5
4130
330
17
100
AcDbEntity
  8
Z_OM_DIM
100
AcDbMText
 10
690.5170380839398
 20
-132.7473815513037
 30
0.0
 40
3.0
 41
65.91101704603885
 71
     1
 72
     5
  1
TAKAHA KIKO Co., Ltd\PCAD DRAWING No. CA0837
  7
CatalogDxf
 73
     1
 44
1.0
1001
ACAD
1000
MTEXTBEGIN
1070
    73
1070
     1
1070
    44
1040
1.0
1070
    74
1070
     0
1000
MTEXTEND
  0
MTEXT
  5
42AA
330
17
100
AcDbEntity
  8
Z_OM_DIM
100
AcDbMText
 10
519.8799157549208
 20
-3.018785966199406
 30
0.0
 40
3.0
 41
47.03999999999999
 71
     1
 72
     1
  1
Adsorbed position
  7
CatalogDxf
 73
     1
 44
1.0
1001
ACAD
1000
MTEXTBEGIN
1070
    73
1070
     1
1070
    44
1040
1.0
1070
    74
1070
     0
1000
MTEXTEND
  0
LINE
  5
43A8
330
17
100
AcDbEntity
  8
additional
  6
CENTER2
 48
0.5
100
AcDbLine
 10
557.713270822983
 20
-89.01028004530363
 30
0.0
 11
589.5177201978651
 21
-89.01028004530363
 31
0.0
  0
LINE
  5
43A9
330
17
100
AcDbEntity
  8
additional
  6
CENTER2
 48
0.5
100
AcDbLine
 10
651.0724106007622
 20
-85.01028004530361
 30
0.0
 11
676.5101312901585
 21
-85.01028004530361
 31
0.0
  0
LINE
  5
43AA
330
17
100
AcDbEntity
  8
additional
  6
CENTER2
 48
0.5
100
AcDbLine
 10
653.6724106007625
 20
-96.02497610435069
 30
0.0
 11
653.6724106007625
 21
-82.08864121501411
 31
0.0
  0
LINE
  5
43AB
330
17
100
AcDbEntity
  8
0
 48
0.5
100
AcDbLine
 10
684.4724106007625
 20
-91.51028004530365
 30
0.0
 11
684.4724106007625
 21
-86.51028004530363
 31
0.0
  0
LINE
  5
43AC
330
17
100
AcDbEntity
  8
0
 48
0.5
100
AcDbLine
 10
650.8724106007622
 20
-93.01028004530364
 30
0.0
 11
650.8724106007622
 21
-85.01028004530361
 31
0.0
  0
LINE
  5
43AD
330
17
100
AcDbEntity
  8
0
 48
0.5
100
AcDbLine
 10
683.9724106007625
 20
-99.01028004530365
 30
0.0
 11
683.9724106007625
 21
-79.01028004530362
 31
0.0
  0
LINE
  5
43AE
330
17
100
AcDbEntity
  8
0
 48
0.5
100
AcDbLine
 10
683.9724106007625
 20
-99.01028004530365
 30
0.0
 11
646.9724106007625
 21
-99.01028004530365
 31
0.0
  0
LINE
  5
43AF
330
17
100
AcDbEntity
  8
0
 48
0.5
100
AcDbLine
 10
683.9724106007625
 20
-99.01028004530365
 30
0.0
 11
646.9724106007625
 21
-99.01028004530365
 31
0.0
  0
LINE
  5
43B0
330
17
100
AcDbEntity
  8
0
 48
0.5
100
AcDbLine
 10
646.9724106007625
 20
-99.01028004530365
 30
0.0
 11
646.9724106007625
 21
-93.01028004530364
 31
0.0
  0
LINE
  5
43B1
330
17
100
AcDbEntity
  8
0
 48
0.5
100
AcDbLine
 10
652.2724106007624
 20
-99.01028004530365
 30
0.0
 11
652.2724106007624
 21
-99.51028004530364
 31
0.0
  0
LINE
  5
43B2
330
17
100
AcDbEntity
  8
0
 48
0.5
100
AcDbLine
 10
650.9724106007625
 20
-99.01028004530365
 30
0.0
 11
650.9724106007625
 21
-99.51028004530364
 31
0.0
  0
LINE
  5
43B3
330
17
100
AcDbEntity
  8
0
 48
0.5
100
AcDbLine
 10
650.9724106007625
 20
-99.51028004530364
 30
0.0
 11
652.2724106007624
 21
-99.51028004530364
 31
0.0
  0
LINE
  5
43B4
330
17
100
AcDbEntity
  8
0
 48
0.5
100
AcDbLine
 10
646.9724106007625
 20
-93.01028004530364
 30
0.0
 11
650.8724106007622
 21
-93.01028004530364
 31
0.0
  0
LINE
  5
43B5
330
17
100
AcDbEntity
  8
0
 48
0.5
100
AcDbLine
 10
682.3724106007622
 20
-99.01028004530365
 30
0.0
 11
682.3724106007622
 21
-99.51028004530364
 31
0.0
  0
LINE
  5
43B6
330
17
100
AcDbEntity
  8
0
 48
0.5
100
AcDbLine
 10
681.5724106007625
 20
-99.01028004530365
 30
0.0
 11
681.5724106007625
 21
-99.51028004530364
 31
0.0
  0
LINE
  5
43B7
330
17
100
AcDbEntity
  8
0
 48
0.5
100
AcDbLine
 10
682.3724106007622
 20
-99.51028004530364
 30
0.0
 11
681.5724106007625
 21
-99.51028004530364
 31
0.0
  0
LINE
  5
43B8
330
17
100
AcDbEntity
  8
0
 48
0.5
100
AcDbLine
 10
683.9724106007625
 20
-91.51028004530365
 30
0.0
 11
684.4724106007625
 21
-91.51028004530365
 31
0.0
  0
LINE
  5
43B9
330
17
100
AcDbEntity
  8
0
 48
0.5
100
AcDbLine
 10
646.9724106007625
 20
-79.01028004530362
 30
0.0
 11
683.9724106007625
 21
-79.01028004530362
 31
0.0
  0
LINE
  5
43BA
330
17
100
AcDbEntity
  8
0
 48
0.5
100
AcDbLine
 10
652.1724106007622
 20
-29.94610126357623
 30
0.0
 11
681.5724106007624
 21
-29.94610126357623
 31
0.0
  0
LINE
  5
43BB
330
17
100
AcDbEntity
  8
0
 48
0.5
100
AcDbLine
 10
681.5724106007624
 20
-9.946101263576224
 30
0.0
 11
652.1724106007625
 21
-9.946101263576224
 31
0.0
  0
LINE
  5
43BC
330
17
100
AcDbEntity
  8
0
 48
0.5
100
AcDbLine
 10
682.3724106007622
 20
-33.04610126357622
 30
0.0
 11
646.9724106007625
 21
-33.04610126357622
 31
0.0
  0
LINE
  5
43BD
330
17
100
AcDbEntity
  8
0
 48
0.5
100
AcDbLine
 10
682.3724106007622
 20
-6.846101263576255
 30
0.0
 11
646.9724106007625
 21
-6.846101263576255
 31
0.0
  0
LINE
  5
43BE
330
17
100
AcDbEntity
  8
0
 48
0.5
100
AcDbLine
 10
682.3724106007622
 20
-31.44610126357623
 30
0.0
 11
646.9724106007625
 21
-31.44610126357623
 31
0.0
  0
LINE
  5
43BF
330
17
100
AcDbEntity
  8
0
 48
0.5
100
AcDbLine
 10
682.3724106007622
 20
-8.446101263576224
 30
0.0
 11
646.9724106007625
 21
-8.446101263576224
 31
0.0
  0
LINE
  5
43C0
330
17
100
AcDbEntity
  8
0
 48
0.5
100
AcDbLine
 10
646.9724106007625
 20
-85.01028004530361
 30
0.0
 11
650.8724106007622
 21
-85.01028004530361
 31
0.0
  0
LINE
  5
43C1
330
17
100
AcDbEntity
  8
0
 48
0.5
100
AcDbLine
 10
646.9724106007625
 20
-85.01028004530361
 30
0.0
 11
646.9724106007625
 21
-79.01028004530362
 31
0.0
  0
LINE
  5
43C2
330
17
100
AcDbEntity
  8
0
 48
0.5
100
AcDbLine
 10
652.2724106007624
 20
-78.51028004530362
 30
0.0
 11
652.2724106007624
 21
-79.01028004530362
 31
0.0
  0
LINE
  5
43C3
330
17
100
AcDbEntity
  8
0
 48
0.5
100
AcDbLine
 10
650.9724106007625
 20
-78.51028004530362
 30
0.0
 11
650.9724106007625
 21
-79.01028004530362
 31
0.0
  0
LINE
  5
43C4
330
17
100
AcDbEntity
  8
0
 48
0.5
100
AcDbLine
 10
652.2724106007624
 20
-78.51028004530362
 30
0.0
 11
650.9724106007625
 21
-78.51028004530362
 31
0.0
  0
LINE
  5
43C5
330
17
100
AcDbEntity
  8
0
 48
0.5
100
AcDbLine
 10
650.8724106007622
 20
-31.44610126357623
 30
0.0
 11
650.8724106007622
 21
-8.446101263576224
 31
0.0
  0
LINE
  5
43C6
330
17
100
AcDbEntity
  8
0
 48
0.5
100
AcDbLine
 10
652.1724106007625
 20
-8.646101263576213
 30
0.0
 11
652.1724106007622
 21
-31.24610126357624
 31
0.0
  0
LINE
  5
43C7
330
17
100
AcDbEntity
  8
0
 48
0.5
100
AcDbLine
 10
646.9724106007625
 20
-31.44610126357623
 30
0.0
 11
646.9724106007625
 21
-33.04610126357622
 31
0.0
  0
LINE
  5
43C8
330
17
100
AcDbEntity
  8
0
 48
0.5
100
AcDbLine
 10
652.1724106007625
 20
-31.24610126357624
 30
0.0
 11
650.8724106007622
 21
-31.24610126357624
 31
0.0
  0
LINE
  5
43C9
330
17
100
AcDbEntity
  8
0
 48
0.5
100
AcDbLine
 10
646.9724106007625
 20
-6.846101263576255
 30
0.0
 11
646.9724106007625
 21
-8.446101263576224
 31
0.0
  0
LINE
  5
43CA
330
17
100
AcDbEntity
  8
0
 48
0.5
100
AcDbLine
 10
650.8724106007622
 20
-8.646101263576213
 30
0.0
 11
652.1724106007625
 21
-8.646101263576213
 31
0.0
  0
CIRCLE
  5
43CB
330
17
100
AcDbEntity
  8
additional
  6
HIDDEN2
 48
0.5
100
AcDbCircle
 10
673.6724106007625
 20
-85.01028004530361
 30
0.0
 40
1.5
  0
LINE
  5
43CC
330
17
100
AcDbEntity
  8
0
 48
0.5
100
AcDbLine
 10
684.4724106007625
 20
-86.51028004530363
 30
0.0
 11
683.9724106007625
 21
-86.51028004530363
 31
0.0
  0
LINE
  5
43CD
330
17
100
AcDbEntity
  8
0
 48
0.5
100
AcDbLine
 10
682.3724106007622
 20
-78.51028004530362
 30
0.0
 11
682.3724106007622
 21
-79.01028004530362
 31
0.0
  0
LINE
  5
43CE
330
17
100
AcDbEntity
  8
0
 48
0.5
100
AcDbLine
 10
681.5724106007625
 20
-78.51028004530362
 30
0.0
 11
681.5724106007625
 21
-79.01028004530362
 31
0.0
  0
LINE
  5
43CF
330
17
100
AcDbEntity
  8
0
 48
0.5
100
AcDbLine
 10
681.5724106007625
 20
-78.51028004530362
 30
0.0
 11
682.3724106007622
 21
-78.51028004530362
 31
0.0
  0
LINE
  5
43D0
330
17
100
AcDbEntity
  8
0
 48
0.5
100
AcDbLine
 10
681.5724106007624
 20
-9.446101263576224
 30
0.0
 11
681.5724106007624
 21
-30.44610126357623
 31
0.0
  0
ARC
  5
43D1
330
17
100
AcDbEntity
  8
0
 48
0.5
100
AcDbCircle
 10
682.3724106007622
 20
-31.44610126357623
 30
0.0
 40
1.6
100
AcDbArc
 50
270.0
 51
0.0
  0
LINE
  5
43D2
330
17
100
AcDbEntity
  8
0
 48
0.5
100
AcDbLine
 10
682.3724106007622
 20
-30.44610126357623
 30
0.0
 11
681.5724106007624
 21
-30.44610126357623
 31
0.0
  0
POINT
  5
43D3
330
17
100
AcDbEntity
  8
0
 48
0.5
100
AcDbPoint
 10
681.5724106007624
 20
-25.94610126357622
 30
0.0
  0
LINE
  5
43D4
330
17
100
AcDbEntity
  8
0
 48
0.5
100
AcDbLine
 10
683.9724106007625
 20
-31.44610126357623
 30
0.0
 11
683.9724106007625
 21
-20.94610126357626
 31
0.0
  0
LINE
  5
43D5
330
17
100
AcDbEntity
  8
0
100
AcDbLine
 10
682.3724106007622
 20
-31.44610126357623
 30
0.0
 11
682.3724106007622
 21
-20.94610126357626
 31
0.0
  0
POINT
  5
43D6
330
17
100
AcDbEntity
  8
0
 48
0.5
100
AcDbPoint
 10
681.5724106007624
 20
-21.44610126357623
 30
0.0
  0
POINT
  5
43D7
330
17
100
AcDbEntity
  8
0
 48
0.5
100
AcDbPoint
 10
681.5724106007624
 20
-24.94610126357623
 30
0.0
  0
POINT
  5
43D8
330
17
100
AcDbEntity
  8
0
 48
0.5
100
AcDbPoint
 10
681.5724106007624
 20
-24.94610126357623
 30
0.0
  0
POINT
  5
43D9
330
17
100
AcDbEntity
  8
0
 48
0.5
100
AcDbPoint
 10
681.5724106007624
 20
-25.44610126357623
 30
0.0
  0
POINT
  5
43DA
330
17
100
AcDbEntity
  8
0
 48
0.5
100
AcDbPoint
 10
681.5724106007624
 20
-24.94610126357623
 30
0.0
  0
LINE
  5
43DB
330
17
100
AcDbEntity
  8
0
 48
0.5
100
AcDbLine
 10
684.4724106007625
 20
-22.44610126357622
 30
0.0
 11
683.9724106007625
 21
-22.44610126357622
 31
0.0
  0
POINT
  5
43DC
330
17
100
AcDbEntity
  8
0
 48
0.5
100
AcDbPoint
 10
681.5724106007624
 20
-18.44610126357622
 30
0.0
  0
POINT
  5
43DD
330
17
100
AcDbEntity
  8
0
 48
0.5
100
AcDbPoint
 10
681.5724106007624
 20
-19.94610126357622
 30
0.0
  0
POINT
  5
43DE
330
17
100
AcDbEntity
  8
0
 48
0.5
100
AcDbPoint
 10
681.5724106007624
 20
-19.94610126357622
 30
0.0
  0
POINT
  5
43DF
330
17
100
AcDbEntity
  8
0
 48
0.5
100
AcDbPoint
 10
681.5724106007624
 20
-19.94610126357622
 30
0.0
  0
POINT
  5
43E0
330
17
100
AcDbEntity
  8
0
 48
0.5
100
AcDbPoint
 10
681.5724106007624
 20
-18.44610126357622
 30
0.0
  0
POINT
  5
43E1
330
17
100
AcDbEntity
  8
0
 48
0.5
100
AcDbPoint
 10
681.5724106007624
 20
-19.94610126357622
 30
0.0
  0
POINT
  5
43E2
330
17
100
AcDbEntity
  8
0
 48
0.5
100
AcDbPoint
 10
681.5724106007624
 20
-14.94610126357622
 30
0.0
  0
POINT
  5
43E3
330
17
100
AcDbEntity
  8
0
 48
0.5
100
AcDbPoint
 10
681.5724106007624
 20
-14.94610126357622
 30
0.0
  0
POINT
  5
43E4
330
17
100
AcDbEntity
  8
0
 48
0.5
100
AcDbPoint
 10
681.5724106007624
 20
-14.44610126357622
 30
0.0
  0
POINT
  5
43E5
330
17
100
AcDbEntity
  8
0
 48
0.5
100
AcDbPoint
 10
682.7724106007624
 20
-19.94610126357622
 30
0.0
  0
POINT
  5
43E6
330
17
100
AcDbEntity
  8
0
 48
0.5
100
AcDbPoint
 10
682.7724106007624
 20
-19.94610126357622
 30
0.0
  0
POINT
  5
43E7
330
17
100
AcDbEntity
  8
0
 48
0.5
100
AcDbPoint
 10
681.5724106007624
 20
-14.94610126357622
 30
0.0
  0
POINT
  5
43E8
330
17
100
AcDbEntity
  8
0
 48
0.5
100
AcDbPoint
 10
682.7724106007624
 20
-19.94610126357622
 30
0.0
  0
LINE
  5
43E9
330
17
100
AcDbEntity
  8
0
 48
0.5
100
AcDbLine
 10
683.9724106007625
 20
-17.44610126357622
 30
0.0
 11
684.4724106007625
 21
-17.44610126357622
 31
0.0
  0
LINE
  5
43EA
330
17
100
AcDbEntity
  8
0
100
AcDbLine
 10
684.4724106007625
 20
-22.44610126357622
 30
0.0
 11
684.4724106007625
 21
-21.44610126357625
 31
0.0
  0
ARC
  5
43EB
330
17
100
AcDbEntity
  8
0
 48
0.5
100
AcDbCircle
 10
682.3724106007622
 20
-8.446101263576224
 30
0.0
 40
1.6
100
AcDbArc
 50
0.0
 51
90.0
  0
LINE
  5
43EC
330
17
100
AcDbEntity
  8
0
 48
0.5
100
AcDbLine
 10
681.5724106007624
 20
-9.446101263576224
 30
0.0
 11
682.3724106007622
 21
-9.446101263576224
 31
0.0
  0
POINT
  5
43ED
330
17
100
AcDbEntity
  8
0
 48
0.5
100
AcDbPoint
 10
681.5724106007624
 20
-13.94610126357622
 30
0.0
  0
LINE
  5
43EE
330
17
100
AcDbEntity
  8
0
 48
0.5
100
AcDbLine
 10
586.6813918964607
 20
-79.01028004530362
 30
0.0
 11
586.6813918964607
 21
-99.01028004530365
 31
0.0
  0
LINE
  5
43EF
330
17
100
AcDbEntity
  8
0
 48
0.5
100
AcDbLine
 10
560.4813918964607
 20
-79.01028004530362
 30
0.0
 11
560.4813918964607
 21
-99.01028004530365
 31
0.0
  0
LINE
  5
43F0
330
17
100
AcDbEntity
  8
additional
  6
CENTER2
 48
0.5
100
AcDbLine
 10
573.5813918964606
 20
-102.1366463101232
 30
0.0
 11
573.5813918964606
 21
-73.81739232232383
 31
0.0
  0
LINE
  5
43F1
330
17
100
AcDbEntity
  8
0
 48
0.5
100
AcDbLine
 10
563.1474173002452
 20
-78.51028004530362
 30
0.0
 11
584.0153664926762
 21
-78.51028004530362
 31
0.0
  0
LINE
  5
43F2
330
17
100
AcDbEntity
  8
0
 48
0.5
100
AcDbLine
 10
560.4813918964607
 20
-79.01028004530362
 30
0.0
 11
586.6813918964607
 21
-79.01028004530362
 31
0.0
  0
LINE
  5
43F3
330
17
100
AcDbEntity
  8
0
 48
0.5
100
AcDbLine
 10
585.0813918964607
 20
-79.01028004530362
 30
0.0
 11
585.0813918964607
 21
-85.01028004530361
 31
0.0
  0
ARC
  5
43F4
330
17
100
AcDbEntity
  8
0
 48
0.5
100
AcDbCircle
 10
584.0153664926762
 20
-79.51028004530361
 30
0.0
 40
1.0
100
AcDbArc
 50
30.00000000000055
 51
90.0
  0
LINE
  5
43F5
330
17
100
AcDbEntity
  8
0
 48
0.5
100
AcDbLine
 10
586.6813918964607
 20
-85.01028004530361
 30
0.0
 11
585.0813918964607
 21
-85.01028004530361
 31
0.0
  0
ARC
  5
43F6
330
17
100
AcDbEntity
  8
0
 48
0.5
100
AcDbCircle
 10
563.1474173002452
 20
-79.51028004530361
 30
0.0
 40
1.0
100
AcDbArc
 50
90.0
 51
149.9999999999994
  0
LINE
  5
43F7
330
17
100
AcDbEntity
  8
0
 48
0.5
100
AcDbLine
 10
584.0153664926762
 20
-99.51028004530364
 30
0.0
 11
563.1474173002452
 21
-99.51028004530364
 31
0.0
  0
LINE
  5
43F8
330
17
100
AcDbEntity
  8
0
 48
0.5
100
AcDbLine
 10
560.4813918964607
 20
-99.01028004530365
 30
0.0
 11
586.6813918964607
 21
-99.01028004530365
 31
0.0
  0
ARC
  5
43F9
330
17
100
AcDbEntity
  8
0
 48
0.5
100
AcDbCircle
 10
584.0153664926762
 20
-98.51028004530364
 30
0.0
 40
1.0
100
AcDbArc
 50
270.0
 51
329.9999999999995
  0
ARC
  5
43FA
330
17
100
AcDbEntity
  8
0
 48
0.5
100
AcDbCircle
 10
563.1474173002452
 20
-98.51028004530364
 30
0.0
 40
1.0
100
AcDbArc
 50
210.0000000000005
 51
270.0
  0
LINE
  5
43FB
330
17
100
AcDbEntity
  8
0
 48
0.5
100
AcDbLine
 10
647.9724106007624
 20
-31.44610126357623
 30
0.0
 11
647.9724106007624
 21
-8.446101263576224
 31
0.0
  0
LINE
  5
43FC
330
17
100
AcDbEntity
  8
0
100
AcDbLine
 10
578.6927484555298
 20
-77.31028004530364
 30
0.0
 11
568.4700353373917
 21
-77.31028004530364
 31
0.0
  0
LINE
  5
43FD
330
17
100
AcDbEntity
  8
0
100
AcDbLine
 10
578.6927484555298
 20
-77.31028004530364
 30
0.0
 11
584.0153664926762
 21
-78.51028004530362
 31
0.0
  0
LINE
  5
43FE
330
17
100
AcDbEntity
  8
additional
100
AcDbLine
 10
673.6724106007625
 20
-34.82619785697847
 30
0.0
 11
673.6724106007625
 21
-29.15561367612907
 31
0.0
  0
LINE
  5
43FF
330
17
100
AcDbEntity
  8
additional
100
AcDbLine
 10
653.6724106007625
 20
-34.82619785697847
 30
0.0
 11
653.6724106007625
 21
-29.15561367612907
 31
0.0
  0
LINE
  5
4400
330
17
100
AcDbEntity
  8
additional
100
AcDbLine
 10
673.6724106007625
 20
-5.066004670173981
 30
0.0
 11
673.6724106007625
 21
-10.73658885102338
 31
0.0
  0
LINE
  5
4401
330
17
100
AcDbEntity
  8
additional
100
AcDbLine
 10
653.6724106007625
 20
-5.066004670173981
 30
0.0
 11
653.6724106007625
 21
-10.73658885102338
 31
0.0
  0
CIRCLE
  5
4402
330
17
100
AcDbEntity
  8
0
100
AcDbCircle
 10
673.6724106007625
 20
-85.01028004530361
 30
0.0
 40
1.25
  0
CIRCLE
  5
4403
330
17
100
AcDbEntity
  8
additional
  6
HIDDEN2
 48
0.5
100
AcDbCircle
 10
653.6724106007625
 20
-93.01028004530364
 30
0.0
 40
1.5
  0
CIRCLE
  5
4404
330
17
100
AcDbEntity
  8
0
100
AcDbCircle
 10
653.6724106007625
 20
-93.01028004530364
 30
0.0
 40
1.25
  0
POINT
  5
4405
330
17
100
AcDbEntity
  8
0
 48
0.5
100
AcDbPoint
 10
648.9773980934097
 20
-85.01028004530361
 30
0.0
  0
LINE
  5
4406
330
17
100
AcDbEntity
  8
additional
  6
CENTER2
 48
0.5
100
AcDbLine
 10
640.3774106007624
 20
-82.26334225366883
 30
0.0
 11
640.3774106007624
 21
-95.79037819238084
 31
0.0
  0
LINE
  5
4407
330
17
100
AcDbEntity
  8
0
100
AcDbLine
 10
647.5024106007624
 20
-85.01028004530361
 30
0.0
 11
647.5024106007624
 21
-93.01028004530364
 31
0.0
  0
LINE
  5
4408
330
17
100
AcDbEntity
  8
0
100
AcDbLine
 10
646.7024106007624
 20
-83.01028004530364
 30
0.0
 11
646.7024106007624
 21
-95.01028004530365
 31
0.0
  0
LINE
  5
4409
330
17
100
AcDbEntity
  8
0
100
AcDbLine
 10
646.7024106007624
 20
-83.01028004530364
 30
0.0
 11
646.9724106007625
 21
-83.01028004530365
 31
0.0
  0
LINE
  5
440A
330
17
100
AcDbEntity
  8
0
100
AcDbLine
 10
646.7024106007624
 20
-95.01028004530365
 30
0.0
 11
646.9724106007625
 21
-95.01028004530365
 31
0.0
  0
LINE
  5
440B
330
17
100
AcDbEntity
  8
0
 48
0.5
100
AcDbLine
 10
647.9724106007624
 20
-93.01028004530364
 30
0.0
 11
647.9724106007624
 21
-85.01028004530361
 31
0.0
  0
CIRCLE
  5
440D
330
17
100
AcDbEntity
  8
0
100
AcDbCircle
 10
573.5813918964606
 20
-89.01028004530365
 30
0.0
 40
3.950999999999169
  0
CIRCLE
  5
440E
330
17
100
AcDbEntity
  8
0
100
AcDbCircle
 10
573.5813918964606
 20
-89.01028004530365
 30
0.0
 40
3.450999999999111
  0
LINE
  5
440F
330
17
100
AcDbEntity
  8
0
100
AcDbLine
 10
569.2300455673307
 20
-89.01028004530365
 30
0.0
 11
569.6303918964614
 21
-89.01028004530365
 31
0.0
  0
ARC
  5
4410
330
17
100
AcDbEntity
  8
0
100
AcDbCircle
 10
573.5813918964606
 20
-89.01028004530365
 30
0.0
 40
4.69090909090909
100
AcDbArc
 50
114.3012223046685
 51
175.6987776953271
  0
ARC
  5
4411
330
17
100
AcDbEntity
  8
0
100
AcDbCircle
 10
569.2300455673307
 20
-88.68300731803087
 30
0.0
 40
0.3272727272727272
100
AcDbArc
 50
175.6987776953271
 51
270.0
  0
ARC
  5
4412
330
17
100
AcDbEntity
  8
0
100
AcDbCircle
 10
577.9327382255907
 20
-88.68300731803087
 30
0.0
 40
0.3272727272727272
100
AcDbArc
 50
270.0
 51
4.301222304672901
  0
ARC
  5
4413
330
17
100
AcDbEntity
  8
0
100
AcDbCircle
 10
573.5813918964606
 20
-89.01028004530365
 30
0.0
 40
4.69090909090909
100
AcDbArc
 50
4.301222304672901
 51
65.69877769533153
  0
LINE
  5
4414
330
17
100
AcDbEntity
  8
0
100
AcDbLine
 10
570.1492245799562
 20
-93.38770984397916
 30
0.0
 11
570.7424327985266
 21
-91.75813598043751
 31
0.0
  0
ARC
  5
4415
330
17
100
AcDbEntity
  8
0
100
AcDbCircle
 10
569.8360967577167
 20
-93.278441021636
 30
0.0
 40
0.3316454561677183
100
AcDbArc
 50
243.2874858586671
 51
340.7630985352369
  0
LINE
  5
4416
330
17
100
AcDbEntity
  8
0
100
AcDbLine
 10
576.4204801548177
 20
-91.758002531519
 30
0.0
 11
577.0135592129654
 21
-93.38770984397894
 31
0.0
  0
LINE
  5
4417
330
17
100
AcDbEntity
  8
0
100
AcDbLine
 10
577.53239189646
 20
-89.01028004530365
 30
0.0
 11
577.9327382255907
 21
-89.01028004530365
 31
0.0
  0
ARC
  5
4418
330
17
100
AcDbEntity
  8
0
100
AcDbCircle
 10
577.3245487114759
 20
-93.28448270670149
 30
0.0
 40
0.3276740912160221
100
AcDbArc
 50
198.3626190391396
 51
309.3679750200294
  0
LINE
  5
4419
330
17
100
AcDbEntity
  8
0
100
AcDbLine
 10
572.0931438013121
 20
-84.92135200933626
 30
0.0
 11
572.2294863606314
 21
-85.29776709284311
 31
0.0
  0
ARC
  5
441A
330
17
100
AcDbEntity
  8
0
100
AcDbCircle
 10
571.7856080345095
 20
-85.03328587442473
 30
0.0
 40
0.3272727272727272
100
AcDbArc
 50
20.00000000000371
 51
114.3012223046685
  0
LINE
  5
441B
330
17
100
AcDbEntity
  8
0
100
AcDbLine
 10
575.0696399916092
 20
-84.92135200933644
 30
0.0
 11
574.9366516470103
 21
-85.29899024140338
 31
0.0
  0
ARC
  5
441C
330
17
100
AcDbEntity
  8
0
100
AcDbCircle
 10
575.377175758412
 20
-85.0332858744248
 30
0.0
 40
0.3272727272727272
100
AcDbArc
 50
65.69877769533153
 51
160.0000000000024
  0
LINE
  5
441D
330
17
100
AcDbEntity
  8
0
100
AcDbLine
 10
574.7063918964606
 20
-85.74793063298889
 30
0.0
 11
574.7063918964606
 21
-92.27311334882795
 31
0.0
  0
LINE
  5
441E
330
17
100
AcDbEntity
  8
0
100
AcDbLine
 10
572.4563918964606
 20
-85.74058788954529
 30
0.0
 11
572.4563918964606
 21
-92.27938098653357
 31
0.0
  0
CIRCLE
  5
441F
330
17
100
AcDbEntity
  8
0
100
AcDbCircle
 10
573.5813918964606
 20
-89.01028004530365
 30
0.0
 40
6.0
  0
LINE
  5
4420
330
17
100
AcDbEntity
  8
0
 48
0.5
100
AcDbLine
 10
684.4724106007625
 20
-18.19610126357622
 30
0.0
 11
684.4724106007625
 21
-18.44610126357622
 31
0.0
  0
LINE
  5
4421
330
17
100
AcDbEntity
  8
0
 48
0.5
100
AcDbLine
 10
652.2724106007624
 20
-79.01028004530362
 30
0.0
 11
667.2292678769135
 21
-77.31028004530364
 31
0.0
  0
LINE
  5
4422
330
17
100
AcDbEntity
  8
0
 48
0.5
100
AcDbLine
 10
667.2292678769135
 20
-77.31028004530364
 30
0.0
 11
681.5724106007625
 21
-77.31028004530364
 31
0.0
  0
LINE
  5
4423
330
17
100
AcDbEntity
  8
0
 48
0.5
100
AcDbLine
 10
681.5724106007625
 20
-79.01028004530362
 30
0.0
 11
681.5724106007625
 21
-77.31028004530364
 31
0.0
  0
LINE
  5
4424
330
17
100
AcDbEntity
  8
0
100
AcDbLine
 10
682.3724106007622
 20
-18.94610126357625
 30
0.0
 11
682.3724106007622
 21
-8.446101263576224
 31
0.0
  0
LINE
  5
4425
330
17
100
AcDbEntity
  8
0
 48
0.5
100
AcDbLine
 10
683.9724106007625
 20
-18.94610126357625
 30
0.0
 11
683.9724106007625
 21
-8.446101263576224
 31
0.0
  0
LINE
  5
4426
330
17
100
AcDbEntity
  8
0
 48
0.5
100
AcDbLine
 10
684.4724106007625
 20
-20.94610126357626
 30
0.0
 11
684.4724106007625
 21
-21.69610126357623
 31
0.0
  0
LINE
  5
4427
330
17
100
AcDbEntity
  8
0
100
AcDbLine
 10
684.4724106007625
 20
-18.94610126357625
 30
0.0
 11
684.4724106007625
 21
-17.44610126357622
 31
0.0
  0
CIRCLE
  5
4428
330
17
100
AcDbEntity
  8
0
100
AcDbCircle
 10
653.6724106007625
 20
-85.01028004530361
 30
0.0
 40
1.389999999999999
  0
CIRCLE
  5
4429
330
17
100
AcDbEntity
  8
0
100
AcDbCircle
 10
673.6724106007625
 20
-93.01028004530364
 30
0.0
 40
1.389999999999999
  0
LINE
  5
442A
330
17
100
AcDbEntity
  8
0
100
AcDbLine
 10
636.8774106007625
 20
-85.55928004530455
 30
0.0
 11
636.8774106007625
 21
-92.46128004530365
 31
0.0
  0
LINE
  5
442B
330
17
100
AcDbEntity
  8
0
100
AcDbLine
 10
637.3774106007624
 20
-85.05928004530449
 30
0.0
 11
646.7024106007624
 21
-85.05928004530455
 31
0.0
  0
LINE
  5
442C
330
17
100
AcDbEntity
  8
0
100
AcDbLine
 10
637.3774106007624
 20
-92.96128004530364
 30
0.0
 11
646.7024106007624
 21
-92.96128004530368
 31
0.0
  0
LINE
  5
442D
330
17
100
AcDbEntity
  8
0
100
AcDbLine
 10
637.3774106007624
 20
-85.05928004530455
 30
0.0
 11
636.8774106007625
 21
-85.55928004530455
 31
0.0
  0
LINE
  5
442E
330
17
100
AcDbEntity
  8
0
100
AcDbLine
 10
636.8774106007625
 20
-92.46128004530362
 30
0.0
 11
637.3774106007624
 21
-92.96128004530364
 31
0.0
  0
LINE
  5
442F
330
17
100
AcDbEntity
  8
0
100
AcDbLine
 10
637.3774106007624
 20
-85.05928004530455
 30
0.0
 11
637.3774106007624
 21
-92.96128004530364
 31
0.0
  0
LINE
  5
4432
330
17
100
AcDbEntity
  8
0
100
AcDbLine
 10
646.7024106007624
 20
-13.94610126357631
 30
0.0
 11
646.7024106007624
 21
-25.94610126357631
 31
0.0
  0
LINE
  5
4433
330
17
100
AcDbEntity
  8
0
100
AcDbLine
 10
646.7024106007624
 20
-13.94610126357631
 30
0.0
 11
647.9724106007624
 21
-13.94610126357631
 31
0.0
  0
LINE
  5
4434
330
17
100
AcDbEntity
  8
0
100
AcDbLine
 10
646.7024106007624
 20
-25.94610126357631
 30
0.0
 11
647.9724106007624
 21
-25.94610126357631
 31
0.0
  0
LINE
  5
4436
330
17
100
AcDbEntity
  8
0
100
AcDbLine
 10
636.8774106007625
 20
-16.49510126357714
 30
0.0
 11
636.8774106007625
 21
-18.82110126357619
 31
0.0
  0
LINE
  5
4437
330
17
100
AcDbEntity
  8
0
100
AcDbLine
 10
637.3774106007624
 20
-15.99510126357708
 30
0.0
 11
646.7024106007624
 21
-15.99510126357714
 31
0.0
  0
LINE
  5
4438
330
17
100
AcDbEntity
  8
0
100
AcDbLine
 10
637.3774106007624
 20
-23.89710126357622
 30
0.0
 11
646.7024106007624
 21
-23.89710126357627
 31
0.0
  0
LINE
  5
4439
330
17
100
AcDbEntity
  8
0
100
AcDbLine
 10
637.3774106007624
 20
-15.99510126357714
 30
0.0
 11
636.8774106007625
 21
-16.49510126357714
 31
0.0
  0
LINE
  5
443A
330
17
100
AcDbEntity
  8
0
100
AcDbLine
 10
636.8774106007625
 20
-23.39710126357622
 30
0.0
 11
637.3774106007624
 21
-23.89710126357622
 31
0.0
  0
LINE
  5
443B
330
17
100
AcDbEntity
  8
0
100
AcDbLine
 10
637.3774106007624
 20
-15.99510126357714
 30
0.0
 11
637.3774106007624
 21
-18.82110126357619
 31
0.0
  0
LINE
  5
443C
330
17
100
AcDbEntity
  8
additional
  6
CENTER2
 48
0.5
100
AcDbLine
 10
640.3774106007624
 20
-13.17734470641073
 30
0.0
 11
640.3774106007624
 21
-26.72619941065344
 31
0.0
  0
LINE
  5
443D
330
17
100
AcDbEntity
  8
0
100
AcDbLine
 10
636.8774106007625
 20
-18.82110126357619
 30
0.0
 11
645.0274106007626
 21
-18.82110126357614
 31
0.0
  0
LINE
  5
443E
330
17
100
AcDbEntity
  8
0
100
AcDbLine
 10
645.0274106007626
 20
-21.07110126357625
 30
0.0
 11
636.8774106007625
 21
-21.07110126357619
 31
0.0
  0
LINE
  5
443F
330
17
100
AcDbEntity
  8
0
100
AcDbLine
 10
637.3774106007624
 20
-21.07110126357619
 30
0.0
 11
637.3774106007624
 21
-23.89710126357622
 31
0.0
  0
LINE
  5
4440
330
17
100
AcDbEntity
  8
0
100
AcDbLine
 10
636.8774106007625
 20
-21.07110126357619
 30
0.0
 11
636.8774106007625
 21
-23.39710126357622
 31
0.0
  0
LINE
  5
4441
330
17
100
AcDbEntity
  8
additional
  6
HIDDEN2
 48
0.8
100
AcDbLine
 10
638.8549106007625
 20
-16.49510126357714
 30
0.0
 11
638.8549106007625
 21
-18.82110126357619
 31
0.0
  0
LINE
  5
4442
330
17
100
AcDbEntity
  8
additional
  6
HIDDEN2
 48
0.8
100
AcDbLine
 10
638.3549106007624
 20
-15.99510126357714
 30
0.0
 11
638.8549106007625
 21
-16.49510126357714
 31
0.0
  0
LINE
  5
4443
330
17
100
AcDbEntity
  8
additional
  6
HIDDEN2
 48
0.8
100
AcDbLine
 10
638.8549106007625
 20
-23.39710126357628
 30
0.0
 11
638.8549106007625
 21
-21.07110126357619
 31
0.0
  0
LINE
  5
4444
330
17
100
AcDbEntity
  8
additional
  6
HIDDEN2
 48
0.8
100
AcDbLine
 10
638.3549106007624
 20
-23.89710126357627
 30
0.0
 11
638.8549106007625
 21
-23.39710126357628
 31
0.0
  0
LINE
  5
4445
330
17
100
AcDbEntity
  8
0
100
AcDbLine
 10
645.0274106007626
 20
-18.82110126357625
 30
0.0
 11
645.0274106007626
 21
-21.07110126357619
 31
0.0
  0
LINE
  5
4446
330
17
100
AcDbEntity
  8
0
100
AcDbLine
 10
646.7024106007624
 20
-15.99510126357623
 30
0.0
 11
646.7024106007624
 21
-23.89710126357622
 31
0.0
  0
CIRCLE
  5
4447
330
17
100
AcDbEntity
  8
0
100
AcDbCircle
 10
640.3774106007624
 20
-89.01028004530363
 30
0.0
 40
1.522499999999999
  0
LINE
  5
4448
330
17
100
AcDbEntity
  8
additional
  6
HIDDEN2
 48
0.8
100
AcDbLine
 10
641.8999106007624
 20
-16.49510126357714
 30
0.0
 11
641.8999106007624
 21
-18.82110126357619
 31
0.0
  0
LINE
  5
4449
330
17
100
AcDbEntity
  8
additional
  6
HIDDEN2
 48
0.8
100
AcDbLine
 10
642.3999106007622
 20
-15.99510126357714
 30
0.0
 11
641.8999106007624
 21
-16.49510126357714
 31
0.0
  0
LINE
  5
444A
330
17
100
AcDbEntity
  8
additional
  6
HIDDEN2
 48
0.8
100
AcDbLine
 10
641.8999106007624
 20
-23.39710126357628
 30
0.0
 11
641.8999106007624
 21
-21.07110126357619
 31
0.0
  0
LINE
  5
444B
330
17
100
AcDbEntity
  8
additional
  6
HIDDEN2
 48
0.8
100
AcDbLine
 10
642.3999106007624
 20
-23.89710126357627
 30
0.0
 11
641.8999106007624
 21
-23.39710126357628
 31
0.0
  0
LINE
  5
444C
330
17
100
AcDbEntity
  8
0
 48
0.5
100
AcDbLine
 10
585.0813918964607
 20
-99.01028004530365
 30
0.0
 11
585.0813918964607
 21
-93.01028004530364
 31
0.0
  0
LINE
  5
444D
330
17
100
AcDbEntity
  8
0
 48
0.5
100
AcDbLine
 10
586.6813918964607
 20
-93.01028004530364
 30
0.0
 11
585.0813918964607
 21
-93.01028004530364
 31
0.0
  0
LINE
  5
444E
330
17
100
AcDbEntity
  8
0
 48
0.5
100
AcDbLine
 10
562.0813918964609
 20
-79.01028004530362
 30
0.0
 11
562.0813918964609
 21
-85.01028004530361
 31
0.0
  0
LINE
  5
444F
330
17
100
AcDbEntity
  8
0
 48
0.5
100
AcDbLine
 10
560.4813918964607
 20
-85.01028004530361
 30
0.0
 11
562.0813918964609
 21
-85.01028004530361
 31
0.0
  0
LINE
  5
4450
330
17
100
AcDbEntity
  8
0
 48
0.5
100
AcDbLine
 10
562.0813918964609
 20
-99.01028004530365
 30
0.0
 11
562.0813918964609
 21
-93.01028004530364
 31
0.0
  0
LINE
  5
4451
330
17
100
AcDbEntity
  8
0
 48
0.5
100
AcDbLine
 10
560.4813918964607
 20
-93.01028004530364
 30
0.0
 11
562.0813918964609
 21
-93.01028004530364
 31
0.0
  0
LINE
  5
4452
330
17
100
AcDbEntity
  8
additional
  6
HIDDEN2
100
AcDbLine
 10
638.8549106007625
 20
-23.39710126357628
 30
0.0
 11
641.8999106007624
 21
-23.39710126357628
 31
0.0
  0
LINE
  5
4453
330
17
100
AcDbEntity
  8
additional
  6
HIDDEN2
100
AcDbLine
 10
638.8549106007625
 20
-16.49510126357714
 30
0.0
 11
641.8999106007624
 21
-16.49510126357714
 31
0.0
  0
LINE
  5
4454
330
17
100
AcDbEntity
  8
additional
  6
CENTER2
 48
0.5
100
AcDbLine
 10
633.7707540823648
 20
-89.01028004530363
 30
0.0
 11
687.6069247557516
 21
-89.01028004530365
 31
0.0
  0
LINE
  5
4455
330
17
100
AcDbEntity
  8
additional
  6
CENTER2
 48
0.5
100
AcDbLine
 10
633.7707540823648
 20
-19.94610126357622
 30
0.0
 11
681.5724106007624
 21
-19.94610126357624
 31
0.0
  0
LINE
  5
4456
330
17
100
AcDbEntity
  8
additional
  6
CENTER2
 48
0.5
100
AcDbLine
 10
651.0724106007622
 20
-93.01028004530364
 30
0.0
 11
676.5101312901585
 21
-93.01028004530364
 31
0.0
  0
LINE
  5
4457
330
17
100
AcDbEntity
  8
additional
  6
CENTER2
 48
0.5
100
AcDbLine
 10
673.6724106007625
 20
-96.02497610435069
 30
0.0
 11
673.6724106007625
 21
-82.08864121501411
 31
0.0
  0
LINE
  5
445D
330
17
100
AcDbEntity
  8
0
100
AcDbLine
 10
568.4700353373917
 20
-77.31028004530364
 30
0.0
 11
563.1474173002452
 21
-78.51028004530362
 31
0.0
  0
LINE
  5
445E
330
17
100
AcDbEntity
  8
additional
100
AcDbLine
 10
588.7450442845504
 20
-85.01028004530361
 30
0.0
 11
583.7532208946205
 21
-85.01028004530361
 31
0.0
  0
LINE
  5
445F
330
17
100
AcDbEntity
  8
additional
100
AcDbLine
 10
588.7450442845504
 20
-93.01028004530364
 30
0.0
 11
583.7532208946205
 21
-93.01028004530364
 31
0.0
  0
LINE
  5
4460
330
17
100
AcDbEntity
  8
additional
100
AcDbLine
 10
558.417739508371
 20
-85.01028004530361
 30
0.0
 11
563.409562898301
 21
-85.01028004530361
 31
0.0
  0
LINE
  5
4461
330
17
100
AcDbEntity
  8
additional
100
AcDbLine
 10
558.417739508371
 20
-93.01028004530364
 30
0.0
 11
563.409562898301
 21
-93.01028004530364
 31
0.0
  0
LINE
  5
4462
330
17
100
AcDbEntity
  8
additional
  6
HIDDEN2
100
AcDbLine
 10
577.2272655571891
 20
-87.48778004530363
 30
0.0
 11
574.7063918964606
 21
-87.48778004530363
 31
0.0
  0
LINE
  5
4463
330
17
100
AcDbEntity
  8
additional
  6
HIDDEN2
100
AcDbLine
 10
572.4563918964606
 20
-87.48778004530363
 30
0.0
 11
569.9355182357322
 21
-87.48778004530363
 31
0.0
  0
LINE
  5
4464
330
17
100
AcDbEntity
  8
additional
  6
HIDDEN2
100
AcDbLine
 10
577.2272655571891
 20
-90.53278004530366
 30
0.0
 11
574.7063918964606
 21
-90.53278004530366
 31
0.0
  0
LINE
  5
4465
330
17
100
AcDbEntity
  8
additional
  6
HIDDEN2
100
AcDbLine
 10
572.4563918964606
 20
-90.53278004530366
 30
0.0
 11
569.9355182357322
 21
-90.53278004530366
 31
0.0
  0
DIMENSION
  5
446C
330
17
100
AcDbEntity
  8
Z_OM_DIM
100
AcDbDimension
  2
*D2
 10
626.6989010678448
 20
-21.07110126357619
 30
0.0
 11
626.6989010678448
 21
-12.36276793024275
 31
0.0
 70
   160
  1
2
 71
     5
 42
2.25
  3
CatalogDxf
100
AcDbAlignedDimension
 13
636.8774106007625
 23
-18.82110126357619
 33
0.0
 14
636.8774106007625
 24
-21.07110126357619
 34
0.0
 50
90.0
100
AcDbRotatedDimension
  0
DIMENSION
  5
4486
330
17
100
AcDbEntity
  8
Z_OM_DIM
100
AcDbDimension
  2
*D3
 10
636.8774106007625
 20
-34.94762335612853
 30
0.0
 11
640.9524106007625
 21
-33.07262335612853
 31
0.0
 70
    32
  1
8
 71
     5
 42
8.150000000000204
  3
CatalogDxf
100
AcDbAlignedDimension
 13
645.0274106007626
 23
-21.07110126357619
 33
0.0
 14
636.8774106007625
 24
-23.39710126357622
 34
0.0
100
AcDbRotatedDimension
  0
DIMENSION
  5
449C
330
17
100
AcDbEntity
  8
Z_OM_DIM
100
AcDbDimension
  2
*D4
 10
683.9724106007622
 20
-45.09856275131414
 30
0.0
 11
665.4724106007623
 21
-43.22356275131414
 31
0.0
 70
    32
 71
     5
 42
36.99999999999977
  3
CatalogDxf
100
AcDbAlignedDimension
 13
646.9724106007625
 23
-33.04610126357622
 33
0.0
 14
683.9724106007622
 24
-31.44610126357623
 34
0.0
100
AcDbRotatedDimension
  0
DIMENSION
  5
44AB
330
17
100
AcDbEntity
  8
Z_OM_DIM
100
AcDbDimension
  2
*D5
 10
697.4351358310275
 20
-93.01028004530364
 30
0.0
 11
695.5601358310275
 21
-89.01028004530351
 31
0.0
 70
    32
 71
     5
 42
8.000000000000028
  3
CatalogDxf
100
AcDbAlignedDimension
 13
676.5101312901585
 23
-85.01028004530361
 33
0.0
 14
676.5101312901585
 24
-93.01028004530364
 34
0.0
 50
90.0
100
AcDbRotatedDimension
  0
DIMENSION
  5
44B8
330
17
100
AcDbEntity
  8
Z_OM_DIM
100
AcDbDimension
  2
*D6
 10
653.6724106007625
 20
-65.4614950826134
 30
0.0
 11
663.6724106007625
 21
-63.5864950826134
 31
0.0
 70
    32
 71
     5
 42
20.0
  3
CatalogDxf
100
AcDbAlignedDimension
 13
673.6724106007625
 23
-82.08864121501411
 33
0.0
 14
653.6724106007625
 24
-82.08864121501411
 34
0.0
100
AcDbRotatedDimension
  0
DIMENSION
  5
44D2
330
17
100
AcDbEntity
  8
Z_OM_DIM
100
AcDbDimension
  2
*D8
 10
636.8774106007625
 20
-65.4614950826134
 30
0.0
 11
628.7524106007624
 21
-65.4614950826134
 31
0.0
 70
   160
 71
     5
 42
3.5
  3
CatalogDxf
100
AcDbAlignedDimension
 13
640.3774106007624
 23
-82.26334225366883
 33
0.0
 14
636.8774106007625
 24
-85.55928004530455
 34
0.0
100
AcDbRotatedDimension
  0
DIMENSION
  5
4506
330
17
100
AcDbEntity
  8
Z_OM_DIM
100
AcDbDimension
  2
*D9
 10
646.9724106007625
 20
-72.10242081924497
 30
0.0
 11
650.287547600922
 21
-69.56563690514849
 31
0.0
 70
   160
 71
     5
 42
6.700000000000045
  3
CatalogDxf
100
AcDbAlignedDimension
 13
653.6724106007625
 23
-82.08864121501411
 33
0.0
 14
646.9724106007625
 24
-79.01028004530362
 34
0.0
100
AcDbRotatedDimension
1001
ACAD
1000
DSTYLE
1002
{
1070
   279
1070
     2
1002
}
  0
MTEXT
  5
4514
330
17
100
AcDbEntity
  8
Z_OM_DIM
100
AcDbMText
 10
625.0745348433404
 20
-110.369659766437
 30
0.0
 40
2.5
 41
36.07485607704962
 71
     4
 72
     1
  1
M3\Pboth faces
  7
CatalogDxf
 73
     1
 44
1.0
1001
ACAD
1000
MTEXTBEGIN
1070
    73
1070
     1
1070
    44
1040
1.0
1070
    74
1070
     0
1000
MTEXTEND
  0
MTEXT
  5
4516
330
17
100
AcDbEntity
  8
Z_OM_DIM
100
AcDbMText
 10
682.6492127949234
 20
-110.3070878172156
 30
0.0
 40
2.5
 41
40.17270078290763
 71
     4
 72
     1
  1
%%C2.78\Pboth faces
  7
CatalogDxf
 73
     1
 44
1.0
1001
ACAD
1000
MTEXTBEGIN
1070
    73
1070
     1
1070
    44
1040
1.0
1070
    74
1070
     0
1000
MTEXTEND
  0
LEADER
  5
4518
330
17
100
AcDbEntity
  8
Z_OM_DIM
100
AcDbLeader
  3
CatalogDxf
 76
     2
 10
653.3731273140962
 20
-94.22392312064429
 30
0.0
 10
649.3916032340906
 20
-110.369659766437
 30
0.0
1001
ACAD
1000
DSTYLE
1002
{
1070
   147
1040
0.625
1070
    77
1070
     1
1002
}
  0
LEADER
  5
4519
330
17
100
AcDbEntity
  8
Z_OM_DIM
100
AcDbLeader
  3
CatalogDxf
 76
     2
 10
674.2470032628107
 20
-94.27595902226434
 30
0.0
 10
681.5532179674342
 20
-110.369659766437
 30
0.0
1001
ACAD
1000
DSTYLE
1002
{
1070
   147
1040
0.625
1070
    77
1070
     1
1002
}
  0
DIMENSION
  5
451A
330
17
100
AcDbEntity
  8
Z_OM_DIM
100
AcDbDimension
  2
*D10
 10
626.6989010678448
 20
-92.96128004530364
 30
0.0
 11
624.1949346980693
 21
-89.29812891470119
 31
0.0
 70
   160
  1
%%c8
 71
     5
 42
7.901999999999162
  3
CatalogDxf
100
AcDbAlignedDimension
 13
637.3774106007624
 23
-85.05928004530449
 33
0.0
 14
637.3774106007624
 24
-92.96128004530364
 34
0.0
 50
90.0
100
AcDbRotatedDimension
1001
ACAD
1000
DSTYLE
1002
{
1070
   279
1070
     2
1002
}
  0
DIMENSION
  5
4530
330
17
100
AcDbEntity
  8
Z_OM_DIM
100
AcDbDimension
  2
*D11
 10
600.1407741263749
 20
-99.01028004530365
 30
0.0
 11
598.2657741263749
 21
-89.01028004530354
 31
0.0
 70
    32
 71
     5
 42
20.00000000000003
  3
CatalogDxf
100
AcDbAlignedDimension
 13
586.6813918964607
 23
-79.01028004530362
 33
0.0
 14
586.6813918964607
 24
-99.01028004530365
 34
0.0
 50
90.0
100
AcDbRotatedDimension
  0
DIMENSION
  5
453D
330
17
100
AcDbEntity
  8
Z_OM_DIM
100
AcDbDimension
  2
*D12
 10
586.6813918964607
 20
-112.9288620299673
 30
0.0
 11
573.5813918964606
 21
-111.0538620299673
 31
0.0
 70
    32
  1
26
 71
     5
 42
26.19999999999993
  3
CatalogDxf
100
AcDbAlignedDimension
 13
560.4813918964607
 23
-99.01028004530365
 33
0.0
 14
586.6813918964607
 24
-99.01028004530365
 34
0.0
100
AcDbRotatedDimension
  0
LINE
  5
45EA
330
17
100
AcDbEntity
  8
0
 48
0.5
100
AcDbLine
 10
708.9870141000761
 20
-19.94610126357624
 30
0.0
 11
708.9870141000757
 21
-20.94610126357625
 31
0.0
  0
SPLINE
  5
45EB
330
17
100
AcDbEntity
  8
additional
 48
0.5
100
AcDbSpline
210
0.0
220
0.0
230
1.0
 70
  1064
 71
     3
 72
    18
 73
    14
 74
    12
 42
0.000000001
 43
0.0000000001
 44
0.0000000001
 40
0.0
 40
0.0
 40
0.0
 40
0.0
 40
0.391311896062835
 40
0.7826237921251394
 40
1.482623792125099
 40
1.873935688187476
 40
2.265247584250248
 40
2.656559480312704
 40
3.047871376374929
 40
4.097871376374937
 40
4.489183272437102
 40
4.88049516849962
 40
5.27180706456242
 40
5.27180706456242
 40
5.27180706456242
 40
5.27180706456242
 10
690.5661844160512
 20
-17.4287280499944
 30
0.0
 10
690.6224692576979
 20
-17.54636778334879
 30
0.0
 10
690.7350389409911
 20
-17.7816472500574
 30
0.0
 10
690.994862630131
 20
-18.20524622137195
 30
0.0
 10
690.9949401180949
 20
-18.75222883990138
 30
0.0
 10
690.7349089897252
 20
-19.17576520008763
 30
0.0
 10
690.5666699228151
 20
-19.52889672396798
 30
0.0
 10
690.3955178153217
 20
-19.88101620400606
 30
0.0
 10
690.0877442536823
 20
-20.40927562241884
 30
0.0
 10
690.0873474664347
 20
-21.09832584627808
 30
0.0
 10
690.3959614369507
 20
-21.62623698862929
 30
0.0
 10
690.5649901608261
 20
-21.97935081533582
 30
0.0
 10
690.6824529976432
 20
-22.21226897177484
 30
0.0
 10
690.7411844160519
 20
-22.32872804999438
 30
0.0
 11
690.5661844160512
 21
-17.4287280499944
 31
0.0
 11
690.7411844160519
 21
-17.77872804999444
 31
0.0
 11
690.9161844160516
 21
-18.1287280499944
 31
0.0
 11
690.9161844160516
 21
-18.82872804999436
 31
0.0
 11
690.7411844160519
 21
-19.1787280499944
 31
0.0
 11
690.5661844160512
 21
-19.52872804999437
 31
0.0
 11
690.3911844160511
 21
-19.87872804999433
 31
0.0
 11
690.2161844160517
 21
-20.22872804999437
 31
0.0
 11
690.2161844160517
 21
-21.27872804999438
 31
0.0
 11
690.3911844160511
 21
-21.62872804999435
 31
0.0
 11
690.5661844160512
 21
-21.97872804999438
 31
0.0
 11
690.7411844160519
 21
-22.32872804999438
 31
0.0
  0
SPLINE
  5
45EC
330
17
100
AcDbEntity
  8
additional
 48
0.5
100
AcDbSpline
210
0.0
220
0.0
230
1.0
 70
  1064
 71
     3
 72
    18
 73
    14
 74
    12
 42
0.000000001
 43
0.0000000001
 44
0.0000000001
 40
0.0
 40
0.0
 40
0.0
 40
0.0
 40
0.3913118960626316
 40
0.782623792124936
 40
1.482623792124896
 40
1.873935688187273
 40
2.265247584249841
 40
2.656559480312501
 40
3.047871376374726
 40
4.097871376374733
 40
4.489183272436898
 40
4.880495168499619
 40
5.271807064562215
 40
5.271807064562215
 40
5.271807064562215
 40
5.271807064562215
 10
691.4411844160516
 20
-17.4287280499944
 30
0.0
 10
691.497469257698
 20
-17.5463677833488
 30
0.0
 10
691.6100389409909
 20
-17.78164725005751
 30
0.0
 10
691.8698626301311
 20
-18.20524622137191
 30
0.0
 10
691.8699401180947
 20
-18.75222883990144
 30
0.0
 10
691.609908989725
 20
-19.17576520008748
 30
0.0
 10
691.4416699228156
 20
-19.52889672396823
 30
0.0
 10
691.2705178153219
 20
-19.88101620400592
 30
0.0
 10
690.9627442536822
 20
-20.40927562241892
 30
0.0
 10
690.9623474664349
 20
-21.098325846278
 30
0.0
 10
691.2709614369503
 20
-21.62623698862943
 30
0.0
 10
691.4399901608269
 20
-21.97935081533559
 30
0.0
 10
691.5574529976437
 20
-22.2122689717748
 30
0.0
 10
691.6161844160519
 20
-22.32872804999438
 30
0.0
 11
691.4411844160516
 21
-17.4287280499944
 31
0.0
 11
691.6161844160519
 21
-17.77872804999444
 31
0.0
 11
691.7911844160516
 21
-18.1287280499944
 31
0.0
 11
691.7911844160516
 21
-18.82872804999436
 31
0.0
 11
691.6161844160519
 21
-19.1787280499944
 31
0.0
 11
691.4411844160516
 21
-19.52872804999437
 31
0.0
 11
691.2661844160511
 21
-19.87872804999433
 31
0.0
 11
691.0911844160517
 21
-20.22872804999437
 31
0.0
 11
691.0911844160517
 21
-21.27872804999438
 31
0.0
 11
691.2661844160511
 21
-21.62872804999435
 31
0.0
 11
691.4411844160516
 21
-21.97872804999438
 31
0.0
 11
691.6161844160519
 21
-22.32872804999438
 31
0.0
  0
LINE
  5
45ED
330
17
100
AcDbEntity
  8
0
100
AcDbLine
 10
681.5724106007624
 20
-20.94610126357625
 30
0.0
 11
690.1319325018625
 21
-20.94610126357625
 31
0.0
  0
LINE
  5
45EE
330
17
100
AcDbEntity
  8
0
100
AcDbLine
 10
681.5724106007624
 20
-19.94610126357624
 30
0.0
 11
690.354823351269
 21
-19.94610126357624
 31
0.0
  0
LINE
  5
45EF
330
17
100
AcDbEntity
  8
0
100
AcDbLine
 10
681.5724106007624
 20
-18.94610126357622
 30
0.0
 11
690.8664380162238
 21
-18.94610126357622
 31
0.0
  0
LINE
  5
45F0
330
17
100
AcDbEntity
  8
0
100
AcDbLine
 10
708.9870141000761
 20
-18.94610126357622
 30
0.0
 11
708.9870141000761
 21
-20.94610126357625
 31
0.0
  0
LINE
  5
45F1
330
17
100
AcDbEntity
  8
0
100
AcDbLine
 10
691.7414380162238
 20
-18.94610126357622
 30
0.0
 11
708.9870141000757
 21
-18.94610126357622
 31
0.0
  0
LINE
  5
45F2
330
17
100
AcDbEntity
  8
0
100
AcDbLine
 10
691.0069325018625
 20
-20.94610126357625
 30
0.0
 11
708.9870141000761
 21
-20.94610126357625
 31
0.0
  0
LINE
  5
45F3
330
17
100
AcDbEntity
  8
0
100
AcDbLine
 10
691.229823351269
 20
-19.94610126357624
 30
0.0
 11
708.9870141000761
 21
-19.94610126357624
 31
0.0
  0
POINT
  5
45F4
330
17
100
AcDbEntity
  8
0
100
AcDbPoint
 10
708.9870141000757
 20
-18.94610126357622
 30
0.0
  0
POINT
  5
45F5
330
17
100
AcDbEntity
  8
0
100
AcDbPoint
 10
708.9870141000761
 20
-19.44610126357624
 30
0.0
  0
POINT
  5
45F6
330
17
100
AcDbEntity
  8
0
100
AcDbPoint
 10
708.9870141000757
 20
-20.94610126357625
 30
0.0
  0
POINT
  5
45F7
330
17
100
AcDbEntity
  8
0
100
AcDbPoint
 10
708.9870141000761
 20
-20.44610126357625
 30
0.0
  0
LINE
  5
45F8
330
17
100
AcDbEntity
  8
0
100
AcDbLine
 10
708.9870141000761
 20
-20.69610126357624
 30
0.0
 11
715.9870141000761
 21
-20.69610126357624
 31
0.0
  0
LINE
  5
45F9
330
17
100
AcDbEntity
  8
0
100
AcDbLine
 10
708.9870141000761
 20
-20.19610126357623
 30
0.0
 11
715.9870141000761
 21
-20.19610126357623
 31
0.0
  0
LINE
  5
45FA
330
17
100
AcDbEntity
  8
0
100
AcDbLine
 10
708.9870141000761
 20
-19.69610126357624
 30
0.0
 11
715.9870141000761
 21
-19.69610126357624
 31
0.0
  0
LINE
  5
45FB
330
17
100
AcDbEntity
  8
0
100
AcDbLine
 10
708.9870141000761
 20
-19.19610126357624
 30
0.0
 11
715.9870141000761
 21
-19.19610126357624
 31
0.0
  0
DIMENSION
  5
45FC
330
17
100
AcDbEntity
  8
Z_OM_DIM
100
AcDbDimension
  2
*D13
 10
715.9870141000761
 20
-45.09856275131414
 30
0.0
 11
699.9797123504192
 21
-43.22356275131414
 31
0.0
 70
    32
  1
180 - 200
 71
     5
 42
32.01460349931392
  3
CatalogDxf
100
AcDbAlignedDimension
 13
683.9724106007622
 23
-32.07110126357623
 33
0.0
 14
715.9870141000761
 24
-20.69610126357624
 34
0.0
100
AcDbRotatedDimension
  0
LINE
  5
4633
330
17
100
AcDbEntity
  8
0
100
AcDbLine
 10
681.5724106007625
 20
-77.51028004530361
 30
0.0
 11
693.9243292784475
 21
-77.51028004530361
 31
0.0
  0
LINE
  5
4634
330
17
100
AcDbEntity
  8
0
100
AcDbLine
 10
681.5724106007625
 20
-78.51028004530362
 30
0.0
 11
693.4499461841908
 21
-78.51028004530362
 31
0.0
  0
SPLINE
  5
463B
330
17
100
AcDbEntity
  8
additional
 48
0.5
100
AcDbSpline
210
0.0
220
0.0
230
1.0
 70
  1064
 71
     3
 72
    18
 73
    14
 74
    12
 42
0.000000001
 43
0.0000000001
 44
0.0000000001
 40
0.0
 40
0.0
 40
0.0
 40
0.0
 40
0.3913118960625013
 40
0.7826237921249391
 40
1.482623792124885
 40
1.873935688187373
 40
2.265247584249824
 40
2.656559480312439
 40
3.047871376374763
 40
4.097871376374774
 40
4.489183272437034
 40
4.880495168499701
 40
5.271807064562189
 40
5.271807064562189
 40
5.271807064562189
 40
5.271807064562189
 10
693.8450051184896
 20
-75.57414885643344
 30
0.0
 10
693.901289960136
 20
-75.69178858978784
 30
0.0
 10
694.0138596434287
 20
-75.92706805649665
 30
0.0
 10
694.2736833325691
 20
-76.35066702781081
 30
0.0
 10
694.2737608205332
 20
-76.8976496463406
 30
0.0
 10
694.0137296921625
 20
-77.3211860065264
 30
0.0
 10
693.8454906252539
 20
-77.67431753040729
 30
0.0
 10
693.6743385177598
 20
-78.02643701044503
 30
0.0
 10
693.3665649561202
 20
-78.55469642885781
 30
0.0
 10
693.3661681688727
 20
-79.24374665271717
 30
0.0
 10
693.6747821393885
 20
-79.77165779506837
 30
0.0
 10
693.8438108632648
 20
-80.12477162177459
 30
0.0
 10
693.9612737000814
 20
-80.35768977821382
 30
0.0
 10
694.0200051184897
 20
-80.47414885643339
 30
0.0
 11
693.8450051184896
 21
-75.57414885643344
 31
0.0
 11
694.0200051184897
 21
-75.92414885643345
 31
0.0
 11
694.1950051184896
 21
-76.27414885643344
 31
0.0
 11
694.1950051184896
 21
-76.97414885643339
 31
0.0
 11
694.0200051184897
 21
-77.32414885643343
 31
0.0
 11
693.8450051184896
 21
-77.67414885643339
 31
0.0
 11
693.6700051184892
 21
-78.02414885643336
 31
0.0
 11
693.4950051184896
 21
-78.37414885643339
 31
0.0
 11
693.4950051184896
 21
-79.42414885643341
 31
0.0
 11
693.6700051184892
 21
-79.77414885643337
 31
0.0
 11
693.8450051184896
 21
-80.12414885643339
 31
0.0
 11
694.0200051184897
 21
-80.47414885643339
 31
0.0
  0
LEADER
  5
478C
330
17
100
AcDbEntity
  8
Z_OM_DIM
100
AcDbLeader
  3
ISO-25
 76
     3
 10
654.7006851159675
 20
-85.9455615651573
 30
0.0
 10
681.5532179674342
 20
-110.369659766437
 30
0.0
 10
706.7229916845227
 20
-110.369659766437
 30
0.0
1001
ACAD
1000
DSTYLE
1002
{
1070
   341
1005
977
1070
   147
1040
0.625
1070
    77
1070
     0
1002
}
  0
LEADER
  5
4799
330
17
100
AcDbEntity
  8
Z_OM_DIM
100
AcDbLeader
  3
ISO-25
 76
     3
 10
672.807936007068
 20
-85.91315527303835
 30
0.0
 10
649.3916032340906
 20
-110.369659766437
 30
0.0
 10
624.2218295170021
 20
-110.369659766437
 30
0.0
211
-1.0
221
0.0
231
0.0
1001
ACAD
1000
DSTYLE
1002
{
1070
   341
1005
977
1070
   147
1040
0.625
1070
    77
1070
     0
1002
}
  0
MTEXT
  5
47C5
330
17
100
AcDbEntity
  8
Z_OM_DIM
100
AcDbMText
 10
630.2211276343012
 20
-101.4518856120489
 30
0.0
 40
2.5
 41
4.84903737802665
 71
     7
 72
     1
  1
%%C3
  7
CatalogDxf
 73
     1
 44
1.0
1001
ACAD
1000
MTEXTBEGIN
1070
    73
1070
     1
1070
    44
1040
1.0
1070
    74
1070
     0
1000
MTEXTEND
  0
LEADER
  5
47C6
330
17
100
AcDbEntity
  8
Z_OM_DIM
100
AcDbLeader
  3
ISO-25
 76
     3
 10
639.880905313397
 20
-90.44954678556349
 30
0.0
 10
635.7952849811509
 20
-102.1564858539563
 30
0.0
 10
629.3892067805095
 20
-102.1564858539563
 30
0.0
211
-1.0
221
0.0
231
0.0
1001
ACAD
1000
DSTYLE
1002
{
1070
   341
1005
977
1070
   147
1040
0.625
1070
    77
1070
     0
1002
}
  0
MTEXT
  5
482C
330
17
100
AcDbEntity
  8
Z_OM_DIM
100
AcDbMText
 10
704.9638476936125
 20
-10.23489885943146
 30
0.0
 40
2.5
 41
42.8494883882687
 71
     7
 72
     1
  1
UL1007 AWG22 white
  7
CatalogDxf
 73
     1
 44
1.0
1001
ACAD
1000
MTEXTBEGIN
1070
    73
1070
     1
1070
    44
1040
1.0
1070
    74
1070
     0
1000
MTEXTEND
1000
ACAD_MTEXT_DEFINED_HEIGHT_BEGIN
1070
    46
1040
2.500000000000003
1000
ACAD_MTEXT_DEFINED_HEIGHT_END
  0
LEADER
  5
482D
330
17
100
AcDbEntity
  8
Z_OM_DIM
100
AcDbLeader
  3
ISO-25
 76
     3
 10
698.9456151678582
 20
-18.94610126357622
 30
0.0
 10
704.3997381998527
 20
-10.85989885943145
 30
0.0
 10
745.7580282719708
 20
-10.85989885943145
 30
0.0
1001
ACAD
1000
DSTYLE
1002
{
1070
   341
1005
977
1070
   147
1040
0.625
1070
    77
1070
     0
1002
}
  0
LINE
  5
4A64
330
17
100
AcDbEntity
  8
0
100
AcDbLine
 10
647.5024106007624
 20
-13.94610126357631
 30
0.0
 11
647.5024106007622
 21
-25.94610126357631
 31
0.0
  0
DIMENSION
  5
4B9F
330
17
100
AcDbEntity
  8
Z_OM_DIM
100
AcDbDimension
  2
*D15
 10
653.6724106007625
 20
-65.4614950826134
 30
0.0
 11
647.0249106007624
 21
-63.5864950826134
 31
0.0
 70
    32
 71
     5
 42
13.29500000000007
  3
CatalogDxf
100
AcDbAlignedDimension
 13
640.3774106007624
 23
-82.26334225366883
 33
0.0
 14
653.6724106007625
 24
-82.08864121501411
 34
0.0
100
AcDbRotatedDimension
  0
ENDSEC
  0
SECTION
  2
OBJECTS
  0
DICTIONARY
  5
C
330
0
100
AcDbDictionary
281
     1
  3
ACAD_2007HEADERVARS_RT
350
4BC2
  3
ACAD_CIP_PREVIOUS_PRODUCT_INFO
350
4A15
  3
ACAD_COLOR
350
3D57
  3
ACAD_DETAILVIEWSTYLE
350
492F
  3
ACAD_GROUP
350
D
  3
ACAD_LAYOUT
350
3D5A
  3
ACAD_MATERIAL
350
3D42
  3
ACAD_MLEADERSTYLE
350
492B
  3
ACAD_MLINESTYLE
350
1A
  3
ACAD_PLOTSETTINGS
350
957
  3
ACAD_PLOTSTYLENAME
350
3D40
  3
ACAD_SCALELIST
350
4919
  3
ACAD_SECTIONVIEWSTYLE
350
492D
  3
ACAD_TABLESTYLE
350
3D58
  3
ACAD_VISUALSTYLE
350
3D46
  3
AcadDim
350
4517
  3
ACDB_RECOMPOSE_DATA
350
4BC0
  3
ACDBHEADERROUNDTRIPXREC
350
4908
  3
AcDbVariableDictionary
350
4116
  3
DWGPROPS
350
4BC1
  0
DICTIONARY
  5
3DBA
330
2
100
AcDbDictionary
280
     1
281
     1
  3
ACAD_LAYERFILTERS
360
421C
  3
ACAD_LAYERSTATES
360
3DBB
  3
ACLYDICTIONARY
360
421B
  0
DICTIONARY
  5
4A65
330
E
100
AcDbDictionary
280
     1
281
     1
  3
ADSK_XREC_LAYER_RECONCILED
360
4A66
  0
DICTIONARY
  5
4A67
330
27
100
AcDbDictionary
280
     1
281
     1
  3
ADSK_XREC_LAYER_RECONCILED
360
4A68
  0
DICTIONARY
  5
4A69
330
3DB5
100
AcDbDictionary
280
     1
281
     1
  3
ADSK_XREC_LAYER_RECONCILED
360
4A6A
  0
DICTIONARY
  5
1808
330
17
100
AcDbDictionary
280
     1
281
     1
  3
ACAD_LAYOUTSELFREF
360
3D3B
  3
ACAD_SORTENTS
360
47AA
  0
DICTIONARY
  5
1806
330
14
100
AcDbDictionary
280
     1
281
     1
  3
ACAD_LAYOUTSELFREF
360
3D3A
  0
DICTIONARY
  5
42DE
330
42DD
100
AcDbDictionary
280
     1
281
     1
  3
ACAD_SORTENTS
360
42DF
  0
DICTIONARY
  5
4BC2
102
{ACAD_REACTORS
330
C
102
}
330
C
100
AcDbDictionary
281
     1
  3
DIMLTEX1
350
4BC4
  3
DIMLTEX2
350
4BC5
  3
DIMLTYPE
350
4BC3
  0
XRECORD
  5
4A15
102
{ACAD_REACTORS
330
C
102
}
330
C
100
AcDbXrecord
280
     1
300
ACDLT
300
2015
300
ACDLT_F_S
  0
DICTIONARY
  5
3D57
102
{ACAD_REACTORS
330
C
102
}
330
C
100
AcDbDictionary
281
     1
  0
DICTIONARY
  5
492F
102
{ACAD_REACTORS
330
C
102
}
330
C
100
AcDbDictionary
281
     1
  3
Imperial24
350
4930
  0
DICTIONARY
  5
D
102
{ACAD_REACTORS
330
C
102
}
330
C
100
AcDbDictionary
281
     1
  0
DICTIONARY
  5
3D5A
102
{ACAD_REACTORS
330
C
102
}
330
C
100
AcDbDictionary
281
     1
  3
Model
350
3D5B
  3
レイアウト1
350
3D5C
  0
DICTIONARY
  5
3D42
102
{ACAD_REACTORS
330
C
102
}
330
C
100
AcDbDictionary
281
     1
  3
ByBlock
350
3D44
  3
ByLayer
350
3D43
  3
Global
350
3D45
  0
DICTIONARY
  5
492B
102
{ACAD_REACTORS
330
C
102
}
330
C
100
AcDbDictionary
281
     1
  3
Standard
350
492C
  0
DICTIONARY
  5
1A
102
{ACAD_REACTORS
330
C
102
}
330
C
100
AcDbDictionary
281
     1
  3
STANDARD
350
1B
  0
DICTIONARY
  5
957
102
{ACAD_REACTORS
330
C
102
}
330
C
100
AcDbDictionary
281
     1
  0
ACDBDICTIONARYWDFLT
  5
3D40
102
{ACAD_REACTORS
330
C
102
}
330
C
100
AcDbDictionary
281
     1
  3
Normal
350
3D41
100
AcDbDictionaryWithDefault
340
3D41
  0
DICTIONARY
  5
4919
102
{ACAD_REACTORS
330
C
102
}
330
C
100
AcDbDictionary
281
     1
  3
A0
350
491A
  3
A1
350
491B
  3
A2
350
491C
  3
A3
350
491D
  3
A4
350
491E
  3
A5
350
491F
  3
A6
350
4920
  3
A7
350
4921
  3
A8
350
4922
  3
A9
350
4923
  3
B0
350
4924
  3
B1
350
4925
  3
B2
350
4926
  3
B3
350
4927
  3
B4
350
4928
  3
B5
350
4929
  3
B6
350
492A
  0
DICTIONARY
  5
492D
102
{ACAD_REACTORS
330
C
102
}
330
C
100
AcDbDictionary
281
     1
  3
Imperial24
350
492E
  0
DICTIONARY
  5
3D58
102
{ACAD_REACTORS
330
C
102
}
330
C
100
AcDbDictionary
281
     1
  3
Standard
350
3D59
  0
DICTIONARY
  5
3D46
102
{ACAD_REACTORS
330
C
102
}
330
C
100
AcDbDictionary
281
     1
  3
2dWireframe
350
3D4C
  3
3D Hidden
350
3D4E
  3
3dWireframe
350
3D4D
  3
Basic
350
3D4B
  3
Brighten
350
3D52
  3
ColorChange
350
3D56
  3
Conceptual
350
3D4F
  3
Dim
350
3D51
  3
EdgeColorOff
350
4918
  3
Facepattern
350
3D55
  3
Flat
350
3D47
  3
FlatWithEdges
350
3D48
  3
Gouraud
350
3D49
  3
GouraudWithEdges
350
3D4A
  3
Hidden
350
4910
  3
JitterOff
350
4916
  3
Linepattern
350
3D54
  3
OverhangOff
350
4917
  3
Realistic
350
3D50
  3
Shaded
350
4915
  3
Shaded with edges
350
4914
  3
Shades of Gray
350
4911
  3
Sketchy
350
4912
  3
Thicken
350
3D53
  3
Wireframe
350
490F
  3
X-Ray
350
4913
  0
XRECORD
  5
4517
102
{ACAD_REACTORS
330
C
102
}
330
C
100
AcDbXrecord
280
     1
 90
   990106
  3

 60
     0
 61
     0
 62
     4
 63
     4
 64
     1
 65
     0
 66
     0
 67
     2
 68
     1
 69
     0
 70
     0
 71
     0
 72
     0
 40
40.17270078290763
170
     2
340
4516
  0
XRECORD
  5
4BC0
102
{ACAD_REACTORS
330
C
102
}
330
C
100
AcDbXrecord
280
     1
 90
        1
330
3D59
  0
DICTIONARY
  5
4908
102
{ACAD_REACTORS
330
C
102
}
330
C
100
AcDbDictionary
281
     1
  0
DICTIONARY
  5
4116
102
{ACAD_REACTORS
330
C
102
}
330
C
100
AcDbDictionary
281
     1
  3
CANNOSCALE
350
4A6E
  3
CMLEADERSTYLE
350
4A6B
  3
CTABLESTYLE
350
4117
  3
CVIEWDETAILSTYLE
350
4A6C
  3
CVIEWSECTIONSTYLE
350
4A6D
  3
DIMASSOC
350
4904
  3
INDEXCTL
350
4A70
  3
PROJECTNAME
350
4905
  3
SORTENTS
350
4A6F
  3
XCLIPFRAME
350
4BBE
  0
XRECORD
  5
4BC1
102
{ACAD_REACTORS
330
C
102
}
330
C
100
AcDbXrecord
280
     1
  1
DWGPROPS COOKIE
  2

  3

  4

  6

  7

  8
gijyutu5
  9

300
=
301
=
302
=
303
=
304
=
305
=
306
=
307
=
308
=
309
=
 40
0.5864650925925927
 41
2455090.761732894
 42
2457486.682501169
  1

 90
        0
  0
DICTIONARY
  5
421C
102
{ACAD_REACTORS
330
3DBA
102
}
330
3DBA
100
AcDbDictionary
281
     1
  0
DICTIONARY
  5
3DBB
102
{ACAD_REACTORS
330
3DBA
102
}
330
3DBA
100
AcDbDictionary
281
     1
  0
DICTIONARY
  5
421B
102
{ACAD_REACTORS
330
3DBA
102
}
330
3DBA
100
AcDbDictionary
281
     1
1001
ACAD
1000
<All
  0
XRECORD
  5
4A66
102
{ACAD_REACTORS
330
4A65
102
}
330
4A65
100
AcDbXrecord
280
     1
290
     1
  0
XRECORD
  5
4A68
102
{ACAD_REACTORS
330
4A67
102
}
330
4A67
100
AcDbXrecord
280
     1
290
     1
  0
XRECORD
  5
4A6A
102
{ACAD_REACTORS
330
4A69
102
}
330
4A69
100
AcDbXrecord
280
     1
290
     1
  0
XRECORD
  5
3D3B
102
{ACAD_REACTORS
330
1808
102
}
330
1808
100
AcDbXrecord
280
     1
340
17
  0
SORTENTSTABLE
  5
47AA
102
{ACAD_REACTORS
330
1808
102
}
330
1808
100
AcDbSortentsTable
330
17
331
4426
  5
4426
331
4422
  5
4422
331
43B4
  5
43B4
331
43B0
  5
43B0
331
47C6
  5
482C
331
43EF
  5
43EF
331
441E
  5
441E
331
445D
  5
445E
331
43AC
  5
43AC
331
43EB
  5
43EB
331
441A
  5
441A
331
43A8
  5
43A8
331
453D
  5
45EA
331
4416
  5
4416
331
4455
  5
4456
331
43E7
  5
43E7
331
43E3
  5
43E3
331
4412
  5
4412
331
4451
  5
4452
331
43DF
  5
43DF
331
440E
  5
440E
331
444D
  5
444E
331
4449
  5
444A
331
43DB
  5
43DB
331
440A
  5
440A
331
4486
  5
449C
331
4130
  5
4130
331
4519
  5
451A
331
4406
  5
4406
331
4445
  5
4446
331
43D7
  5
43D7
331
43D3
  5
43D3
331
4402
  5
4402
331
4441
  5
4442
331
43CF
  5
43CF
331
43FE
  5
43FE
331
443D
  5
443E
331
4439
  5
443A
331
43CB
  5
43CB
331
43FA
  5
43FA
331
45F6
  5
45F7
331
45F2
  5
45F3
331
4A64
  5
4432
331
43F6
  5
43F6
331
43C7
  5
43C7
331
43F2
  5
43F2
331
43C3
  5
43C3
331
45FC
  5
4633
331
45EE
  5
45EF
331
43BF
  5
43BF
331
442D
  5
442D
331
4429
  5
4429
331
45F8
  5
45F9
331
45EA
  5
45EB
331
43BB
  5
43BB
331
482D
  5
4A64
331
4462
  5
4463
331
4425
  5
4425
331
43B7
  5
43B7
331
4421
  5
4421
331
43B3
  5
43B3
331
43AF
  5
43AF
331
47C5
  5
47C6
331
43EE
  5
43EE
331
441D
  5
441D
331
43AB
  5
43AB
331
43EA
  5
43EA
331
4419
  5
4419
331
4799
  5
47C5
331
4415
  5
4415
331
4454
  5
4455
331
43E6
  5
43E6
331
43E2
  5
43E2
331
4411
  5
4411
331
4450
  5
4451
331
43DE
  5
43DE
331
440D
  5
440D
331
444C
  5
444D
331
4448
  5
4449
331
43DA
  5
43DA
331
4409
  5
4409
331
4530
  5
453D
331
4518
  5
4519
331
4405
  5
4405
331
4444
  5
4445
331
43D6
  5
43D6
331
43D2
  5
43D2
331
4401
  5
4401
331
4440
  5
4441
331
43CE
  5
43CE
331
43FD
  5
43FD
331
443C
  5
443D
331
4438
  5
4439
331
43CA
  5
43CA
331
43F9
  5
43F9
331
45F5
  5
45F6
331
45F1
  5
45F2
331
43F5
  5
43F5
331
4434
  5
4436
331
43C6
  5
43C6
331
43C2
  5
43C2
331
43F1
  5
43F1
331
4516
  5
4518
331
45FB
  5
45FC
331
45ED
  5
45EE
331
43BE
  5
43BE
331
442C
  5
442C
331
4428
  5
4428
331
43BA
  5
43BA
331
4465
  5
446C
331
482C
  5
482D
331
4461
  5
4462
331
44B8
  5
44C5
331
4424
  5
4424
331
43B6
  5
43B6
331
4420
  5
4420
331
445F
  5
4460
331
43B2
  5
43B2
331
43AE
  5
43AE
331
43ED
  5
43ED
331
441C
  5
441C
331
4418
  5
4418
331
43AA
  5
43AA
331
43E9
  5
43E9
331
449C
  5
44AB
331
4457
  5
445D
331
4414
  5
4414
331
4453
  5
4454
331
43E5
  5
43E5
331
43E1
  5
43E1
331
4410
  5
4410
331
444F
  5
4450
331
42AA
  5
42AA
331
444B
  5
444C
331
478C
  5
47A9
331
43DD
  5
43DD
331
43D9
  5
43D9
331
4408
  5
4408
331
446C
  5
4486
331
4447
  5
4448
331
4404
  5
4404
331
4443
  5
4444
331
43D5
  5
43D5
331
43D1
  5
43D1
331
4400
  5
4400
331
443F
  5
4440
331
4634
  5
478C
331
43CD
  5
43CD
331
43FC
  5
43FC
331
443B
  5
443C
331
43C9
  5
43C9
331
43F8
  5
43F8
331
45F4
  5
45F5
331
45F0
  5
45F1
331
4437
  5
4438
331
43F4
  5
43F4
331
4433
  5
4434
331
43C5
  5
43C5
331
43C1
  5
43C1
331
43F0
  5
43F0
331
442F
  5
442F
331
45FA
  5
45FB
331
45EC
  5
45ED
331
43BD
  5
43BD
331
442B
  5
442B
331
43B9
  5
43B9
331
4464
  5
4465
331
4460
  5
4461
331
4427
  5
4427
331
4423
  5
4423
331
43B5
  5
43B5
331
43B1
  5
43B1
331
441F
  5
441F
331
445E
  5
445F
331
43AD
  5
43AD
331
43EC
  5
43EC
331
441B
  5
441B
331
43A9
  5
43A9
331
43E8
  5
43E8
331
44AB
  5
44B8
331
4417
  5
4417
331
4456
  5
4457
331
43E4
  5
43E4
331
4413
  5
4413
331
4452
  5
4453
331
43E0
  5
43E0
331
440F
  5
440F
331
444E
  5
444F
331
444A
  5
444B
331
43DC
  5
43DC
331
440B
  5
440B
331
43D8
  5
43D8
331
463B
  5
4799
331
451A
  5
4530
331
4407
  5
4407
331
4446
  5
4447
331
4403
  5
4403
331
4442
  5
4443
331
43D4
  5
43D4
331
43D0
  5
43D0
331
43FF
  5
43FF
331
443E
  5
443F
331
443A
  5
443B
331
4633
  5
463B
331
43CC
  5
43CC
331
43FB
  5
43FB
331
4506
  5
4514
331
45F7
  5
45F8
331
43C8
  5
43C8
331
45F3
  5
45F4
331
44D2
  5
4506
331
4436
  5
4437
331
43F7
  5
43F7
331
43F3
  5
43F3
331
4432
  5
4433
331
43C4
  5
43C4
331
43C0
  5
43C0
331
442E
  5
442E
331
45EF
  5
45F0
331
4514
  5
4516
331
45F9
  5
45FA
331
45EB
  5
45EC
331
43BC
  5
43BC
331
442A
  5
442A
331
43B8
  5
43B8
331
4463
  5
4464
  0
XRECORD
  5
3D3A
102
{ACAD_REACTORS
330
1806
102
}
330
1806
100
AcDbXrecord
280
     1
340
14
  0
SORTENTSTABLE
  5
42DF
102
{ACAD_REACTORS
330
42DE
102
}
330
42DE
100
AcDbSortentsTable
330
42DD
  0
XRECORD
  5
4BC4
102
{ACAD_REACTORS
330
4BC2
102
}
330
4BC2
100
AcDbXrecord
280
     1
340
12
  0
XRECORD
  5
4BC5
102
{ACAD_REACTORS
330
4BC2
102
}
330
4BC2
100
AcDbXrecord
280
     1
340
12
  0
XRECORD
  5
4BC3
102
{ACAD_REACTORS
330
4BC2
102
}
330
4BC2
100
AcDbXrecord
280
     1
340
12
  0
ACDBDETAILVIEWSTYLE
  5
4930
102
{ACAD_XDICTIONARY
360
4C01
102
}
102
{ACAD_REACTORS
330
492F
102
}
330
492F
100
AcDbModelDocViewStyle
 70
     0
  3
Imperial24
290
     0
100
AcDbDetailViewStyle
 70
     0
 71
     0
 90
        3
 71
     1
340
F
 40
0.24
340
0
 40
0.24
300

 40
0.36
280
     3
 71
     2
340
13
 90
       25
 71
     3
340
F
 40
0.24
 90
        1
 40
0.75
 90
        1
300
%<\AcVar ViewType \f "%tc1">% %<\AcVar ViewDetailId>%\PSCALE %<\AcVar ViewScale \f "%sn">%
 71
     4
340
13
 90
       25
340
13
 90
       25
280
     0
  0
LAYOUT
  5
3D5B
102
{ACAD_XDICTIONARY
360
4BE7
102
}
102
{ACAD_REACTORS
330
3D5A
102
}
330
3D5A
100
AcDbPlotSettings
  1

  2
none_device
  4
Letter_(8.50_x_11.00_Inches)
  6

 40
6.349999904632567
 41
6.349999904632567
 42
6.350006103515625
 43
6.350006103515625
 44
215.8999938964844
 45
279.3999938964844
 46
-8.492989136365325
 47
-118.649914095684
 48
0.0
 49
0.0
140
0.0
141
0.0
142
1.0
143
27.4066
 70
 11940
 72
     0
 73
     1
 74
     0
  7
monochrome.ctb
 75
     0
147
0.0364875613903221
148
-10585.27932451298
149
4667.180921901125
100
AcDbLayout
  1
Model
 70
     1
 71
     0
 10
0.0
 20
0.0
 11
12.0
 21
9.0
 12
0.0
 22
0.0
 32
0.0
 14
0.0
 24
0.0
 34
0.0
 15
0.0
 25
0.0
 35
0.0
146
0.0
 13
0.0
 23
0.0
 33
0.0
 16
1.0
 26
0.0
 36
0.0
 17
0.0
 27
1.0
 37
0.0
 76
     0
330
17
331
4906
1001
ACAD_PSEXT
1000
なし
1000
なし
1000
適切ではありません
1000
新しいプロッタ環境設定名を選択しない限り、レイアウトは印刷されません。
1070
     0
  0
LAYOUT
  5
3D5C
102
{ACAD_XDICTIONARY
360
4BE9
102
}
102
{ACAD_REACTORS
330
3D5A
102
}
330
3D5A
100
AcDbPlotSettings
  1

  2
Microsoft XPS Document Writer
  4

  6

 40
0.0
 41
0.0
 42
0.0
 43
0.0
 44
0.0
 45
0.0
 46
0.0
 47
0.0
 48
0.0
 49
0.0
140
0.0
141
0.0
142
1.0
143
1.0
 70
   688
 72
     0
 73
     0
 74
     5
  7
monochrome.ctb
 75
    16
147
1.0
148
0.0
149
0.0
100
AcDbLayout
  1
レイアウト1
 70
     1
 71
     1
 10
0.0
 20
0.0
 11
12.0
 21
9.0
 12
0.0
 22
0.0
 32
0.0
 14
1.000000000000000E+20
 24
1.000000000000000E+20
 34
1.000000000000000E+20
 15
-1.000000000000000E+20
 25
-1.000000000000000E+20
 35
-1.000000000000000E+20
146
0.0
 13
0.0
 23
0.0
 33
0.0
 16
1.0
 26
0.0
 36
0.0
 17
0.0
 27
1.0
 37
0.0
 76
     0
330
14
  0
MATERIAL
  5
3D44
102
{ACAD_XDICTIONARY
360
419D
102
}
102
{ACAD_REACTORS
330
3D42
102
}
330
3D42
100
AcDbMaterial
  1
ByBlock
  0
MATERIAL
  5
3D43
102
{ACAD_XDICTIONARY
360
419B
102
}
102
{ACAD_REACTORS
330
3D42
102
}
330
3D42
100
AcDbMaterial
  1
ByLayer
  0
MATERIAL
  5
3D45
102
{ACAD_XDICTIONARY
360
419F
102
}
102
{ACAD_REACTORS
330
3D42
102
}
330
3D42
100
AcDbMaterial
  1
Global
  0
MLEADERSTYLE
  5
492C
102
{ACAD_REACTORS
330
492B
102
}
330
492B
100
AcDbMLeaderStyle
170
     2
171
     1
172
     0
 90
        2
 40
0.0
 41
0.0
173
     1
 91
-1056964608
340
11
 92
       -2
290
     1
 42
0.09
291
     1
 43
0.36
  3
Standard
 44
0.18
300

342
F
174
     1
178
     6
175
     1
176
     0
 93
-1056964608
 45
0.18
292
     0
297
     0
 46
0.18
 94
-1056964608
 47
1.0
 49
1.0
140
1.0
293
     1
141
0.0
294
     1
177
     0
142
1.0
295
     0
296
     0
143
0.125
1001
ACAD_MLEADERVER
1070
     2
  0
MLINESTYLE
  5
1B
102
{ACAD_REACTORS
330
1A
102
}
330
1A
100
AcDbMlineStyle
  2
STANDARD
 70
     0
  3

 62
   256
 51
90.0
 52
90.0
 71
     2
 49
0.5
 62
   256
  6
BYLAYER
 49
-0.5
 62
   256
  6
BYLAYER
  0
ACDBPLACEHOLDER
  5
3D41
102
{ACAD_REACTORS
330
3D40
102
}
330
3D40
  0
SCALE
  5
491A
102
{ACAD_REACTORS
330
4919
102
}
330
4919
100
AcDbScale
 70
     0
300
1:1
140
1.0
141
1.0
290
     1
  0
SCALE
  5
491B
102
{ACAD_REACTORS
330
4919
102
}
330
4919
100
AcDbScale
 70
     0
300
1/128" = 1'-0"
140
0.0078125
141
12.0
290
     0
  0
SCALE
  5
491C
102
{ACAD_REACTORS
330
4919
102
}
330
4919
100
AcDbScale
 70
     0
300
1/64" = 1'-0"
140
0.015625
141
12.0
290
     0
  0
SCALE
  5
491D
102
{ACAD_REACTORS
330
4919
102
}
330
4919
100
AcDbScale
 70
     0
300
1/32" = 1'-0"
140
0.03125
141
12.0
290
     0
  0
SCALE
  5
491E
102
{ACAD_REACTORS
330
4919
102
}
330
4919
100
AcDbScale
 70
     0
300
1/16" = 1'-0"
140
0.0625
141
12.0
290
     0
  0
SCALE
  5
491F
102
{ACAD_REACTORS
330
4919
102
}
330
4919
100
AcDbScale
 70
     0
300
3/32" = 1'-0"
140
0.09375
141
12.0
290
     0
  0
SCALE
  5
4920
102
{ACAD_REACTORS
330
4919
102
}
330
4919
100
AcDbScale
 70
     0
300
1/8" = 1'-0"
140
0.125
141
12.0
290
     0
  0
SCALE
  5
4921
102
{ACAD_REACTORS
330
4919
102
}
330
4919
100
AcDbScale
 70
     0
300
3/16" = 1'-0"
140
0.1875
141
12.0
290
     0
  0
SCALE
  5
4922
102
{ACAD_REACTORS
330
4919
102
}
330
4919
100
AcDbScale
 70
     0
300
1/4" = 1'-0"
140
0.25
141
12.0
290
     0
  0
SCALE
  5
4923
102
{ACAD_REACTORS
330
4919
102
}
330
4919
100
AcDbScale
 70
     0
300
3/8" = 1'-0"
140
0.375
141
12.0
290
     0
  0
SCALE
  5
4924
102
{ACAD_REACTORS
330
4919
102
}
330
4919
100
AcDbScale
 70
     0
300
1/2" = 1'-0"
140
0.5
141
12.0
290
     0
  0
SCALE
  5
4925
102
{ACAD_REACTORS
330
4919
102
}
330
4919
100
AcDbScale
 70
     0
300
3/4" = 1'-0"
140
0.75
141
12.0
290
     0
  0
SCALE
  5
4926
102
{ACAD_REACTORS
330
4919
102
}
330
4919
100
AcDbScale
 70
     0
300
1" = 1'-0"
140
1.0
141
12.0
290
     0
  0
SCALE
  5
4927
102
{ACAD_REACTORS
330
4919
102
}
330
4919
100
AcDbScale
 70
     0
300
1-1/2" = 1'-0"
140
1.5
141
12.0
290
     0
  0
SCALE
  5
4928
102
{ACAD_REACTORS
330
4919
102
}
330
4919
100
AcDbScale
 70
     0
300
3" = 1'-0"
140
3.0
141
12.0
290
     0
  0
SCALE
  5
4929
102
{ACAD_REACTORS
330
4919
102
}
330
4919
100
AcDbScale
 70
     0
300
6" = 1'-0"
140
6.0
141
12.0
290
     0
  0
SCALE
  5
492A
102
{ACAD_REACTORS
330
4919
102
}
330
4919
100
AcDbScale
 70
     0
300
1'-0" = 1'-0"
140
12.0
141
12.0
290
     0
  0
ACDBSECTIONVIEWSTYLE
  5
492E
102
{ACAD_XDICTIONARY
360
4BFF
102
}
102
{ACAD_REACTORS
330
492D
102
}
330
492D
100
AcDbModelDocViewStyle
 70
     0
  3
Imperial24
290
     0
100
AcDbSectionViewStyle
 70
     0
 71
     0
 90
       78
 71
     1
340
F
 40
0.24
340
0
340
0
 40
0.24
300
I, O, Q, S, X, Z
 40
0.48
 90
        3
 40
0.18
 90
        1
 71
     2
340
13
 90
       25
340
13
 90
       50
 40
0.24
 40
0.0
 40
0.24
 71
     3
340
F
 40
0.24
 90
        1
 40
0.75
 90
        1
300
%<\AcVar ViewType \f "%tc1">% %<\AcVar ViewSectionStartId>%-%<\AcVar ViewSectionEndId>%\PSCALE %<\AcVar ViewScale \f "%sn">%
 71
     4
300
ANSI31
 40
1.0
 90
        0
290
     0
290
     0
 90
        6
 40
0.0
 40
1.570796326794896
 40
0.2617993877991494
 40
1.308996938995747
 40
-0.2617993877991494
 40
1.832595714594045
  0
TABLESTYLE
  5
3D59
102
{ACAD_XDICTIONARY
360
4A73
102
}
102
{ACAD_REACTORS
330
3D58
102
}
330
3D58
100
AcDbTableStyle
  3
Standard
 70
     0
 71
     0
 40
0.06
 41
0.06
280
     0
281
     0
  7
STANDARD
140
0.18
170
     2
 62
     0
 63
     7
283
     0
274
    -2
284
     1
 64
     0
275
    -2
285
     1
 65
     0
276
    -2
286
     1
 66
     0
277
    -2
287
     1
 67
     0
278
    -2
288
     1
 68
     0
279
    -2
289
     1
 69
     0
  7
STANDARD
140
0.25
170
     5
 62
     0
 63
     7
283
     0
274
    -2
284
     1
 64
     0
275
    -2
285
     1
 65
     0
276
    -2
286
     1
 66
     0
277
    -2
287
     1
 67
     0
278
    -2
288
     1
 68
     0
279
    -2
289
     1
 69
     0
  7
STANDARD
140
0.18
170
     5
 62
     0
 63
     7
283
     0
274
    -2
284
     1
 64
     0
275
    -2
285
     1
 65
     0
276
    -2
286
     1
 66
     0
277
    -2
287
     1
 67
     0
278
    -2
288
     1
 68
     0
279
    -2
289
     1
 69
     0
  0
VISUALSTYLE
  5
3D4C
102
{ACAD_XDICTIONARY
360
4BD0
102
}
102
{ACAD_REACTORS
330
3D46
102
}
330
3D46
100
AcDbVisualStyle
  2

 70
     4
 71
     0
 72
     2
 73
     0
 90
        0
 40
-0.6
 41
-30.0
 62
     5
 63
     7
 74
     1
 91
        4
 64
     7
 65
   257
 75
     1
175
     1
 42
1.0
 92
        0
 66
   257
 43
1.0
 76
     1
 77
     6
 78
     2
 67
     7
 79
     5
170
     0
171
     0
290
     0
174
     0
 93
        1
 44
0.0
173
     0
291
     0
 45
0.0
1001
ACAD
1000
AcRTDxfName
1000
VISUALSTYLE
1000
AcDbSavedByObjectVersion
1070
     0
  0
VISUALSTYLE
  5
3D4E
102
{ACAD_XDICTIONARY
360
4BD4
102
}
102
{ACAD_REACTORS
330
3D46
102
}
330
3D46
100
AcDbVisualStyle
  2

 70
     6
 71
     1
 72
     2
 73
     2
 90
        0
 40
-0.6
 41
-30.0
 62
     5
 63
     7
 74
     2
 91
        2
 64
     7
 65
   257
 75
     2
175
     1
 42
40.0
 92
        0
 66
   257
 43
1.0
 76
     1
 77
     6
 78
     2
 67
     7
 79
     3
170
     0
171
     0
290
     0
174
     0
 93
        1
 44
0.0
173
     0
291
     0
 45
0.0
1001
ACAD
1000
AcRTDxfName
1000
VISUALSTYLE
1000
AcDbSavedByObjectVersion
1070
     0
  0
VISUALSTYLE
  5
3D4D
102
{ACAD_XDICTIONARY
360
4BD2
102
}
102
{ACAD_REACTORS
330
3D46
102
}
330
3D46
100
AcDbVisualStyle
  2

 70
     5
 71
     0
 72
     2
 73
     0
 90
        0
 40
-0.6
 41
-30.0
 62
     5
 63
     7
 74
     1
 91
        4
 64
     7
 65
   257
 75
     1
175
     1
 42
1.0
 92
        0
 66
   257
 43
1.0
 76
     1
 77
     6
 78
     2
 67
     7
 79
     5
170
     0
171
     0
290
     0
174
     0
 93
        1
 44
0.0
173
     0
291
     0
 45
0.0
1001
ACAD
1000
AcRTDxfName
1000
VISUALSTYLE
1000
AcDbSavedByObjectVersion
1070
     0
  0
VISUALSTYLE
  5
3D4B
102
{ACAD_XDICTIONARY
360
4BCE
102
}
102
{ACAD_REACTORS
330
3D46
102
}
330
3D46
100
AcDbVisualStyle
  2

 70
     7
 71
     1
 72
     0
 73
     1
 90
        0
 40
-0.6
 41
-30.0
 62
     5
 63
     7
 74
     0
 91
        4
 64
     7
 65
   257
 75
     1
175
     1
 42
1.0
 92
        8
 66
     7
 43
1.0
 76
     1
 77
     6
 78
     2
 67
     7
 79
     5
170
     0
171
     0
290
     0
174
     0
 93
        1
 44
0.0
173
     0
291
     1
 45
0.0
1001
ACAD
1000
AcRTDxfName
1000
VISUALSTYLE
1000
AcDbSavedByObjectVersion
1070
     0
  0
VISUALSTYLE
  5
3D52
102
{ACAD_XDICTIONARY
360
4BDC
102
}
102
{ACAD_REACTORS
330
3D46
102
}
330
3D46
100
AcDbVisualStyle
  2

 70
    12
 71
     2
 72
     2
 73
     0
 90
        0
 40
-0.6
 41
-30.0
 62
     5
 63
     7
 74
     1
 91
        4
 64
     7
 65
   257
 75
     1
175
     1
 42
1.0
 92
        8
 66
     7
 43
1.0
 76
     1
 77
     6
 78
     2
 67
     7
 79
     5
170
     0
171
     0
290
     0
174
     0
 93
        1
 44
50.0
173
     0
291
     1
 45
0.0
1001
ACAD
1000
AcRTDxfName
1000
VISUALSTYLE
1000
AcDbSavedByObjectVersion
1070
     0
  0
VISUALSTYLE
  5
3D56
102
{ACAD_XDICTIONARY
360
4BE4
102
}
102
{ACAD_REACTORS
330
3D46
102
}
330
3D46
100
AcDbVisualStyle
  2

 70
    16
 71
     2
 72
     2
 73
     3
 90
        0
 40
-0.6
 41
-30.0
 62
     5
 63
     8
 74
     1
 91
        4
 64
     7
 65
   257
 75
     1
175
     1
 42
1.0
 92
        8
 66
     8
 43
1.0
 76
     1
 77
     6
 78
     2
 67
     7
 79
     5
170
     0
171
     0
290
     0
174
     0
 93
        1
 44
0.0
173
     0
291
     1
 45
0.0
1001
ACAD
1000
AcRTDxfName
1000
VISUALSTYLE
1000
AcDbSavedByObjectVersion
1070
     0
  0
VISUALSTYLE
  5
3D4F
102
{ACAD_XDICTIONARY
360
4BD6
102
}
102
{ACAD_REACTORS
330
3D46
102
}
330
3D46
100
AcDbVisualStyle
  2

 70
     9
 71
     3
 72
     2
 73
     0
 90
        0
 40
-0.6
 41
-30.0
 62
     5
 63
     7
 74
     2
 91
        2
 64
     7
 65
   257
 75
     1
175
     1
 42
40.0
 92
        8
 66
     7
 43
1.0
 76
     1
 77
     6
 78
     2
 67
     7
 79
     3
170
     0
171
     0
290
     0
174
     0
 93
        1
 44
0.0
173
     0
291
     0
 45
0.0
1001
ACAD
1000
AcRTDxfName
1000
VISUALSTYLE
1000
AcDbSavedByObjectVersion
1070
     0
  0
VISUALSTYLE
  5
3D51
102
{ACAD_XDICTIONARY
360
4BDA
102
}
102
{ACAD_REACTORS
330
3D46
102
}
330
3D46
100
AcDbVisualStyle
  2

 70
    11
 71
     2
 72
     2
 73
     0
 90
        0
 40
-0.6
 41
-30.0
 62
     5
 63
     7
 74
     1
 91
        4
 64
     7
 65
   257
 75
     1
175
     1
 42
1.0
 92
        8
 66
     7
 43
1.0
 76
     1
 77
     6
 78
     2
 67
     7
 79
     5
170
     0
171
     0
290
     0
174
     0
 93
        1
 44
-50.0
173
     0
291
     1
 45
0.0
1001
ACAD
1000
AcRTDxfName
1000
VISUALSTYLE
1000
AcDbSavedByObjectVersion
1070
     0
  0
VISUALSTYLE
  5
4918
102
{ACAD_XDICTIONARY
360
4BFD
102
}
102
{ACAD_REACTORS
330
3D46
102
}
330
3D46
100
AcDbVisualStyle
  2

 70
    22
 71
     2
 72
     2
 73
     0
 90
        0
 40
-0.6
 41
-30.0
 62
     5
 63
     7
 74
     1
 91
        4
 64
     7
 65
   257
 75
     1
175
     1
 42
1.0
 92
        8
 66
     7
 43
1.0
 76
     1
 77
     6
 78
     2
 67
     7
 79
     5
170
     0
171
     0
290
     0
174
     0
 93
        1
 44
0.0
173
     0
291
     1
 45
0.0
1001
ACAD
1000
AcDbSavedByObjectVersion
1070
     0
  0
VISUALSTYLE
  5
3D55
102
{ACAD_XDICTIONARY
360
4BE2
102
}
102
{ACAD_REACTORS
330
3D46
102
}
330
3D46
100
AcDbVisualStyle
  2

 70
    15
 71
     2
 72
     2
 73
     0
 90
        0
 40
-0.6
 41
-30.0
 62
     5
 63
     7
 74
     1
 91
        4
 64
     7
 65
   257
 75
     1
175
     1
 42
1.0
 92
        8
 66
     7
 43
1.0
 76
     1
 77
     6
 78
     2
 67
     7
 79
     5
170
     0
171
     0
290
     0
174
     0
 93
        1
 44
0.0
173
     0
291
     1
 45
0.0
1001
ACAD
1000
AcRTDxfName
1000
VISUALSTYLE
1000
AcDbSavedByObjectVersion
1070
     0
  0
VISUALSTYLE
  5
3D47
102
{ACAD_XDICTIONARY
360
4BC6
102
}
102
{ACAD_REACTORS
330
3D46
102
}
330
3D46
100
AcDbVisualStyle
  2

 70
     0
 71
     2
 72
     1
 73
     1
 90
        2
 40
-0.6
 41
30.0
 62
     5
 63
     7
 74
     0
 91
        4
 64
     7
 65
   257
 75
     1
175
     1
 42
1.0
 92
        8
 66
     7
 43
1.0
 76
     1
 77
     6
 78
     2
 67
     7
 79
     5
170
     0
171
     0
290
     0
174
     0
 93
       13
 44
0.0
173
     0
291
     1
 45
0.0
1001
ACAD
1000
AcRTDxfName
1000
VISUALSTYLE
1000
AcDbSavedByObjectVersion
1070
     0
  0
VISUALSTYLE
  5
3D48
102
{ACAD_XDICTIONARY
360
4BC8
102
}
102
{ACAD_REACTORS
330
3D46
102
}
330
3D46
100
AcDbVisualStyle
  2

 70
     1
 71
     2
 72
     1
 73
     1
 90
        2
 40
-0.6
 41
30.0
 62
     5
 63
     7
 74
     1
 91
        4
 64
     7
 65
   257
 75
     1
175
     1
 42
1.0
 92
        0
 66
   257
 43
1.0
 76
     1
 77
     6
 78
     2
 67
     7
 79
     5
170
     0
171
     0
290
     0
174
     0
 93
       13
 44
0.0
173
     0
291
     1
 45
0.0
1001
ACAD
1000
AcRTDxfName
1000
VISUALSTYLE
1000
AcDbSavedByObjectVersion
1070
     0
  0
VISUALSTYLE
  5
3D49
102
{ACAD_XDICTIONARY
360
4BCA
102
}
102
{ACAD_REACTORS
330
3D46
102
}
330
3D46
100
AcDbVisualStyle
  2

 70
     2
 71
     2
 72
     2
 73
     1
 90
        2
 40
-0.6
 41
30.0
 62
     5
 63
     7
 74
     0
 91
        4
 64
     7
 65
   257
 75
     1
175
     1
 42
1.0
 92
        0
 66
     7
 43
1.0
 76
     1
 77
     6
 78
     2
 67
     7
 79
     5
170
     0
171
     0
290
     0
174
     0
 93
       13
 44
0.0
173
     0
291
     1
 45
0.0
1001
ACAD
1000
AcRTDxfName
1000
VISUALSTYLE
1000
AcDbSavedByObjectVersion
1070
     0
  0
VISUALSTYLE
  5
3D4A
102
{ACAD_XDICTIONARY
360
4BCC
102
}
102
{ACAD_REACTORS
330
3D46
102
}
330
3D46
100
AcDbVisualStyle
  2

 70
     3
 71
     2
 72
     2
 73
     1
 90
        2
 40
-0.6
 41
30.0
 62
     5
 63
     7
 74
     1
 91
        4
 64
     7
 65
   257
 75
     1
175
     1
 42
1.0
 92
        0
 66
   257
 43
1.0
 76
     1
 77
     6
 78
     2
 67
     7
 79
     5
170
     0
171
     0
290
     0
174
     0
 93
       13
 44
0.0
173
     0
291
     1
 45
0.0
1001
ACAD
1000
AcRTDxfName
1000
VISUALSTYLE
1000
AcDbSavedByObjectVersion
1070
     0
  0
VISUALSTYLE
  5
4910
102
{ACAD_XDICTIONARY
360
4BED
102
}
102
{ACAD_REACTORS
330
3D46
102
}
330
3D46
100
AcDbVisualStyle
  2

 70
     6
 71
     1
 72
     2
 73
     2
 90
        0
 40
-0.6
 41
-30.0
 62
     5
 63
     7
 74
     2
 91
        2
 64
     7
 65
   257
 75
     2
175
     1
 42
40.0
 92
        0
 66
   257
 43
1.0
 76
     1
 77
     6
 78
     2
 67
     7
 79
     3
170
     0
171
     0
290
     0
174
     0
 93
        1
 44
0.0
173
     0
291
     0
 45
0.0
1001
ACAD
1000
AcDbSavedByObjectVersion
1070
     0
  0
VISUALSTYLE
  5
4916
102
{ACAD_XDICTIONARY
360
4BF9
102
}
102
{ACAD_REACTORS
330
3D46
102
}
330
3D46
100
AcDbVisualStyle
  2

 70
    20
 71
     2
 72
     2
 73
     0
 90
        0
 40
-0.6
 41
-30.0
 62
     5
 63
     7
 74
     1
 91
        4
 64
     7
 65
   257
 75
     1
175
     1
 42
1.0
 92
       10
 66
     7
 43
1.0
 76
     1
 77
     6
 78
     2
 67
     7
 79
     5
170
     0
171
     0
290
     0
174
     0
 93
        1
 44
0.0
173
     0
291
     1
 45
0.0
1001
ACAD
1000
AcDbSavedByObjectVersion
1070
     0
  0
VISUALSTYLE
  5
3D54
102
{ACAD_XDICTIONARY
360
4BE0
102
}
102
{ACAD_REACTORS
330
3D46
102
}
330
3D46
100
AcDbVisualStyle
  2

 70
    14
 71
     2
 72
     2
 73
     0
 90
        0
 40
-0.6
 41
-30.0
 62
     5
 63
     7
 74
     1
 91
        4
 64
     7
 65
   257
 75
     7
175
     7
 42
1.0
 92
        8
 66
     7
 43
1.0
 76
     1
 77
     6
 78
     2
 67
     7
 79
     5
170
     0
171
     0
290
     0
174
     0
 93
        1
 44
0.0
173
     0
291
     1
 45
0.0
1001
ACAD
1000
AcRTDxfName
1000
VISUALSTYLE
1000
AcDbSavedByObjectVersion
1070
     0
  0
VISUALSTYLE
  5
4917
102
{ACAD_XDICTIONARY
360
4BFB
102
}
102
{ACAD_REACTORS
330
3D46
102
}
330
3D46
100
AcDbVisualStyle
  2

 70
    21
 71
     2
 72
     2
 73
     0
 90
        0
 40
-0.6
 41
-30.0
 62
     5
 63
     7
 74
     1
 91
        4
 64
     7
 65
   257
 75
     1
175
     1
 42
1.0
 92
        9
 66
     7
 43
1.0
 76
     1
 77
     6
 78
     2
 67
     7
 79
     5
170
     0
171
     0
290
     0
174
     0
 93
        1
 44
0.0
173
     0
291
     1
 45
0.0
1001
ACAD
1000
AcDbSavedByObjectVersion
1070
     0
  0
VISUALSTYLE
  5
3D50
102
{ACAD_XDICTIONARY
360
4BD8
102
}
102
{ACAD_REACTORS
330
3D46
102
}
330
3D46
100
AcDbVisualStyle
  2

 70
     8
 71
     2
 72
     2
 73
     0
 90
        0
 40
-0.6
 41
-30.0
 62
     5
 63
     7
 74
     1
 91
        0
 64
     7
 65
   257
 75
     1
175
     1
 42
1.0
 92
        8
 66
     8
 43
1.0
 76
     1
 77
     6
 78
     2
 67
     7
 79
     5
170
     0
171
     0
290
     0
174
     0
 93
       13
 44
0.0
173
     0
291
     0
 45
0.0
1001
ACAD
1000
AcRTDxfName
1000
VISUALSTYLE
1000
AcDbSavedByObjectVersion
1070
     0
  0
VISUALSTYLE
  5
4915
102
{ACAD_XDICTIONARY
360
4BF7
102
}
102
{ACAD_REACTORS
330
3D46
102
}
330
3D46
100
AcDbVisualStyle
  2

 70
    27
 71
     2
 72
     2
 73
     1
 90
        2
 40
-0.6
 41
30.0
 62
     5
 63
     7
 74
     0
 91
        4
 64
     7
 65
   257
 75
     1
175
     1
 42
1.0
 92
        8
 66
   257
 43
1.0
 76
     1
 77
     6
 78
     2
 67
     8
 79
     3
170
     0
171
     0
290
     0
174
     0
 93
        5
 44
0.0
173
     0
291
     0
 45
0.0
1001
ACAD
1000
AcDbSavedByObjectVersion
1070
     0
  0
VISUALSTYLE
  5
4914
102
{ACAD_XDICTIONARY
360
4BF5
102
}
102
{ACAD_REACTORS
330
3D46
102
}
330
3D46
100
AcDbVisualStyle
  2

 70
    26
 71
     2
 72
     2
 73
     1
 90
        2
 40
-0.6
 41
30.0
 62
     5
 63
     7
 74
     1
 91
       10
 64
     7
 65
   257
 75
     2
175
     1
 42
1.0
 92
        8
 66
   257
 43
1.0
 76
     1
 77
     6
 78
     2
 67
     7
 79
     3
170
     0
171
     0
290
     0
174
     0
 93
        5
 44
0.0
173
     0
291
     0
 45
0.0
1001
ACAD
1000
AcDbSavedByObjectVersion
1070
     0
  0
VISUALSTYLE
  5
4911
102
{ACAD_XDICTIONARY
360
4BEF
102
}
102
{ACAD_REACTORS
330
3D46
102
}
330
3D46
100
AcDbVisualStyle
  2

 70
    23
 71
     2
 72
     2
 73
     3
 90
        0
 40
-0.6
 41
-30.0
 62
     5
 63
     7
 74
     2
 91
        2
 64
     7
 65
     7
 75
     1
175
     1
 42
40.0
 92
        8
 66
     7
 43
1.0
 76
     1
 77
     6
 78
     2
 67
     7
 79
     3
170
     0
171
     0
290
     0
174
     0
 93
        1
 44
0.0
173
     0
291
     0
 45
0.0
1001
ACAD
1000
AcDbSavedByObjectVersion
1070
     0
  0
VISUALSTYLE
  5
4912
102
{ACAD_XDICTIONARY
360
4BF1
102
}
102
{ACAD_REACTORS
330
3D46
102
}
330
3D46
100
AcDbVisualStyle
  2

 70
    24
 71
     1
 72
     2
 73
     2
 90
        0
 40
-0.6
 41
-30.0
 62
     5
 63
     7
 74
     2
 91
        2
 64
     7
 65
     7
 75
     1
175
     1
 42
40.0
 92
       11
 66
     7
 43
1.0
 76
     1
 77
     6
 78
     2
 67
     7
 79
     6
170
     0
171
     0
290
     0
174
     0
 93
        1
 44
0.0
173
     0
291
     0
 45
0.0
1001
ACAD
1000
AcDbSavedByObjectVersion
1070
     0
  0
VISUALSTYLE
  5
3D53
102
{ACAD_XDICTIONARY
360
4BDE
102
}
102
{ACAD_REACTORS
330
3D46
102
}
330
3D46
100
AcDbVisualStyle
  2

 70
    13
 71
     2
 72
     2
 73
     0
 90
        0
 40
-0.6
 41
-30.0
 62
     5
 63
     7
 74
     1
 91
        4
 64
     7
 65
   257
 75
     1
175
     1
 42
1.0
 92
       12
 66
     7
 43
1.0
 76
     1
 77
     6
 78
     2
 67
     7
 79
     5
170
     0
171
     0
290
     0
174
     0
 93
        1
 44
0.0
173
     0
291
     1
 45
0.0
1001
ACAD
1000
AcRTDxfName
1000
VISUALSTYLE
1000
AcDbSavedByObjectVersion
1070
     0
  0
VISUALSTYLE
  5
490F
102
{ACAD_XDICTIONARY
360
4BEB
102
}
102
{ACAD_REACTORS
330
3D46
102
}
330
3D46
100
AcDbVisualStyle
  2

 70
     5
 71
     0
 72
     2
 73
     0
 90
        0
 40
-0.6
 41
-30.0
 62
     5
 63
     7
 74
     1
 91
        4
 64
     7
 65
   257
 75
     1
175
     1
 42
1.0
 92
        0
 66
   257
 43
1.0
 76
     1
 77
     6
 78
     2
 67
     7
 79
     3
170
     0
171
     0
290
     0
174
     0
 93
        1
 44
0.0
173
     0
291
     0
 45
0.0
1001
ACAD
1000
AcDbSavedByObjectVersion
1070
     0
  0
VISUALSTYLE
  5
4913
102
{ACAD_XDICTIONARY
360
4BF3
102
}
102
{ACAD_REACTORS
330
3D46
102
}
330
3D46
100
AcDbVisualStyle
  2

 70
    25
 71
     2
 72
     2
 73
     1
 90
        1
 40
0.5
 41
-30.0
 62
     5
 63
     7
 74
     1
 91
        0
 64
     7
 65
   257
 75
     1
175
     1
 42
1.0
 92
        8
 66
     7
 43
1.0
 76
     1
 77
     6
 78
     2
 67
     7
 79
     3
170
     0
171
     0
290
     0
174
     0
 93
       13
 44
0.0
173
     0
291
     0
 45
0.0
1001
ACAD
1000
AcDbSavedByObjectVersion
1070
     0
  0
DICTIONARYVAR
  5
4A6E
102
{ACAD_REACTORS
330
4116
102
}
330
4116
100
DictionaryVariables
280
     0
  1
1:1
  0
DICTIONARYVAR
  5
4A6B
102
{ACAD_REACTORS
330
4116
102
}
330
4116
100
DictionaryVariables
280
     0
  1
STANDARD
  0
DICTIONARYVAR
  5
4117
102
{ACAD_REACTORS
330
4116
102
}
330
4116
100
DictionaryVariables
280
     0
  1
STANDARD
  0
DICTIONARYVAR
  5
4A6C
102
{ACAD_REACTORS
330
4116
102
}
330
4116
100
DictionaryVariables
280
     0
  1
Imperial24
  0
DICTIONARYVAR
  5
4A6D
102
{ACAD_REACTORS
330
4116
102
}
330
4116
100
DictionaryVariables
280
     0
  1
Imperial24
  0
DICTIONARYVAR
  5
4904
102
{ACAD_REACTORS
330
4116
102
}
330
4116
100
DictionaryVariables
280
     0
  1
1
  0
DICTIONARYVAR
  5
4A70
102
{ACAD_REACTORS
330
4116
102
}
330
4116
100
DictionaryVariables
280
     0
  1
0
  0
DICTIONARYVAR
  5
4905
102
{ACAD_REACTORS
330
4116
102
}
330
4116
100
DictionaryVariables
280
     0
  1

  0
DICTIONARYVAR
  5
4A6F
102
{ACAD_REACTORS
330
4116
102
}
330
4116
100
DictionaryVariables
280
     0
  1
127
  0
DICTIONARYVAR
  5
4BBE
102
{ACAD_REACTORS
330
4116
102
}
330
4116
100
DictionaryVariables
280
     0
  1
2
  0
DICTIONARY
  5
4C01
330
4930
100
AcDbDictionary
280
     1
281
     1
  3
ACAD_XREC_ROUNDTRIP
360
4C02
  0
DICTIONARY
  5
4BE7
330
3D5B
100
AcDbDictionary
280
     1
281
     1
  3
ACAD_XREC_ROUNDTRIP
360
4BE8
  0
DICTIONARY
  5
4BE9
330
3D5C
100
AcDbDictionary
280
     1
281
     1
  3
ACAD_XREC_ROUNDTRIP
360
4BEA
  0
DICTIONARY
  5
419D
330
3D44
100
AcDbDictionary
280
     1
281
     1
  3
ACAD_XREC_ROUNDTRIP
360
419E
  0
DICTIONARY
  5
419B
330
3D43
100
AcDbDictionary
280
     1
281
     1
  3
ACAD_XREC_ROUNDTRIP
360
419C
  0
DICTIONARY
  5
419F
330
3D45
100
AcDbDictionary
280
     1
281
     1
  3
ACAD_XREC_ROUNDTRIP
360
41A0
  0
DICTIONARY
  5
4BFF
330
492E
100
AcDbDictionary
280
     1
281
     1
  3
ACAD_XREC_ROUNDTRIP
360
4C00
  0
DICTIONARY
  5
4A73
330
3D59
100
AcDbDictionary
280
     1
281
     1
  3
ACAD_ROUNDTRIP_2008_TABLESTYLE_CELLSTYLEMAP
360
4BBF
  3
ACAD_XREC_ROUNDTRIP
360
4BE6
  0
DICTIONARY
  5
4BD0
330
3D4C
100
AcDbDictionary
280
     1
281
     1
  3
ACAD_XREC_ROUNDTRIP
360
4BD1
  0
DICTIONARY
  5
4BD4
330
3D4E
100
AcDbDictionary
280
     1
281
     1
  3
ACAD_XREC_ROUNDTRIP
360
4BD5
  0
DICTIONARY
  5
4BD2
330
3D4D
100
AcDbDictionary
280
     1
281
     1
  3
ACAD_XREC_ROUNDTRIP
360
4BD3
  0
DICTIONARY
  5
4BCE
330
3D4B
100
AcDbDictionary
280
     1
281
     1
  3
ACAD_XREC_ROUNDTRIP
360
4BCF
  0
DICTIONARY
  5
4BDC
330
3D52
100
AcDbDictionary
280
     1
281
     1
  3
ACAD_XREC_ROUNDTRIP
360
4BDD
  0
DICTIONARY
  5
4BE4
330
3D56
100
AcDbDictionary
280
     1
281
     1
  3
ACAD_XREC_ROUNDTRIP
360
4BE5
  0
DICTIONARY
  5
4BD6
330
3D4F
100
AcDbDictionary
280
     1
281
     1
  3
ACAD_XREC_ROUNDTRIP
360
4BD7
  0
DICTIONARY
  5
4BDA
330
3D51
100
AcDbDictionary
280
     1
281
     1
  3
ACAD_XREC_ROUNDTRIP
360
4BDB
  0
DICTIONARY
  5
4BFD
330
4918
100
AcDbDictionary
280
     1
281
     1
  3
ACAD_XREC_ROUNDTRIP
360
4BFE
  0
DICTIONARY
  5
4BE2
330
3D55
100
AcDbDictionary
280
     1
281
     1
  3
ACAD_XREC_ROUNDTRIP
360
4BE3
  0
DICTIONARY
  5
4BC6
330
3D47
100
AcDbDictionary
280
     1
281
     1
  3
ACAD_XREC_ROUNDTRIP
360
4BC7
  0
DICTIONARY
  5
4BC8
330
3D48
100
AcDbDictionary
280
     1
281
     1
  3
ACAD_XREC_ROUNDTRIP
360
4BC9
  0
DICTIONARY
  5
4BCA
330
3D49
100
AcDbDictionary
280
     1
281
     1
  3
ACAD_XREC_ROUNDTRIP
360
4BCB
  0
DICTIONARY
  5
4BCC
330
3D4A
100
AcDbDictionary
280
     1
281
     1
  3
ACAD_XREC_ROUNDTRIP
360
4BCD
  0
DICTIONARY
  5
4BED
330
4910
100
AcDbDictionary
280
     1
281
     1
  3
ACAD_XREC_ROUNDTRIP
360
4BEE
  0
DICTIONARY
  5
4BF9
330
4916
100
AcDbDictionary
280
     1
281
     1
  3
ACAD_XREC_ROUNDTRIP
360
4BFA
  0
DICTIONARY
  5
4BE0
330
3D54
100
AcDbDictionary
280
     1
281
     1
  3
ACAD_XREC_ROUNDTRIP
360
4BE1
  0
DICTIONARY
  5
4BFB
330
4917
100
AcDbDictionary
280
     1
281
     1
  3
ACAD_XREC_ROUNDTRIP
360
4BFC
  0
DICTIONARY
  5
4BD8
330
3D50
100
AcDbDictionary
280
     1
281
     1
  3
ACAD_XREC_ROUNDTRIP
360
4BD9
  0
DICTIONARY
  5
4BF7
330
4915
100
AcDbDictionary
280
     1
281
     1
  3
ACAD_XREC_ROUNDTRIP
360
4BF8
  0
DICTIONARY
  5
4BF5
330
4914
100
AcDbDictionary
280
     1
281
     1
  3
ACAD_XREC_ROUNDTRIP
360
4BF6
  0
DICTIONARY
  5
4BEF
330
4911
100
AcDbDictionary
280
     1
281
     1
  3
ACAD_XREC_ROUNDTRIP
360
4BF0
  0
DICTIONARY
  5
4BF1
330
4912
100
AcDbDictionary
280
     1
281
     1
  3
ACAD_XREC_ROUNDTRIP
360
4BF2
  0
DICTIONARY
  5
4BDE
330
3D53
100
AcDbDictionary
280
     1
281
     1
  3
ACAD_XREC_ROUNDTRIP
360
4BDF
  0
DICTIONARY
  5
4BEB
330
490F
100
AcDbDictionary
280
     1
281
     1
  3
ACAD_XREC_ROUNDTRIP
360
4BEC
  0
DICTIONARY
  5
4BF3
330
4913
100
AcDbDictionary
280
     1
281
     1
  3
ACAD_XREC_ROUNDTRIP
360
4BF4
  0
XRECORD
  5
4C02
102
{ACAD_REACTORS
330
4C01
102
}
330
4C01
100
AcDbXrecord
280
     1
102
DISPLAYNAME
  1
Imperial24
102
FLAGS
 90
        0
  0
XRECORD
  5
4BE8
102
{ACAD_REACTORS
330
4BE7
102
}
330
4BE7
100
AcDbXrecord
280
     1
102
SHADEPLOT
 70
     0
102
SHADEPLOTRESLEVEL
 70
     2
102
SHADEPLOTCUSTOMDPI
 70
   300
  0
XRECORD
  5
4BEA
102
{ACAD_REACTORS
330
4BE9
102
}
330
4BE9
100
AcDbXrecord
280
     1
102
SHADEPLOT
 70
     0
102
SHADEPLOTRESLEVEL
 70
     2
102
SHADEPLOTCUSTOMDPI
 70
   300
  0
XRECORD
  5
419E
102
{ACAD_REACTORS
330
419D
102
}
330
419D
100
AcDbXrecord
280
     1
102
MATERIAL
148
0.0
149
0.0
149
0.0
 93
        0
 94
      127
282
     0
 72
     1
 77
     1
171
     1
175
     1
179
     1
273
     0
  0
XRECORD
  5
419C
102
{ACAD_REACTORS
330
419B
102
}
330
419B
100
AcDbXrecord
280
     1
102
MATERIAL
148
0.0
149
0.0
149
0.0
 93
        0
 94
      127
282
     0
 72
     1
 77
     1
171
     1
175
     1
179
     1
273
     0
  0
XRECORD
  5
41A0
102
{ACAD_REACTORS
330
419F
102
}
330
419F
100
AcDbXrecord
280
     1
102
MATERIAL
148
0.0
149
0.0
149
0.0
 93
        0
 94
      127
282
     0
 72
     1
 77
     1
171
     1
175
     1
179
     1
273
     0
  0
XRECORD
  5
4C00
102
{ACAD_REACTORS
330
4BFF
102
}
330
4BFF
100
AcDbXrecord
280
     1
102
DISPLAYNAME
  1
Imperial24
102
FLAGS
 90
        0
  0
CELLSTYLEMAP
  5
4BBF
102
{ACAD_REACTORS
330
4A73
102
}
330
4A73
100
AcDbCellStyleMap
 90
        3
300
CELLSTYLE
  1
TABLEFORMAT_BEGIN
 90
        5
170
     1
 91
        0
 92
    32768
 62
   257
 93
        1
300
CONTENTFORMAT
  1
CONTENTFORMAT_BEGIN
 90
        0
 91
        0
 92
      512
 93
        0
300

 40
0.0
140
1.0
 94
        5
 62
     0
340
F
144
0.25
309
CONTENTFORMAT_END
171
     1
301
MARGIN
  1
CELLMARGIN_BEGIN
 40
0.06
 40
0.06
 40
0.06
 40
0.06
 40
0.18
 40
0.18
309
CELLMARGIN_END
 94
        6
 95
        1
302
GRIDFORMAT
  1
GRIDFORMAT_BEGIN
 90
        0
 91
        1
 62
     0
 92
       -2
340
0
 93
        0
 40
0.045
309
GRIDFORMAT_END
 95
        2
302
GRIDFORMAT
  1
GRIDFORMAT_BEGIN
 90
        0
 91
        1
 62
     0
 92
       -2
340
0
 93
        0
 40
0.045
309
GRIDFORMAT_END
 95
        4
302
GRIDFORMAT
  1
GRIDFORMAT_BEGIN
 90
        0
 91
        1
 62
     0
 92
       -2
340
0
 93
        0
 40
0.045
309
GRIDFORMAT_END
 95
        8
302
GRIDFORMAT
  1
GRIDFORMAT_BEGIN
 90
        0
 91
        1
 62
     0
 92
       -2
340
0
 93
        0
 40
0.045
309
GRIDFORMAT_END
 95
       16
302
GRIDFORMAT
  1
GRIDFORMAT_BEGIN
 90
        0
 91
        1
 62
     0
 92
       -2
340
0
 93
        0
 40
0.045
309
GRIDFORMAT_END
 95
       32
302
GRIDFORMAT
  1
GRIDFORMAT_BEGIN
 90
        0
 91
        1
 62
     0
 92
       -2
340
0
 93
        0
 40
0.045
309
GRIDFORMAT_END
309
TABLEFORMAT_END
  1
CELLSTYLE_BEGIN
 90
        1
 91
        1
300
_TITLE
309
CELLSTYLE_END
300
CELLSTYLE
  1
TABLEFORMAT_BEGIN
 90
        5
170
     1
 91
        0
 92
        0
 62
   257
 93
        1
300
CONTENTFORMAT
  1
CONTENTFORMAT_BEGIN
 90
        0
 91
        0
 92
      512
 93
        0
300

 40
0.0
140
1.0
 94
        5
 62
     0
340
F
144
0.18
309
CONTENTFORMAT_END
171
     1
301
MARGIN
  1
CELLMARGIN_BEGIN
 40
0.06
 40
0.06
 40
0.06
 40
0.06
 40
0.18
 40
0.18
309
CELLMARGIN_END
 94
        6
 95
        1
302
GRIDFORMAT
  1
GRIDFORMAT_BEGIN
 90
        0
 91
        1
 62
     0
 92
       -2
340
0
 93
        0
 40
0.045
309
GRIDFORMAT_END
 95
        2
302
GRIDFORMAT
  1
GRIDFORMAT_BEGIN
 90
        0
 91
        1
 62
     0
 92
       -2
340
0
 93
        0
 40
0.045
309
GRIDFORMAT_END
 95
        4
302
GRIDFORMAT
  1
GRIDFORMAT_BEGIN
 90
        0
 91
        1
 62
     0
 92
       -2
340
0
 93
        0
 40
0.045
309
GRIDFORMAT_END
 95
        8
302
GRIDFORMAT
  1
GRIDFORMAT_BEGIN
 90
        0
 91
        1
 62
     0
 92
       -2
340
0
 93
        0
 40
0.045
309
GRIDFORMAT_END
 95
       16
302
GRIDFORMAT
  1
GRIDFORMAT_BEGIN
 90
        0
 91
        1
 62
     0
 92
       -2
340
0
 93
        0
 40
0.045
309
GRIDFORMAT_END
 95
       32
302
GRIDFORMAT
  1
GRIDFORMAT_BEGIN
 90
        0
 91
        1
 62
     0
 92
       -2
340
0
 93
        0
 40
0.045
309
GRIDFORMAT_END
309
TABLEFORMAT_END
  1
CELLSTYLE_BEGIN
 90
        2
 91
        1
300
_HEADER
309
CELLSTYLE_END
300
CELLSTYLE
  1
TABLEFORMAT_BEGIN
 90
        5
170
     1
 91
        0
 92
        0
 62
   257
 93
        1
300
CONTENTFORMAT
  1
CONTENTFORMAT_BEGIN
 90
        0
 91
        0
 92
      512
 93
        0
300

 40
0.0
140
1.0
 94
        2
 62
     0
340
F
144
0.18
309
CONTENTFORMAT_END
171
     1
301
MARGIN
  1
CELLMARGIN_BEGIN
 40
0.06
 40
0.06
 40
0.06
 40
0.06
 40
0.18
 40
0.18
309
CELLMARGIN_END
 94
        6
 95
        1
302
GRIDFORMAT
  1
GRIDFORMAT_BEGIN
 90
        0
 91
        1
 62
     0
 92
       -2
340
0
 93
        0
 40
0.045
309
GRIDFORMAT_END
 95
        2
302
GRIDFORMAT
  1
GRIDFORMAT_BEGIN
 90
        0
 91
        1
 62
     0
 92
       -2
340
0
 93
        0
 40
0.045
309
GRIDFORMAT_END
 95
        4
302
GRIDFORMAT
  1
GRIDFORMAT_BEGIN
 90
        0
 91
        1
 62
     0
 92
       -2
340
0
 93
        0
 40
0.045
309
GRIDFORMAT_END
 95
        8
302
GRIDFORMAT
  1
GRIDFORMAT_BEGIN
 90
        0
 91
        1
 62
     0
 92
       -2
340
0
 93
        0
 40
0.045
309
GRIDFORMAT_END
 95
       16
302
GRIDFORMAT
  1
GRIDFORMAT_BEGIN
 90
        0
 91
        1
 62
     0
 92
       -2
340
0
 93
        0
 40
0.045
309
GRIDFORMAT_END
 95
       32
302
GRIDFORMAT
  1
GRIDFORMAT_BEGIN
 90
        0
 91
        1
 62
     0
 92
       -2
340
0
 93
        0
 40
0.045
309
GRIDFORMAT_END
309
TABLEFORMAT_END
  1
CELLSTYLE_BEGIN
 90
        3
 91
        2
300
_DATA
309
CELLSTYLE_END
  0
XRECORD
  5
4BE6
102
{ACAD_REACTORS
330
4A73
102
}
330
4A73
100
AcDbXrecord
280
     1
102
ACAD_ROUNDTRIP_PRE2007_TABLESTYLE
 90
      512
 91
        0
  1

 92
      512
 93
        0
  2

 94
      512
 95
        0
  3

  0
XRECORD
  5
4BD1
102
{ACAD_REACTORS
330
4BD0
102
}
330
4BD0
100
AcDbXrecord
280
     1
102
RTVSPost2010Prop28
280
     1
102
RTVSPost2010PropOp28
 70
     1
102
RTVSPost2010Prop29
280
     1
102
RTVSPost2010PropOp29
 70
     1
102
RTVSPost2010Prop30
280
     0
102
RTVSPost2010PropOp30
 70
     1
102
RTVSPost2010Prop31
280
     0
102
RTVSPost2010PropOp31
 70
     1
102
RTVSPost2010Prop32
280
     0
102
RTVSPost2010PropOp32
 70
     1
102
RTVSPost2010Prop33
280
     0
102
RTVSPost2010PropOp33
 70
     1
102
RTVSPost2010Prop34
280
     0
102
RTVSPost2010PropOp34
 70
     1
102
RTVSPost2010Prop35
280
     0
102
RTVSPost2010PropOp35
 70
     1
102
RTVSPost2010Prop36
280
     0
102
RTVSPost2010PropOp36
 70
     1
102
RTVSPost2010Prop37
 90
       50
102
RTVSPost2010PropOp37
 70
     1
102
RTVSPost2010Prop38
140
0.0
102
RTVSPost2010PropOp38
 70
     1
102
RTVSPost2010Prop39
140
1.0
102
RTVSPost2010PropOp39
 70
     1
102
RTVSPost2010Prop40
 90
        0
102
RTVSPost2010PropOp40
 70
     1
102
RTVSPost2010Prop41ColorIndex
 90
       18
102
RTVSPost2010Prop41ColorRGB
 90
        0
102
RTVSPost2010PropOp41
 70
     1
102
RTVSPost2010Prop42
 90
       50
102
RTVSPost2010PropOp42
 70
     1
102
RTVSPost2010Prop43
 90
        3
102
RTVSPost2010PropOp43
 70
     1
102
RTVSPost2010Prop44ColorIndex
 90
        5
102
RTVSPost2010Prop44ColorRGB
 90
      255
102
RTVSPost2010PropOp44
 70
     1
102
RTVSPost2010Prop45
280
     0
102
RTVSPost2010PropOp45
 70
     1
102
RTVSPost2010Prop46
 90
       50
102
RTVSPost2010PropOp46
 70
     1
102
RTVSPost2010Prop47
 90
       50
102
RTVSPost2010PropOp47
 70
     1
102
RTVSPost2010Prop48
 90
       50
102
RTVSPost2010PropOp48
 70
     1
102
RTVSPost2010Prop49
280
     0
102
RTVSPost2010PropOp49
 70
     1
102
RTVSPost2010Prop50
 90
       50
102
RTVSPost2010PropOp50
 70
     1
102
RTVSPost2010Prop51ColorIndex
 90
      256
102
RTVSPost2010Prop51ColorRGB
 90
-16777216
102
RTVSPost2010PropOp51
 70
     0
102
RTVSPost2010Prop52
140
1.0
102
RTVSPost2010PropOp52
 70
     0
102
RTVSPost2010Prop53
 90
        2
102
RTVSPost2010PropOp53
 70
     1
102
RTVSPost2010Prop54
  1
strokes_ogs.tif
102
RTVSPost2010PropOp54
 70
     1
102
RTVSPost2010Prop55
280
     0
102
RTVSPost2010PropOp55
 70
     1
102
RTVSPost2010Prop56
140
1.0
102
RTVSPost2010PropOp56
 70
     1
102
RTVSPost2010Prop57
140
1.0
102
RTVSPost2010PropOp57
 70
     1
102
RTVSPropertyOp0
 70
     1
102
RTVSPropertyOp1
 70
     1
102
RTVSPropertyOp2
 70
     1
102
RTVSPropertyOp3
 70
     1
102
RTVSPropertyOp4
 70
     1
102
RTVSPropertyOp5
 70
     1
102
RTVSPropertyOp6
 70
     1
102
RTVSPropertyOp7
 70
     1
102
RTVSPropertyOp8
 70
     1
102
RTVSPropertyOp9
 70
     1
102
RTVSPropertyOp10
 70
     1
102
RTVSPropertyOp11
 70
     1
102
RTVSPropertyOp12
 70
     1
102
RTVSPropertyOp13
 70
     1
102
RTVSPropertyOp14
 70
     1
102
RTVSPropertyOp15
 70
     1
102
RTVSPropertyOp16
 70
     1
102
RTVSPropertyOp17
 70
     1
102
RTVSPropertyOp18
 70
     1
102
RTVSPropertyOp19
 70
     1
102
RTVSPropertyOp20
 70
     1
102
RTVSPropertyOp21
 70
     1
102
RTVSPropertyOp22
 70
     1
102
RTVSPropertyOp23
 70
     1
102
RTVSPropertyOp24
 70
     1
102
RTVSPropertyOp25
 70
     1
102
RTVSPropertyOp26
 70
     1
102
RTVSPropertyOp27
 70
     1
102
RTVSPropertyOp28
 70
     1
102
RTVSPropertyOp29
 70
     1
102
RTVSPropertyOp30
 70
     1
102
RTVSPropertyOp31
 70
     1
102
RTVSPropertyOp32
 70
     1
102
RTVSPropertyOp33
 70
     1
102
RTVSPropertyOp34
 70
     1
102
RTVSPropertyOp35
 70
     1
102
RTVSPropertyOp36
 70
     1
102
RTVSPropertyOp37
 70
     1
102
RTVSPropertyOp38
 70
     1
102
RTVSPropertyOp39
 70
     1
102
RTVSPropertyOp40
 70
     1
102
RTVSPropertyOp41
 70
     1
102
RTVSPropertyOp42
 70
     1
102
RTVSPropertyOp43
 70
     1
102
RTVSPropertyOp44
 70
     1
102
RTVSPropertyOp45
 70
     1
102
RTVSPropertyOp46
 70
     1
102
RTVSPropertyOp47
 70
     1
102
RTVSPropertyOp48
 70
     1
102
RTVSPropertyOp49
 70
     1
102
RTVSPropertyOp50
 70
     1
102
RTVSPropertyOp51
 70
     0
102
RTVSPropertyOp52
 70
     0
102
RTVSPropertyOp53
 70
     1
102
RTVSPropertyOp54
 70
     1
102
RTVSPropertyOp55
 70
     1
102
RTVSPropertyOp56
 70
     1
102
RTVSPropertyOp57
 70
     1
102
RTVSPropertyOp58
 70
     1
102
RTVSPropertyOp59
 70
     1
102
RTVSPropertyOp60
 70
     1
102
RTVSPropertyOp61
 70
     1
102
RTVSPropertyOp62
 70
     1
  0
XRECORD
  5
4BD5
102
{ACAD_REACTORS
330
4BD4
102
}
330
4BD4
100
AcDbXrecord
280
     1
102
RTVSPost2010Prop28
280
     0
102
RTVSPost2010PropOp28
 70
     1
102
RTVSPost2010Prop29
280
     1
102
RTVSPost2010PropOp29
 70
     1
102
RTVSPost2010Prop30
280
     1
102
RTVSPost2010PropOp30
 70
     1
102
RTVSPost2010Prop31
280
     0
102
RTVSPost2010PropOp31
 70
     1
102
RTVSPost2010Prop32
280
     0
102
RTVSPost2010PropOp32
 70
     1
102
RTVSPost2010Prop33
280
     0
102
RTVSPost2010PropOp33
 70
     1
102
RTVSPost2010Prop34
280
     0
102
RTVSPost2010PropOp34
 70
     1
102
RTVSPost2010Prop35
280
     0
102
RTVSPost2010PropOp35
 70
     1
102
RTVSPost2010Prop36
280
     0
102
RTVSPost2010PropOp36
 70
     1
102
RTVSPost2010Prop37
 90
       50
102
RTVSPost2010PropOp37
 70
     1
102
RTVSPost2010Prop38
140
0.0
102
RTVSPost2010PropOp38
 70
     1
102
RTVSPost2010Prop39
140
1.0
102
RTVSPost2010PropOp39
 70
     1
102
RTVSPost2010Prop40
 90
        0
102
RTVSPost2010PropOp40
 70
     1
102
RTVSPost2010Prop41ColorIndex
 90
       18
102
RTVSPost2010Prop41ColorRGB
 90
        0
102
RTVSPost2010PropOp41
 70
     1
102
RTVSPost2010Prop42
 90
       50
102
RTVSPost2010PropOp42
 70
     1
102
RTVSPost2010Prop43
 90
        3
102
RTVSPost2010PropOp43
 70
     1
102
RTVSPost2010Prop44ColorIndex
 90
        5
102
RTVSPost2010Prop44ColorRGB
 90
      255
102
RTVSPost2010PropOp44
 70
     1
102
RTVSPost2010Prop45
280
     0
102
RTVSPost2010PropOp45
 70
     1
102
RTVSPost2010Prop46
 90
       50
102
RTVSPost2010PropOp46
 70
     1
102
RTVSPost2010Prop47
 90
       50
102
RTVSPost2010PropOp47
 70
     1
102
RTVSPost2010Prop48
 90
       50
102
RTVSPost2010PropOp48
 70
     1
102
RTVSPost2010Prop49
280
     0
102
RTVSPost2010PropOp49
 70
     1
102
RTVSPost2010Prop50
 90
       50
102
RTVSPost2010PropOp50
 70
     1
102
RTVSPost2010Prop51ColorIndex
 90
      256
102
RTVSPost2010Prop51ColorRGB
 90
-16777216
102
RTVSPost2010PropOp51
 70
     0
102
RTVSPost2010Prop52
140
1.0
102
RTVSPost2010PropOp52
 70
     0
102
RTVSPost2010Prop53
 90
        2
102
RTVSPost2010PropOp53
 70
     1
102
RTVSPost2010Prop54
  1
strokes_ogs.tif
102
RTVSPost2010PropOp54
 70
     1
102
RTVSPost2010Prop55
280
     0
102
RTVSPost2010PropOp55
 70
     1
102
RTVSPost2010Prop56
140
1.0
102
RTVSPost2010PropOp56
 70
     1
102
RTVSPost2010Prop57
140
1.0
102
RTVSPost2010PropOp57
 70
     1
102
RTVSPropertyOp0
 70
     1
102
RTVSPropertyOp1
 70
     1
102
RTVSPropertyOp2
 70
     1
102
RTVSPropertyOp3
 70
     1
102
RTVSPropertyOp4
 70
     1
102
RTVSPropertyOp5
 70
     1
102
RTVSPropertyOp6
 70
     1
102
RTVSPropertyOp7
 70
     1
102
RTVSPropertyOp8
 70
     1
102
RTVSPropertyOp9
 70
     1
102
RTVSPropertyOp10
 70
     1
102
RTVSPropertyOp11
 70
     1
102
RTVSPropertyOp12
 70
     1
102
RTVSPropertyOp13
 70
     1
102
RTVSPropertyOp14
 70
     1
102
RTVSPropertyOp15
 70
     1
102
RTVSPropertyOp16
 70
     1
102
RTVSPropertyOp17
 70
     1
102
RTVSPropertyOp18
 70
     1
102
RTVSPropertyOp19
 70
     1
102
RTVSPropertyOp20
 70
     1
102
RTVSPropertyOp21
 70
     1
102
RTVSPropertyOp22
 70
     1
102
RTVSPropertyOp23
 70
     1
102
RTVSPropertyOp24
 70
     1
102
RTVSPropertyOp25
 70
     1
102
RTVSPropertyOp26
 70
     1
102
RTVSPropertyOp27
 70
     1
102
RTVSPropertyOp28
 70
     1
102
RTVSPropertyOp29
 70
     1
102
RTVSPropertyOp30
 70
     1
102
RTVSPropertyOp31
 70
     1
102
RTVSPropertyOp32
 70
     1
102
RTVSPropertyOp33
 70
     1
102
RTVSPropertyOp34
 70
     1
102
RTVSPropertyOp35
 70
     1
102
RTVSPropertyOp36
 70
     1
102
RTVSPropertyOp37
 70
     1
102
RTVSPropertyOp38
 70
     1
102
RTVSPropertyOp39
 70
     1
102
RTVSPropertyOp40
 70
     1
102
RTVSPropertyOp41
 70
     1
102
RTVSPropertyOp42
 70
     1
102
RTVSPropertyOp43
 70
     1
102
RTVSPropertyOp44
 70
     1
102
RTVSPropertyOp45
 70
     1
102
RTVSPropertyOp46
 70
     1
102
RTVSPropertyOp47
 70
     1
102
RTVSPropertyOp48
 70
     1
102
RTVSPropertyOp49
 70
     1
102
RTVSPropertyOp50
 70
     1
102
RTVSPropertyOp51
 70
     0
102
RTVSPropertyOp52
 70
     0
102
RTVSPropertyOp53
 70
     1
102
RTVSPropertyOp54
 70
     1
102
RTVSPropertyOp55
 70
     1
102
RTVSPropertyOp56
 70
     1
102
RTVSPropertyOp57
 70
     1
102
RTVSPropertyOp58
 70
     1
102
RTVSPropertyOp59
 70
     1
102
RTVSPropertyOp60
 70
     1
102
RTVSPropertyOp61
 70
     1
102
RTVSPropertyOp62
 70
     1
  0
XRECORD
  5
4BD3
102
{ACAD_REACTORS
330
4BD2
102
}
330
4BD2
100
AcDbXrecord
280
     1
102
RTVSPost2010Prop28
280
     0
102
RTVSPost2010PropOp28
 70
     1
102
RTVSPost2010Prop29
280
     1
102
RTVSPost2010PropOp29
 70
     1
102
RTVSPost2010Prop30
280
     1
102
RTVSPost2010PropOp30
 70
     1
102
RTVSPost2010Prop31
280
     0
102
RTVSPost2010PropOp31
 70
     1
102
RTVSPost2010Prop32
280
     0
102
RTVSPost2010PropOp32
 70
     1
102
RTVSPost2010Prop33
280
     0
102
RTVSPost2010PropOp33
 70
     1
102
RTVSPost2010Prop34
280
     0
102
RTVSPost2010PropOp34
 70
     1
102
RTVSPost2010Prop35
280
     0
102
RTVSPost2010PropOp35
 70
     1
102
RTVSPost2010Prop36
280
     0
102
RTVSPost2010PropOp36
 70
     1
102
RTVSPost2010Prop37
 90
       50
102
RTVSPost2010PropOp37
 70
     1
102
RTVSPost2010Prop38
140
0.0
102
RTVSPost2010PropOp38
 70
     1
102
RTVSPost2010Prop39
140
1.0
102
RTVSPost2010PropOp39
 70
     1
102
RTVSPost2010Prop40
 90
        0
102
RTVSPost2010PropOp40
 70
     1
102
RTVSPost2010Prop41ColorIndex
 90
       18
102
RTVSPost2010Prop41ColorRGB
 90
        0
102
RTVSPost2010PropOp41
 70
     1
102
RTVSPost2010Prop42
 90
       50
102
RTVSPost2010PropOp42
 70
     1
102
RTVSPost2010Prop43
 90
        3
102
RTVSPost2010PropOp43
 70
     1
102
RTVSPost2010Prop44ColorIndex
 90
        5
102
RTVSPost2010Prop44ColorRGB
 90
      255
102
RTVSPost2010PropOp44
 70
     1
102
RTVSPost2010Prop45
280
     0
102
RTVSPost2010PropOp45
 70
     1
102
RTVSPost2010Prop46
 90
       50
102
RTVSPost2010PropOp46
 70
     1
102
RTVSPost2010Prop47
 90
       50
102
RTVSPost2010PropOp47
 70
     1
102
RTVSPost2010Prop48
 90
       50
102
RTVSPost2010PropOp48
 70
     1
102
RTVSPost2010Prop49
280
     0
102
RTVSPost2010PropOp49
 70
     1
102
RTVSPost2010Prop50
 90
       50
102
RTVSPost2010PropOp50
 70
     1
102
RTVSPost2010Prop51ColorIndex
 90
      256
102
RTVSPost2010Prop51ColorRGB
 90
-16777216
102
RTVSPost2010PropOp51
 70
     0
102
RTVSPost2010Prop52
140
1.0
102
RTVSPost2010PropOp52
 70
     0
102
RTVSPost2010Prop53
 90
        2
102
RTVSPost2010PropOp53
 70
     1
102
RTVSPost2010Prop54
  1
strokes_ogs.tif
102
RTVSPost2010PropOp54
 70
     1
102
RTVSPost2010Prop55
280
     0
102
RTVSPost2010PropOp55
 70
     1
102
RTVSPost2010Prop56
140
1.0
102
RTVSPost2010PropOp56
 70
     1
102
RTVSPost2010Prop57
140
1.0
102
RTVSPost2010PropOp57
 70
     1
102
RTVSPropertyOp0
 70
     1
102
RTVSPropertyOp1
 70
     1
102
RTVSPropertyOp2
 70
     1
102
RTVSPropertyOp3
 70
     1
102
RTVSPropertyOp4
 70
     1
102
RTVSPropertyOp5
 70
     1
102
RTVSPropertyOp6
 70
     1
102
RTVSPropertyOp7
 70
     1
102
RTVSPropertyOp8
 70
     1
102
RTVSPropertyOp9
 70
     1
102
RTVSPropertyOp10
 70
     1
102
RTVSPropertyOp11
 70
     1
102
RTVSPropertyOp12
 70
     1
102
RTVSPropertyOp13
 70
     1
102
RTVSPropertyOp14
 70
     1
102
RTVSPropertyOp15
 70
     1
102
RTVSPropertyOp16
 70
     1
102
RTVSPropertyOp17
 70
     1
102
RTVSPropertyOp18
 70
     1
102
RTVSPropertyOp19
 70
     1
102
RTVSPropertyOp20
 70
     1
102
RTVSPropertyOp21
 70
     1
102
RTVSPropertyOp22
 70
     1
102
RTVSPropertyOp23
 70
     1
102
RTVSPropertyOp24
 70
     1
102
RTVSPropertyOp25
 70
     1
102
RTVSPropertyOp26
 70
     1
102
RTVSPropertyOp27
 70
     1
102
RTVSPropertyOp28
 70
     1
102
RTVSPropertyOp29
 70
     1
102
RTVSPropertyOp30
 70
     1
102
RTVSPropertyOp31
 70
     1
102
RTVSPropertyOp32
 70
     1
102
RTVSPropertyOp33
 70
     1
102
RTVSPropertyOp34
 70
     1
102
RTVSPropertyOp35
 70
     1
102
RTVSPropertyOp36
 70
     1
102
RTVSPropertyOp37
 70
     1
102
RTVSPropertyOp38
 70
     1
102
RTVSPropertyOp39
 70
     1
102
RTVSPropertyOp40
 70
     1
102
RTVSPropertyOp41
 70
     1
102
RTVSPropertyOp42
 70
     1
102
RTVSPropertyOp43
 70
     1
102
RTVSPropertyOp44
 70
     1
102
RTVSPropertyOp45
 70
     1
102
RTVSPropertyOp46
 70
     1
102
RTVSPropertyOp47
 70
     1
102
RTVSPropertyOp48
 70
     1
102
RTVSPropertyOp49
 70
     1
102
RTVSPropertyOp50
 70
     1
102
RTVSPropertyOp51
 70
     0
102
RTVSPropertyOp52
 70
     0
102
RTVSPropertyOp53
 70
     1
102
RTVSPropertyOp54
 70
     1
102
RTVSPropertyOp55
 70
     1
102
RTVSPropertyOp56
 70
     1
102
RTVSPropertyOp57
 70
     1
102
RTVSPropertyOp58
 70
     1
102
RTVSPropertyOp59
 70
     1
102
RTVSPropertyOp60
 70
     1
102
RTVSPropertyOp61
 70
     1
102
RTVSPropertyOp62
 70
     1
  0
XRECORD
  5
4BCF
102
{ACAD_REACTORS
330
4BCE
102
}
330
4BCE
100
AcDbXrecord
280
     1
102
RTVSPost2010Prop28
280
     0
102
RTVSPost2010PropOp28
 70
     1
102
RTVSPost2010Prop29
280
     1
102
RTVSPost2010PropOp29
 70
     1
102
RTVSPost2010Prop30
280
     1
102
RTVSPost2010PropOp30
 70
     1
102
RTVSPost2010Prop31
280
     0
102
RTVSPost2010PropOp31
 70
     1
102
RTVSPost2010Prop32
280
     0
102
RTVSPost2010PropOp32
 70
     1
102
RTVSPost2010Prop33
280
     0
102
RTVSPost2010PropOp33
 70
     1
102
RTVSPost2010Prop34
280
     0
102
RTVSPost2010PropOp34
 70
     1
102
RTVSPost2010Prop35
280
     0
102
RTVSPost2010PropOp35
 70
     1
102
RTVSPost2010Prop36
280
     0
102
RTVSPost2010PropOp36
 70
     1
102
RTVSPost2010Prop37
 90
       50
102
RTVSPost2010PropOp37
 70
     1
102
RTVSPost2010Prop38
140
0.0
102
RTVSPost2010PropOp38
 70
     1
102
RTVSPost2010Prop39
140
1.0
102
RTVSPost2010PropOp39
 70
     1
102
RTVSPost2010Prop40
 90
        0
102
RTVSPost2010PropOp40
 70
     1
102
RTVSPost2010Prop41ColorIndex
 90
       18
102
RTVSPost2010Prop41ColorRGB
 90
        0
102
RTVSPost2010PropOp41
 70
     1
102
RTVSPost2010Prop42
 90
       50
102
RTVSPost2010PropOp42
 70
     1
102
RTVSPost2010Prop43
 90
        3
102
RTVSPost2010PropOp43
 70
     1
102
RTVSPost2010Prop44ColorIndex
 90
        5
102
RTVSPost2010Prop44ColorRGB
 90
      255
102
RTVSPost2010PropOp44
 70
     1
102
RTVSPost2010Prop45
280
     0
102
RTVSPost2010PropOp45
 70
     1
102
RTVSPost2010Prop46
 90
       50
102
RTVSPost2010PropOp46
 70
     1
102
RTVSPost2010Prop47
 90
       50
102
RTVSPost2010PropOp47
 70
     1
102
RTVSPost2010Prop48
 90
       50
102
RTVSPost2010PropOp48
 70
     1
102
RTVSPost2010Prop49
280
     0
102
RTVSPost2010PropOp49
 70
     1
102
RTVSPost2010Prop50
 90
       50
102
RTVSPost2010PropOp50
 70
     1
102
RTVSPost2010Prop51ColorIndex
 90
      256
102
RTVSPost2010Prop51ColorRGB
 90
-16777216
102
RTVSPost2010PropOp51
 70
     0
102
RTVSPost2010Prop52
140
1.0
102
RTVSPost2010PropOp52
 70
     0
102
RTVSPost2010Prop53
 90
        2
102
RTVSPost2010PropOp53
 70
     1
102
RTVSPost2010Prop54
  1
strokes_ogs.tif
102
RTVSPost2010PropOp54
 70
     1
102
RTVSPost2010Prop55
280
     0
102
RTVSPost2010PropOp55
 70
     1
102
RTVSPost2010Prop56
140
1.0
102
RTVSPost2010PropOp56
 70
     1
102
RTVSPost2010Prop57
140
1.0
102
RTVSPost2010PropOp57
 70
     1
102
RTVSPropertyOp0
 70
     1
102
RTVSPropertyOp1
 70
     1
102
RTVSPropertyOp2
 70
     1
102
RTVSPropertyOp3
 70
     1
102
RTVSPropertyOp4
 70
     1
102
RTVSPropertyOp5
 70
     1
102
RTVSPropertyOp6
 70
     1
102
RTVSPropertyOp7
 70
     1
102
RTVSPropertyOp8
 70
     1
102
RTVSPropertyOp9
 70
     1
102
RTVSPropertyOp10
 70
     1
102
RTVSPropertyOp11
 70
     1
102
RTVSPropertyOp12
 70
     1
102
RTVSPropertyOp13
 70
     1
102
RTVSPropertyOp14
 70
     1
102
RTVSPropertyOp15
 70
     1
102
RTVSPropertyOp16
 70
     1
102
RTVSPropertyOp17
 70
     1
102
RTVSPropertyOp18
 70
     1
102
RTVSPropertyOp19
 70
     1
102
RTVSPropertyOp20
 70
     1
102
RTVSPropertyOp21
 70
     1
102
RTVSPropertyOp22
 70
     1
102
RTVSPropertyOp23
 70
     1
102
RTVSPropertyOp24
 70
     1
102
RTVSPropertyOp25
 70
     1
102
RTVSPropertyOp26
 70
     1
102
RTVSPropertyOp27
 70
     1
102
RTVSPropertyOp28
 70
     1
102
RTVSPropertyOp29
 70
     1
102
RTVSPropertyOp30
 70
     1
102
RTVSPropertyOp31
 70
     1
102
RTVSPropertyOp32
 70
     1
102
RTVSPropertyOp33
 70
     1
102
RTVSPropertyOp34
 70
     1
102
RTVSPropertyOp35
 70
     1
102
RTVSPropertyOp36
 70
     1
102
RTVSPropertyOp37
 70
     1
102
RTVSPropertyOp38
 70
     1
102
RTVSPropertyOp39
 70
     1
102
RTVSPropertyOp40
 70
     1
102
RTVSPropertyOp41
 70
     1
102
RTVSPropertyOp42
 70
     1
102
RTVSPropertyOp43
 70
     1
102
RTVSPropertyOp44
 70
     1
102
RTVSPropertyOp45
 70
     1
102
RTVSPropertyOp46
 70
     1
102
RTVSPropertyOp47
 70
     1
102
RTVSPropertyOp48
 70
     1
102
RTVSPropertyOp49
 70
     1
102
RTVSPropertyOp50
 70
     1
102
RTVSPropertyOp51
 70
     0
102
RTVSPropertyOp52
 70
     0
102
RTVSPropertyOp53
 70
     1
102
RTVSPropertyOp54
 70
     1
102
RTVSPropertyOp55
 70
     1
102
RTVSPropertyOp56
 70
     1
102
RTVSPropertyOp57
 70
     1
102
RTVSPropertyOp58
 70
     1
102
RTVSPropertyOp59
 70
     1
102
RTVSPropertyOp60
 70
     1
102
RTVSPropertyOp61
 70
     1
102
RTVSPropertyOp62
 70
     1
  0
XRECORD
  5
4BDD
102
{ACAD_REACTORS
330
4BDC
102
}
330
4BDC
100
AcDbXrecord
280
     1
102
RTVSPost2010Prop28
280
     0
102
RTVSPost2010PropOp28
 70
     1
102
RTVSPost2010Prop29
280
     1
102
RTVSPost2010PropOp29
 70
     1
102
RTVSPost2010Prop30
280
     1
102
RTVSPost2010PropOp30
 70
     1
102
RTVSPost2010Prop31
280
     0
102
RTVSPost2010PropOp31
 70
     1
102
RTVSPost2010Prop32
280
     0
102
RTVSPost2010PropOp32
 70
     1
102
RTVSPost2010Prop33
280
     0
102
RTVSPost2010PropOp33
 70
     1
102
RTVSPost2010Prop34
280
     0
102
RTVSPost2010PropOp34
 70
     1
102
RTVSPost2010Prop35
280
     0
102
RTVSPost2010PropOp35
 70
     1
102
RTVSPost2010Prop36
280
     0
102
RTVSPost2010PropOp36
 70
     1
102
RTVSPost2010Prop37
 90
       50
102
RTVSPost2010PropOp37
 70
     1
102
RTVSPost2010Prop38
140
0.0
102
RTVSPost2010PropOp38
 70
     1
102
RTVSPost2010Prop39
140
1.0
102
RTVSPost2010PropOp39
 70
     1
102
RTVSPost2010Prop40
 90
        0
102
RTVSPost2010PropOp40
 70
     1
102
RTVSPost2010Prop41ColorIndex
 90
       18
102
RTVSPost2010Prop41ColorRGB
 90
        0
102
RTVSPost2010PropOp41
 70
     1
102
RTVSPost2010Prop42
 90
       50
102
RTVSPost2010PropOp42
 70
     1
102
RTVSPost2010Prop43
 90
        3
102
RTVSPost2010PropOp43
 70
     1
102
RTVSPost2010Prop44ColorIndex
 90
        5
102
RTVSPost2010Prop44ColorRGB
 90
      255
102
RTVSPost2010PropOp44
 70
     1
102
RTVSPost2010Prop45
280
     0
102
RTVSPost2010PropOp45
 70
     1
102
RTVSPost2010Prop46
 90
       50
102
RTVSPost2010PropOp46
 70
     1
102
RTVSPost2010Prop47
 90
       50
102
RTVSPost2010PropOp47
 70
     1
102
RTVSPost2010Prop48
 90
       50
102
RTVSPost2010PropOp48
 70
     1
102
RTVSPost2010Prop49
280
     0
102
RTVSPost2010PropOp49
 70
     1
102
RTVSPost2010Prop50
 90
       50
102
RTVSPost2010PropOp50
 70
     1
102
RTVSPost2010Prop51ColorIndex
 90
      256
102
RTVSPost2010Prop51ColorRGB
 90
-16777216
102
RTVSPost2010PropOp51
 70
     0
102
RTVSPost2010Prop52
140
1.0
102
RTVSPost2010PropOp52
 70
     0
102
RTVSPost2010Prop53
 90
        2
102
RTVSPost2010PropOp53
 70
     1
102
RTVSPost2010Prop54
  1
strokes_ogs.tif
102
RTVSPost2010PropOp54
 70
     1
102
RTVSPost2010Prop55
280
     0
102
RTVSPost2010PropOp55
 70
     1
102
RTVSPost2010Prop56
140
1.0
102
RTVSPost2010PropOp56
 70
     1
102
RTVSPost2010Prop57
140
1.0
102
RTVSPost2010PropOp57
 70
     1
102
RTVSPropertyOp0
 70
     1
102
RTVSPropertyOp1
 70
     1
102
RTVSPropertyOp2
 70
     1
102
RTVSPropertyOp3
 70
     1
102
RTVSPropertyOp4
 70
     1
102
RTVSPropertyOp5
 70
     1
102
RTVSPropertyOp6
 70
     1
102
RTVSPropertyOp7
 70
     1
102
RTVSPropertyOp8
 70
     1
102
RTVSPropertyOp9
 70
     1
102
RTVSPropertyOp10
 70
     1
102
RTVSPropertyOp11
 70
     1
102
RTVSPropertyOp12
 70
     1
102
RTVSPropertyOp13
 70
     1
102
RTVSPropertyOp14
 70
     1
102
RTVSPropertyOp15
 70
     1
102
RTVSPropertyOp16
 70
     1
102
RTVSPropertyOp17
 70
     1
102
RTVSPropertyOp18
 70
     1
102
RTVSPropertyOp19
 70
     1
102
RTVSPropertyOp20
 70
     1
102
RTVSPropertyOp21
 70
     1
102
RTVSPropertyOp22
 70
     1
102
RTVSPropertyOp23
 70
     1
102
RTVSPropertyOp24
 70
     1
102
RTVSPropertyOp25
 70
     1
102
RTVSPropertyOp26
 70
     1
102
RTVSPropertyOp27
 70
     1
102
RTVSPropertyOp28
 70
     1
102
RTVSPropertyOp29
 70
     1
102
RTVSPropertyOp30
 70
     1
102
RTVSPropertyOp31
 70
     1
102
RTVSPropertyOp32
 70
     1
102
RTVSPropertyOp33
 70
     1
102
RTVSPropertyOp34
 70
     1
102
RTVSPropertyOp35
 70
     1
102
RTVSPropertyOp36
 70
     1
102
RTVSPropertyOp37
 70
     1
102
RTVSPropertyOp38
 70
     1
102
RTVSPropertyOp39
 70
     1
102
RTVSPropertyOp40
 70
     1
102
RTVSPropertyOp41
 70
     1
102
RTVSPropertyOp42
 70
     1
102
RTVSPropertyOp43
 70
     1
102
RTVSPropertyOp44
 70
     1
102
RTVSPropertyOp45
 70
     1
102
RTVSPropertyOp46
 70
     1
102
RTVSPropertyOp47
 70
     1
102
RTVSPropertyOp48
 70
     1
102
RTVSPropertyOp49
 70
     1
102
RTVSPropertyOp50
 70
     1
102
RTVSPropertyOp51
 70
     0
102
RTVSPropertyOp52
 70
     0
102
RTVSPropertyOp53
 70
     1
102
RTVSPropertyOp54
 70
     1
102
RTVSPropertyOp55
 70
     1
102
RTVSPropertyOp56
 70
     1
102
RTVSPropertyOp57
 70
     1
102
RTVSPropertyOp58
 70
     1
102
RTVSPropertyOp59
 70
     1
102
RTVSPropertyOp60
 70
     1
102
RTVSPropertyOp61
 70
     1
102
RTVSPropertyOp62
 70
     1
  0
XRECORD
  5
4BE5
102
{ACAD_REACTORS
330
4BE4
102
}
330
4BE4
100
AcDbXrecord
280
     1
102
RTVSPost2010Prop28
280
     0
102
RTVSPost2010PropOp28
 70
     1
102
RTVSPost2010Prop29
280
     1
102
RTVSPost2010PropOp29
 70
     1
102
RTVSPost2010Prop30
280
     1
102
RTVSPost2010PropOp30
 70
     1
102
RTVSPost2010Prop31
280
     0
102
RTVSPost2010PropOp31
 70
     1
102
RTVSPost2010Prop32
280
     0
102
RTVSPost2010PropOp32
 70
     1
102
RTVSPost2010Prop33
280
     0
102
RTVSPost2010PropOp33
 70
     1
102
RTVSPost2010Prop34
280
     0
102
RTVSPost2010PropOp34
 70
     1
102
RTVSPost2010Prop35
280
     0
102
RTVSPost2010PropOp35
 70
     1
102
RTVSPost2010Prop36
280
     0
102
RTVSPost2010PropOp36
 70
     1
102
RTVSPost2010Prop37
 90
       50
102
RTVSPost2010PropOp37
 70
     1
102
RTVSPost2010Prop38
140
0.0
102
RTVSPost2010PropOp38
 70
     1
102
RTVSPost2010Prop39
140
1.0
102
RTVSPost2010PropOp39
 70
     1
102
RTVSPost2010Prop40
 90
        0
102
RTVSPost2010PropOp40
 70
     1
102
RTVSPost2010Prop41ColorIndex
 90
       18
102
RTVSPost2010Prop41ColorRGB
 90
        0
102
RTVSPost2010PropOp41
 70
     1
102
RTVSPost2010Prop42
 90
       50
102
RTVSPost2010PropOp42
 70
     1
102
RTVSPost2010Prop43
 90
        3
102
RTVSPost2010PropOp43
 70
     1
102
RTVSPost2010Prop44ColorIndex
 90
        5
102
RTVSPost2010Prop44ColorRGB
 90
      255
102
RTVSPost2010PropOp44
 70
     1
102
RTVSPost2010Prop45
280
     0
102
RTVSPost2010PropOp45
 70
     1
102
RTVSPost2010Prop46
 90
       50
102
RTVSPost2010PropOp46
 70
     1
102
RTVSPost2010Prop47
 90
       50
102
RTVSPost2010PropOp47
 70
     1
102
RTVSPost2010Prop48
 90
       50
102
RTVSPost2010PropOp48
 70
     1
102
RTVSPost2010Prop49
280
     0
102
RTVSPost2010PropOp49
 70
     1
102
RTVSPost2010Prop50
 90
       50
102
RTVSPost2010PropOp50
 70
     1
102
RTVSPost2010Prop51ColorIndex
 90
      256
102
RTVSPost2010Prop51ColorRGB
 90
-16777216
102
RTVSPost2010PropOp51
 70
     0
102
RTVSPost2010Prop52
140
1.0
102
RTVSPost2010PropOp52
 70
     0
102
RTVSPost2010Prop53
 90
        2
102
RTVSPost2010PropOp53
 70
     1
102
RTVSPost2010Prop54
  1
strokes_ogs.tif
102
RTVSPost2010PropOp54
 70
     1
102
RTVSPost2010Prop55
280
     0
102
RTVSPost2010PropOp55
 70
     1
102
RTVSPost2010Prop56
140
1.0
102
RTVSPost2010PropOp56
 70
     1
102
RTVSPost2010Prop57
140
1.0
102
RTVSPost2010PropOp57
 70
     1
102
RTVSPropertyOp0
 70
     1
102
RTVSPropertyOp1
 70
     1
102
RTVSPropertyOp2
 70
     1
102
RTVSPropertyOp3
 70
     1
102
RTVSPropertyOp4
 70
     1
102
RTVSPropertyOp5
 70
     1
102
RTVSPropertyOp6
 70
     1
102
RTVSPropertyOp7
 70
     1
102
RTVSPropertyOp8
 70
     1
102
RTVSPropertyOp9
 70
     1
102
RTVSPropertyOp10
 70
     1
102
RTVSPropertyOp11
 70
     1
102
RTVSPropertyOp12
 70
     1
102
RTVSPropertyOp13
 70
     1
102
RTVSPropertyOp14
 70
     1
102
RTVSPropertyOp15
 70
     1
102
RTVSPropertyOp16
 70
     1
102
RTVSPropertyOp17
 70
     1
102
RTVSPropertyOp18
 70
     1
102
RTVSPropertyOp19
 70
     1
102
RTVSPropertyOp20
 70
     1
102
RTVSPropertyOp21
 70
     1
102
RTVSPropertyOp22
 70
     1
102
RTVSPropertyOp23
 70
     1
102
RTVSPropertyOp24
 70
     1
102
RTVSPropertyOp25
 70
     1
102
RTVSPropertyOp26
 70
     1
102
RTVSPropertyOp27
 70
     1
102
RTVSPropertyOp28
 70
     1
102
RTVSPropertyOp29
 70
     1
102
RTVSPropertyOp30
 70
     1
102
RTVSPropertyOp31
 70
     1
102
RTVSPropertyOp32
 70
     1
102
RTVSPropertyOp33
 70
     1
102
RTVSPropertyOp34
 70
     1
102
RTVSPropertyOp35
 70
     1
102
RTVSPropertyOp36
 70
     1
102
RTVSPropertyOp37
 70
     1
102
RTVSPropertyOp38
 70
     1
102
RTVSPropertyOp39
 70
     1
102
RTVSPropertyOp40
 70
     1
102
RTVSPropertyOp41
 70
     1
102
RTVSPropertyOp42
 70
     1
102
RTVSPropertyOp43
 70
     1
102
RTVSPropertyOp44
 70
     1
102
RTVSPropertyOp45
 70
     1
102
RTVSPropertyOp46
 70
     1
102
RTVSPropertyOp47
 70
     1
102
RTVSPropertyOp48
 70
     1
102
RTVSPropertyOp49
 70
     1
102
RTVSPropertyOp50
 70
     1
102
RTVSPropertyOp51
 70
     0
102
RTVSPropertyOp52
 70
     0
102
RTVSPropertyOp53
 70
     1
102
RTVSPropertyOp54
 70
     1
102
RTVSPropertyOp55
 70
     1
102
RTVSPropertyOp56
 70
     1
102
RTVSPropertyOp57
 70
     1
102
RTVSPropertyOp58
 70
     1
102
RTVSPropertyOp59
 70
     1
102
RTVSPropertyOp60
 70
     1
102
RTVSPropertyOp61
 70
     1
102
RTVSPropertyOp62
 70
     1
  0
XRECORD
  5
4BD7
102
{ACAD_REACTORS
330
4BD6
102
}
330
4BD6
100
AcDbXrecord
280
     1
102
RTVSPost2010Prop28
280
     0
102
RTVSPost2010PropOp28
 70
     1
102
RTVSPost2010Prop29
280
     1
102
RTVSPost2010PropOp29
 70
     1
102
RTVSPost2010Prop30
280
     1
102
RTVSPost2010PropOp30
 70
     1
102
RTVSPost2010Prop31
280
     0
102
RTVSPost2010PropOp31
 70
     1
102
RTVSPost2010Prop32
280
     0
102
RTVSPost2010PropOp32
 70
     1
102
RTVSPost2010Prop33
280
     0
102
RTVSPost2010PropOp33
 70
     1
102
RTVSPost2010Prop34
280
     0
102
RTVSPost2010PropOp34
 70
     1
102
RTVSPost2010Prop35
280
     0
102
RTVSPost2010PropOp35
 70
     1
102
RTVSPost2010Prop36
280
     0
102
RTVSPost2010PropOp36
 70
     1
102
RTVSPost2010Prop37
 90
       50
102
RTVSPost2010PropOp37
 70
     1
102
RTVSPost2010Prop38
140
0.0
102
RTVSPost2010PropOp38
 70
     1
102
RTVSPost2010Prop39
140
1.0
102
RTVSPost2010PropOp39
 70
     1
102
RTVSPost2010Prop40
 90
        0
102
RTVSPost2010PropOp40
 70
     1
102
RTVSPost2010Prop41ColorIndex
 90
       18
102
RTVSPost2010Prop41ColorRGB
 90
        0
102
RTVSPost2010PropOp41
 70
     1
102
RTVSPost2010Prop42
 90
       50
102
RTVSPost2010PropOp42
 70
     1
102
RTVSPost2010Prop43
 90
        3
102
RTVSPost2010PropOp43
 70
     1
102
RTVSPost2010Prop44ColorIndex
 90
        5
102
RTVSPost2010Prop44ColorRGB
 90
      255
102
RTVSPost2010PropOp44
 70
     1
102
RTVSPost2010Prop45
280
     0
102
RTVSPost2010PropOp45
 70
     1
102
RTVSPost2010Prop46
 90
       50
102
RTVSPost2010PropOp46
 70
     1
102
RTVSPost2010Prop47
 90
       50
102
RTVSPost2010PropOp47
 70
     1
102
RTVSPost2010Prop48
 90
       50
102
RTVSPost2010PropOp48
 70
     1
102
RTVSPost2010Prop49
280
     0
102
RTVSPost2010PropOp49
 70
     1
102
RTVSPost2010Prop50
 90
       50
102
RTVSPost2010PropOp50
 70
     1
102
RTVSPost2010Prop51ColorIndex
 90
      256
102
RTVSPost2010Prop51ColorRGB
 90
-16777216
102
RTVSPost2010PropOp51
 70
     0
102
RTVSPost2010Prop52
140
1.0
102
RTVSPost2010PropOp52
 70
     0
102
RTVSPost2010Prop53
 90
        2
102
RTVSPost2010PropOp53
 70
     1
102
RTVSPost2010Prop54
  1
strokes_ogs.tif
102
RTVSPost2010PropOp54
 70
     1
102
RTVSPost2010Prop55
280
     0
102
RTVSPost2010PropOp55
 70
     1
102
RTVSPost2010Prop56
140
1.0
102
RTVSPost2010PropOp56
 70
     1
102
RTVSPost2010Prop57
140
1.0
102
RTVSPost2010PropOp57
 70
     1
102
RTVSPropertyOp0
 70
     1
102
RTVSPropertyOp1
 70
     1
102
RTVSPropertyOp2
 70
     1
102
RTVSPropertyOp3
 70
     1
102
RTVSPropertyOp4
 70
     1
102
RTVSPropertyOp5
 70
     1
102
RTVSPropertyOp6
 70
     1
102
RTVSPropertyOp7
 70
     1
102
RTVSPropertyOp8
 70
     1
102
RTVSPropertyOp9
 70
     1
102
RTVSPropertyOp10
 70
     1
102
RTVSPropertyOp11
 70
     1
102
RTVSPropertyOp12
 70
     1
102
RTVSPropertyOp13
 70
     1
102
RTVSPropertyOp14
 70
     1
102
RTVSPropertyOp15
 70
     1
102
RTVSPropertyOp16
 70
     1
102
RTVSPropertyOp17
 70
     1
102
RTVSPropertyOp18
 70
     1
102
RTVSPropertyOp19
 70
     1
102
RTVSPropertyOp20
 70
     1
102
RTVSPropertyOp21
 70
     1
102
RTVSPropertyOp22
 70
     1
102
RTVSPropertyOp23
 70
     1
102
RTVSPropertyOp24
 70
     1
102
RTVSPropertyOp25
 70
     1
102
RTVSPropertyOp26
 70
     1
102
RTVSPropertyOp27
 70
     1
102
RTVSPropertyOp28
 70
     1
102
RTVSPropertyOp29
 70
     1
102
RTVSPropertyOp30
 70
     1
102
RTVSPropertyOp31
 70
     1
102
RTVSPropertyOp32
 70
     1
102
RTVSPropertyOp33
 70
     1
102
RTVSPropertyOp34
 70
     1
102
RTVSPropertyOp35
 70
     1
102
RTVSPropertyOp36
 70
     1
102
RTVSPropertyOp37
 70
     1
102
RTVSPropertyOp38
 70
     1
102
RTVSPropertyOp39
 70
     1
102
RTVSPropertyOp40
 70
     1
102
RTVSPropertyOp41
 70
     1
102
RTVSPropertyOp42
 70
     1
102
RTVSPropertyOp43
 70
     1
102
RTVSPropertyOp44
 70
     1
102
RTVSPropertyOp45
 70
     1
102
RTVSPropertyOp46
 70
     1
102
RTVSPropertyOp47
 70
     1
102
RTVSPropertyOp48
 70
     1
102
RTVSPropertyOp49
 70
     1
102
RTVSPropertyOp50
 70
     1
102
RTVSPropertyOp51
 70
     0
102
RTVSPropertyOp52
 70
     0
102
RTVSPropertyOp53
 70
     1
102
RTVSPropertyOp54
 70
     1
102
RTVSPropertyOp55
 70
     1
102
RTVSPropertyOp56
 70
     1
102
RTVSPropertyOp57
 70
     1
102
RTVSPropertyOp58
 70
     1
102
RTVSPropertyOp59
 70
     1
102
RTVSPropertyOp60
 70
     1
102
RTVSPropertyOp61
 70
     1
102
RTVSPropertyOp62
 70
     1
  0
XRECORD
  5
4BDB
102
{ACAD_REACTORS
330
4BDA
102
}
330
4BDA
100
AcDbXrecord
280
     1
102
RTVSPost2010Prop28
280
     0
102
RTVSPost2010PropOp28
 70
     1
102
RTVSPost2010Prop29
280
     1
102
RTVSPost2010PropOp29
 70
     1
102
RTVSPost2010Prop30
280
     1
102
RTVSPost2010PropOp30
 70
     1
102
RTVSPost2010Prop31
280
     0
102
RTVSPost2010PropOp31
 70
     1
102
RTVSPost2010Prop32
280
     0
102
RTVSPost2010PropOp32
 70
     1
102
RTVSPost2010Prop33
280
     0
102
RTVSPost2010PropOp33
 70
     1
102
RTVSPost2010Prop34
280
     0
102
RTVSPost2010PropOp34
 70
     1
102
RTVSPost2010Prop35
280
     0
102
RTVSPost2010PropOp35
 70
     1
102
RTVSPost2010Prop36
280
     0
102
RTVSPost2010PropOp36
 70
     1
102
RTVSPost2010Prop37
 90
       50
102
RTVSPost2010PropOp37
 70
     1
102
RTVSPost2010Prop38
140
0.0
102
RTVSPost2010PropOp38
 70
     1
102
RTVSPost2010Prop39
140
1.0
102
RTVSPost2010PropOp39
 70
     1
102
RTVSPost2010Prop40
 90
        0
102
RTVSPost2010PropOp40
 70
     1
102
RTVSPost2010Prop41ColorIndex
 90
       18
102
RTVSPost2010Prop41ColorRGB
 90
        0
102
RTVSPost2010PropOp41
 70
     1
102
RTVSPost2010Prop42
 90
       50
102
RTVSPost2010PropOp42
 70
     1
102
RTVSPost2010Prop43
 90
        3
102
RTVSPost2010PropOp43
 70
     1
102
RTVSPost2010Prop44ColorIndex
 90
        5
102
RTVSPost2010Prop44ColorRGB
 90
      255
102
RTVSPost2010PropOp44
 70
     1
102
RTVSPost2010Prop45
280
     0
102
RTVSPost2010PropOp45
 70
     1
102
RTVSPost2010Prop46
 90
       50
102
RTVSPost2010PropOp46
 70
     1
102
RTVSPost2010Prop47
 90
       50
102
RTVSPost2010PropOp47
 70
     1
102
RTVSPost2010Prop48
 90
       50
102
RTVSPost2010PropOp48
 70
     1
102
RTVSPost2010Prop49
280
     0
102
RTVSPost2010PropOp49
 70
     1
102
RTVSPost2010Prop50
 90
       50
102
RTVSPost2010PropOp50
 70
     1
102
RTVSPost2010Prop51ColorIndex
 90
      256
102
RTVSPost2010Prop51ColorRGB
 90
-16777216
102
RTVSPost2010PropOp51
 70
     0
102
RTVSPost2010Prop52
140
1.0
102
RTVSPost2010PropOp52
 70
     0
102
RTVSPost2010Prop53
 90
        2
102
RTVSPost2010PropOp53
 70
     1
102
RTVSPost2010Prop54
  1
strokes_ogs.tif
102
RTVSPost2010PropOp54
 70
     1
102
RTVSPost2010Prop55
280
     0
102
RTVSPost2010PropOp55
 70
     1
102
RTVSPost2010Prop56
140
1.0
102
RTVSPost2010PropOp56
 70
     1
102
RTVSPost2010Prop57
140
1.0
102
RTVSPost2010PropOp57
 70
     1
102
RTVSPropertyOp0
 70
     1
102
RTVSPropertyOp1
 70
     1
102
RTVSPropertyOp2
 70
     1
102
RTVSPropertyOp3
 70
     1
102
RTVSPropertyOp4
 70
     1
102
RTVSPropertyOp5
 70
     1
102
RTVSPropertyOp6
 70
     1
102
RTVSPropertyOp7
 70
     1
102
RTVSPropertyOp8
 70
     1
102
RTVSPropertyOp9
 70
     1
102
RTVSPropertyOp10
 70
     1
102
RTVSPropertyOp11
 70
     1
102
RTVSPropertyOp12
 70
     1
102
RTVSPropertyOp13
 70
     1
102
RTVSPropertyOp14
 70
     1
102
RTVSPropertyOp15
 70
     1
102
RTVSPropertyOp16
 70
     1
102
RTVSPropertyOp17
 70
     1
102
RTVSPropertyOp18
 70
     1
102
RTVSPropertyOp19
 70
     1
102
RTVSPropertyOp20
 70
     1
102
RTVSPropertyOp21
 70
     1
102
RTVSPropertyOp22
 70
     1
102
RTVSPropertyOp23
 70
     1
102
RTVSPropertyOp24
 70
     1
102
RTVSPropertyOp25
 70
     1
102
RTVSPropertyOp26
 70
     1
102
RTVSPropertyOp27
 70
     1
102
RTVSPropertyOp28
 70
     1
102
RTVSPropertyOp29
 70
     1
102
RTVSPropertyOp30
 70
     1
102
RTVSPropertyOp31
 70
     1
102
RTVSPropertyOp32
 70
     1
102
RTVSPropertyOp33
 70
     1
102
RTVSPropertyOp34
 70
     1
102
RTVSPropertyOp35
 70
     1
102
RTVSPropertyOp36
 70
     1
102
RTVSPropertyOp37
 70
     1
102
RTVSPropertyOp38
 70
     1
102
RTVSPropertyOp39
 70
     1
102
RTVSPropertyOp40
 70
     1
102
RTVSPropertyOp41
 70
     1
102
RTVSPropertyOp42
 70
     1
102
RTVSPropertyOp43
 70
     1
102
RTVSPropertyOp44
 70
     1
102
RTVSPropertyOp45
 70
     1
102
RTVSPropertyOp46
 70
     1
102
RTVSPropertyOp47
 70
     1
102
RTVSPropertyOp48
 70
     1
102
RTVSPropertyOp49
 70
     1
102
RTVSPropertyOp50
 70
     1
102
RTVSPropertyOp51
 70
     0
102
RTVSPropertyOp52
 70
     0
102
RTVSPropertyOp53
 70
     1
102
RTVSPropertyOp54
 70
     1
102
RTVSPropertyOp55
 70
     1
102
RTVSPropertyOp56
 70
     1
102
RTVSPropertyOp57
 70
     1
102
RTVSPropertyOp58
 70
     1
102
RTVSPropertyOp59
 70
     1
102
RTVSPropertyOp60
 70
     1
102
RTVSPropertyOp61
 70
     1
102
RTVSPropertyOp62
 70
     1
  0
XRECORD
  5
4BFE
102
{ACAD_REACTORS
330
4BFD
102
}
330
4BFD
100
AcDbXrecord
280
     1
102
RTVSPost2010Prop28
280
     0
102
RTVSPost2010PropOp28
 70
     1
102
RTVSPost2010Prop29
280
     1
102
RTVSPost2010PropOp29
 70
     1
102
RTVSPost2010Prop30
280
     1
102
RTVSPost2010PropOp30
 70
     1
102
RTVSPost2010Prop31
280
     0
102
RTVSPost2010PropOp31
 70
     1
102
RTVSPost2010Prop32
280
     0
102
RTVSPost2010PropOp32
 70
     1
102
RTVSPost2010Prop33
280
     0
102
RTVSPost2010PropOp33
 70
     1
102
RTVSPost2010Prop34
280
     0
102
RTVSPost2010PropOp34
 70
     1
102
RTVSPost2010Prop35
280
     0
102
RTVSPost2010PropOp35
 70
     1
102
RTVSPost2010Prop36
280
     0
102
RTVSPost2010PropOp36
 70
     1
102
RTVSPost2010Prop37
 90
       50
102
RTVSPost2010PropOp37
 70
     0
102
RTVSPost2010Prop38
140
0.0
102
RTVSPost2010PropOp38
 70
     0
102
RTVSPost2010Prop39
140
1.0
102
RTVSPost2010PropOp39
 70
     0
102
RTVSPost2010Prop40
 90
        0
102
RTVSPost2010PropOp40
 70
     0
102
RTVSPost2010Prop41ColorIndex
 90
       18
102
RTVSPost2010Prop41ColorRGB
 90
        0
102
RTVSPost2010PropOp41
 70
     0
102
RTVSPost2010Prop42
 90
       50
102
RTVSPost2010PropOp42
 70
     0
102
RTVSPost2010Prop43
 90
        3
102
RTVSPost2010PropOp43
 70
     0
102
RTVSPost2010Prop44ColorIndex
 90
        5
102
RTVSPost2010Prop44ColorRGB
 90
      255
102
RTVSPost2010PropOp44
 70
     0
102
RTVSPost2010Prop45
280
     0
102
RTVSPost2010PropOp45
 70
     1
102
RTVSPost2010Prop46
 90
       50
102
RTVSPost2010PropOp46
 70
     0
102
RTVSPost2010Prop47
 90
       50
102
RTVSPost2010PropOp47
 70
     0
102
RTVSPost2010Prop48
 90
       50
102
RTVSPost2010PropOp48
 70
     0
102
RTVSPost2010Prop49
280
     0
102
RTVSPost2010PropOp49
 70
     1
102
RTVSPost2010Prop50
 90
       50
102
RTVSPost2010PropOp50
 70
     0
102
RTVSPost2010Prop51ColorIndex
 90
      256
102
RTVSPost2010Prop51ColorRGB
 90
-16777216
102
RTVSPost2010PropOp51
 70
     0
102
RTVSPost2010Prop52
140
1.0
102
RTVSPost2010PropOp52
 70
     0
102
RTVSPost2010Prop53
 90
        2
102
RTVSPost2010PropOp53
 70
     0
102
RTVSPost2010Prop54
  1
strokes_ogs.tif
102
RTVSPost2010PropOp54
 70
     0
102
RTVSPost2010Prop55
280
     0
102
RTVSPost2010PropOp55
 70
     1
102
RTVSPost2010Prop56
140
1.0
102
RTVSPost2010PropOp56
 70
     0
102
RTVSPost2010Prop57
140
1.0
102
RTVSPost2010PropOp57
 70
     0
102
RTVSPropertyOp0
 70
     0
102
RTVSPropertyOp1
 70
     0
102
RTVSPropertyOp2
 70
     0
102
RTVSPropertyOp3
 70
     0
102
RTVSPropertyOp4
 70
     0
102
RTVSPropertyOp5
 70
     0
102
RTVSPropertyOp6
 70
     0
102
RTVSPropertyOp7
 70
     0
102
RTVSPropertyOp8
 70
     0
102
RTVSPropertyOp9
 70
     0
102
RTVSPropertyOp10
 70
     0
102
RTVSPropertyOp11
 70
     0
102
RTVSPropertyOp12
 70
     0
102
RTVSPropertyOp13
 70
     0
102
RTVSPropertyOp14
 70
     2
102
RTVSPropertyOp15
 70
     0
102
RTVSPropertyOp16
 70
     0
102
RTVSPropertyOp17
 70
     0
102
RTVSPropertyOp18
 70
     0
102
RTVSPropertyOp19
 70
     0
102
RTVSPropertyOp20
 70
     0
102
RTVSPropertyOp21
 70
     0
102
RTVSPropertyOp22
 70
     0
102
RTVSPropertyOp23
 70
     0
102
RTVSPropertyOp24
 70
     0
102
RTVSPropertyOp25
 70
     0
102
RTVSPropertyOp26
 70
     0
102
RTVSPropertyOp27
 70
     0
102
RTVSPropertyOp28
 70
     1
102
RTVSPropertyOp29
 70
     1
102
RTVSPropertyOp30
 70
     1
102
RTVSPropertyOp31
 70
     1
102
RTVSPropertyOp32
 70
     1
102
RTVSPropertyOp33
 70
     1
102
RTVSPropertyOp34
 70
     1
102
RTVSPropertyOp35
 70
     1
102
RTVSPropertyOp36
 70
     1
102
RTVSPropertyOp37
 70
     0
102
RTVSPropertyOp38
 70
     0
102
RTVSPropertyOp39
 70
     0
102
RTVSPropertyOp40
 70
     0
102
RTVSPropertyOp41
 70
     0
102
RTVSPropertyOp42
 70
     0
102
RTVSPropertyOp43
 70
     0
102
RTVSPropertyOp44
 70
     0
102
RTVSPropertyOp45
 70
     1
102
RTVSPropertyOp46
 70
     0
102
RTVSPropertyOp47
 70
     0
102
RTVSPropertyOp48
 70
     0
102
RTVSPropertyOp49
 70
     1
102
RTVSPropertyOp50
 70
     0
102
RTVSPropertyOp51
 70
     0
102
RTVSPropertyOp52
 70
     0
102
RTVSPropertyOp53
 70
     0
102
RTVSPropertyOp54
 70
     0
102
RTVSPropertyOp55
 70
     1
102
RTVSPropertyOp56
 70
     0
102
RTVSPropertyOp57
 70
     0
102
RTVSPropertyOp58
 70
     0
102
RTVSPropertyOp59
 70
     0
102
RTVSPropertyOp60
 70
     0
102
RTVSPropertyOp61
 70
     0
102
RTVSPropertyOp62
 70
     0
  0
XRECORD
  5
4BE3
102
{ACAD_REACTORS
330
4BE2
102
}
330
4BE2
100
AcDbXrecord
280
     1
102
RTVSPost2010Prop28
280
     0
102
RTVSPost2010PropOp28
 70
     1
102
RTVSPost2010Prop29
280
     1
102
RTVSPost2010PropOp29
 70
     1
102
RTVSPost2010Prop30
280
     1
102
RTVSPost2010PropOp30
 70
     1
102
RTVSPost2010Prop31
280
     0
102
RTVSPost2010PropOp31
 70
     1
102
RTVSPost2010Prop32
280
     0
102
RTVSPost2010PropOp32
 70
     1
102
RTVSPost2010Prop33
280
     0
102
RTVSPost2010PropOp33
 70
     1
102
RTVSPost2010Prop34
280
     0
102
RTVSPost2010PropOp34
 70
     1
102
RTVSPost2010Prop35
280
     0
102
RTVSPost2010PropOp35
 70
     1
102
RTVSPost2010Prop36
280
     0
102
RTVSPost2010PropOp36
 70
     1
102
RTVSPost2010Prop37
 90
       50
102
RTVSPost2010PropOp37
 70
     1
102
RTVSPost2010Prop38
140
0.0
102
RTVSPost2010PropOp38
 70
     1
102
RTVSPost2010Prop39
140
1.0
102
RTVSPost2010PropOp39
 70
     1
102
RTVSPost2010Prop40
 90
        0
102
RTVSPost2010PropOp40
 70
     1
102
RTVSPost2010Prop41ColorIndex
 90
       18
102
RTVSPost2010Prop41ColorRGB
 90
        0
102
RTVSPost2010PropOp41
 70
     1
102
RTVSPost2010Prop42
 90
       50
102
RTVSPost2010PropOp42
 70
     1
102
RTVSPost2010Prop43
 90
        3
102
RTVSPost2010PropOp43
 70
     1
102
RTVSPost2010Prop44ColorIndex
 90
        5
102
RTVSPost2010Prop44ColorRGB
 90
      255
102
RTVSPost2010PropOp44
 70
     1
102
RTVSPost2010Prop45
280
     0
102
RTVSPost2010PropOp45
 70
     1
102
RTVSPost2010Prop46
 90
       50
102
RTVSPost2010PropOp46
 70
     1
102
RTVSPost2010Prop47
 90
       50
102
RTVSPost2010PropOp47
 70
     1
102
RTVSPost2010Prop48
 90
       50
102
RTVSPost2010PropOp48
 70
     1
102
RTVSPost2010Prop49
280
     0
102
RTVSPost2010PropOp49
 70
     1
102
RTVSPost2010Prop50
 90
       50
102
RTVSPost2010PropOp50
 70
     1
102
RTVSPost2010Prop51ColorIndex
 90
      256
102
RTVSPost2010Prop51ColorRGB
 90
-16777216
102
RTVSPost2010PropOp51
 70
     0
102
RTVSPost2010Prop52
140
1.0
102
RTVSPost2010PropOp52
 70
     0
102
RTVSPost2010Prop53
 90
        2
102
RTVSPost2010PropOp53
 70
     1
102
RTVSPost2010Prop54
  1
strokes_ogs.tif
102
RTVSPost2010PropOp54
 70
     1
102
RTVSPost2010Prop55
280
     0
102
RTVSPost2010PropOp55
 70
     1
102
RTVSPost2010Prop56
140
1.0
102
RTVSPost2010PropOp56
 70
     1
102
RTVSPost2010Prop57
140
1.0
102
RTVSPost2010PropOp57
 70
     1
102
RTVSPropertyOp0
 70
     1
102
RTVSPropertyOp1
 70
     1
102
RTVSPropertyOp2
 70
     1
102
RTVSPropertyOp3
 70
     1
102
RTVSPropertyOp4
 70
     1
102
RTVSPropertyOp5
 70
     1
102
RTVSPropertyOp6
 70
     1
102
RTVSPropertyOp7
 70
     1
102
RTVSPropertyOp8
 70
     1
102
RTVSPropertyOp9
 70
     1
102
RTVSPropertyOp10
 70
     1
102
RTVSPropertyOp11
 70
     1
102
RTVSPropertyOp12
 70
     1
102
RTVSPropertyOp13
 70
     1
102
RTVSPropertyOp14
 70
     1
102
RTVSPropertyOp15
 70
     1
102
RTVSPropertyOp16
 70
     1
102
RTVSPropertyOp17
 70
     1
102
RTVSPropertyOp18
 70
     1
102
RTVSPropertyOp19
 70
     1
102
RTVSPropertyOp20
 70
     1
102
RTVSPropertyOp21
 70
     1
102
RTVSPropertyOp22
 70
     1
102
RTVSPropertyOp23
 70
     1
102
RTVSPropertyOp24
 70
     1
102
RTVSPropertyOp25
 70
     1
102
RTVSPropertyOp26
 70
     1
102
RTVSPropertyOp27
 70
     1
102
RTVSPropertyOp28
 70
     1
102
RTVSPropertyOp29
 70
     1
102
RTVSPropertyOp30
 70
     1
102
RTVSPropertyOp31
 70
     1
102
RTVSPropertyOp32
 70
     1
102
RTVSPropertyOp33
 70
     1
102
RTVSPropertyOp34
 70
     1
102
RTVSPropertyOp35
 70
     1
102
RTVSPropertyOp36
 70
     1
102
RTVSPropertyOp37
 70
     1
102
RTVSPropertyOp38
 70
     1
102
RTVSPropertyOp39
 70
     1
102
RTVSPropertyOp40
 70
     1
102
RTVSPropertyOp41
 70
     1
102
RTVSPropertyOp42
 70
     1
102
RTVSPropertyOp43
 70
     1
102
RTVSPropertyOp44
 70
     1
102
RTVSPropertyOp45
 70
     1
102
RTVSPropertyOp46
 70
     1
102
RTVSPropertyOp47
 70
     1
102
RTVSPropertyOp48
 70
     1
102
RTVSPropertyOp49
 70
     1
102
RTVSPropertyOp50
 70
     1
102
RTVSPropertyOp51
 70
     0
102
RTVSPropertyOp52
 70
     0
102
RTVSPropertyOp53
 70
     1
102
RTVSPropertyOp54
 70
     1
102
RTVSPropertyOp55
 70
     1
102
RTVSPropertyOp56
 70
     1
102
RTVSPropertyOp57
 70
     1
102
RTVSPropertyOp58
 70
     1
102
RTVSPropertyOp59
 70
     1
102
RTVSPropertyOp60
 70
     1
102
RTVSPropertyOp61
 70
     1
102
RTVSPropertyOp62
 70
     1
  0
XRECORD
  5
4BC7
102
{ACAD_REACTORS
330
4BC6
102
}
330
4BC6
100
AcDbXrecord
280
     1
102
RTVSPost2010Prop28
280
     0
102
RTVSPost2010PropOp28
 70
     1
102
RTVSPost2010Prop29
280
     1
102
RTVSPost2010PropOp29
 70
     1
102
RTVSPost2010Prop30
280
     1
102
RTVSPost2010PropOp30
 70
     1
102
RTVSPost2010Prop31
280
     0
102
RTVSPost2010PropOp31
 70
     1
102
RTVSPost2010Prop32
280
     0
102
RTVSPost2010PropOp32
 70
     1
102
RTVSPost2010Prop33
280
     0
102
RTVSPost2010PropOp33
 70
     1
102
RTVSPost2010Prop34
280
     0
102
RTVSPost2010PropOp34
 70
     1
102
RTVSPost2010Prop35
280
     0
102
RTVSPost2010PropOp35
 70
     1
102
RTVSPost2010Prop36
280
     0
102
RTVSPost2010PropOp36
 70
     1
102
RTVSPost2010Prop37
 90
       50
102
RTVSPost2010PropOp37
 70
     1
102
RTVSPost2010Prop38
140
0.0
102
RTVSPost2010PropOp38
 70
     1
102
RTVSPost2010Prop39
140
1.0
102
RTVSPost2010PropOp39
 70
     1
102
RTVSPost2010Prop40
 90
        0
102
RTVSPost2010PropOp40
 70
     1
102
RTVSPost2010Prop41ColorIndex
 90
       18
102
RTVSPost2010Prop41ColorRGB
 90
        0
102
RTVSPost2010PropOp41
 70
     1
102
RTVSPost2010Prop42
 90
       50
102
RTVSPost2010PropOp42
 70
     1
102
RTVSPost2010Prop43
 90
        3
102
RTVSPost2010PropOp43
 70
     1
102
RTVSPost2010Prop44ColorIndex
 90
        5
102
RTVSPost2010Prop44ColorRGB
 90
      255
102
RTVSPost2010PropOp44
 70
     1
102
RTVSPost2010Prop45
280
     0
102
RTVSPost2010PropOp45
 70
     1
102
RTVSPost2010Prop46
 90
       50
102
RTVSPost2010PropOp46
 70
     1
102
RTVSPost2010Prop47
 90
       50
102
RTVSPost2010PropOp47
 70
     1
102
RTVSPost2010Prop48
 90
       50
102
RTVSPost2010PropOp48
 70
     1
102
RTVSPost2010Prop49
280
     0
102
RTVSPost2010PropOp49
 70
     1
102
RTVSPost2010Prop50
 90
       50
102
RTVSPost2010PropOp50
 70
     1
102
RTVSPost2010Prop51ColorIndex
 90
      256
102
RTVSPost2010Prop51ColorRGB
 90
-16777216
102
RTVSPost2010PropOp51
 70
     0
102
RTVSPost2010Prop52
140
1.0
102
RTVSPost2010PropOp52
 70
     0
102
RTVSPost2010Prop53
 90
        2
102
RTVSPost2010PropOp53
 70
     1
102
RTVSPost2010Prop54
  1
strokes_ogs.tif
102
RTVSPost2010PropOp54
 70
     1
102
RTVSPost2010Prop55
280
     0
102
RTVSPost2010PropOp55
 70
     1
102
RTVSPost2010Prop56
140
1.0
102
RTVSPost2010PropOp56
 70
     1
102
RTVSPost2010Prop57
140
1.0
102
RTVSPost2010PropOp57
 70
     1
102
RTVSPropertyOp0
 70
     1
102
RTVSPropertyOp1
 70
     1
102
RTVSPropertyOp2
 70
     1
102
RTVSPropertyOp3
 70
     1
102
RTVSPropertyOp4
 70
     1
102
RTVSPropertyOp5
 70
     1
102
RTVSPropertyOp6
 70
     1
102
RTVSPropertyOp7
 70
     1
102
RTVSPropertyOp8
 70
     1
102
RTVSPropertyOp9
 70
     1
102
RTVSPropertyOp10
 70
     1
102
RTVSPropertyOp11
 70
     1
102
RTVSPropertyOp12
 70
     1
102
RTVSPropertyOp13
 70
     1
102
RTVSPropertyOp14
 70
     1
102
RTVSPropertyOp15
 70
     1
102
RTVSPropertyOp16
 70
     1
102
RTVSPropertyOp17
 70
     1
102
RTVSPropertyOp18
 70
     1
102
RTVSPropertyOp19
 70
     1
102
RTVSPropertyOp20
 70
     1
102
RTVSPropertyOp21
 70
     1
102
RTVSPropertyOp22
 70
     1
102
RTVSPropertyOp23
 70
     1
102
RTVSPropertyOp24
 70
     1
102
RTVSPropertyOp25
 70
     1
102
RTVSPropertyOp26
 70
     1
102
RTVSPropertyOp27
 70
     1
102
RTVSPropertyOp28
 70
     1
102
RTVSPropertyOp29
 70
     1
102
RTVSPropertyOp30
 70
     1
102
RTVSPropertyOp31
 70
     1
102
RTVSPropertyOp32
 70
     1
102
RTVSPropertyOp33
 70
     1
102
RTVSPropertyOp34
 70
     1
102
RTVSPropertyOp35
 70
     1
102
RTVSPropertyOp36
 70
     1
102
RTVSPropertyOp37
 70
     1
102
RTVSPropertyOp38
 70
     1
102
RTVSPropertyOp39
 70
     1
102
RTVSPropertyOp40
 70
     1
102
RTVSPropertyOp41
 70
     1
102
RTVSPropertyOp42
 70
     1
102
RTVSPropertyOp43
 70
     1
102
RTVSPropertyOp44
 70
     1
102
RTVSPropertyOp45
 70
     1
102
RTVSPropertyOp46
 70
     1
102
RTVSPropertyOp47
 70
     1
102
RTVSPropertyOp48
 70
     1
102
RTVSPropertyOp49
 70
     1
102
RTVSPropertyOp50
 70
     1
102
RTVSPropertyOp51
 70
     0
102
RTVSPropertyOp52
 70
     0
102
RTVSPropertyOp53
 70
     1
102
RTVSPropertyOp54
 70
     1
102
RTVSPropertyOp55
 70
     1
102
RTVSPropertyOp56
 70
     1
102
RTVSPropertyOp57
 70
     1
102
RTVSPropertyOp58
 70
     1
102
RTVSPropertyOp59
 70
     1
102
RTVSPropertyOp60
 70
     1
102
RTVSPropertyOp61
 70
     1
102
RTVSPropertyOp62
 70
     1
  0
XRECORD
  5
4BC9
102
{ACAD_REACTORS
330
4BC8
102
}
330
4BC8
100
AcDbXrecord
280
     1
102
RTVSPost2010Prop28
280
     0
102
RTVSPost2010PropOp28
 70
     1
102
RTVSPost2010Prop29
280
     1
102
RTVSPost2010PropOp29
 70
     1
102
RTVSPost2010Prop30
280
     1
102
RTVSPost2010PropOp30
 70
     1
102
RTVSPost2010Prop31
280
     0
102
RTVSPost2010PropOp31
 70
     1
102
RTVSPost2010Prop32
280
     0
102
RTVSPost2010PropOp32
 70
     1
102
RTVSPost2010Prop33
280
     0
102
RTVSPost2010PropOp33
 70
     1
102
RTVSPost2010Prop34
280
     0
102
RTVSPost2010PropOp34
 70
     1
102
RTVSPost2010Prop35
280
     0
102
RTVSPost2010PropOp35
 70
     1
102
RTVSPost2010Prop36
280
     0
102
RTVSPost2010PropOp36
 70
     1
102
RTVSPost2010Prop37
 90
       50
102
RTVSPost2010PropOp37
 70
     1
102
RTVSPost2010Prop38
140
0.0
102
RTVSPost2010PropOp38
 70
     1
102
RTVSPost2010Prop39
140
1.0
102
RTVSPost2010PropOp39
 70
     1
102
RTVSPost2010Prop40
 90
        0
102
RTVSPost2010PropOp40
 70
     1
102
RTVSPost2010Prop41ColorIndex
 90
       18
102
RTVSPost2010Prop41ColorRGB
 90
        0
102
RTVSPost2010PropOp41
 70
     1
102
RTVSPost2010Prop42
 90
       50
102
RTVSPost2010PropOp42
 70
     1
102
RTVSPost2010Prop43
 90
        3
102
RTVSPost2010PropOp43
 70
     1
102
RTVSPost2010Prop44ColorIndex
 90
        5
102
RTVSPost2010Prop44ColorRGB
 90
      255
102
RTVSPost2010PropOp44
 70
     1
102
RTVSPost2010Prop45
280
     0
102
RTVSPost2010PropOp45
 70
     1
102
RTVSPost2010Prop46
 90
       50
102
RTVSPost2010PropOp46
 70
     1
102
RTVSPost2010Prop47
 90
       50
102
RTVSPost2010PropOp47
 70
     1
102
RTVSPost2010Prop48
 90
       50
102
RTVSPost2010PropOp48
 70
     1
102
RTVSPost2010Prop49
280
     0
102
RTVSPost2010PropOp49
 70
     1
102
RTVSPost2010Prop50
 90
       50
102
RTVSPost2010PropOp50
 70
     1
102
RTVSPost2010Prop51ColorIndex
 90
      256
102
RTVSPost2010Prop51ColorRGB
 90
-16777216
102
RTVSPost2010PropOp51
 70
     0
102
RTVSPost2010Prop52
140
1.0
102
RTVSPost2010PropOp52
 70
     0
102
RTVSPost2010Prop53
 90
        2
102
RTVSPost2010PropOp53
 70
     1
102
RTVSPost2010Prop54
  1
strokes_ogs.tif
102
RTVSPost2010PropOp54
 70
     1
102
RTVSPost2010Prop55
280
     0
102
RTVSPost2010PropOp55
 70
     1
102
RTVSPost2010Prop56
140
1.0
102
RTVSPost2010PropOp56
 70
     1
102
RTVSPost2010Prop57
140
1.0
102
RTVSPost2010PropOp57
 70
     1
102
RTVSPropertyOp0
 70
     1
102
RTVSPropertyOp1
 70
     1
102
RTVSPropertyOp2
 70
     1
102
RTVSPropertyOp3
 70
     1
102
RTVSPropertyOp4
 70
     1
102
RTVSPropertyOp5
 70
     1
102
RTVSPropertyOp6
 70
     1
102
RTVSPropertyOp7
 70
     1
102
RTVSPropertyOp8
 70
     1
102
RTVSPropertyOp9
 70
     1
102
RTVSPropertyOp10
 70
     1
102
RTVSPropertyOp11
 70
     1
102
RTVSPropertyOp12
 70
     1
102
RTVSPropertyOp13
 70
     1
102
RTVSPropertyOp14
 70
     1
102
RTVSPropertyOp15
 70
     1
102
RTVSPropertyOp16
 70
     1
102
RTVSPropertyOp17
 70
     1
102
RTVSPropertyOp18
 70
     1
102
RTVSPropertyOp19
 70
     1
102
RTVSPropertyOp20
 70
     1
102
RTVSPropertyOp21
 70
     1
102
RTVSPropertyOp22
 70
     1
102
RTVSPropertyOp23
 70
     1
102
RTVSPropertyOp24
 70
     1
102
RTVSPropertyOp25
 70
     1
102
RTVSPropertyOp26
 70
     1
102
RTVSPropertyOp27
 70
     1
102
RTVSPropertyOp28
 70
     1
102
RTVSPropertyOp29
 70
     1
102
RTVSPropertyOp30
 70
     1
102
RTVSPropertyOp31
 70
     1
102
RTVSPropertyOp32
 70
     1
102
RTVSPropertyOp33
 70
     1
102
RTVSPropertyOp34
 70
     1
102
RTVSPropertyOp35
 70
     1
102
RTVSPropertyOp36
 70
     1
102
RTVSPropertyOp37
 70
     1
102
RTVSPropertyOp38
 70
     1
102
RTVSPropertyOp39
 70
     1
102
RTVSPropertyOp40
 70
     1
102
RTVSPropertyOp41
 70
     1
102
RTVSPropertyOp42
 70
     1
102
RTVSPropertyOp43
 70
     1
102
RTVSPropertyOp44
 70
     1
102
RTVSPropertyOp45
 70
     1
102
RTVSPropertyOp46
 70
     1
102
RTVSPropertyOp47
 70
     1
102
RTVSPropertyOp48
 70
     1
102
RTVSPropertyOp49
 70
     1
102
RTVSPropertyOp50
 70
     1
102
RTVSPropertyOp51
 70
     0
102
RTVSPropertyOp52
 70
     0
102
RTVSPropertyOp53
 70
     1
102
RTVSPropertyOp54
 70
     1
102
RTVSPropertyOp55
 70
     1
102
RTVSPropertyOp56
 70
     1
102
RTVSPropertyOp57
 70
     1
102
RTVSPropertyOp58
 70
     1
102
RTVSPropertyOp59
 70
     1
102
RTVSPropertyOp60
 70
     1
102
RTVSPropertyOp61
 70
     1
102
RTVSPropertyOp62
 70
     1
  0
XRECORD
  5
4BCB
102
{ACAD_REACTORS
330
4BCA
102
}
330
4BCA
100
AcDbXrecord
280
     1
102
RTVSPost2010Prop28
280
     0
102
RTVSPost2010PropOp28
 70
     1
102
RTVSPost2010Prop29
280
     1
102
RTVSPost2010PropOp29
 70
     1
102
RTVSPost2010Prop30
280
     1
102
RTVSPost2010PropOp30
 70
     1
102
RTVSPost2010Prop31
280
     0
102
RTVSPost2010PropOp31
 70
     1
102
RTVSPost2010Prop32
280
     0
102
RTVSPost2010PropOp32
 70
     1
102
RTVSPost2010Prop33
280
     0
102
RTVSPost2010PropOp33
 70
     1
102
RTVSPost2010Prop34
280
     0
102
RTVSPost2010PropOp34
 70
     1
102
RTVSPost2010Prop35
280
     0
102
RTVSPost2010PropOp35
 70
     1
102
RTVSPost2010Prop36
280
     0
102
RTVSPost2010PropOp36
 70
     1
102
RTVSPost2010Prop37
 90
       50
102
RTVSPost2010PropOp37
 70
     1
102
RTVSPost2010Prop38
140
0.0
102
RTVSPost2010PropOp38
 70
     1
102
RTVSPost2010Prop39
140
1.0
102
RTVSPost2010PropOp39
 70
     1
102
RTVSPost2010Prop40
 90
        0
102
RTVSPost2010PropOp40
 70
     1
102
RTVSPost2010Prop41ColorIndex
 90
       18
102
RTVSPost2010Prop41ColorRGB
 90
        0
102
RTVSPost2010PropOp41
 70
     1
102
RTVSPost2010Prop42
 90
       50
102
RTVSPost2010PropOp42
 70
     1
102
RTVSPost2010Prop43
 90
        3
102
RTVSPost2010PropOp43
 70
     1
102
RTVSPost2010Prop44ColorIndex
 90
        5
102
RTVSPost2010Prop44ColorRGB
 90
      255
102
RTVSPost2010PropOp44
 70
     1
102
RTVSPost2010Prop45
280
     0
102
RTVSPost2010PropOp45
 70
     1
102
RTVSPost2010Prop46
 90
       50
102
RTVSPost2010PropOp46
 70
     1
102
RTVSPost2010Prop47
 90
       50
102
RTVSPost2010PropOp47
 70
     1
102
RTVSPost2010Prop48
 90
       50
102
RTVSPost2010PropOp48
 70
     1
102
RTVSPost2010Prop49
280
     0
102
RTVSPost2010PropOp49
 70
     1
102
RTVSPost2010Prop50
 90
       50
102
RTVSPost2010PropOp50
 70
     1
102
RTVSPost2010Prop51ColorIndex
 90
      256
102
RTVSPost2010Prop51ColorRGB
 90
-16777216
102
RTVSPost2010PropOp51
 70
     0
102
RTVSPost2010Prop52
140
1.0
102
RTVSPost2010PropOp52
 70
     0
102
RTVSPost2010Prop53
 90
        2
102
RTVSPost2010PropOp53
 70
     1
102
RTVSPost2010Prop54
  1
strokes_ogs.tif
102
RTVSPost2010PropOp54
 70
     1
102
RTVSPost2010Prop55
280
     0
102
RTVSPost2010PropOp55
 70
     1
102
RTVSPost2010Prop56
140
1.0
102
RTVSPost2010PropOp56
 70
     1
102
RTVSPost2010Prop57
140
1.0
102
RTVSPost2010PropOp57
 70
     1
102
RTVSPropertyOp0
 70
     1
102
RTVSPropertyOp1
 70
     1
102
RTVSPropertyOp2
 70
     1
102
RTVSPropertyOp3
 70
     1
102
RTVSPropertyOp4
 70
     1
102
RTVSPropertyOp5
 70
     1
102
RTVSPropertyOp6
 70
     1
102
RTVSPropertyOp7
 70
     1
102
RTVSPropertyOp8
 70
     1
102
RTVSPropertyOp9
 70
     1
102
RTVSPropertyOp10
 70
     1
102
RTVSPropertyOp11
 70
     1
102
RTVSPropertyOp12
 70
     1
102
RTVSPropertyOp13
 70
     1
102
RTVSPropertyOp14
 70
     1
102
RTVSPropertyOp15
 70
     1
102
RTVSPropertyOp16
 70
     1
102
RTVSPropertyOp17
 70
     1
102
RTVSPropertyOp18
 70
     1
102
RTVSPropertyOp19
 70
     1
102
RTVSPropertyOp20
 70
     1
102
RTVSPropertyOp21
 70
     1
102
RTVSPropertyOp22
 70
     1
102
RTVSPropertyOp23
 70
     1
102
RTVSPropertyOp24
 70
     1
102
RTVSPropertyOp25
 70
     1
102
RTVSPropertyOp26
 70
     1
102
RTVSPropertyOp27
 70
     1
102
RTVSPropertyOp28
 70
     1
102
RTVSPropertyOp29
 70
     1
102
RTVSPropertyOp30
 70
     1
102
RTVSPropertyOp31
 70
     1
102
RTVSPropertyOp32
 70
     1
102
RTVSPropertyOp33
 70
     1
102
RTVSPropertyOp34
 70
     1
102
RTVSPropertyOp35
 70
     1
102
RTVSPropertyOp36
 70
     1
102
RTVSPropertyOp37
 70
     1
102
RTVSPropertyOp38
 70
     1
102
RTVSPropertyOp39
 70
     1
102
RTVSPropertyOp40
 70
     1
102
RTVSPropertyOp41
 70
     1
102
RTVSPropertyOp42
 70
     1
102
RTVSPropertyOp43
 70
     1
102
RTVSPropertyOp44
 70
     1
102
RTVSPropertyOp45
 70
     1
102
RTVSPropertyOp46
 70
     1
102
RTVSPropertyOp47
 70
     1
102
RTVSPropertyOp48
 70
     1
102
RTVSPropertyOp49
 70
     1
102
RTVSPropertyOp50
 70
     1
102
RTVSPropertyOp51
 70
     0
102
RTVSPropertyOp52
 70
     0
102
RTVSPropertyOp53
 70
     1
102
RTVSPropertyOp54
 70
     1
102
RTVSPropertyOp55
 70
     1
102
RTVSPropertyOp56
 70
     1
102
RTVSPropertyOp57
 70
     1
102
RTVSPropertyOp58
 70
     1
102
RTVSPropertyOp59
 70
     1
102
RTVSPropertyOp60
 70
     1
102
RTVSPropertyOp61
 70
     1
102
RTVSPropertyOp62
 70
     1
  0
XRECORD
  5
4BCD
102
{ACAD_REACTORS
330
4BCC
102
}
330
4BCC
100
AcDbXrecord
280
     1
102
RTVSPost2010Prop28
280
     0
102
RTVSPost2010PropOp28
 70
     1
102
RTVSPost2010Prop29
280
     1
102
RTVSPost2010PropOp29
 70
     1
102
RTVSPost2010Prop30
280
     1
102
RTVSPost2010PropOp30
 70
     1
102
RTVSPost2010Prop31
280
     0
102
RTVSPost2010PropOp31
 70
     1
102
RTVSPost2010Prop32
280
     0
102
RTVSPost2010PropOp32
 70
     1
102
RTVSPost2010Prop33
280
     0
102
RTVSPost2010PropOp33
 70
     1
102
RTVSPost2010Prop34
280
     0
102
RTVSPost2010PropOp34
 70
     1
102
RTVSPost2010Prop35
280
     0
102
RTVSPost2010PropOp35
 70
     1
102
RTVSPost2010Prop36
280
     0
102
RTVSPost2010PropOp36
 70
     1
102
RTVSPost2010Prop37
 90
       50
102
RTVSPost2010PropOp37
 70
     1
102
RTVSPost2010Prop38
140
0.0
102
RTVSPost2010PropOp38
 70
     1
102
RTVSPost2010Prop39
140
1.0
102
RTVSPost2010PropOp39
 70
     1
102
RTVSPost2010Prop40
 90
        0
102
RTVSPost2010PropOp40
 70
     1
102
RTVSPost2010Prop41ColorIndex
 90
       18
102
RTVSPost2010Prop41ColorRGB
 90
        0
102
RTVSPost2010PropOp41
 70
     1
102
RTVSPost2010Prop42
 90
       50
102
RTVSPost2010PropOp42
 70
     1
102
RTVSPost2010Prop43
 90
        3
102
RTVSPost2010PropOp43
 70
     1
102
RTVSPost2010Prop44ColorIndex
 90
        5
102
RTVSPost2010Prop44ColorRGB
 90
      255
102
RTVSPost2010PropOp44
 70
     1
102
RTVSPost2010Prop45
280
     0
102
RTVSPost2010PropOp45
 70
     1
102
RTVSPost2010Prop46
 90
       50
102
RTVSPost2010PropOp46
 70
     1
102
RTVSPost2010Prop47
 90
       50
102
RTVSPost2010PropOp47
 70
     1
102
RTVSPost2010Prop48
 90
       50
102
RTVSPost2010PropOp48
 70
     1
102
RTVSPost2010Prop49
280
     0
102
RTVSPost2010PropOp49
 70
     1
102
RTVSPost2010Prop50
 90
       50
102
RTVSPost2010PropOp50
 70
     1
102
RTVSPost2010Prop51ColorIndex
 90
      256
102
RTVSPost2010Prop51ColorRGB
 90
-16777216
102
RTVSPost2010PropOp51
 70
     0
102
RTVSPost2010Prop52
140
1.0
102
RTVSPost2010PropOp52
 70
     0
102
RTVSPost2010Prop53
 90
        2
102
RTVSPost2010PropOp53
 70
     1
102
RTVSPost2010Prop54
  1
strokes_ogs.tif
102
RTVSPost2010PropOp54
 70
     1
102
RTVSPost2010Prop55
280
     0
102
RTVSPost2010PropOp55
 70
     1
102
RTVSPost2010Prop56
140
1.0
102
RTVSPost2010PropOp56
 70
     1
102
RTVSPost2010Prop57
140
1.0
102
RTVSPost2010PropOp57
 70
     1
102
RTVSPropertyOp0
 70
     1
102
RTVSPropertyOp1
 70
     1
102
RTVSPropertyOp2
 70
     1
102
RTVSPropertyOp3
 70
     1
102
RTVSPropertyOp4
 70
     1
102
RTVSPropertyOp5
 70
     1
102
RTVSPropertyOp6
 70
     1
102
RTVSPropertyOp7
 70
     1
102
RTVSPropertyOp8
 70
     1
102
RTVSPropertyOp9
 70
     1
102
RTVSPropertyOp10
 70
     1
102
RTVSPropertyOp11
 70
     1
102
RTVSPropertyOp12
 70
     1
102
RTVSPropertyOp13
 70
     1
102
RTVSPropertyOp14
 70
     1
102
RTVSPropertyOp15
 70
     1
102
RTVSPropertyOp16
 70
     1
102
RTVSPropertyOp17
 70
     1
102
RTVSPropertyOp18
 70
     1
102
RTVSPropertyOp19
 70
     1
102
RTVSPropertyOp20
 70
     1
102
RTVSPropertyOp21
 70
     1
102
RTVSPropertyOp22
 70
     1
102
RTVSPropertyOp23
 70
     1
102
RTVSPropertyOp24
 70
     1
102
RTVSPropertyOp25
 70
     1
102
RTVSPropertyOp26
 70
     1
102
RTVSPropertyOp27
 70
     1
102
RTVSPropertyOp28
 70
     1
102
RTVSPropertyOp29
 70
     1
102
RTVSPropertyOp30
 70
     1
102
RTVSPropertyOp31
 70
     1
102
RTVSPropertyOp32
 70
     1
102
RTVSPropertyOp33
 70
     1
102
RTVSPropertyOp34
 70
     1
102
RTVSPropertyOp35
 70
     1
102
RTVSPropertyOp36
 70
     1
102
RTVSPropertyOp37
 70
     1
102
RTVSPropertyOp38
 70
     1
102
RTVSPropertyOp39
 70
     1
102
RTVSPropertyOp40
 70
     1
102
RTVSPropertyOp41
 70
     1
102
RTVSPropertyOp42
 70
     1
102
RTVSPropertyOp43
 70
     1
102
RTVSPropertyOp44
 70
     1
102
RTVSPropertyOp45
 70
     1
102
RTVSPropertyOp46
 70
     1
102
RTVSPropertyOp47
 70
     1
102
RTVSPropertyOp48
 70
     1
102
RTVSPropertyOp49
 70
     1
102
RTVSPropertyOp50
 70
     1
102
RTVSPropertyOp51
 70
     0
102
RTVSPropertyOp52
 70
     0
102
RTVSPropertyOp53
 70
     1
102
RTVSPropertyOp54
 70
     1
102
RTVSPropertyOp55
 70
     1
102
RTVSPropertyOp56
 70
     1
102
RTVSPropertyOp57
 70
     1
102
RTVSPropertyOp58
 70
     1
102
RTVSPropertyOp59
 70
     1
102
RTVSPropertyOp60
 70
     1
102
RTVSPropertyOp61
 70
     1
102
RTVSPropertyOp62
 70
     1
  0
XRECORD
  5
4BEE
102
{ACAD_REACTORS
330
4BED
102
}
330
4BED
100
AcDbXrecord
280
     1
102
RTVSPost2010Prop28
280
     0
102
RTVSPost2010PropOp28
 70
     1
102
RTVSPost2010Prop29
280
     1
102
RTVSPost2010PropOp29
 70
     1
102
RTVSPost2010Prop30
280
     1
102
RTVSPost2010PropOp30
 70
     1
102
RTVSPost2010Prop31
280
     0
102
RTVSPost2010PropOp31
 70
     1
102
RTVSPost2010Prop32
280
     0
102
RTVSPost2010PropOp32
 70
     1
102
RTVSPost2010Prop33
280
     0
102
RTVSPost2010PropOp33
 70
     1
102
RTVSPost2010Prop34
280
     0
102
RTVSPost2010PropOp34
 70
     1
102
RTVSPost2010Prop35
280
     0
102
RTVSPost2010PropOp35
 70
     1
102
RTVSPost2010Prop36
280
     0
102
RTVSPost2010PropOp36
 70
     1
102
RTVSPost2010Prop37
 90
       50
102
RTVSPost2010PropOp37
 70
     1
102
RTVSPost2010Prop38
140
0.0
102
RTVSPost2010PropOp38
 70
     1
102
RTVSPost2010Prop39
140
1.0
102
RTVSPost2010PropOp39
 70
     1
102
RTVSPost2010Prop40
 90
        0
102
RTVSPost2010PropOp40
 70
     1
102
RTVSPost2010Prop41ColorIndex
 90
       18
102
RTVSPost2010Prop41ColorRGB
 90
        0
102
RTVSPost2010PropOp41
 70
     1
102
RTVSPost2010Prop42
 90
       50
102
RTVSPost2010PropOp42
 70
     1
102
RTVSPost2010Prop43
 90
        3
102
RTVSPost2010PropOp43
 70
     1
102
RTVSPost2010Prop44ColorIndex
 90
        5
102
RTVSPost2010Prop44ColorRGB
 90
      255
102
RTVSPost2010PropOp44
 70
     1
102
RTVSPost2010Prop45
280
     0
102
RTVSPost2010PropOp45
 70
     1
102
RTVSPost2010Prop46
 90
       50
102
RTVSPost2010PropOp46
 70
     1
102
RTVSPost2010Prop47
 90
       50
102
RTVSPost2010PropOp47
 70
     1
102
RTVSPost2010Prop48
 90
       50
102
RTVSPost2010PropOp48
 70
     1
102
RTVSPost2010Prop49
280
     0
102
RTVSPost2010PropOp49
 70
     1
102
RTVSPost2010Prop50
 90
       50
102
RTVSPost2010PropOp50
 70
     1
102
RTVSPost2010Prop51ColorIndex
 90
      256
102
RTVSPost2010Prop51ColorRGB
 90
-16777216
102
RTVSPost2010PropOp51
 70
     0
102
RTVSPost2010Prop52
140
1.0
102
RTVSPost2010PropOp52
 70
     0
102
RTVSPost2010Prop53
 90
        2
102
RTVSPost2010PropOp53
 70
     1
102
RTVSPost2010Prop54
  1
strokes_ogs.tif
102
RTVSPost2010PropOp54
 70
     1
102
RTVSPost2010Prop55
280
     0
102
RTVSPost2010PropOp55
 70
     1
102
RTVSPost2010Prop56
140
1.0
102
RTVSPost2010PropOp56
 70
     1
102
RTVSPost2010Prop57
140
1.0
102
RTVSPost2010PropOp57
 70
     1
102
RTVSPropertyOp0
 70
     1
102
RTVSPropertyOp1
 70
     1
102
RTVSPropertyOp2
 70
     1
102
RTVSPropertyOp3
 70
     1
102
RTVSPropertyOp4
 70
     1
102
RTVSPropertyOp5
 70
     1
102
RTVSPropertyOp6
 70
     1
102
RTVSPropertyOp7
 70
     1
102
RTVSPropertyOp8
 70
     1
102
RTVSPropertyOp9
 70
     1
102
RTVSPropertyOp10
 70
     1
102
RTVSPropertyOp11
 70
     1
102
RTVSPropertyOp12
 70
     1
102
RTVSPropertyOp13
 70
     1
102
RTVSPropertyOp14
 70
     1
102
RTVSPropertyOp15
 70
     1
102
RTVSPropertyOp16
 70
     1
102
RTVSPropertyOp17
 70
     1
102
RTVSPropertyOp18
 70
     1
102
RTVSPropertyOp19
 70
     1
102
RTVSPropertyOp20
 70
     1
102
RTVSPropertyOp21
 70
     1
102
RTVSPropertyOp22
 70
     1
102
RTVSPropertyOp23
 70
     1
102
RTVSPropertyOp24
 70
     1
102
RTVSPropertyOp25
 70
     1
102
RTVSPropertyOp26
 70
     1
102
RTVSPropertyOp27
 70
     1
102
RTVSPropertyOp28
 70
     1
102
RTVSPropertyOp29
 70
     1
102
RTVSPropertyOp30
 70
     1
102
RTVSPropertyOp31
 70
     1
102
RTVSPropertyOp32
 70
     1
102
RTVSPropertyOp33
 70
     1
102
RTVSPropertyOp34
 70
     1
102
RTVSPropertyOp35
 70
     1
102
RTVSPropertyOp36
 70
     1
102
RTVSPropertyOp37
 70
     1
102
RTVSPropertyOp38
 70
     1
102
RTVSPropertyOp39
 70
     1
102
RTVSPropertyOp40
 70
     1
102
RTVSPropertyOp41
 70
     1
102
RTVSPropertyOp42
 70
     1
102
RTVSPropertyOp43
 70
     1
102
RTVSPropertyOp44
 70
     1
102
RTVSPropertyOp45
 70
     1
102
RTVSPropertyOp46
 70
     1
102
RTVSPropertyOp47
 70
     1
102
RTVSPropertyOp48
 70
     1
102
RTVSPropertyOp49
 70
     1
102
RTVSPropertyOp50
 70
     1
102
RTVSPropertyOp51
 70
     0
102
RTVSPropertyOp52
 70
     0
102
RTVSPropertyOp53
 70
     1
102
RTVSPropertyOp54
 70
     1
102
RTVSPropertyOp55
 70
     1
102
RTVSPropertyOp56
 70
     1
102
RTVSPropertyOp57
 70
     1
102
RTVSPropertyOp58
 70
     1
102
RTVSPropertyOp59
 70
     1
102
RTVSPropertyOp60
 70
     1
102
RTVSPropertyOp61
 70
     1
102
RTVSPropertyOp62
 70
     1
  0
XRECORD
  5
4BFA
102
{ACAD_REACTORS
330
4BF9
102
}
330
4BF9
100
AcDbXrecord
280
     1
102
RTVSPost2010Prop28
280
     0
102
RTVSPost2010PropOp28
 70
     1
102
RTVSPost2010Prop29
280
     1
102
RTVSPost2010PropOp29
 70
     1
102
RTVSPost2010Prop30
280
     1
102
RTVSPost2010PropOp30
 70
     1
102
RTVSPost2010Prop31
280
     0
102
RTVSPost2010PropOp31
 70
     1
102
RTVSPost2010Prop32
280
     0
102
RTVSPost2010PropOp32
 70
     1
102
RTVSPost2010Prop33
280
     0
102
RTVSPost2010PropOp33
 70
     1
102
RTVSPost2010Prop34
280
     0
102
RTVSPost2010PropOp34
 70
     1
102
RTVSPost2010Prop35
280
     0
102
RTVSPost2010PropOp35
 70
     1
102
RTVSPost2010Prop36
280
     0
102
RTVSPost2010PropOp36
 70
     1
102
RTVSPost2010Prop37
 90
       50
102
RTVSPost2010PropOp37
 70
     0
102
RTVSPost2010Prop38
140
0.0
102
RTVSPost2010PropOp38
 70
     0
102
RTVSPost2010Prop39
140
1.0
102
RTVSPost2010PropOp39
 70
     0
102
RTVSPost2010Prop40
 90
        0
102
RTVSPost2010PropOp40
 70
     0
102
RTVSPost2010Prop41ColorIndex
 90
       18
102
RTVSPost2010Prop41ColorRGB
 90
        0
102
RTVSPost2010PropOp41
 70
     0
102
RTVSPost2010Prop42
 90
       50
102
RTVSPost2010PropOp42
 70
     0
102
RTVSPost2010Prop43
 90
        3
102
RTVSPost2010PropOp43
 70
     0
102
RTVSPost2010Prop44ColorIndex
 90
        5
102
RTVSPost2010Prop44ColorRGB
 90
      255
102
RTVSPost2010PropOp44
 70
     0
102
RTVSPost2010Prop45
280
     0
102
RTVSPost2010PropOp45
 70
     1
102
RTVSPost2010Prop46
 90
       50
102
RTVSPost2010PropOp46
 70
     0
102
RTVSPost2010Prop47
 90
       50
102
RTVSPost2010PropOp47
 70
     0
102
RTVSPost2010Prop48
 90
       50
102
RTVSPost2010PropOp48
 70
     0
102
RTVSPost2010Prop49
280
     0
102
RTVSPost2010PropOp49
 70
     1
102
RTVSPost2010Prop50
 90
       50
102
RTVSPost2010PropOp50
 70
     0
102
RTVSPost2010Prop51ColorIndex
 90
      256
102
RTVSPost2010Prop51ColorRGB
 90
-16777216
102
RTVSPost2010PropOp51
 70
     0
102
RTVSPost2010Prop52
140
1.0
102
RTVSPost2010PropOp52
 70
     0
102
RTVSPost2010Prop53
 90
        2
102
RTVSPost2010PropOp53
 70
     0
102
RTVSPost2010Prop54
  1
strokes_ogs.tif
102
RTVSPost2010PropOp54
 70
     0
102
RTVSPost2010Prop55
280
     0
102
RTVSPost2010PropOp55
 70
     1
102
RTVSPost2010Prop56
140
1.0
102
RTVSPost2010PropOp56
 70
     0
102
RTVSPost2010Prop57
140
1.0
102
RTVSPost2010PropOp57
 70
     0
102
RTVSPropertyOp0
 70
     0
102
RTVSPropertyOp1
 70
     0
102
RTVSPropertyOp2
 70
     0
102
RTVSPropertyOp3
 70
     0
102
RTVSPropertyOp4
 70
     0
102
RTVSPropertyOp5
 70
     0
102
RTVSPropertyOp6
 70
     0
102
RTVSPropertyOp7
 70
     0
102
RTVSPropertyOp8
 70
     0
102
RTVSPropertyOp9
 70
     0
102
RTVSPropertyOp10
 70
     0
102
RTVSPropertyOp11
 70
     0
102
RTVSPropertyOp12
 70
     0
102
RTVSPropertyOp13
 70
     0
102
RTVSPropertyOp14
 70
     2
102
RTVSPropertyOp15
 70
     0
102
RTVSPropertyOp16
 70
     0
102
RTVSPropertyOp17
 70
     0
102
RTVSPropertyOp18
 70
     0
102
RTVSPropertyOp19
 70
     0
102
RTVSPropertyOp20
 70
     0
102
RTVSPropertyOp21
 70
     0
102
RTVSPropertyOp22
 70
     0
102
RTVSPropertyOp23
 70
     0
102
RTVSPropertyOp24
 70
     0
102
RTVSPropertyOp25
 70
     0
102
RTVSPropertyOp26
 70
     0
102
RTVSPropertyOp27
 70
     0
102
RTVSPropertyOp28
 70
     1
102
RTVSPropertyOp29
 70
     1
102
RTVSPropertyOp30
 70
     1
102
RTVSPropertyOp31
 70
     1
102
RTVSPropertyOp32
 70
     1
102
RTVSPropertyOp33
 70
     1
102
RTVSPropertyOp34
 70
     1
102
RTVSPropertyOp35
 70
     1
102
RTVSPropertyOp36
 70
     1
102
RTVSPropertyOp37
 70
     0
102
RTVSPropertyOp38
 70
     0
102
RTVSPropertyOp39
 70
     0
102
RTVSPropertyOp40
 70
     0
102
RTVSPropertyOp41
 70
     0
102
RTVSPropertyOp42
 70
     0
102
RTVSPropertyOp43
 70
     0
102
RTVSPropertyOp44
 70
     0
102
RTVSPropertyOp45
 70
     1
102
RTVSPropertyOp46
 70
     0
102
RTVSPropertyOp47
 70
     0
102
RTVSPropertyOp48
 70
     0
102
RTVSPropertyOp49
 70
     1
102
RTVSPropertyOp50
 70
     0
102
RTVSPropertyOp51
 70
     0
102
RTVSPropertyOp52
 70
     0
102
RTVSPropertyOp53
 70
     0
102
RTVSPropertyOp54
 70
     0
102
RTVSPropertyOp55
 70
     1
102
RTVSPropertyOp56
 70
     0
102
RTVSPropertyOp57
 70
     0
102
RTVSPropertyOp58
 70
     0
102
RTVSPropertyOp59
 70
     0
102
RTVSPropertyOp60
 70
     0
102
RTVSPropertyOp61
 70
     0
102
RTVSPropertyOp62
 70
     0
  0
XRECORD
  5
4BE1
102
{ACAD_REACTORS
330
4BE0
102
}
330
4BE0
100
AcDbXrecord
280
     1
102
RTVSPost2010Prop28
280
     0
102
RTVSPost2010PropOp28
 70
     1
102
RTVSPost2010Prop29
280
     1
102
RTVSPost2010PropOp29
 70
     1
102
RTVSPost2010Prop30
280
     1
102
RTVSPost2010PropOp30
 70
     1
102
RTVSPost2010Prop31
280
     0
102
RTVSPost2010PropOp31
 70
     1
102
RTVSPost2010Prop32
280
     0
102
RTVSPost2010PropOp32
 70
     1
102
RTVSPost2010Prop33
280
     0
102
RTVSPost2010PropOp33
 70
     1
102
RTVSPost2010Prop34
280
     0
102
RTVSPost2010PropOp34
 70
     1
102
RTVSPost2010Prop35
280
     0
102
RTVSPost2010PropOp35
 70
     1
102
RTVSPost2010Prop36
280
     0
102
RTVSPost2010PropOp36
 70
     1
102
RTVSPost2010Prop37
 90
       50
102
RTVSPost2010PropOp37
 70
     1
102
RTVSPost2010Prop38
140
0.0
102
RTVSPost2010PropOp38
 70
     1
102
RTVSPost2010Prop39
140
1.0
102
RTVSPost2010PropOp39
 70
     1
102
RTVSPost2010Prop40
 90
        0
102
RTVSPost2010PropOp40
 70
     1
102
RTVSPost2010Prop41ColorIndex
 90
       18
102
RTVSPost2010Prop41ColorRGB
 90
        0
102
RTVSPost2010PropOp41
 70
     1
102
RTVSPost2010Prop42
 90
       50
102
RTVSPost2010PropOp42
 70
     1
102
RTVSPost2010Prop43
 90
        3
102
RTVSPost2010PropOp43
 70
     1
102
RTVSPost2010Prop44ColorIndex
 90
        5
102
RTVSPost2010Prop44ColorRGB
 90
      255
102
RTVSPost2010PropOp44
 70
     1
102
RTVSPost2010Prop45
280
     0
102
RTVSPost2010PropOp45
 70
     1
102
RTVSPost2010Prop46
 90
       50
102
RTVSPost2010PropOp46
 70
     1
102
RTVSPost2010Prop47
 90
       50
102
RTVSPost2010PropOp47
 70
     1
102
RTVSPost2010Prop48
 90
       50
102
RTVSPost2010PropOp48
 70
     1
102
RTVSPost2010Prop49
280
     0
102
RTVSPost2010PropOp49
 70
     1
102
RTVSPost2010Prop50
 90
       50
102
RTVSPost2010PropOp50
 70
     1
102
RTVSPost2010Prop51ColorIndex
 90
      256
102
RTVSPost2010Prop51ColorRGB
 90
-16777216
102
RTVSPost2010PropOp51
 70
     0
102
RTVSPost2010Prop52
140
1.0
102
RTVSPost2010PropOp52
 70
     0
102
RTVSPost2010Prop53
 90
        2
102
RTVSPost2010PropOp53
 70
     1
102
RTVSPost2010Prop54
  1
strokes_ogs.tif
102
RTVSPost2010PropOp54
 70
     1
102
RTVSPost2010Prop55
280
     0
102
RTVSPost2010PropOp55
 70
     1
102
RTVSPost2010Prop56
140
1.0
102
RTVSPost2010PropOp56
 70
     1
102
RTVSPost2010Prop57
140
1.0
102
RTVSPost2010PropOp57
 70
     1
102
RTVSPropertyOp0
 70
     1
102
RTVSPropertyOp1
 70
     1
102
RTVSPropertyOp2
 70
     1
102
RTVSPropertyOp3
 70
     1
102
RTVSPropertyOp4
 70
     1
102
RTVSPropertyOp5
 70
     1
102
RTVSPropertyOp6
 70
     1
102
RTVSPropertyOp7
 70
     1
102
RTVSPropertyOp8
 70
     1
102
RTVSPropertyOp9
 70
     1
102
RTVSPropertyOp10
 70
     1
102
RTVSPropertyOp11
 70
     1
102
RTVSPropertyOp12
 70
     1
102
RTVSPropertyOp13
 70
     1
102
RTVSPropertyOp14
 70
     1
102
RTVSPropertyOp15
 70
     1
102
RTVSPropertyOp16
 70
     1
102
RTVSPropertyOp17
 70
     1
102
RTVSPropertyOp18
 70
     1
102
RTVSPropertyOp19
 70
     1
102
RTVSPropertyOp20
 70
     1
102
RTVSPropertyOp21
 70
     1
102
RTVSPropertyOp22
 70
     1
102
RTVSPropertyOp23
 70
     1
102
RTVSPropertyOp24
 70
     1
102
RTVSPropertyOp25
 70
     1
102
RTVSPropertyOp26
 70
     1
102
RTVSPropertyOp27
 70
     1
102
RTVSPropertyOp28
 70
     1
102
RTVSPropertyOp29
 70
     1
102
RTVSPropertyOp30
 70
     1
102
RTVSPropertyOp31
 70
     1
102
RTVSPropertyOp32
 70
     1
102
RTVSPropertyOp33
 70
     1
102
RTVSPropertyOp34
 70
     1
102
RTVSPropertyOp35
 70
     1
102
RTVSPropertyOp36
 70
     1
102
RTVSPropertyOp37
 70
     1
102
RTVSPropertyOp38
 70
     1
102
RTVSPropertyOp39
 70
     1
102
RTVSPropertyOp40
 70
     1
102
RTVSPropertyOp41
 70
     1
102
RTVSPropertyOp42
 70
     1
102
RTVSPropertyOp43
 70
     1
102
RTVSPropertyOp44
 70
     1
102
RTVSPropertyOp45
 70
     1
102
RTVSPropertyOp46
 70
     1
102
RTVSPropertyOp47
 70
     1
102
RTVSPropertyOp48
 70
     1
102
RTVSPropertyOp49
 70
     1
102
RTVSPropertyOp50
 70
     1
102
RTVSPropertyOp51
 70
     0
102
RTVSPropertyOp52
 70
     0
102
RTVSPropertyOp53
 70
     1
102
RTVSPropertyOp54
 70
     1
102
RTVSPropertyOp55
 70
     1
102
RTVSPropertyOp56
 70
     1
102
RTVSPropertyOp57
 70
     1
102
RTVSPropertyOp58
 70
     1
102
RTVSPropertyOp59
 70
     1
102
RTVSPropertyOp60
 70
     1
102
RTVSPropertyOp61
 70
     1
102
RTVSPropertyOp62
 70
     1
  0
XRECORD
  5
4BFC
102
{ACAD_REACTORS
330
4BFB
102
}
330
4BFB
100
AcDbXrecord
280
     1
102
RTVSPost2010Prop28
280
     0
102
RTVSPost2010PropOp28
 70
     1
102
RTVSPost2010Prop29
280
     1
102
RTVSPost2010PropOp29
 70
     1
102
RTVSPost2010Prop30
280
     1
102
RTVSPost2010PropOp30
 70
     1
102
RTVSPost2010Prop31
280
     0
102
RTVSPost2010PropOp31
 70
     1
102
RTVSPost2010Prop32
280
     0
102
RTVSPost2010PropOp32
 70
     1
102
RTVSPost2010Prop33
280
     0
102
RTVSPost2010PropOp33
 70
     1
102
RTVSPost2010Prop34
280
     0
102
RTVSPost2010PropOp34
 70
     1
102
RTVSPost2010Prop35
280
     0
102
RTVSPost2010PropOp35
 70
     1
102
RTVSPost2010Prop36
280
     0
102
RTVSPost2010PropOp36
 70
     1
102
RTVSPost2010Prop37
 90
       50
102
RTVSPost2010PropOp37
 70
     0
102
RTVSPost2010Prop38
140
0.0
102
RTVSPost2010PropOp38
 70
     0
102
RTVSPost2010Prop39
140
1.0
102
RTVSPost2010PropOp39
 70
     0
102
RTVSPost2010Prop40
 90
        0
102
RTVSPost2010PropOp40
 70
     0
102
RTVSPost2010Prop41ColorIndex
 90
       18
102
RTVSPost2010Prop41ColorRGB
 90
        0
102
RTVSPost2010PropOp41
 70
     0
102
RTVSPost2010Prop42
 90
       50
102
RTVSPost2010PropOp42
 70
     0
102
RTVSPost2010Prop43
 90
        3
102
RTVSPost2010PropOp43
 70
     0
102
RTVSPost2010Prop44ColorIndex
 90
        5
102
RTVSPost2010Prop44ColorRGB
 90
      255
102
RTVSPost2010PropOp44
 70
     0
102
RTVSPost2010Prop45
280
     0
102
RTVSPost2010PropOp45
 70
     1
102
RTVSPost2010Prop46
 90
       50
102
RTVSPost2010PropOp46
 70
     0
102
RTVSPost2010Prop47
 90
       50
102
RTVSPost2010PropOp47
 70
     0
102
RTVSPost2010Prop48
 90
       50
102
RTVSPost2010PropOp48
 70
     0
102
RTVSPost2010Prop49
280
     0
102
RTVSPost2010PropOp49
 70
     1
102
RTVSPost2010Prop50
 90
       50
102
RTVSPost2010PropOp50
 70
     0
102
RTVSPost2010Prop51ColorIndex
 90
      256
102
RTVSPost2010Prop51ColorRGB
 90
-16777216
102
RTVSPost2010PropOp51
 70
     0
102
RTVSPost2010Prop52
140
1.0
102
RTVSPost2010PropOp52
 70
     0
102
RTVSPost2010Prop53
 90
        2
102
RTVSPost2010PropOp53
 70
     0
102
RTVSPost2010Prop54
  1
strokes_ogs.tif
102
RTVSPost2010PropOp54
 70
     0
102
RTVSPost2010Prop55
280
     0
102
RTVSPost2010PropOp55
 70
     1
102
RTVSPost2010Prop56
140
1.0
102
RTVSPost2010PropOp56
 70
     0
102
RTVSPost2010Prop57
140
1.0
102
RTVSPost2010PropOp57
 70
     0
102
RTVSPropertyOp0
 70
     0
102
RTVSPropertyOp1
 70
     0
102
RTVSPropertyOp2
 70
     0
102
RTVSPropertyOp3
 70
     0
102
RTVSPropertyOp4
 70
     0
102
RTVSPropertyOp5
 70
     0
102
RTVSPropertyOp6
 70
     0
102
RTVSPropertyOp7
 70
     0
102
RTVSPropertyOp8
 70
     0
102
RTVSPropertyOp9
 70
     0
102
RTVSPropertyOp10
 70
     0
102
RTVSPropertyOp11
 70
     0
102
RTVSPropertyOp12
 70
     0
102
RTVSPropertyOp13
 70
     0
102
RTVSPropertyOp14
 70
     2
102
RTVSPropertyOp15
 70
     0
102
RTVSPropertyOp16
 70
     0
102
RTVSPropertyOp17
 70
     0
102
RTVSPropertyOp18
 70
     0
102
RTVSPropertyOp19
 70
     0
102
RTVSPropertyOp20
 70
     0
102
RTVSPropertyOp21
 70
     0
102
RTVSPropertyOp22
 70
     0
102
RTVSPropertyOp23
 70
     0
102
RTVSPropertyOp24
 70
     0
102
RTVSPropertyOp25
 70
     0
102
RTVSPropertyOp26
 70
     0
102
RTVSPropertyOp27
 70
     0
102
RTVSPropertyOp28
 70
     1
102
RTVSPropertyOp29
 70
     1
102
RTVSPropertyOp30
 70
     1
102
RTVSPropertyOp31
 70
     1
102
RTVSPropertyOp32
 70
     1
102
RTVSPropertyOp33
 70
     1
102
RTVSPropertyOp34
 70
     1
102
RTVSPropertyOp35
 70
     1
102
RTVSPropertyOp36
 70
     1
102
RTVSPropertyOp37
 70
     0
102
RTVSPropertyOp38
 70
     0
102
RTVSPropertyOp39
 70
     0
102
RTVSPropertyOp40
 70
     0
102
RTVSPropertyOp41
 70
     0
102
RTVSPropertyOp42
 70
     0
102
RTVSPropertyOp43
 70
     0
102
RTVSPropertyOp44
 70
     0
102
RTVSPropertyOp45
 70
     1
102
RTVSPropertyOp46
 70
     0
102
RTVSPropertyOp47
 70
     0
102
RTVSPropertyOp48
 70
     0
102
RTVSPropertyOp49
 70
     1
102
RTVSPropertyOp50
 70
     0
102
RTVSPropertyOp51
 70
     0
102
RTVSPropertyOp52
 70
     0
102
RTVSPropertyOp53
 70
     0
102
RTVSPropertyOp54
 70
     0
102
RTVSPropertyOp55
 70
     1
102
RTVSPropertyOp56
 70
     0
102
RTVSPropertyOp57
 70
     0
102
RTVSPropertyOp58
 70
     0
102
RTVSPropertyOp59
 70
     0
102
RTVSPropertyOp60
 70
     0
102
RTVSPropertyOp61
 70
     0
102
RTVSPropertyOp62
 70
     0
  0
XRECORD
  5
4BD9
102
{ACAD_REACTORS
330
4BD8
102
}
330
4BD8
100
AcDbXrecord
280
     1
102
RTVSPost2010Prop28
280
     0
102
RTVSPost2010PropOp28
 70
     1
102
RTVSPost2010Prop29
280
     1
102
RTVSPost2010PropOp29
 70
     1
102
RTVSPost2010Prop30
280
     1
102
RTVSPost2010PropOp30
 70
     1
102
RTVSPost2010Prop31
280
     0
102
RTVSPost2010PropOp31
 70
     1
102
RTVSPost2010Prop32
280
     0
102
RTVSPost2010PropOp32
 70
     1
102
RTVSPost2010Prop33
280
     0
102
RTVSPost2010PropOp33
 70
     1
102
RTVSPost2010Prop34
280
     0
102
RTVSPost2010PropOp34
 70
     1
102
RTVSPost2010Prop35
280
     0
102
RTVSPost2010PropOp35
 70
     1
102
RTVSPost2010Prop36
280
     0
102
RTVSPost2010PropOp36
 70
     1
102
RTVSPost2010Prop37
 90
       50
102
RTVSPost2010PropOp37
 70
     1
102
RTVSPost2010Prop38
140
0.0
102
RTVSPost2010PropOp38
 70
     1
102
RTVSPost2010Prop39
140
1.0
102
RTVSPost2010PropOp39
 70
     1
102
RTVSPost2010Prop40
 90
        0
102
RTVSPost2010PropOp40
 70
     1
102
RTVSPost2010Prop41ColorIndex
 90
       18
102
RTVSPost2010Prop41ColorRGB
 90
        0
102
RTVSPost2010PropOp41
 70
     1
102
RTVSPost2010Prop42
 90
       50
102
RTVSPost2010PropOp42
 70
     1
102
RTVSPost2010Prop43
 90
        3
102
RTVSPost2010PropOp43
 70
     1
102
RTVSPost2010Prop44ColorIndex
 90
        5
102
RTVSPost2010Prop44ColorRGB
 90
      255
102
RTVSPost2010PropOp44
 70
     1
102
RTVSPost2010Prop45
280
     0
102
RTVSPost2010PropOp45
 70
     1
102
RTVSPost2010Prop46
 90
       50
102
RTVSPost2010PropOp46
 70
     1
102
RTVSPost2010Prop47
 90
       50
102
RTVSPost2010PropOp47
 70
     1
102
RTVSPost2010Prop48
 90
       50
102
RTVSPost2010PropOp48
 70
     1
102
RTVSPost2010Prop49
280
     0
102
RTVSPost2010PropOp49
 70
     1
102
RTVSPost2010Prop50
 90
       50
102
RTVSPost2010PropOp50
 70
     1
102
RTVSPost2010Prop51ColorIndex
 90
      256
102
RTVSPost2010Prop51ColorRGB
 90
-16777216
102
RTVSPost2010PropOp51
 70
     0
102
RTVSPost2010Prop52
140
1.0
102
RTVSPost2010PropOp52
 70
     0
102
RTVSPost2010Prop53
 90
        2
102
RTVSPost2010PropOp53
 70
     1
102
RTVSPost2010Prop54
  1
strokes_ogs.tif
102
RTVSPost2010PropOp54
 70
     1
102
RTVSPost2010Prop55
280
     0
102
RTVSPost2010PropOp55
 70
     1
102
RTVSPost2010Prop56
140
1.0
102
RTVSPost2010PropOp56
 70
     1
102
RTVSPost2010Prop57
140
1.0
102
RTVSPost2010PropOp57
 70
     1
102
RTVSPropertyOp0
 70
     1
102
RTVSPropertyOp1
 70
     1
102
RTVSPropertyOp2
 70
     1
102
RTVSPropertyOp3
 70
     1
102
RTVSPropertyOp4
 70
     1
102
RTVSPropertyOp5
 70
     1
102
RTVSPropertyOp6
 70
     1
102
RTVSPropertyOp7
 70
     1
102
RTVSPropertyOp8
 70
     1
102
RTVSPropertyOp9
 70
     1
102
RTVSPropertyOp10
 70
     1
102
RTVSPropertyOp11
 70
     1
102
RTVSPropertyOp12
 70
     1
102
RTVSPropertyOp13
 70
     1
102
RTVSPropertyOp14
 70
     1
102
RTVSPropertyOp15
 70
     1
102
RTVSPropertyOp16
 70
     1
102
RTVSPropertyOp17
 70
     1
102
RTVSPropertyOp18
 70
     1
102
RTVSPropertyOp19
 70
     1
102
RTVSPropertyOp20
 70
     1
102
RTVSPropertyOp21
 70
     1
102
RTVSPropertyOp22
 70
     1
102
RTVSPropertyOp23
 70
     1
102
RTVSPropertyOp24
 70
     1
102
RTVSPropertyOp25
 70
     1
102
RTVSPropertyOp26
 70
     1
102
RTVSPropertyOp27
 70
     1
102
RTVSPropertyOp28
 70
     1
102
RTVSPropertyOp29
 70
     1
102
RTVSPropertyOp30
 70
     1
102
RTVSPropertyOp31
 70
     1
102
RTVSPropertyOp32
 70
     1
102
RTVSPropertyOp33
 70
     1
102
RTVSPropertyOp34
 70
     1
102
RTVSPropertyOp35
 70
     1
102
RTVSPropertyOp36
 70
     1
102
RTVSPropertyOp37
 70
     1
102
RTVSPropertyOp38
 70
     1
102
RTVSPropertyOp39
 70
     1
102
RTVSPropertyOp40
 70
     1
102
RTVSPropertyOp41
 70
     1
102
RTVSPropertyOp42
 70
     1
102
RTVSPropertyOp43
 70
     1
102
RTVSPropertyOp44
 70
     1
102
RTVSPropertyOp45
 70
     1
102
RTVSPropertyOp46
 70
     1
102
RTVSPropertyOp47
 70
     1
102
RTVSPropertyOp48
 70
     1
102
RTVSPropertyOp49
 70
     1
102
RTVSPropertyOp50
 70
     1
102
RTVSPropertyOp51
 70
     0
102
RTVSPropertyOp52
 70
     0
102
RTVSPropertyOp53
 70
     1
102
RTVSPropertyOp54
 70
     1
102
RTVSPropertyOp55
 70
     1
102
RTVSPropertyOp56
 70
     1
102
RTVSPropertyOp57
 70
     1
102
RTVSPropertyOp58
 70
     1
102
RTVSPropertyOp59
 70
     1
102
RTVSPropertyOp60
 70
     1
102
RTVSPropertyOp61
 70
     1
102
RTVSPropertyOp62
 70
     1
  0
XRECORD
  5
4BF8
102
{ACAD_REACTORS
330
4BF7
102
}
330
4BF7
100
AcDbXrecord
280
     1
102
RTVSPost2010Prop28
280
     0
102
RTVSPost2010PropOp28
 70
     1
102
RTVSPost2010Prop29
280
     1
102
RTVSPost2010PropOp29
 70
     1
102
RTVSPost2010Prop30
280
     1
102
RTVSPost2010PropOp30
 70
     1
102
RTVSPost2010Prop31
280
     0
102
RTVSPost2010PropOp31
 70
     1
102
RTVSPost2010Prop32
280
     0
102
RTVSPost2010PropOp32
 70
     1
102
RTVSPost2010Prop33
280
     0
102
RTVSPost2010PropOp33
 70
     1
102
RTVSPost2010Prop34
280
     0
102
RTVSPost2010PropOp34
 70
     1
102
RTVSPost2010Prop35
280
     0
102
RTVSPost2010PropOp35
 70
     1
102
RTVSPost2010Prop36
280
     0
102
RTVSPost2010PropOp36
 70
     1
102
RTVSPost2010Prop37
 90
       50
102
RTVSPost2010PropOp37
 70
     1
102
RTVSPost2010Prop38
140
0.0
102
RTVSPost2010PropOp38
 70
     1
102
RTVSPost2010Prop39
140
1.0
102
RTVSPost2010PropOp39
 70
     1
102
RTVSPost2010Prop40
 90
        0
102
RTVSPost2010PropOp40
 70
     1
102
RTVSPost2010Prop41ColorIndex
 90
       18
102
RTVSPost2010Prop41ColorRGB
 90
        0
102
RTVSPost2010PropOp41
 70
     1
102
RTVSPost2010Prop42
 90
       50
102
RTVSPost2010PropOp42
 70
     1
102
RTVSPost2010Prop43
 90
        3
102
RTVSPost2010PropOp43
 70
     1
102
RTVSPost2010Prop44ColorIndex
 90
        5
102
RTVSPost2010Prop44ColorRGB
 90
      255
102
RTVSPost2010PropOp44
 70
     1
102
RTVSPost2010Prop45
280
     0
102
RTVSPost2010PropOp45
 70
     1
102
RTVSPost2010Prop46
 90
       50
102
RTVSPost2010PropOp46
 70
     1
102
RTVSPost2010Prop47
 90
       50
102
RTVSPost2010PropOp47
 70
     1
102
RTVSPost2010Prop48
 90
       50
102
RTVSPost2010PropOp48
 70
     1
102
RTVSPost2010Prop49
280
     0
102
RTVSPost2010PropOp49
 70
     1
102
RTVSPost2010Prop50
 90
       50
102
RTVSPost2010PropOp50
 70
     1
102
RTVSPost2010Prop51ColorIndex
 90
      256
102
RTVSPost2010Prop51ColorRGB
 90
-16777216
102
RTVSPost2010PropOp51
 70
     0
102
RTVSPost2010Prop52
140
1.0
102
RTVSPost2010PropOp52
 70
     0
102
RTVSPost2010Prop53
 90
        2
102
RTVSPost2010PropOp53
 70
     1
102
RTVSPost2010Prop54
  1
strokes_ogs.tif
102
RTVSPost2010PropOp54
 70
     1
102
RTVSPost2010Prop55
280
     0
102
RTVSPost2010PropOp55
 70
     1
102
RTVSPost2010Prop56
140
1.0
102
RTVSPost2010PropOp56
 70
     1
102
RTVSPost2010Prop57
140
1.0
102
RTVSPost2010PropOp57
 70
     1
102
RTVSPropertyOp0
 70
     1
102
RTVSPropertyOp1
 70
     1
102
RTVSPropertyOp2
 70
     1
102
RTVSPropertyOp3
 70
     1
102
RTVSPropertyOp4
 70
     1
102
RTVSPropertyOp5
 70
     1
102
RTVSPropertyOp6
 70
     1
102
RTVSPropertyOp7
 70
     1
102
RTVSPropertyOp8
 70
     1
102
RTVSPropertyOp9
 70
     1
102
RTVSPropertyOp10
 70
     1
102
RTVSPropertyOp11
 70
     1
102
RTVSPropertyOp12
 70
     1
102
RTVSPropertyOp13
 70
     1
102
RTVSPropertyOp14
 70
     1
102
RTVSPropertyOp15
 70
     1
102
RTVSPropertyOp16
 70
     1
102
RTVSPropertyOp17
 70
     1
102
RTVSPropertyOp18
 70
     1
102
RTVSPropertyOp19
 70
     1
102
RTVSPropertyOp20
 70
     1
102
RTVSPropertyOp21
 70
     1
102
RTVSPropertyOp22
 70
     1
102
RTVSPropertyOp23
 70
     1
102
RTVSPropertyOp24
 70
     1
102
RTVSPropertyOp25
 70
     1
102
RTVSPropertyOp26
 70
     1
102
RTVSPropertyOp27
 70
     1
102
RTVSPropertyOp28
 70
     1
102
RTVSPropertyOp29
 70
     1
102
RTVSPropertyOp30
 70
     1
102
RTVSPropertyOp31
 70
     1
102
RTVSPropertyOp32
 70
     1
102
RTVSPropertyOp33
 70
     1
102
RTVSPropertyOp34
 70
     1
102
RTVSPropertyOp35
 70
     1
102
RTVSPropertyOp36
 70
     1
102
RTVSPropertyOp37
 70
     1
102
RTVSPropertyOp38
 70
     1
102
RTVSPropertyOp39
 70
     1
102
RTVSPropertyOp40
 70
     1
102
RTVSPropertyOp41
 70
     1
102
RTVSPropertyOp42
 70
     1
102
RTVSPropertyOp43
 70
     1
102
RTVSPropertyOp44
 70
     1
102
RTVSPropertyOp45
 70
     1
102
RTVSPropertyOp46
 70
     1
102
RTVSPropertyOp47
 70
     1
102
RTVSPropertyOp48
 70
     1
102
RTVSPropertyOp49
 70
     1
102
RTVSPropertyOp50
 70
     1
102
RTVSPropertyOp51
 70
     0
102
RTVSPropertyOp52
 70
     0
102
RTVSPropertyOp53
 70
     1
102
RTVSPropertyOp54
 70
     1
102
RTVSPropertyOp55
 70
     1
102
RTVSPropertyOp56
 70
     1
102
RTVSPropertyOp57
 70
     1
102
RTVSPropertyOp58
 70
     1
102
RTVSPropertyOp59
 70
     1
102
RTVSPropertyOp60
 70
     1
102
RTVSPropertyOp61
 70
     1
102
RTVSPropertyOp62
 70
     1
  0
XRECORD
  5
4BF6
102
{ACAD_REACTORS
330
4BF5
102
}
330
4BF5
100
AcDbXrecord
280
     1
102
RTVSPost2010Prop28
280
     0
102
RTVSPost2010PropOp28
 70
     1
102
RTVSPost2010Prop29
280
     1
102
RTVSPost2010PropOp29
 70
     1
102
RTVSPost2010Prop30
280
     1
102
RTVSPost2010PropOp30
 70
     1
102
RTVSPost2010Prop31
280
     0
102
RTVSPost2010PropOp31
 70
     1
102
RTVSPost2010Prop32
280
     0
102
RTVSPost2010PropOp32
 70
     1
102
RTVSPost2010Prop33
280
     0
102
RTVSPost2010PropOp33
 70
     1
102
RTVSPost2010Prop34
280
     0
102
RTVSPost2010PropOp34
 70
     1
102
RTVSPost2010Prop35
280
     0
102
RTVSPost2010PropOp35
 70
     1
102
RTVSPost2010Prop36
280
     0
102
RTVSPost2010PropOp36
 70
     1
102
RTVSPost2010Prop37
 90
       50
102
RTVSPost2010PropOp37
 70
     1
102
RTVSPost2010Prop38
140
0.0
102
RTVSPost2010PropOp38
 70
     1
102
RTVSPost2010Prop39
140
1.0
102
RTVSPost2010PropOp39
 70
     1
102
RTVSPost2010Prop40
 90
        0
102
RTVSPost2010PropOp40
 70
     1
102
RTVSPost2010Prop41ColorIndex
 90
       18
102
RTVSPost2010Prop41ColorRGB
 90
        0
102
RTVSPost2010PropOp41
 70
     1
102
RTVSPost2010Prop42
 90
       50
102
RTVSPost2010PropOp42
 70
     1
102
RTVSPost2010Prop43
 90
        3
102
RTVSPost2010PropOp43
 70
     1
102
RTVSPost2010Prop44ColorIndex
 90
        5
102
RTVSPost2010Prop44ColorRGB
 90
      255
102
RTVSPost2010PropOp44
 70
     1
102
RTVSPost2010Prop45
280
     0
102
RTVSPost2010PropOp45
 70
     1
102
RTVSPost2010Prop46
 90
       50
102
RTVSPost2010PropOp46
 70
     1
102
RTVSPost2010Prop47
 90
       50
102
RTVSPost2010PropOp47
 70
     1
102
RTVSPost2010Prop48
 90
       50
102
RTVSPost2010PropOp48
 70
     1
102
RTVSPost2010Prop49
280
     0
102
RTVSPost2010PropOp49
 70
     1
102
RTVSPost2010Prop50
 90
       50
102
RTVSPost2010PropOp50
 70
     1
102
RTVSPost2010Prop51ColorIndex
 90
      256
102
RTVSPost2010Prop51ColorRGB
 90
-16777216
102
RTVSPost2010PropOp51
 70
     0
102
RTVSPost2010Prop52
140
1.0
102
RTVSPost2010PropOp52
 70
     0
102
RTVSPost2010Prop53
 90
        2
102
RTVSPost2010PropOp53
 70
     1
102
RTVSPost2010Prop54
  1
strokes_ogs.tif
102
RTVSPost2010PropOp54
 70
     1
102
RTVSPost2010Prop55
280
     0
102
RTVSPost2010PropOp55
 70
     1
102
RTVSPost2010Prop56
140
1.0
102
RTVSPost2010PropOp56
 70
     1
102
RTVSPost2010Prop57
140
1.0
102
RTVSPost2010PropOp57
 70
     1
102
RTVSPropertyOp0
 70
     1
102
RTVSPropertyOp1
 70
     1
102
RTVSPropertyOp2
 70
     1
102
RTVSPropertyOp3
 70
     1
102
RTVSPropertyOp4
 70
     1
102
RTVSPropertyOp5
 70
     1
102
RTVSPropertyOp6
 70
     1
102
RTVSPropertyOp7
 70
     1
102
RTVSPropertyOp8
 70
     1
102
RTVSPropertyOp9
 70
     1
102
RTVSPropertyOp10
 70
     1
102
RTVSPropertyOp11
 70
     1
102
RTVSPropertyOp12
 70
     1
102
RTVSPropertyOp13
 70
     1
102
RTVSPropertyOp14
 70
     1
102
RTVSPropertyOp15
 70
     1
102
RTVSPropertyOp16
 70
     1
102
RTVSPropertyOp17
 70
     1
102
RTVSPropertyOp18
 70
     1
102
RTVSPropertyOp19
 70
     1
102
RTVSPropertyOp20
 70
     1
102
RTVSPropertyOp21
 70
     1
102
RTVSPropertyOp22
 70
     1
102
RTVSPropertyOp23
 70
     1
102
RTVSPropertyOp24
 70
     1
102
RTVSPropertyOp25
 70
     1
102
RTVSPropertyOp26
 70
     1
102
RTVSPropertyOp27
 70
     1
102
RTVSPropertyOp28
 70
     1
102
RTVSPropertyOp29
 70
     1
102
RTVSPropertyOp30
 70
     1
102
RTVSPropertyOp31
 70
     1
102
RTVSPropertyOp32
 70
     1
102
RTVSPropertyOp33
 70
     1
102
RTVSPropertyOp34
 70
     1
102
RTVSPropertyOp35
 70
     1
102
RTVSPropertyOp36
 70
     1
102
RTVSPropertyOp37
 70
     1
102
RTVSPropertyOp38
 70
     1
102
RTVSPropertyOp39
 70
     1
102
RTVSPropertyOp40
 70
     1
102
RTVSPropertyOp41
 70
     1
102
RTVSPropertyOp42
 70
     1
102
RTVSPropertyOp43
 70
     1
102
RTVSPropertyOp44
 70
     1
102
RTVSPropertyOp45
 70
     1
102
RTVSPropertyOp46
 70
     1
102
RTVSPropertyOp47
 70
     1
102
RTVSPropertyOp48
 70
     1
102
RTVSPropertyOp49
 70
     1
102
RTVSPropertyOp50
 70
     1
102
RTVSPropertyOp51
 70
     0
102
RTVSPropertyOp52
 70
     0
102
RTVSPropertyOp53
 70
     1
102
RTVSPropertyOp54
 70
     1
102
RTVSPropertyOp55
 70
     1
102
RTVSPropertyOp56
 70
     1
102
RTVSPropertyOp57
 70
     1
102
RTVSPropertyOp58
 70
     1
102
RTVSPropertyOp59
 70
     1
102
RTVSPropertyOp60
 70
     1
102
RTVSPropertyOp61
 70
     1
102
RTVSPropertyOp62
 70
     1
  0
XRECORD
  5
4BF0
102
{ACAD_REACTORS
330
4BEF
102
}
330
4BEF
100
AcDbXrecord
280
     1
102
RTVSPost2010Prop28
280
     0
102
RTVSPost2010PropOp28
 70
     1
102
RTVSPost2010Prop29
280
     1
102
RTVSPost2010PropOp29
 70
     1
102
RTVSPost2010Prop30
280
     1
102
RTVSPost2010PropOp30
 70
     1
102
RTVSPost2010Prop31
280
     0
102
RTVSPost2010PropOp31
 70
     1
102
RTVSPost2010Prop32
280
     0
102
RTVSPost2010PropOp32
 70
     1
102
RTVSPost2010Prop33
280
     0
102
RTVSPost2010PropOp33
 70
     1
102
RTVSPost2010Prop34
280
     0
102
RTVSPost2010PropOp34
 70
     1
102
RTVSPost2010Prop35
280
     0
102
RTVSPost2010PropOp35
 70
     1
102
RTVSPost2010Prop36
280
     0
102
RTVSPost2010PropOp36
 70
     1
102
RTVSPost2010Prop37
 90
       50
102
RTVSPost2010PropOp37
 70
     1
102
RTVSPost2010Prop38
140
0.0
102
RTVSPost2010PropOp38
 70
     1
102
RTVSPost2010Prop39
140
1.0
102
RTVSPost2010PropOp39
 70
     1
102
RTVSPost2010Prop40
 90
        0
102
RTVSPost2010PropOp40
 70
     1
102
RTVSPost2010Prop41ColorIndex
 90
       18
102
RTVSPost2010Prop41ColorRGB
 90
        0
102
RTVSPost2010PropOp41
 70
     1
102
RTVSPost2010Prop42
 90
       50
102
RTVSPost2010PropOp42
 70
     1
102
RTVSPost2010Prop43
 90
        3
102
RTVSPost2010PropOp43
 70
     1
102
RTVSPost2010Prop44ColorIndex
 90
        5
102
RTVSPost2010Prop44ColorRGB
 90
      255
102
RTVSPost2010PropOp44
 70
     1
102
RTVSPost2010Prop45
280
     0
102
RTVSPost2010PropOp45
 70
     1
102
RTVSPost2010Prop46
 90
       50
102
RTVSPost2010PropOp46
 70
     1
102
RTVSPost2010Prop47
 90
       50
102
RTVSPost2010PropOp47
 70
     1
102
RTVSPost2010Prop48
 90
       50
102
RTVSPost2010PropOp48
 70
     1
102
RTVSPost2010Prop49
280
     0
102
RTVSPost2010PropOp49
 70
     1
102
RTVSPost2010Prop50
 90
       50
102
RTVSPost2010PropOp50
 70
     1
102
RTVSPost2010Prop51ColorIndex
 90
      256
102
RTVSPost2010Prop51ColorRGB
 90
-16777216
102
RTVSPost2010PropOp51
 70
     0
102
RTVSPost2010Prop52
140
1.0
102
RTVSPost2010PropOp52
 70
     0
102
RTVSPost2010Prop53
 90
        2
102
RTVSPost2010PropOp53
 70
     1
102
RTVSPost2010Prop54
  1
strokes_ogs.tif
102
RTVSPost2010PropOp54
 70
     1
102
RTVSPost2010Prop55
280
     0
102
RTVSPost2010PropOp55
 70
     1
102
RTVSPost2010Prop56
140
1.0
102
RTVSPost2010PropOp56
 70
     1
102
RTVSPost2010Prop57
140
1.0
102
RTVSPost2010PropOp57
 70
     1
102
RTVSPropertyOp0
 70
     1
102
RTVSPropertyOp1
 70
     1
102
RTVSPropertyOp2
 70
     1
102
RTVSPropertyOp3
 70
     1
102
RTVSPropertyOp4
 70
     1
102
RTVSPropertyOp5
 70
     1
102
RTVSPropertyOp6
 70
     1
102
RTVSPropertyOp7
 70
     1
102
RTVSPropertyOp8
 70
     1
102
RTVSPropertyOp9
 70
     1
102
RTVSPropertyOp10
 70
     1
102
RTVSPropertyOp11
 70
     1
102
RTVSPropertyOp12
 70
     1
102
RTVSPropertyOp13
 70
     1
102
RTVSPropertyOp14
 70
     1
102
RTVSPropertyOp15
 70
     1
102
RTVSPropertyOp16
 70
     1
102
RTVSPropertyOp17
 70
     1
102
RTVSPropertyOp18
 70
     1
102
RTVSPropertyOp19
 70
     1
102
RTVSPropertyOp20
 70
     1
102
RTVSPropertyOp21
 70
     1
102
RTVSPropertyOp22
 70
     1
102
RTVSPropertyOp23
 70
     1
102
RTVSPropertyOp24
 70
     1
102
RTVSPropertyOp25
 70
     1
102
RTVSPropertyOp26
 70
     1
102
RTVSPropertyOp27
 70
     1
102
RTVSPropertyOp28
 70
     1
102
RTVSPropertyOp29
 70
     1
102
RTVSPropertyOp30
 70
     1
102
RTVSPropertyOp31
 70
     1
102
RTVSPropertyOp32
 70
     1
102
RTVSPropertyOp33
 70
     1
102
RTVSPropertyOp34
 70
     1
102
RTVSPropertyOp35
 70
     1
102
RTVSPropertyOp36
 70
     1
102
RTVSPropertyOp37
 70
     1
102
RTVSPropertyOp38
 70
     1
102
RTVSPropertyOp39
 70
     1
102
RTVSPropertyOp40
 70
     1
102
RTVSPropertyOp41
 70
     1
102
RTVSPropertyOp42
 70
     1
102
RTVSPropertyOp43
 70
     1
102
RTVSPropertyOp44
 70
     1
102
RTVSPropertyOp45
 70
     1
102
RTVSPropertyOp46
 70
     1
102
RTVSPropertyOp47
 70
     1
102
RTVSPropertyOp48
 70
     1
102
RTVSPropertyOp49
 70
     1
102
RTVSPropertyOp50
 70
     1
102
RTVSPropertyOp51
 70
     0
102
RTVSPropertyOp52
 70
     0
102
RTVSPropertyOp53
 70
     1
102
RTVSPropertyOp54
 70
     1
102
RTVSPropertyOp55
 70
     1
102
RTVSPropertyOp56
 70
     1
102
RTVSPropertyOp57
 70
     1
102
RTVSPropertyOp58
 70
     1
102
RTVSPropertyOp59
 70
     1
102
RTVSPropertyOp60
 70
     1
102
RTVSPropertyOp61
 70
     1
102
RTVSPropertyOp62
 70
     1
  0
XRECORD
  5
4BF2
102
{ACAD_REACTORS
330
4BF1
102
}
330
4BF1
100
AcDbXrecord
280
     1
102
RTVSPost2010Prop28
280
     0
102
RTVSPost2010PropOp28
 70
     1
102
RTVSPost2010Prop29
280
     1
102
RTVSPost2010PropOp29
 70
     1
102
RTVSPost2010Prop30
280
     1
102
RTVSPost2010PropOp30
 70
     1
102
RTVSPost2010Prop31
280
     0
102
RTVSPost2010PropOp31
 70
     1
102
RTVSPost2010Prop32
280
     0
102
RTVSPost2010PropOp32
 70
     1
102
RTVSPost2010Prop33
280
     0
102
RTVSPost2010PropOp33
 70
     1
102
RTVSPost2010Prop34
280
     0
102
RTVSPost2010PropOp34
 70
     1
102
RTVSPost2010Prop35
280
     0
102
RTVSPost2010PropOp35
 70
     1
102
RTVSPost2010Prop36
280
     0
102
RTVSPost2010PropOp36
 70
     1
102
RTVSPost2010Prop37
 90
       50
102
RTVSPost2010PropOp37
 70
     1
102
RTVSPost2010Prop38
140
0.0
102
RTVSPost2010PropOp38
 70
     1
102
RTVSPost2010Prop39
140
1.0
102
RTVSPost2010PropOp39
 70
     1
102
RTVSPost2010Prop40
 90
        0
102
RTVSPost2010PropOp40
 70
     1
102
RTVSPost2010Prop41ColorIndex
 90
       18
102
RTVSPost2010Prop41ColorRGB
 90
        0
102
RTVSPost2010PropOp41
 70
     1
102
RTVSPost2010Prop42
 90
       50
102
RTVSPost2010PropOp42
 70
     1
102
RTVSPost2010Prop43
 90
        3
102
RTVSPost2010PropOp43
 70
     1
102
RTVSPost2010Prop44ColorIndex
 90
        5
102
RTVSPost2010Prop44ColorRGB
 90
      255
102
RTVSPost2010PropOp44
 70
     1
102
RTVSPost2010Prop45
280
     0
102
RTVSPost2010PropOp45
 70
     1
102
RTVSPost2010Prop46
 90
       50
102
RTVSPost2010PropOp46
 70
     1
102
RTVSPost2010Prop47
 90
       50
102
RTVSPost2010PropOp47
 70
     1
102
RTVSPost2010Prop48
 90
       50
102
RTVSPost2010PropOp48
 70
     1
102
RTVSPost2010Prop49
280
     0
102
RTVSPost2010PropOp49
 70
     1
102
RTVSPost2010Prop50
 90
       50
102
RTVSPost2010PropOp50
 70
     1
102
RTVSPost2010Prop51ColorIndex
 90
      256
102
RTVSPost2010Prop51ColorRGB
 90
-16777216
102
RTVSPost2010PropOp51
 70
     0
102
RTVSPost2010Prop52
140
1.0
102
RTVSPost2010PropOp52
 70
     0
102
RTVSPost2010Prop53
 90
        2
102
RTVSPost2010PropOp53
 70
     1
102
RTVSPost2010Prop54
  1
strokes_ogs.tif
102
RTVSPost2010PropOp54
 70
     1
102
RTVSPost2010Prop55
280
     0
102
RTVSPost2010PropOp55
 70
     1
102
RTVSPost2010Prop56
140
1.0
102
RTVSPost2010PropOp56
 70
     1
102
RTVSPost2010Prop57
140
1.0
102
RTVSPost2010PropOp57
 70
     1
102
RTVSPropertyOp0
 70
     1
102
RTVSPropertyOp1
 70
     1
102
RTVSPropertyOp2
 70
     1
102
RTVSPropertyOp3
 70
     1
102
RTVSPropertyOp4
 70
     1
102
RTVSPropertyOp5
 70
     1
102
RTVSPropertyOp6
 70
     1
102
RTVSPropertyOp7
 70
     1
102
RTVSPropertyOp8
 70
     1
102
RTVSPropertyOp9
 70
     1
102
RTVSPropertyOp10
 70
     1
102
RTVSPropertyOp11
 70
     1
102
RTVSPropertyOp12
 70
     1
102
RTVSPropertyOp13
 70
     1
102
RTVSPropertyOp14
 70
     1
102
RTVSPropertyOp15
 70
     1
102
RTVSPropertyOp16
 70
     1
102
RTVSPropertyOp17
 70
     1
102
RTVSPropertyOp18
 70
     1
102
RTVSPropertyOp19
 70
     1
102
RTVSPropertyOp20
 70
     1
102
RTVSPropertyOp21
 70
     1
102
RTVSPropertyOp22
 70
     1
102
RTVSPropertyOp23
 70
     1
102
RTVSPropertyOp24
 70
     1
102
RTVSPropertyOp25
 70
     1
102
RTVSPropertyOp26
 70
     1
102
RTVSPropertyOp27
 70
     1
102
RTVSPropertyOp28
 70
     1
102
RTVSPropertyOp29
 70
     1
102
RTVSPropertyOp30
 70
     1
102
RTVSPropertyOp31
 70
     1
102
RTVSPropertyOp32
 70
     1
102
RTVSPropertyOp33
 70
     1
102
RTVSPropertyOp34
 70
     1
102
RTVSPropertyOp35
 70
     1
102
RTVSPropertyOp36
 70
     1
102
RTVSPropertyOp37
 70
     1
102
RTVSPropertyOp38
 70
     1
102
RTVSPropertyOp39
 70
     1
102
RTVSPropertyOp40
 70
     1
102
RTVSPropertyOp41
 70
     1
102
RTVSPropertyOp42
 70
     1
102
RTVSPropertyOp43
 70
     1
102
RTVSPropertyOp44
 70
     1
102
RTVSPropertyOp45
 70
     1
102
RTVSPropertyOp46
 70
     1
102
RTVSPropertyOp47
 70
     1
102
RTVSPropertyOp48
 70
     1
102
RTVSPropertyOp49
 70
     1
102
RTVSPropertyOp50
 70
     1
102
RTVSPropertyOp51
 70
     0
102
RTVSPropertyOp52
 70
     0
102
RTVSPropertyOp53
 70
     1
102
RTVSPropertyOp54
 70
     1
102
RTVSPropertyOp55
 70
     1
102
RTVSPropertyOp56
 70
     1
102
RTVSPropertyOp57
 70
     1
102
RTVSPropertyOp58
 70
     1
102
RTVSPropertyOp59
 70
     1
102
RTVSPropertyOp60
 70
     1
102
RTVSPropertyOp61
 70
     1
102
RTVSPropertyOp62
 70
     1
  0
XRECORD
  5
4BDF
102
{ACAD_REACTORS
330
4BDE
102
}
330
4BDE
100
AcDbXrecord
280
     1
102
RTVSPost2010Prop28
280
     0
102
RTVSPost2010PropOp28
 70
     1
102
RTVSPost2010Prop29
280
     1
102
RTVSPost2010PropOp29
 70
     1
102
RTVSPost2010Prop30
280
     1
102
RTVSPost2010PropOp30
 70
     1
102
RTVSPost2010Prop31
280
     0
102
RTVSPost2010PropOp31
 70
     1
102
RTVSPost2010Prop32
280
     0
102
RTVSPost2010PropOp32
 70
     1
102
RTVSPost2010Prop33
280
     0
102
RTVSPost2010PropOp33
 70
     1
102
RTVSPost2010Prop34
280
     0
102
RTVSPost2010PropOp34
 70
     1
102
RTVSPost2010Prop35
280
     0
102
RTVSPost2010PropOp35
 70
     1
102
RTVSPost2010Prop36
280
     0
102
RTVSPost2010PropOp36
 70
     1
102
RTVSPost2010Prop37
 90
       50
102
RTVSPost2010PropOp37
 70
     1
102
RTVSPost2010Prop38
140
0.0
102
RTVSPost2010PropOp38
 70
     1
102
RTVSPost2010Prop39
140
1.0
102
RTVSPost2010PropOp39
 70
     1
102
RTVSPost2010Prop40
 90
        0
102
RTVSPost2010PropOp40
 70
     1
102
RTVSPost2010Prop41ColorIndex
 90
       18
102
RTVSPost2010Prop41ColorRGB
 90
        0
102
RTVSPost2010PropOp41
 70
     1
102
RTVSPost2010Prop42
 90
       50
102
RTVSPost2010PropOp42
 70
     1
102
RTVSPost2010Prop43
 90
        3
102
RTVSPost2010PropOp43
 70
     1
102
RTVSPost2010Prop44ColorIndex
 90
        5
102
RTVSPost2010Prop44ColorRGB
 90
      255
102
RTVSPost2010PropOp44
 70
     1
102
RTVSPost2010Prop45
280
     0
102
RTVSPost2010PropOp45
 70
     1
102
RTVSPost2010Prop46
 90
       50
102
RTVSPost2010PropOp46
 70
     1
102
RTVSPost2010Prop47
 90
       50
102
RTVSPost2010PropOp47
 70
     1
102
RTVSPost2010Prop48
 90
       50
102
RTVSPost2010PropOp48
 70
     1
102
RTVSPost2010Prop49
280
     0
102
RTVSPost2010PropOp49
 70
     1
102
RTVSPost2010Prop50
 90
       50
102
RTVSPost2010PropOp50
 70
     1
102
RTVSPost2010Prop51ColorIndex
 90
      256
102
RTVSPost2010Prop51ColorRGB
 90
-16777216
102
RTVSPost2010PropOp51
 70
     0
102
RTVSPost2010Prop52
140
1.0
102
RTVSPost2010PropOp52
 70
     0
102
RTVSPost2010Prop53
 90
        2
102
RTVSPost2010PropOp53
 70
     1
102
RTVSPost2010Prop54
  1
strokes_ogs.tif
102
RTVSPost2010PropOp54
 70
     1
102
RTVSPost2010Prop55
280
     0
102
RTVSPost2010PropOp55
 70
     1
102
RTVSPost2010Prop56
140
1.0
102
RTVSPost2010PropOp56
 70
     1
102
RTVSPost2010Prop57
140
1.0
102
RTVSPost2010PropOp57
 70
     1
102
RTVSPropertyOp0
 70
     1
102
RTVSPropertyOp1
 70
     1
102
RTVSPropertyOp2
 70
     1
102
RTVSPropertyOp3
 70
     1
102
RTVSPropertyOp4
 70
     1
102
RTVSPropertyOp5
 70
     1
102
RTVSPropertyOp6
 70
     1
102
RTVSPropertyOp7
 70
     1
102
RTVSPropertyOp8
 70
     1
102
RTVSPropertyOp9
 70
     1
102
RTVSPropertyOp10
 70
     1
102
RTVSPropertyOp11
 70
     1
102
RTVSPropertyOp12
 70
     1
102
RTVSPropertyOp13
 70
     1
102
RTVSPropertyOp14
 70
     1
102
RTVSPropertyOp15
 70
     1
102
RTVSPropertyOp16
 70
     1
102
RTVSPropertyOp17
 70
     1
102
RTVSPropertyOp18
 70
     1
102
RTVSPropertyOp19
 70
     1
102
RTVSPropertyOp20
 70
     1
102
RTVSPropertyOp21
 70
     1
102
RTVSPropertyOp22
 70
     1
102
RTVSPropertyOp23
 70
     1
102
RTVSPropertyOp24
 70
     1
102
RTVSPropertyOp25
 70
     1
102
RTVSPropertyOp26
 70
     1
102
RTVSPropertyOp27
 70
     1
102
RTVSPropertyOp28
 70
     1
102
RTVSPropertyOp29
 70
     1
102
RTVSPropertyOp30
 70
     1
102
RTVSPropertyOp31
 70
     1
102
RTVSPropertyOp32
 70
     1
102
RTVSPropertyOp33
 70
     1
102
RTVSPropertyOp34
 70
     1
102
RTVSPropertyOp35
 70
     1
102
RTVSPropertyOp36
 70
     1
102
RTVSPropertyOp37
 70
     1
102
RTVSPropertyOp38
 70
     1
102
RTVSPropertyOp39
 70
     1
102
RTVSPropertyOp40
 70
     1
102
RTVSPropertyOp41
 70
     1
102
RTVSPropertyOp42
 70
     1
102
RTVSPropertyOp43
 70
     1
102
RTVSPropertyOp44
 70
     1
102
RTVSPropertyOp45
 70
     1
102
RTVSPropertyOp46
 70
     1
102
RTVSPropertyOp47
 70
     1
102
RTVSPropertyOp48
 70
     1
102
RTVSPropertyOp49
 70
     1
102
RTVSPropertyOp50
 70
     1
102
RTVSPropertyOp51
 70
     0
102
RTVSPropertyOp52
 70
     0
102
RTVSPropertyOp53
 70
     1
102
RTVSPropertyOp54
 70
     1
102
RTVSPropertyOp55
 70
     1
102
RTVSPropertyOp56
 70
     1
102
RTVSPropertyOp57
 70
     1
102
RTVSPropertyOp58
 70
     1
102
RTVSPropertyOp59
 70
     1
102
RTVSPropertyOp60
 70
     1
102
RTVSPropertyOp61
 70
     1
102
RTVSPropertyOp62
 70
     1
  0
XRECORD
  5
4BEC
102
{ACAD_REACTORS
330
4BEB
102
}
330
4BEB
100
AcDbXrecord
280
     1
102
RTVSPost2010Prop28
280
     0
102
RTVSPost2010PropOp28
 70
     1
102
RTVSPost2010Prop29
280
     1
102
RTVSPost2010PropOp29
 70
     1
102
RTVSPost2010Prop30
280
     1
102
RTVSPost2010PropOp30
 70
     1
102
RTVSPost2010Prop31
280
     0
102
RTVSPost2010PropOp31
 70
     1
102
RTVSPost2010Prop32
280
     0
102
RTVSPost2010PropOp32
 70
     1
102
RTVSPost2010Prop33
280
     0
102
RTVSPost2010PropOp33
 70
     1
102
RTVSPost2010Prop34
280
     0
102
RTVSPost2010PropOp34
 70
     1
102
RTVSPost2010Prop35
280
     0
102
RTVSPost2010PropOp35
 70
     1
102
RTVSPost2010Prop36
280
     0
102
RTVSPost2010PropOp36
 70
     1
102
RTVSPost2010Prop37
 90
       50
102
RTVSPost2010PropOp37
 70
     1
102
RTVSPost2010Prop38
140
0.0
102
RTVSPost2010PropOp38
 70
     1
102
RTVSPost2010Prop39
140
1.0
102
RTVSPost2010PropOp39
 70
     1
102
RTVSPost2010Prop40
 90
        0
102
RTVSPost2010PropOp40
 70
     1
102
RTVSPost2010Prop41ColorIndex
 90
       18
102
RTVSPost2010Prop41ColorRGB
 90
        0
102
RTVSPost2010PropOp41
 70
     1
102
RTVSPost2010Prop42
 90
       50
102
RTVSPost2010PropOp42
 70
     1
102
RTVSPost2010Prop43
 90
        3
102
RTVSPost2010PropOp43
 70
     1
102
RTVSPost2010Prop44ColorIndex
 90
        5
102
RTVSPost2010Prop44ColorRGB
 90
      255
102
RTVSPost2010PropOp44
 70
     1
102
RTVSPost2010Prop45
280
     0
102
RTVSPost2010PropOp45
 70
     1
102
RTVSPost2010Prop46
 90
       50
102
RTVSPost2010PropOp46
 70
     1
102
RTVSPost2010Prop47
 90
       50
102
RTVSPost2010PropOp47
 70
     1
102
RTVSPost2010Prop48
 90
       50
102
RTVSPost2010PropOp48
 70
     1
102
RTVSPost2010Prop49
280
     0
102
RTVSPost2010PropOp49
 70
     1
102
RTVSPost2010Prop50
 90
       50
102
RTVSPost2010PropOp50
 70
     1
102
RTVSPost2010Prop51ColorIndex
 90
      256
102
RTVSPost2010Prop51ColorRGB
 90
-16777216
102
RTVSPost2010PropOp51
 70
     0
102
RTVSPost2010Prop52
140
1.0
102
RTVSPost2010PropOp52
 70
     0
102
RTVSPost2010Prop53
 90
        2
102
RTVSPost2010PropOp53
 70
     1
102
RTVSPost2010Prop54
  1
strokes_ogs.tif
102
RTVSPost2010PropOp54
 70
     1
102
RTVSPost2010Prop55
280
     0
102
RTVSPost2010PropOp55
 70
     1
102
RTVSPost2010Prop56
140
1.0
102
RTVSPost2010PropOp56
 70
     1
102
RTVSPost2010Prop57
140
1.0
102
RTVSPost2010PropOp57
 70
     1
102
RTVSPropertyOp0
 70
     1
102
RTVSPropertyOp1
 70
     1
102
RTVSPropertyOp2
 70
     1
102
RTVSPropertyOp3
 70
     1
102
RTVSPropertyOp4
 70
     1
102
RTVSPropertyOp5
 70
     1
102
RTVSPropertyOp6
 70
     1
102
RTVSPropertyOp7
 70
     1
102
RTVSPropertyOp8
 70
     1
102
RTVSPropertyOp9
 70
     1
102
RTVSPropertyOp10
 70
     1
102
RTVSPropertyOp11
 70
     1
102
RTVSPropertyOp12
 70
     1
102
RTVSPropertyOp13
 70
     1
102
RTVSPropertyOp14
 70
     1
102
RTVSPropertyOp15
 70
     1
102
RTVSPropertyOp16
 70
     1
102
RTVSPropertyOp17
 70
     1
102
RTVSPropertyOp18
 70
     1
102
RTVSPropertyOp19
 70
     1
102
RTVSPropertyOp20
 70
     1
102
RTVSPropertyOp21
 70
     1
102
RTVSPropertyOp22
 70
     1
102
RTVSPropertyOp23
 70
     1
102
RTVSPropertyOp24
 70
     1
102
RTVSPropertyOp25
 70
     1
102
RTVSPropertyOp26
 70
     1
102
RTVSPropertyOp27
 70
     1
102
RTVSPropertyOp28
 70
     1
102
RTVSPropertyOp29
 70
     1
102
RTVSPropertyOp30
 70
     1
102
RTVSPropertyOp31
 70
     1
102
RTVSPropertyOp32
 70
     1
102
RTVSPropertyOp33
 70
     1
102
RTVSPropertyOp34
 70
     1
102
RTVSPropertyOp35
 70
     1
102
RTVSPropertyOp36
 70
     1
102
RTVSPropertyOp37
 70
     1
102
RTVSPropertyOp38
 70
     1
102
RTVSPropertyOp39
 70
     1
102
RTVSPropertyOp40
 70
     1
102
RTVSPropertyOp41
 70
     1
102
RTVSPropertyOp42
 70
     1
102
RTVSPropertyOp43
 70
     1
102
RTVSPropertyOp44
 70
     1
102
RTVSPropertyOp45
 70
     1
102
RTVSPropertyOp46
 70
     1
102
RTVSPropertyOp47
 70
     1
102
RTVSPropertyOp48
 70
     1
102
RTVSPropertyOp49
 70
     1
102
RTVSPropertyOp50
 70
     1
102
RTVSPropertyOp51
 70
     0
102
RTVSPropertyOp52
 70
     0
102
RTVSPropertyOp53
 70
     1
102
RTVSPropertyOp54
 70
     1
102
RTVSPropertyOp55
 70
     1
102
RTVSPropertyOp56
 70
     1
102
RTVSPropertyOp57
 70
     1
102
RTVSPropertyOp58
 70
     1
102
RTVSPropertyOp59
 70
     1
102
RTVSPropertyOp60
 70
     1
102
RTVSPropertyOp61
 70
     1
102
RTVSPropertyOp62
 70
     1
  0
XRECORD
  5
4BF4
102
{ACAD_REACTORS
330
4BF3
102
}
330
4BF3
100
AcDbXrecord
280
     1
102
RTVSPost2010Prop28
280
     0
102
RTVSPost2010PropOp28
 70
     1
102
RTVSPost2010Prop29
280
     1
102
RTVSPost2010PropOp29
 70
     1
102
RTVSPost2010Prop30
280
     1
102
RTVSPost2010PropOp30
 70
     1
102
RTVSPost2010Prop31
280
     0
102
RTVSPost2010PropOp31
 70
     1
102
RTVSPost2010Prop32
280
     0
102
RTVSPost2010PropOp32
 70
     1
102
RTVSPost2010Prop33
280
     0
102
RTVSPost2010PropOp33
 70
     1
102
RTVSPost2010Prop34
280
     0
102
RTVSPost2010PropOp34
 70
     1
102
RTVSPost2010Prop35
280
     0
102
RTVSPost2010PropOp35
 70
     1
102
RTVSPost2010Prop36
280
     0
102
RTVSPost2010PropOp36
 70
     1
102
RTVSPost2010Prop37
 90
       50
102
RTVSPost2010PropOp37
 70
     1
102
RTVSPost2010Prop38
140
0.0
102
RTVSPost2010PropOp38
 70
     1
102
RTVSPost2010Prop39
140
1.0
102
RTVSPost2010PropOp39
 70
     1
102
RTVSPost2010Prop40
 90
        0
102
RTVSPost2010PropOp40
 70
     1
102
RTVSPost2010Prop41ColorIndex
 90
       18
102
RTVSPost2010Prop41ColorRGB
 90
        0
102
RTVSPost2010PropOp41
 70
     1
102
RTVSPost2010Prop42
 90
       50
102
RTVSPost2010PropOp42
 70
     1
102
RTVSPost2010Prop43
 90
        3
102
RTVSPost2010PropOp43
 70
     1
102
RTVSPost2010Prop44ColorIndex
 90
        5
102
RTVSPost2010Prop44ColorRGB
 90
      255
102
RTVSPost2010PropOp44
 70
     1
102
RTVSPost2010Prop45
280
     0
102
RTVSPost2010PropOp45
 70
     1
102
RTVSPost2010Prop46
 90
       50
102
RTVSPost2010PropOp46
 70
     1
102
RTVSPost2010Prop47
 90
       50
102
RTVSPost2010PropOp47
 70
     1
102
RTVSPost2010Prop48
 90
       50
102
RTVSPost2010PropOp48
 70
     1
102
RTVSPost2010Prop49
280
     0
102
RTVSPost2010PropOp49
 70
     1
102
RTVSPost2010Prop50
 90
       50
102
RTVSPost2010PropOp50
 70
     1
102
RTVSPost2010Prop51ColorIndex
 90
      256
102
RTVSPost2010Prop51ColorRGB
 90
-16777216
102
RTVSPost2010PropOp51
 70
     0
102
RTVSPost2010Prop52
140
1.0
102
RTVSPost2010PropOp52
 70
     0
102
RTVSPost2010Prop53
 90
        2
102
RTVSPost2010PropOp53
 70
     1
102
RTVSPost2010Prop54
  1
strokes_ogs.tif
102
RTVSPost2010PropOp54
 70
     1
102
RTVSPost2010Prop55
280
     0
102
RTVSPost2010PropOp55
 70
     1
102
RTVSPost2010Prop56
140
1.0
102
RTVSPost2010PropOp56
 70
     1
102
RTVSPost2010Prop57
140
1.0
102
RTVSPost2010PropOp57
 70
     1
102
RTVSPropertyOp0
 70
     1
102
RTVSPropertyOp1
 70
     1
102
RTVSPropertyOp2
 70
     1
102
RTVSPropertyOp3
 70
     1
102
RTVSPropertyOp4
 70
     1
102
RTVSPropertyOp5
 70
     1
102
RTVSPropertyOp6
 70
     1
102
RTVSPropertyOp7
 70
     1
102
RTVSPropertyOp8
 70
     1
102
RTVSPropertyOp9
 70
     1
102
RTVSPropertyOp10
 70
     1
102
RTVSPropertyOp11
 70
     1
102
RTVSPropertyOp12
 70
     1
102
RTVSPropertyOp13
 70
     1
102
RTVSPropertyOp14
 70
     1
102
RTVSPropertyOp15
 70
     1
102
RTVSPropertyOp16
 70
     1
102
RTVSPropertyOp17
 70
     1
102
RTVSPropertyOp18
 70
     1
102
RTVSPropertyOp19
 70
     1
102
RTVSPropertyOp20
 70
     1
102
RTVSPropertyOp21
 70
     1
102
RTVSPropertyOp22
 70
     1
102
RTVSPropertyOp23
 70
     1
102
RTVSPropertyOp24
 70
     1
102
RTVSPropertyOp25
 70
     1
102
RTVSPropertyOp26
 70
     1
102
RTVSPropertyOp27
 70
     1
102
RTVSPropertyOp28
 70
     1
102
RTVSPropertyOp29
 70
     1
102
RTVSPropertyOp30
 70
     1
102
RTVSPropertyOp31
 70
     1
102
RTVSPropertyOp32
 70
     1
102
RTVSPropertyOp33
 70
     1
102
RTVSPropertyOp34
 70
     1
102
RTVSPropertyOp35
 70
     1
102
RTVSPropertyOp36
 70
     1
102
RTVSPropertyOp37
 70
     1
102
RTVSPropertyOp38
 70
     1
102
RTVSPropertyOp39
 70
     1
102
RTVSPropertyOp40
 70
     1
102
RTVSPropertyOp41
 70
     1
102
RTVSPropertyOp42
 70
     1
102
RTVSPropertyOp43
 70
     1
102
RTVSPropertyOp44
 70
     1
102
RTVSPropertyOp45
 70
     1
102
RTVSPropertyOp46
 70
     1
102
RTVSPropertyOp47
 70
     1
102
RTVSPropertyOp48
 70
     1
102
RTVSPropertyOp49
 70
     1
102
RTVSPropertyOp50
 70
     1
102
RTVSPropertyOp51
 70
     0
102
RTVSPropertyOp52
 70
     0
102
RTVSPropertyOp53
 70
     1
102
RTVSPropertyOp54
 70
     1
102
RTVSPropertyOp55
 70
     1
102
RTVSPropertyOp56
 70
     1
102
RTVSPropertyOp57
 70
     1
102
RTVSPropertyOp58
 70
     1
102
RTVSPropertyOp59
 70
     1
102
RTVSPropertyOp60
 70
     1
102
RTVSPropertyOp61
 70
     1
102
RTVSPropertyOp62
 70
     1
  0
ENDSEC
  0
EOF
