  0
SECTION
  2
HEADER
  9
$ACADVER
  1
AC1015
  9
$ACADMAINTVER
 70
    20
  9
$DWGCODEPAGE
  3
ANSI_932
  9
$INSBASE
 10
0.0
 20
0.0
 30
0.0
  9
$EXTMIN
 10
528.2387525199701
 20
-140.7519511300667
 30
-0.0015258207003583
  9
$EXTMAX
 10
723.989110637903
 20
-7.470018075999746
 30
0.0000000349246037
  9
$LIMMIN
 10
0.0
 20
0.0
  9
$LIMMAX
 10
12.0
 20
9.0
  9
$ORTHOMODE
 70
     1
  9
$REGENMODE
 70
     1
  9
$FILLMODE
 70
     1
  9
$QTEXTMODE
 70
     0
  9
$MIRRTEXT
 70
     1
  9
$LTSCALE
 40
0.5
  9
$ATTMODE
 70
     1
  9
$TEXTSIZE
 40
2.5
  9
$TRACEWID
 40
0.05
  9
$TEXTSTYLE
  7
CatalogDxf
  9
$CLAYER
  8
Z_OM_DIM
  9
$CELTYPE
  6
BYLAYER
  9
$CECOLOR
 62
   256
  9
$CELTSCALE
 40
1.0
  9
$DISPSILH
 70
     0
  9
$DIMSCALE
 40
1.0
  9
$DIMASZ
 40
2.5
  9
$DIMEXO
 40
0.625
  9
$DIMDLI
 40
3.75
  9
$DIMRND
 40
0.0
  9
$DIMDLE
 40
0.0
  9
$DIMEXE
 40
1.25
  9
$DIMTP
 40
0.0
  9
$DIMTM
 40
0.0
  9
$DIMTXT
 40
2.5
  9
$DIMCEN
 40
2.5
  9
$DIMTSZ
 40
0.0
  9
$DIMTOL
 70
     0
  9
$DIMLIM
 70
     0
  9
$DIMTIH
 70
     0
  9
$DIMTOH
 70
     0
  9
$DIMSE1
 70
     0
  9
$DIMSE2
 70
     0
  9
$DIMTAD
 70
     1
  9
$DIMZIN
 70
     8
  9
$DIMBLK
  1
OPEN30
  9
$DIMASO
 70
     1
  9
$DIMSHO
 70
     1
  9
$DIMPOST
  1

  9
$DIMAPOST
  1

  9
$DIMALT
 70
     0
  9
$DIMALTD
 70
     3
  9
$DIMALTF
 40
0.03937007874016
  9
$DIMLFAC
 40
1.0
  9
$DIMTOFL
 70
     1
  9
$DIMTVP
 40
0.0
  9
$DIMTIX
 70
     0
  9
$DIMSOXD
 70
     0
  9
$DIMSAH
 70
     0
  9
$DIMBLK1
  1

  9
$DIMBLK2
  1

  9
$DIMSTYLE
  2
CatalogDxf
  9
$DIMCLRD
 70
   256
  9
$DIMCLRE
 70
   256
  9
$DIMCLRT
 70
   256
  9
$DIMTFAC
 40
1.0
  9
$DIMGAP
 40
0.625
  9
$DIMJUST
 70
     0
  9
$DIMSD1
 70
     0
  9
$DIMSD2
 70
     0
  9
$DIMTOLJ
 70
     0
  9
$DIMTZIN
 70
     8
  9
$DIMALTZ
 70
     0
  9
$DIMALTTZ
 70
     0
  9
$DIMUPT
 70
     0
  9
$DIMDEC
 70
     1
  9
$DIMTDEC
 70
     1
  9
$DIMALTU
 70
     2
  9
$DIMALTTD
 70
     3
  9
$DIMTXSTY
  7
CatalogDxf
  9
$DIMAUNIT
 70
     0
  9
$DIMADEC
 70
     0
  9
$DIMALTRND
 40
0.0
  9
$DIMAZIN
 70
     0
  9
$DIMDSEP
 70
    46
  9
$DIMATFIT
 70
     3
  9
$DIMFRAC
 70
     0
  9
$DIMLDRBLK
  1
OPEN30
  9
$DIMLUNIT
 70
     2
  9
$DIMLWD
 70
    -1
  9
$DIMLWE
 70
    -1
  9
$DIMTMOVE
 70
     0
  9
$LUNITS
 70
     2
  9
$LUPREC
 70
     2
  9
$SKETCHINC
 40
0.1
  9
$FILLETRAD
 40
0.0
  9
$AUNITS
 70
     0
  9
$AUPREC
 70
     2
  9
$MENU
  1
acad
  9
$ELEVATION
 40
0.0
  9
$PELEVATION
 40
0.0
  9
$THICKNESS
 40
0.0
  9
$LIMCHECK
 70
     0
  9
$CHAMFERA
 40
0.0
  9
$CHAMFERB
 40
0.0
  9
$CHAMFERC
 40
0.0
  9
$CHAMFERD
 40
0.0
  9
$SKPOLY
 70
     0
  9
$TDCREATE
 40
2455090.761732894
  9
$TDUCREATE
 40
2455090.386732893
  9
$TDUPDATE
 40
2455678.568253831
  9
$TDUUPDATE
 40
2455678.193253831
  9
$TDINDWG
 40
0.5851651389
  9
$TDUSRTIMER
 40
0.5851631481
  9
$USRTIMER
 70
     1
  9
$ANGBASE
 50
0.0
  9
$ANGDIR
 70
     0
  9
$PDMODE
 70
     0
  9
$PDSIZE
 40
0.0
  9
$PLINEWID
 40
0.0
  9
$SPLFRAME
 70
     0
  9
$SPLINETYPE
 70
     6
  9
$SPLINESEGS
 70
     8
  9
$HANDSEED
  5
47D6
  9
$SURFTAB1
 70
     6
  9
$SURFTAB2
 70
     6
  9
$SURFTYPE
 70
     6
  9
$SURFU
 70
     6
  9
$SURFV
 70
     6
  9
$UCSBASE
  2

  9
$UCSNAME
  2

  9
$UCSORG
 10
0.0
 20
0.0
 30
0.0
  9
$UCSXDIR
 10
1.0
 20
0.0
 30
0.0
  9
$UCSYDIR
 10
0.0
 20
1.0
 30
0.0
  9
$UCSORTHOREF
  2

  9
$UCSORTHOVIEW
 70
     1
  9
$UCSORGTOP
 10
0.0
 20
0.0
 30
0.0
  9
$UCSORGBOTTOM
 10
0.0
 20
0.0
 30
0.0
  9
$UCSORGLEFT
 10
0.0
 20
0.0
 30
0.0
  9
$UCSORGRIGHT
 10
0.0
 20
0.0
 30
0.0
  9
$UCSORGFRONT
 10
0.0
 20
0.0
 30
0.0
  9
$UCSORGBACK
 10
0.0
 20
0.0
 30
0.0
  9
$PUCSBASE
  2

  9
$PUCSNAME
  2

  9
$PUCSORG
 10
0.0
 20
0.0
 30
0.0
  9
$PUCSXDIR
 10
1.0
 20
0.0
 30
0.0
  9
$PUCSYDIR
 10
0.0
 20
1.0
 30
0.0
  9
$PUCSORTHOREF
  2

  9
$PUCSORTHOVIEW
 70
     0
  9
$PUCSORGTOP
 10
0.0
 20
0.0
 30
0.0
  9
$PUCSORGBOTTOM
 10
0.0
 20
0.0
 30
0.0
  9
$PUCSORGLEFT
 10
0.0
 20
0.0
 30
0.0
  9
$PUCSORGRIGHT
 10
0.0
 20
0.0
 30
0.0
  9
$PUCSORGFRONT
 10
0.0
 20
0.0
 30
0.0
  9
$PUCSORGBACK
 10
0.0
 20
0.0
 30
0.0
  9
$USERI1
 70
     0
  9
$USERI2
 70
     0
  9
$USERI3
 70
     0
  9
$USERI4
 70
     0
  9
$USERI5
 70
     0
  9
$USERR1
 40
0.0
  9
$USERR2
 40
0.0
  9
$USERR3
 40
0.0
  9
$USERR4
 40
0.0
  9
$USERR5
 40
0.0
  9
$WORLDVIEW
 70
     1
  9
$SHADEDGE
 70
     3
  9
$SHADEDIF
 70
    70
  9
$TILEMODE
 70
     1
  9
$MAXACTVP
 70
    16
  9
$PINSBASE
 10
0.0
 20
0.0
 30
0.0
  9
$PLIMCHECK
 70
     0
  9
$PEXTMIN
 10
1.000000000000000E+20
 20
1.000000000000000E+20
 30
1.000000000000000E+20
  9
$PEXTMAX
 10
-1.000000000000000E+20
 20
-1.000000000000000E+20
 30
-1.000000000000000E+20
  9
$PLIMMIN
 10
0.0
 20
0.0
  9
$PLIMMAX
 10
12.0
 20
9.0
  9
$UNITMODE
 70
     0
  9
$VISRETAIN
 70
     0
  9
$PLINEGEN
 70
     0
  9
$PSLTSCALE
 70
     1
  9
$TREEDEPTH
 70
  3020
  9
$CMLSTYLE
  2
STANDARD
  9
$CMLJUST
 70
     0
  9
$CMLSCALE
 40
1.0
  9
$PROXYGRAPHICS
 70
     1
  9
$MEASUREMENT
 70
     0
  9
$CELWEIGHT
370
    -1
  9
$ENDCAPS
280
     0
  9
$JOINSTYLE
280
     0
  9
$LWDISPLAY
290
     0
  9
$INSUNITS
 70
     0
  9
$HYPERLINKBASE
  1

  9
$STYLESHEET
  1
monochrome.ctb
  9
$XEDIT
290
     1
  9
$CEPSNTYPE
380
     0
  9
$PSTYLEMODE
290
     1
  9
$FINGERPRINTGUID
  2
{AFC0AA2D-B3CD-48CF-B830-EF9C44F122D3}
  9
$VERSIONGUID
  2
{BE3AA90B-ECD2-413C-9420-1B7C03517F5E}
  9
$EXTNAMES
290
     1
  9
$PSVPSCALE
 40
0.0
  9
$OLESTARTUP
290
     0
  0
ENDSEC
  0
SECTION
  2
CLASSES
  0
CLASS
  1
ACDBDICTIONARYWDFLT
  2
AcDbDictionaryWithDefault
  3
ObjectDBX Classes
 90
        0
280
     0
281
     0
  0
CLASS
  1
DICTIONARYVAR
  2
AcDbDictionaryVar
  3
ObjectDBX Classes
 90
        0
280
     0
281
     0
  0
CLASS
  1
MATERIAL
  2
AcDbMaterial
  3
ObjectDBX Classes
 90
        0
280
     0
281
     0
  0
CLASS
  1
VISUALSTYLE
  2
AcDbVisualStyle
  3
ObjectDBX Classes
 90
     4095
280
     0
281
     0
  0
CLASS
  1
TABLESTYLE
  2
AcDbTableStyle
  3
ObjectDBX Classes
 90
     2047
280
     0
281
     0
  0
CLASS
  1
DIMASSOC
  2
AcDbDimAssoc
  3
"AcDbDimAssoc|Product Desc:     AcDim ARX App For Dimension|Company:          Autodesk, Inc.|WEB Address:      www.autodesk.com"
 90
    32768
280
     0
281
     0
  0
CLASS
  1
SORTENTSTABLE
  2
AcDbSortentsTable
  3
ObjectDBX Classes
 90
        0
280
     0
281
     0
  0
CLASS
  1
ACDBPLACEHOLDER
  2
AcDbPlaceHolder
  3
ObjectDBX Classes
 90
        0
280
     0
281
     0
  0
CLASS
  1
LAYOUT
  2
AcDbLayout
  3
ObjectDBX Classes
 90
        0
280
     0
281
     0
  0
ENDSEC
  0
SECTION
  2
TABLES
  0
TABLE
  2
VPORT
  5
8
102
{ACAD_XDICTIONARY
360
4581
102
}
330
0
100
AcDbSymbolTable
 70
     2
  0
VPORT
  5
47CF
330
8
100
AcDbSymbolTableRecord
100
AcDbViewportTableRecord
  2
*Active
 70
     0
 10
0.0
 20
0.0
 11
1.0
 21
1.0
 12
706.8823464534125
 22
-63.32378447892515
 13
0.0
 23
0.0
 14
1.0
 24
1.0
 15
0.0
 25
0.0
 16
0.0
 26
0.0
 36
1.0
 17
0.0
 27
0.0
 37
0.0
 40
147.3252590985761
 41
2.288973384030418
 42
50.0
 43
0.0
 44
0.0
 50
0.0
 51
0.0
 71
     0
 72
   100
 73
     1
 74
     1
 75
     0
 76
     0
 77
     0
 78
     0
281
     0
 65
     1
110
0.0
120
0.0
130
0.0
111
1.0
121
0.0
131
0.0
112
0.0
122
1.0
132
0.0
 79
     0
146
0.0
  0
ENDTAB
  0
TABLE
  2
LTYPE
  5
5
330
0
100
AcDbSymbolTable
 70
     3
  0
LTYPE
  5
11
330
5
100
AcDbSymbolTableRecord
100
AcDbLinetypeTableRecord
  2
BYBLOCK
 70
     0
  3

 72
    65
 73
     0
 40
0.0
  0
LTYPE
  5
12
330
5
100
AcDbSymbolTableRecord
100
AcDbLinetypeTableRecord
  2
BYLAYER
 70
     0
  3

 72
    65
 73
     0
 40
0.0
  0
LTYPE
  5
13
330
5
100
AcDbSymbolTableRecord
100
AcDbLinetypeTableRecord
  2
CONTINUOUS
 70
     0
  3
Solid line
 72
    65
 73
     0
 40
0.0
  0
LTYPE
  5
3DB3
330
5
100
AcDbSymbolTableRecord
100
AcDbLinetypeTableRecord
  2
CENTER2
 70
     0
  3
Center (.5x) ___ _ ___ _ ___ _ ___ _ ___ _ ___
 72
    65
 73
     4
 40
28.575
 49
19.05
 74
     0
 49
-3.174999999999998
 74
     0
 49
3.174999999999998
 74
     0
 49
-3.174999999999998
 74
     0
  0
LTYPE
  5
3DB4
330
5
100
AcDbSymbolTableRecord
100
AcDbLinetypeTableRecord
  2
HIDDEN2
 70
     0
  3
Hidden (.5x) _ _ _ _ _ _ _ _ _ _ _ _ _ _ _ _ _
 72
    65
 73
     2
 40
4.762499999999998
 49
3.174999999999998
 74
     0
 49
-1.587499999999999
 74
     0
  0
ENDTAB
  0
TABLE
  2
LAYER
  5
2
102
{ACAD_XDICTIONARY
360
3DBA
102
}
330
0
100
AcDbSymbolTable
 70
     4
  0
LAYER
  5
E
102
{ACAD_XDICTIONARY
360
45A7
102
}
330
2
100
AcDbSymbolTableRecord
100
AcDbLayerTableRecord
  2
0
 70
     0
 62
     7
  6
CONTINUOUS
370
    -3
390
3D41
  0
LAYER
  5
27
102
{ACAD_XDICTIONARY
360
45A9
102
}
330
2
100
AcDbSymbolTableRecord
100
AcDbLayerTableRecord
  2
Z_OM_DIM
 70
     0
 62
     4
  6
CONTINUOUS
370
    -3
390
3D41
  0
LAYER
  5
2B
102
{ACAD_XDICTIONARY
360
45AB
102
}
330
2
100
AcDbSymbolTableRecord
100
AcDbLayerTableRecord
  2
DEFPOINTS
 70
     0
 62
     7
  6
CONTINUOUS
290
     0
370
    -3
390
3D41
  0
LAYER
  5
3DB5
102
{ACAD_XDICTIONARY
360
45B5
102
}
330
2
100
AcDbSymbolTableRecord
100
AcDbLayerTableRecord
  2
additional
 70
     0
 62
    50
  6
CONTINUOUS
370
    -3
390
3D41
1001
AcAecLayerStandard
1000

1000

  0
ENDTAB
  0
TABLE
  2
STYLE
  5
3
330
0
100
AcDbSymbolTable
 70
     4
  0
STYLE
  5
F
330
3
100
AcDbSymbolTableRecord
100
AcDbTextStyleTableRecord
  2
STANDARD
 70
     0
 40
0.0
 41
1.08
 50
0.0
 71
     0
 42
3.0
  3
txt.shx
  4
bigfont.shx
  0
STYLE
  5
3DB6
330
3
100
AcDbSymbolTableRecord
100
AcDbTextStyleTableRecord
  2
CatalogDxf
 70
     0
 40
0.0
 41
1.0
 50
0.0
 71
     0
 42
2.5
  3
txt.shx
  4
bigfont.shx
  0
STYLE
  5
4196
330
3
100
AcDbSymbolTableRecord
100
AcDbTextStyleTableRecord
  2

 70
     1
 40
0.0
 41
1.0
 50
0.0
 71
     0
 42
3.0
  3
ltypeshp.shx
  4

  0
ENDTAB
  0
TABLE
  2
VIEW
  5
6
330
0
100
AcDbSymbolTable
 70
     0
  0
ENDTAB
  0
TABLE
  2
UCS
  5
7
330
0
100
AcDbSymbolTable
 70
     0
  0
ENDTAB
  0
TABLE
  2
APPID
  5
9
330
0
100
AcDbSymbolTable
 70
     8
  0
APPID
  5
10
330
9
100
AcDbSymbolTableRecord
100
AcDbRegAppTableRecord
  2
ACAD
 70
     0
  0
APPID
  5
3D5E
330
9
100
AcDbSymbolTableRecord
100
AcDbRegAppTableRecord
  2
ACAD_PSEXT
 70
     0
  0
APPID
  5
3DB9
330
9
100
AcDbSymbolTableRecord
100
AcDbRegAppTableRecord
  2
AcAecLayerStandard
 70
     0
  0
APPID
  5
41A3
330
9
100
AcDbSymbolTableRecord
100
AcDbRegAppTableRecord
  2
ACAD_DSTYLE_DIM_LINETYPE
 70
     0
  0
APPID
  5
41A4
330
9
100
AcDbSymbolTableRecord
100
AcDbRegAppTableRecord
  2
ACAD_DSTYLE_DIM_EXT1_LINETYPE
 70
     0
  0
APPID
  5
41A5
330
9
100
AcDbSymbolTableRecord
100
AcDbRegAppTableRecord
  2
ACAD_DSTYLE_DIM_EXT2_LINETYPE
 70
     0
  0
APPID
  5
4550
330
9
100
AcDbSymbolTableRecord
100
AcDbRegAppTableRecord
  2
ACAD_EXEMPT_FROM_CAD_STANDARDS
 70
     0
  0
APPID
  5
45D0
330
9
100
AcDbSymbolTableRecord
100
AcDbRegAppTableRecord
  2
ACAD_DSTYLE_DIMTEXT_FILL
 70
     0
  0
ENDTAB
  0
TABLE
  2
DIMSTYLE
  5
A
330
0
100
AcDbSymbolTable
 70
     4
100
AcDbDimStyleTable
 71
     2
340
3DB8
340
30
  0
DIMSTYLE
105
30
330
A
100
AcDbSymbolTableRecord
100
AcDbDimStyleTableRecord
  2
STANDARD
 70
     0
 41
6.0
 42
1.0
 43
16.0
 44
3.0
 73
     0
 74
     0
 77
     1
 78
     8
140
4.4
141
10.0
147
1.6
172
     1
176
   256
177
   256
178
   256
340
F
341
977
342
977
  0
DIMSTYLE
105
3DB8
102
{ACAD_REACTORS
330
43F2
330
43FF
330
4417
330
4424
330
4431
330
443E
330
4451
330
4467
330
4481
330
448E
330
4539
330
444F
330
4450
330
46CC
102
}
330
A
100
AcDbSymbolTableRecord
100
AcDbDimStyleTableRecord
  2
CatalogDxf
 70
     0
 41
2.5
 42
0.625
 43
3.75
 44
1.25
 73
     0
 74
     0
 77
     1
 78
     8
140
2.5
141
2.5
143
0.03937007874016
147
0.625
171
     3
172
     1
176
   256
177
   256
178
   256
271
     1
272
     1
274
     3
283
     0
284
     8
340
3DB6
341
977
342
977
371
    -1
372
    -1
1001
ACAD_DSTYLE_DIM_LINETYPE
1070
   380
1005
12
1001
ACAD_DSTYLE_DIM_EXT1_LINETYPE
1070
   381
1005
12
1001
ACAD_DSTYLE_DIM_EXT2_LINETYPE
1070
   382
1005
12
  0
DIMSTYLE
105
42DD
330
A
100
AcDbSymbolTableRecord
100
AcDbDimStyleTableRecord
  2
ISO-25
 70
     0
 41
2.5
 42
0.625
 43
3.75
 44
1.25
 73
     0
 74
     0
 77
     1
 78
     8
140
2.5
141
2.5
143
0.03937007874016
147
0.625
171
     3
172
     1
271
     2
272
     2
274
     3
278
    44
283
     0
284
     8
340
F
  0
ENDTAB
  0
TABLE
  2
BLOCK_RECORD
  5
1
330
0
100
AcDbSymbolTable
 70
    14
  0
BLOCK_RECORD
  5
17
102
{ACAD_XDICTIONARY
360
1808
102
}
330
1
100
AcDbSymbolTableRecord
100
AcDbBlockTableRecord
  2
*MODEL_SPACE
340
3D5B
  0
BLOCK_RECORD
  5
14
102
{ACAD_XDICTIONARY
360
1806
102
}
330
1
100
AcDbSymbolTableRecord
100
AcDbBlockTableRecord
  2
*PAPER_SPACE
340
3D5C
  0
BLOCK_RECORD
  5
977
330
1
100
AcDbSymbolTableRecord
100
AcDbBlockTableRecord
  2
_OPEN30
340
0
102
{BLKREFS
331
463D
331
463E
331
467E
331
467F
331
4687
331
4688
331
4690
331
4691
331
46C6
331
46C7
331
46E5
331
46E6
331
46EE
331
46EF
331
473A
331
473B
331
474C
331
474D
331
475F
331
4760
331
477B
331
477C
331
47A8
331
47A9
102
}
  0
BLOCK_RECORD
  5
43F3
330
1
100
AcDbSymbolTableRecord
100
AcDbBlockTableRecord
  2
*D1
340
0
  0
BLOCK_RECORD
  5
4400
330
1
100
AcDbSymbolTableRecord
100
AcDbBlockTableRecord
  2
*D2
340
0
  0
BLOCK_RECORD
  5
4418
330
1
100
AcDbSymbolTableRecord
100
AcDbBlockTableRecord
  2
*D3
340
0
  0
BLOCK_RECORD
  5
4425
330
1
100
AcDbSymbolTableRecord
100
AcDbBlockTableRecord
  2
*D4
340
0
  0
BLOCK_RECORD
  5
4432
330
1
100
AcDbSymbolTableRecord
100
AcDbBlockTableRecord
  2
*D5
340
0
  0
BLOCK_RECORD
  5
443F
330
1
100
AcDbSymbolTableRecord
100
AcDbBlockTableRecord
  2
*D6
340
0
  0
BLOCK_RECORD
  5
4452
330
1
100
AcDbSymbolTableRecord
100
AcDbBlockTableRecord
  2
*D7
340
0
  0
BLOCK_RECORD
  5
4468
330
1
100
AcDbSymbolTableRecord
100
AcDbBlockTableRecord
  2
*D8
340
0
  0
BLOCK_RECORD
  5
4482
330
1
100
AcDbSymbolTableRecord
100
AcDbBlockTableRecord
  2
*D9
340
0
  0
BLOCK_RECORD
  5
448F
330
1
100
AcDbSymbolTableRecord
100
AcDbBlockTableRecord
  2
*D10
340
0
  0
BLOCK_RECORD
  5
453A
330
1
100
AcDbSymbolTableRecord
100
AcDbBlockTableRecord
  2
*D11
340
0
  0
BLOCK_RECORD
  5
46CD
330
1
100
AcDbSymbolTableRecord
100
AcDbBlockTableRecord
  2
*D12
340
0
  0
ENDTAB
  0
ENDSEC
  0
SECTION
  2
BLOCKS
  0
BLOCK
  5
2E
330
17
100
AcDbEntity
  8
0
100
AcDbBlockBegin
  2
*MODEL_SPACE
 70
     0
 10
0.0
 20
0.0
 30
0.0
  3
*MODEL_SPACE
  1

  0
ENDBLK
  5
2F
330
17
100
AcDbEntity
  8
0
100
AcDbBlockEnd
  0
BLOCK
  5
2C
330
14
100
AcDbEntity
 67
     1
  8
0
100
AcDbBlockBegin
  2
*PAPER_SPACE
 70
     0
 10
0.0
 20
0.0
 30
0.0
  3
*PAPER_SPACE
  1

  0
ENDBLK
  5
2D
330
14
100
AcDbEntity
 67
     1
  8
0
100
AcDbBlockEnd
  0
BLOCK
  5
97B
330
977
100
AcDbEntity
  8
0
100
AcDbBlockBegin
  2
_OPEN30
 70
     0
 10
0.0
 20
0.0
 30
0.0
  3
_OPEN30
  1

  0
LINE
  5
978
330
977
100
AcDbEntity
  8
0
  6
ByBlock
 62
     0
100
AcDbLine
 10
-1.0
 20
0.26794919
 30
0.0
 11
0.0
 21
0.0
 31
0.0
  0
LINE
  5
979
330
977
100
AcDbEntity
  8
0
  6
ByBlock
 62
     0
100
AcDbLine
 10
0.0
 20
0.0
 30
0.0
 11
-1.0
 21
-0.26794919
 31
0.0
  0
LINE
  5
97A
330
977
100
AcDbEntity
  8
0
  6
ByBlock
 62
     0
100
AcDbLine
 10
0.0
 20
0.0
 30
0.0
 11
-1.0
 21
0.0
 31
0.0
  0
ENDBLK
  5
97C
330
977
100
AcDbEntity
  8
0
100
AcDbBlockEnd
  0
BLOCK
  5
43FD
330
43F3
100
AcDbEntity
  8
0
100
AcDbBlockBegin
  2
*D1
 70
     1
 10
0.0
 20
0.0
 30
0.0
  3
*D1
  1

  0
LINE
  5
4749
330
43F3
100
AcDbEntity
  8
Z_OM_DIM
100
AcDbLine
 10
622.5754866064896
 20
-30.50911301662299
 30
0.0
 11
622.5754866064896
 21
-17.16786674401862
 31
0.0
  0
LINE
  5
474A
330
43F3
100
AcDbEntity
  8
Z_OM_DIM
100
AcDbLine
 10
632.5754866064897
 20
-23.00011301662298
 30
0.0
 11
632.5754866064897
 21
-17.16786674401862
 31
0.0
  0
LINE
  5
474B
330
43F3
100
AcDbEntity
  8
Z_OM_DIM
100
AcDbLine
 10
625.0754866064896
 20
-18.41786674401862
 30
0.0
 11
630.0754866064896
 21
-18.41786674401862
 31
0.0
  0
INSERT
  5
474C
330
43F3
100
AcDbEntity
  8
Z_OM_DIM
100
AcDbBlockReference
  2
_OPEN30
 10
622.5754866064896
 20
-18.41786674401862
 30
0.0
 41
2.5
 42
2.5
 43
2.5
 50
180.0
  0
INSERT
  5
474D
330
43F3
100
AcDbEntity
  8
Z_OM_DIM
100
AcDbBlockReference
  2
_OPEN30
 10
632.5754866064897
 20
-18.41786674401862
 30
0.0
 41
2.5
 42
2.5
 43
2.5
  0
MTEXT
  5
474E
330
43F3
100
AcDbEntity
  8
Z_OM_DIM
100
AcDbMText
 10
627.5754866064897
 20
-16.54286674401862
 30
0.0
 40
2.5
 41
0.0
 71
     5
 72
     1
  1
10
  7
CatalogDxf
 73
     1
 44
1.0
1001
ACAD
1000
MTEXTBEGIN
1070
    73
1070
     1
1070
    44
1040
1.0
1070
    74
1070
     0
1000
MTEXTEND
  0
POINT
  5
474F
330
43F3
100
AcDbEntity
  8
DEFPOINTS
 62
     0
100
AcDbPoint
 10
622.5754866064896
 20
-31.13411301662299
 30
0.0
  0
POINT
  5
4750
330
43F3
100
AcDbEntity
  8
DEFPOINTS
 62
     0
100
AcDbPoint
 10
632.5754866064897
 20
-23.62511301662298
 30
0.0
  0
POINT
  5
4751
330
43F3
100
AcDbEntity
  8
DEFPOINTS
 62
     0
100
AcDbPoint
 10
632.5754866064897
 20
-18.41786674401862
 30
0.0
  0
ENDBLK
  5
43FE
330
43F3
100
AcDbEntity
  8
0
100
AcDbBlockEnd
  0
BLOCK
  5
440A
330
4400
100
AcDbEntity
  8
0
100
AcDbBlockBegin
  2
*D2
 70
     1
 10
0.0
 20
0.0
 30
0.0
  3
*D2
  1

  0
LINE
  5
463A
330
4400
100
AcDbEntity
  8
Z_OM_DIM
100
AcDbLine
 10
631.9415427143304
 20
-46.25011301662297
 30
0.0
 11
631.9415427143304
 21
-58.40225852301911
 31
0.0
  0
LINE
  5
463B
330
4400
100
AcDbEntity
  8
Z_OM_DIM
100
AcDbLine
 10
662.2754866064897
 20
-44.75011301662298
 30
0.0
 11
662.2754866064897
 21
-58.40225852301911
 31
0.0
  0
LINE
  5
463C
330
4400
100
AcDbEntity
  8
Z_OM_DIM
100
AcDbLine
 10
634.4415427143303
 20
-57.15225852301911
 30
0.0
 11
659.7754866064897
 21
-57.15225852301911
 31
0.0
  0
INSERT
  5
463D
330
4400
100
AcDbEntity
  8
Z_OM_DIM
100
AcDbBlockReference
  2
_OPEN30
 10
631.9415427143304
 20
-57.15225852301911
 30
0.0
 41
2.5
 42
2.5
 43
2.5
 50
180.0
  0
INSERT
  5
463E
330
4400
100
AcDbEntity
  8
Z_OM_DIM
100
AcDbBlockReference
  2
_OPEN30
 10
662.2754866064897
 20
-57.15225852301911
 30
0.0
 41
2.5
 42
2.5
 43
2.5
  0
MTEXT
  5
463F
330
4400
100
AcDbEntity
  8
Z_OM_DIM
100
AcDbMText
 10
647.10851466041
 20
-55.27725852301911
 30
0.0
 40
2.5
 41
0.0
 71
     5
 72
     1
  1
30.4
  7
CatalogDxf
 73
     1
 44
1.0
1001
ACAD
1000
MTEXTBEGIN
1070
    73
1070
     1
1070
    44
1040
1.0
1070
    74
1070
     0
1000
MTEXTEND
  0
POINT
  5
4640
330
4400
100
AcDbEntity
  8
DEFPOINTS
 62
     0
100
AcDbPoint
 10
631.9415427143304
 20
-45.62511301662297
 30
0.0
  0
POINT
  5
4641
330
4400
100
AcDbEntity
  8
DEFPOINTS
 62
     0
100
AcDbPoint
 10
662.2754866064897
 20
-44.12511301662298
 30
0.0
  0
POINT
  5
4642
330
4400
100
AcDbEntity
  8
DEFPOINTS
 62
     0
100
AcDbPoint
 10
662.2754866064897
 20
-57.15225852301911
 30
0.0
  0
ENDBLK
  5
440B
330
4400
100
AcDbEntity
  8
0
100
AcDbBlockEnd
  0
BLOCK
  5
4422
330
4418
100
AcDbEntity
  8
0
100
AcDbBlockBegin
  2
*D3
 70
     1
 10
0.0
 20
0.0
 30
0.0
  3
*D3
  1

  0
LINE
  5
46E2
330
4418
100
AcDbEntity
  8
Z_OM_DIM
100
AcDbLine
 10
626.2754866064897
 20
-87.66846348465783
 30
0.0
 11
626.2754866064897
 21
-71.38777742017248
 31
0.0
  0
LINE
  5
46E3
330
4418
100
AcDbEntity
  8
Z_OM_DIM
100
AcDbLine
 10
638.2754866064897
 20
-85.67816258202752
 30
0.0
 11
638.2754866064897
 21
-71.38777742017248
 31
0.0
  0
LINE
  5
46E4
330
4418
100
AcDbEntity
  8
Z_OM_DIM
100
AcDbLine
 10
628.7754866064897
 20
-72.63777742017248
 30
0.0
 11
635.7754866064897
 21
-72.63777742017248
 31
0.0
  0
INSERT
  5
46E5
330
4418
100
AcDbEntity
  8
Z_OM_DIM
100
AcDbBlockReference
  2
_OPEN30
 10
626.2754866064897
 20
-72.63777742017248
 30
0.0
 41
2.5
 42
2.5
 43
2.5
 50
180.0
  0
INSERT
  5
46E6
330
4418
100
AcDbEntity
  8
Z_OM_DIM
100
AcDbBlockReference
  2
_OPEN30
 10
638.2754866064897
 20
-72.63777742017248
 30
0.0
 41
2.5
 42
2.5
 43
2.5
  0
MTEXT
  5
46E7
330
4418
100
AcDbEntity
  8
Z_OM_DIM
100
AcDbMText
 10
632.2754866064897
 20
-70.76277742017248
 30
0.0
 40
2.5
 41
0.0
 71
     5
 72
     1
  1
12
  7
CatalogDxf
 73
     1
 44
1.0
1001
ACAD
1000
MTEXTBEGIN
1070
    73
1070
     1
1070
    44
1040
1.0
1070
    74
1070
     0
1000
MTEXTEND
  0
POINT
  5
46E8
330
4418
100
AcDbEntity
  8
DEFPOINTS
 62
     0
100
AcDbPoint
 10
626.2754866064897
 20
-88.29346348465783
 30
0.0
  0
POINT
  5
46E9
330
4418
100
AcDbEntity
  8
DEFPOINTS
 62
     0
100
AcDbPoint
 10
638.2754866064897
 20
-86.30316258202752
 30
0.0
  0
POINT
  5
46EA
330
4418
100
AcDbEntity
  8
DEFPOINTS
 62
     0
100
AcDbPoint
 10
638.2754866064897
 20
-72.63777742017248
 30
0.0
  0
ENDBLK
  5
4423
330
4418
100
AcDbEntity
  8
0
100
AcDbBlockEnd
  0
BLOCK
  5
442F
330
4425
100
AcDbEntity
  8
0
100
AcDbBlockBegin
  2
*D4
 70
     1
 10
0.0
 20
0.0
 30
0.0
  3
*D4
  1

  0
LINE
  5
46EB
330
4425
100
AcDbEntity
  8
Z_OM_DIM
100
AcDbLine
 10
638.2754866064897
 20
-85.67816258202752
 30
0.0
 11
638.2754866064897
 21
-71.38777742017248
 31
0.0
  0
LINE
  5
46EC
330
4425
100
AcDbEntity
  8
Z_OM_DIM
100
AcDbLine
 10
646.2754866064897
 20
-85.67816258202752
 30
0.0
 11
646.2754866064897
 21
-71.38777742017248
 31
0.0
  0
LINE
  5
46ED
330
4425
100
AcDbEntity
  8
Z_OM_DIM
100
AcDbLine
 10
640.7754866064897
 20
-72.63777742017248
 30
0.0
 11
643.7754866064897
 21
-72.63777742017248
 31
0.0
  0
INSERT
  5
46EE
330
4425
100
AcDbEntity
  8
Z_OM_DIM
100
AcDbBlockReference
  2
_OPEN30
 10
638.2754866064897
 20
-72.63777742017248
 30
0.0
 41
2.5
 42
2.5
 43
2.5
 50
180.0
  0
INSERT
  5
46EF
330
4425
100
AcDbEntity
  8
Z_OM_DIM
100
AcDbBlockReference
  2
_OPEN30
 10
646.2754866064897
 20
-72.63777742017248
 30
0.0
 41
2.5
 42
2.5
 43
2.5
  0
MTEXT
  5
46F0
330
4425
100
AcDbEntity
  8
Z_OM_DIM
100
AcDbMText
 10
642.2754866064897
 20
-70.76277742017248
 30
0.0
 40
2.5
 41
0.0
 71
     5
 72
     1
  1
8
  7
CatalogDxf
 73
     1
 44
1.0
1001
ACAD
1000
MTEXTBEGIN
1070
    73
1070
     1
1070
    44
1040
1.0
1070
    74
1070
     0
1000
MTEXTEND
  0
POINT
  5
46F1
330
4425
100
AcDbEntity
  8
DEFPOINTS
 62
     0
100
AcDbPoint
 10
638.2754866064897
 20
-86.30316258202752
 30
0.0
  0
POINT
  5
46F2
330
4425
100
AcDbEntity
  8
DEFPOINTS
 62
     0
100
AcDbPoint
 10
646.2754866064897
 20
-86.30316258202752
 30
0.0
  0
POINT
  5
46F3
330
4425
100
AcDbEntity
  8
DEFPOINTS
 62
     0
100
AcDbPoint
 10
646.2754866064897
 20
-72.63777742017248
 30
0.0
  0
ENDBLK
  5
4430
330
4425
100
AcDbEntity
  8
0
100
AcDbBlockEnd
  0
BLOCK
  5
443C
330
4432
100
AcDbEntity
  8
0
100
AcDbBlockBegin
  2
*D5
 70
     1
 10
0.0
 20
0.0
 30
0.0
  3
*D5
  1

  0
LINE
  5
475C
330
4432
100
AcDbEntity
  8
Z_OM_DIM
100
AcDbLine
 10
650.0305860672469
 20
-89.224801412317
 30
0.0
 11
677.6773799110714
 21
-89.22480141231702
 31
0.0
  0
LINE
  5
475D
330
4432
100
AcDbEntity
  8
Z_OM_DIM
100
AcDbLine
 10
650.0305860672469
 20
-99.22480141231702
 30
0.0
 11
677.6773799110714
 21
-99.22480141231702
 31
0.0
  0
LINE
  5
475E
330
4432
100
AcDbEntity
  8
Z_OM_DIM
100
AcDbLine
 10
676.4273799110715
 20
-91.72480141231702
 30
0.0
 11
676.4273799110715
 21
-96.72480141231702
 31
0.0
  0
INSERT
  5
475F
330
4432
100
AcDbEntity
  8
Z_OM_DIM
100
AcDbBlockReference
  2
_OPEN30
 10
676.4273799110715
 20
-89.22480141231702
 30
0.0
 41
2.5
 42
2.5
 43
2.5
 50
90.0
  0
INSERT
  5
4760
330
4432
100
AcDbEntity
  8
Z_OM_DIM
100
AcDbBlockReference
  2
_OPEN30
 10
676.4273799110715
 20
-99.22480141231702
 30
0.0
 41
2.5
 42
2.5
 43
2.5
 50
270.0
  0
MTEXT
  5
4761
330
4432
100
AcDbEntity
  8
Z_OM_DIM
100
AcDbMText
 10
674.5523799110714
 20
-94.22480141231691
 30
0.0
 40
2.5
 41
0.0
 71
     5
 72
     1
  1
10
  7
CatalogDxf
 11
0.0000000000000001
 21
1.0
 31
0.0
 73
     1
 44
1.0
1001
ACAD
1000
MTEXTBEGIN
1070
    73
1070
     1
1070
    44
1040
1.0
1070
    74
1070
     0
1000
MTEXTEND
  0
POINT
  5
4762
330
4432
100
AcDbEntity
  8
DEFPOINTS
 62
     0
100
AcDbPoint
 10
649.4055860672468
 20
-89.224801412317
 30
0.0
  0
POINT
  5
4763
330
4432
100
AcDbEntity
  8
DEFPOINTS
 62
     0
100
AcDbPoint
 10
649.4055860672468
 20
-99.22480141231702
 30
0.0
  0
POINT
  5
4764
330
4432
100
AcDbEntity
  8
DEFPOINTS
 62
     0
100
AcDbPoint
 10
676.4273799110715
 20
-99.22480141231702
 30
0.0
  0
ENDBLK
  5
443D
330
4432
100
AcDbEntity
  8
0
100
AcDbBlockEnd
  0
BLOCK
  5
4449
330
443F
100
AcDbEntity
  8
0
100
AcDbBlockBegin
  2
*D6
 70
     1
 10
0.0
 20
0.0
 30
0.0
  3
*D6
  1

  0
LINE
  5
46C3
330
443F
100
AcDbEntity
  8
Z_OM_DIM
100
AcDbLine
 10
662.9004866064897
 20
-87.72480141231701
 30
0.0
 11
682.7061716629991
 21
-87.72480141231701
 31
0.0
  0
LINE
  5
46C4
330
443F
100
AcDbEntity
  8
Z_OM_DIM
100
AcDbLine
 10
662.9004866064897
 20
-100.724801412317
 30
0.0
 11
682.7061716629991
 21
-100.724801412317
 31
0.0
  0
LINE
  5
46C5
330
443F
100
AcDbEntity
  8
Z_OM_DIM
100
AcDbLine
 10
681.4561716629992
 20
-90.22480141231701
 30
0.0
 11
681.4561716629992
 21
-98.22480141231702
 31
0.0
  0
INSERT
  5
46C6
330
443F
100
AcDbEntity
  8
Z_OM_DIM
100
AcDbBlockReference
  2
_OPEN30
 10
681.4561716629992
 20
-87.72480141231701
 30
0.0
 41
2.5
 42
2.5
 43
2.5
 50
90.0
  0
INSERT
  5
46C7
330
443F
100
AcDbEntity
  8
Z_OM_DIM
100
AcDbBlockReference
  2
_OPEN30
 10
681.4561716629992
 20
-100.724801412317
 30
0.0
 41
2.5
 42
2.5
 43
2.5
 50
270.0
  0
MTEXT
  5
46C8
330
443F
100
AcDbEntity
  8
Z_OM_DIM
100
AcDbMText
 10
679.5811716629991
 20
-94.22480141231691
 30
0.0
 40
2.5
 41
0.0
 71
     5
 72
     1
  1
13
  7
CatalogDxf
 11
0.0000000000000001
 21
1.0
 31
0.0
 73
     1
 44
1.0
1001
ACAD
1000
MTEXTBEGIN
1070
    73
1070
     1
1070
    44
1040
1.0
1070
    74
1070
     0
1000
MTEXTEND
  0
POINT
  5
46C9
330
443F
100
AcDbEntity
  8
DEFPOINTS
 62
     0
100
AcDbPoint
 10
662.2754866064897
 20
-87.72480141231701
 30
0.0
  0
POINT
  5
46CA
330
443F
100
AcDbEntity
  8
DEFPOINTS
 62
     0
100
AcDbPoint
 10
662.2754866064897
 20
-100.724801412317
 30
0.0
  0
POINT
  5
46CB
330
443F
100
AcDbEntity
  8
DEFPOINTS
 62
     0
100
AcDbPoint
 10
681.4561716629992
 20
-100.724801412317
 30
0.0
  0
ENDBLK
  5
444A
330
443F
100
AcDbEntity
  8
0
100
AcDbBlockEnd
  0
BLOCK
  5
445C
330
4452
100
AcDbEntity
  8
0
100
AcDbBlockBegin
  2
*D7
 70
     1
 10
0.0
 20
0.0
 30
0.0
  3
*D7
  1

  0
LINE
  5
4777
330
4452
100
AcDbEntity
  8
Z_OM_DIM
100
AcDbLine
 10
622.4504866064896
 20
-90.23380141231704
 30
0.0
 11
611.0887085580855
 21
-90.23380141231704
 31
0.0
  0
LINE
  5
4778
330
4452
100
AcDbEntity
  8
Z_OM_DIM
100
AcDbLine
 10
622.4504866064896
 20
-98.21580141231706
 30
0.0
 11
611.0887085580855
 21
-98.21580141231706
 31
0.0
  0
LINE
  5
4779
330
4452
100
AcDbEntity
  8
Z_OM_DIM
100
AcDbLine
 10
612.3387085580855
 20
-92.73380141231704
 30
0.0
 11
612.3387085580855
 21
-95.71580141231706
 31
0.0
  0
MTEXT
  5
477A
330
4452
100
AcDbEntity
  8
Z_OM_DIM
100
AcDbMText
 10
610.0136081178369
 20
-94.51855196573342
 30
0.0
 40
2.5
 41
0.0
 71
     5
 72
     1
  1
%%c8
  7
CatalogDxf
 11
0.0000000000000001
 21
1.0
 31
0.0
 73
     1
 44
1.0
1001
ACAD
1000
MTEXTBEGIN
1070
    73
1070
     1
1070
    44
1040
1.0
1070
    74
1070
     0
1000
MTEXTEND
  0
INSERT
  5
477B
330
4452
100
AcDbEntity
  8
Z_OM_DIM
100
AcDbBlockReference
  2
_OPEN30
 10
612.3387085580855
 20
-90.23380141231704
 30
0.0
 41
2.5
 42
2.5
 43
2.5
 50
90.0
  0
INSERT
  5
477C
330
4452
100
AcDbEntity
  8
Z_OM_DIM
100
AcDbBlockReference
  2
_OPEN30
 10
612.3387085580855
 20
-98.21580141231706
 30
0.0
 41
2.5
 42
2.5
 43
2.5
 50
270.0
  0
POINT
  5
477D
330
4452
100
AcDbEntity
  8
DEFPOINTS
 62
     0
100
AcDbPoint
 10
623.0754866064897
 20
-90.23380141231704
 30
0.0
  0
POINT
  5
477E
330
4452
100
AcDbEntity
  8
DEFPOINTS
 62
     0
100
AcDbPoint
 10
623.0754866064897
 20
-98.21580141231706
 30
0.0
  0
POINT
  5
477F
330
4452
100
AcDbEntity
  8
DEFPOINTS
 62
     0
100
AcDbPoint
 10
612.3387085580855
 20
-98.21580141231706
 30
0.0
  0
ENDBLK
  5
445D
330
4452
100
AcDbEntity
  8
0
100
AcDbBlockEnd
  0
BLOCK
  5
4474
330
4468
100
AcDbEntity
  8
0
100
AcDbBlockBegin
  2
*D8
 70
     1
 10
0.0
 20
0.0
 30
0.0
  3
*D8
  1

  0
LINE
  5
4735
330
4468
100
AcDbEntity
  8
Z_OM_DIM
100
AcDbLine
 10
621.9504866064896
 20
-33.52511301662295
 30
0.0
 11
611.0887085580855
 21
-33.52511301662295
 31
0.0
  0
LINE
  5
4736
330
4468
100
AcDbEntity
  8
Z_OM_DIM
100
AcDbLine
 10
621.9504866064896
 20
-35.725113016623
 30
0.0
 11
611.0887085580855
 21
-35.725113016623
 31
0.0
  0
LINE
  5
4737
330
4468
100
AcDbEntity
  8
Z_OM_DIM
100
AcDbLine
 10
612.3387085580855
 20
-38.225113016623
 30
0.0
 11
612.3387085580855
 21
-40.725113016623
 31
0.0
  0
LINE
  5
4738
330
4468
100
AcDbEntity
  8
Z_OM_DIM
100
AcDbLine
 10
612.3387085580855
 20
-31.02511301662295
 30
0.0
 11
612.3387085580855
 21
-23.10844634995628
 31
0.0
  0
LINE
  5
4739
330
4468
100
AcDbEntity
  8
Z_OM_DIM
100
AcDbLine
 10
612.3387085580855
 20
-35.725113016623
 30
0.0
 11
612.3387085580855
 21
-33.52511301662295
 31
0.0
  0
INSERT
  5
473A
330
4468
100
AcDbEntity
  8
Z_OM_DIM
100
AcDbBlockReference
  2
_OPEN30
 10
612.3387085580855
 20
-35.725113016623
 30
0.0
 41
2.5
 42
2.5
 43
2.5
 50
90.0
  0
INSERT
  5
473B
330
4468
100
AcDbEntity
  8
Z_OM_DIM
100
AcDbBlockReference
  2
_OPEN30
 10
612.3387085580855
 20
-33.52511301662295
 30
0.0
 41
2.5
 42
2.5
 43
2.5
 50
270.0
  0
MTEXT
  5
473C
330
4468
100
AcDbEntity
  8
Z_OM_DIM
100
AcDbMText
 10
610.4637085580854
 20
-25.81677968328952
 30
0.0
 40
2.5
 41
0.0
 71
     5
 72
     1
  1
2.1
  7
CatalogDxf
 11
0.0000000000000001
 21
1.0
 31
0.0
 73
     1
 44
1.0
1001
ACAD
1000
MTEXTBEGIN
1070
    73
1070
     1
1070
    44
1040
1.0
1070
    74
1070
     0
1000
MTEXTEND
  0
POINT
  5
473D
330
4468
100
AcDbEntity
  8
DEFPOINTS
 62
     0
100
AcDbPoint
 10
622.5754866064896
 20
-33.52511301662295
 30
0.0
  0
POINT
  5
473E
330
4468
100
AcDbEntity
  8
DEFPOINTS
 62
     0
100
AcDbPoint
 10
622.5754866064896
 20
-35.725113016623
 30
0.0
  0
POINT
  5
473F
330
4468
100
AcDbEntity
  8
DEFPOINTS
 62
     0
100
AcDbPoint
 10
612.3387085580855
 20
-35.725113016623
 30
0.0
  0
ENDBLK
  5
4475
330
4468
100
AcDbEntity
  8
0
100
AcDbBlockEnd
  0
BLOCK
  5
448C
330
4482
100
AcDbEntity
  8
0
100
AcDbBlockBegin
  2
*D9
 70
     1
 10
0.0
 20
0.0
 30
0.0
  3
*D9
  1

  0
LINE
  5
467B
330
4482
100
AcDbEntity
  8
Z_OM_DIM
100
AcDbLine
 10
580.4313060350742
 20
-85.22480141231701
 30
0.0
 11
594.1047526269922
 21
-85.22480141231701
 31
0.0
  0
LINE
  5
467C
330
4482
100
AcDbEntity
  8
Z_OM_DIM
100
AcDbLine
 10
580.4313060350742
 20
-103.224801412317
 30
0.0
 11
594.1047526269922
 21
-103.224801412317
 31
0.0
  0
LINE
  5
467D
330
4482
100
AcDbEntity
  8
Z_OM_DIM
100
AcDbLine
 10
592.8547526269922
 20
-87.72480141231701
 30
0.0
 11
592.8547526269922
 21
-100.724801412317
 31
0.0
  0
INSERT
  5
467E
330
4482
100
AcDbEntity
  8
Z_OM_DIM
100
AcDbBlockReference
  2
_OPEN30
 10
592.8547526269922
 20
-85.22480141231701
 30
0.0
 41
2.5
 42
2.5
 43
2.5
 50
90.0
  0
INSERT
  5
467F
330
4482
100
AcDbEntity
  8
Z_OM_DIM
100
AcDbBlockReference
  2
_OPEN30
 10
592.8547526269922
 20
-103.224801412317
 30
0.0
 41
2.5
 42
2.5
 43
2.5
 50
270.0
  0
MTEXT
  5
4680
330
4482
100
AcDbEntity
  8
Z_OM_DIM
100
AcDbMText
 10
590.9797526269922
 20
-94.22480141231693
 30
0.0
 40
2.5
 41
0.0
 71
     5
 72
     1
  1
18
  7
CatalogDxf
 11
0.0000000000000001
 21
1.0
 31
0.0
 73
     1
 44
1.0
1001
ACAD
1000
MTEXTBEGIN
1070
    73
1070
     1
1070
    44
1040
1.0
1070
    74
1070
     0
1000
MTEXTEND
  0
POINT
  5
4681
330
4482
100
AcDbEntity
  8
DEFPOINTS
 62
     0
100
AcDbPoint
 10
579.8063060350743
 20
-85.22480141231701
 30
0.0
  0
POINT
  5
4682
330
4482
100
AcDbEntity
  8
DEFPOINTS
 62
     0
100
AcDbPoint
 10
579.8063060350743
 20
-103.224801412317
 30
0.0
  0
POINT
  5
4683
330
4482
100
AcDbEntity
  8
DEFPOINTS
 62
     0
100
AcDbPoint
 10
592.8547526269922
 20
-103.224801412317
 30
0.0
  0
ENDBLK
  5
448D
330
4482
100
AcDbEntity
  8
0
100
AcDbBlockEnd
  0
BLOCK
  5
4499
330
448F
100
AcDbEntity
  8
0
100
AcDbBlockBegin
  2
*D10
 70
     1
 10
0.0
 20
0.0
 30
0.0
  3
*D10
  1

  0
LINE
  5
4684
330
448F
100
AcDbEntity
  8
Z_OM_DIM
100
AcDbLine
 10
557.8063060350741
 20
-103.849801412317
 30
0.0
 11
557.8063060350741
 21
-116.573215217084
 31
0.0
  0
LINE
  5
4685
330
448F
100
AcDbEntity
  8
Z_OM_DIM
100
AcDbLine
 10
579.8063060350743
 20
-103.849801412317
 30
0.0
 11
579.8063060350743
 21
-116.573215217084
 31
0.0
  0
LINE
  5
4686
330
448F
100
AcDbEntity
  8
Z_OM_DIM
100
AcDbLine
 10
560.3063060350741
 20
-115.323215217084
 30
0.0
 11
577.3063060350742
 21
-115.323215217084
 31
0.0
  0
INSERT
  5
4687
330
448F
100
AcDbEntity
  8
Z_OM_DIM
100
AcDbBlockReference
  2
_OPEN30
 10
557.8063060350741
 20
-115.323215217084
 30
0.0
 41
2.5
 42
2.5
 43
2.5
 50
180.0
  0
INSERT
  5
4688
330
448F
100
AcDbEntity
  8
Z_OM_DIM
100
AcDbBlockReference
  2
_OPEN30
 10
579.8063060350743
 20
-115.323215217084
 30
0.0
 41
2.5
 42
2.5
 43
2.5
  0
MTEXT
  5
4689
330
448F
100
AcDbEntity
  8
Z_OM_DIM
100
AcDbMText
 10
568.8063060350741
 20
-113.448215217084
 30
0.0
 40
2.5
 41
0.0
 71
     5
 72
     1
  1
22
  7
CatalogDxf
 73
     1
 44
1.0
1001
ACAD
1000
MTEXTBEGIN
1070
    73
1070
     1
1070
    44
1040
1.0
1070
    74
1070
     0
1000
MTEXTEND
  0
POINT
  5
468A
330
448F
100
AcDbEntity
  8
DEFPOINTS
 62
     0
100
AcDbPoint
 10
557.8063060350741
 20
-103.224801412317
 30
0.0
  0
POINT
  5
468B
330
448F
100
AcDbEntity
  8
DEFPOINTS
 62
     0
100
AcDbPoint
 10
579.8063060350743
 20
-103.224801412317
 30
0.0
  0
POINT
  5
468C
330
448F
100
AcDbEntity
  8
DEFPOINTS
 62
     0
100
AcDbPoint
 10
579.8063060350743
 20
-115.323215217084
 30
0.0
  0
ENDBLK
  5
449A
330
448F
100
AcDbEntity
  8
0
100
AcDbBlockEnd
  0
BLOCK
  5
4544
330
453A
100
AcDbEntity
  8
0
100
AcDbBlockBegin
  2
*D11
 70
     1
 10
0.0
 20
0.0
 30
0.0
  3
*D11
  1

  0
LINE
  5
468D
330
453A
100
AcDbEntity
  8
Z_OM_DIM
100
AcDbLine
 10
662.2754866064897
 20
-45.37511301662298
 30
0.0
 11
662.2754866064897
 21
-58.40225852301911
 31
0.0
  0
LINE
  5
468E
330
453A
100
AcDbEntity
  8
Z_OM_DIM
100
AcDbLine
 10
694.0900901058033
 20
-36.00011301662298
 30
0.0
 11
694.0900901058033
 21
-58.40225852301911
 31
0.0
  0
LINE
  5
468F
330
453A
100
AcDbEntity
  8
Z_OM_DIM
100
AcDbLine
 10
664.7754866064897
 20
-57.15225852301911
 30
0.0
 11
691.5900901058034
 21
-57.15225852301911
 31
0.0
  0
INSERT
  5
4690
330
453A
100
AcDbEntity
  8
Z_OM_DIM
100
AcDbBlockReference
  2
_OPEN30
 10
662.2754866064897
 20
-57.15225852301911
 30
0.0
 41
2.5
 42
2.5
 43
2.5
 50
180.0
  0
INSERT
  5
4691
330
453A
100
AcDbEntity
  8
Z_OM_DIM
100
AcDbBlockReference
  2
_OPEN30
 10
694.0900901058033
 20
-57.15225852301911
 30
0.0
 41
2.5
 42
2.5
 43
2.5
  0
MTEXT
  5
4692
330
453A
100
AcDbEntity
  8
Z_OM_DIM
100
AcDbMText
 10
678.1827883561466
 20
-55.27725852301911
 30
0.0
 40
2.5
 41
0.0
 71
     5
 72
     1
  1
180 - 200
  7
CatalogDxf
 73
     1
 44
1.0
1001
ACAD
1000
MTEXTBEGIN
1070
    73
1070
     1
1070
    44
1040
1.0
1070
    74
1070
     0
1000
MTEXTEND
  0
POINT
  5
4693
330
453A
100
AcDbEntity
  8
DEFPOINTS
 62
     0
100
AcDbPoint
 10
662.2754866064897
 20
-44.75011301662298
 30
0.0
  0
POINT
  5
4694
330
453A
100
AcDbEntity
  8
DEFPOINTS
 62
     0
100
AcDbPoint
 10
694.0900901058033
 20
-35.37511301662298
 30
0.0
  0
POINT
  5
4695
330
453A
100
AcDbEntity
  8
DEFPOINTS
 62
     0
100
AcDbPoint
 10
694.0900901058033
 20
-57.15225852301911
 30
0.0
  0
ENDBLK
  5
4545
330
453A
100
AcDbEntity
  8
0
100
AcDbBlockEnd
  0
BLOCK
  5
46D7
330
46CD
100
AcDbEntity
  8
0
100
AcDbBlockBegin
  2
*D12
 70
     1
 10
0.0
 20
0.0
 30
0.0
  3
*D12
  1

  0
LINE
  5
47A4
330
46CD
100
AcDbEntity
  8
Z_OM_DIM
100
AcDbLine
 10
631.9415427143304
 20
-89.612301412317
 30
0.0
 11
631.9415427143304
 21
-77.51087034587101
 31
0.0
  0
LINE
  5
47A5
330
46CD
100
AcDbEntity
  8
Z_OM_DIM
100
AcDbLine
 10
638.2754866064897
 20
-85.67816258202752
 30
0.0
 11
638.2754866064897
 21
-77.51087034587101
 31
0.0
  0
LINE
  5
47A6
330
46CD
100
AcDbEntity
  8
Z_OM_DIM
100
AcDbLine
 10
634.4415427143303
 20
-78.76087034587101
 30
0.0
 11
635.7754866064897
 21
-78.76087034587101
 31
0.0
  0
MTEXT
  5
47A7
330
46CD
100
AcDbEntity
  8
Z_OM_DIM
100
AcDbMText
 10
635.038270970796
 20
-76.17562305887673
 30
0.0
 40
2.5
 41
0.0
 71
     5
 72
     1
  1
6.5
  7
CatalogDxf
 73
     1
 44
1.0
1001
ACAD
1000
MTEXTBEGIN
1070
    73
1070
     1
1070
    44
1040
1.0
1070
    74
1070
     0
1000
MTEXTEND
  0
INSERT
  5
47A8
330
46CD
100
AcDbEntity
  8
Z_OM_DIM
100
AcDbBlockReference
  2
_OPEN30
 10
631.9415427143304
 20
-78.76087034587101
 30
0.0
 41
2.5
 42
2.5
 43
2.5
 50
180.0
  0
INSERT
  5
47A9
330
46CD
100
AcDbEntity
  8
Z_OM_DIM
100
AcDbBlockReference
  2
_OPEN30
 10
638.2754866064897
 20
-78.76087034587101
 30
0.0
 41
2.5
 42
2.5
 43
2.5
  0
POINT
  5
47AA
330
46CD
100
AcDbEntity
  8
DEFPOINTS
 62
     0
100
AcDbPoint
 10
631.9415427143304
 20
-90.237301412317
 30
0.0
  0
POINT
  5
47AB
330
46CD
100
AcDbEntity
  8
DEFPOINTS
 62
     0
100
AcDbPoint
 10
638.2754866064897
 20
-86.30316258202752
 30
0.0
  0
POINT
  5
47AC
330
46CD
100
AcDbEntity
  8
DEFPOINTS
 62
     0
100
AcDbPoint
 10
638.2754866064897
 20
-78.76087034587101
 30
0.0
  0
ENDBLK
  5
46D8
330
46CD
100
AcDbEntity
  8
0
100
AcDbBlockEnd
  0
ENDSEC
  0
SECTION
  2
ENTITIES
  0
MTEXT
  5
4130
330
17
100
AcDbEntity
  8
Z_OM_DIM
100
AcDbMText
 10
662.501115762133
 20
-132.7473815513037
 30
0.0
 40
3.0
 41
93.92693936784551
 71
     1
 72
     5
  1
TAKAHA KIKO Co., Ltd\PCAD DRAWING No. CA0830
  7
CatalogDxf
 73
     1
 44
1.0
1001
ACAD
1000
MTEXTBEGIN
1070
    73
1070
     1
1070
    44
1040
1.0
1070
    74
1070
     0
1000
MTEXTEND
  0
MTEXT
  5
42AA
330
17
100
AcDbEntity
  8
Z_OM_DIM
100
AcDbMText
 10
528.2507661179245
 20
-7.472710644680548
 30
0.0
 40
3.0
 41
47.03999999999999
 71
     1
 72
     1
  1
Adsorbed position
  7
CatalogDxf
 73
     1
 44
1.0
1001
ACAD
1000
MTEXTBEGIN
1070
    73
1070
     1
1070
    44
1040
1.0
1070
    74
1070
     0
1000
MTEXTEND
  0
LINE
  5
436A
330
17
100
AcDbEntity
  8
0
100
AcDbLine
 10
631.9415427143304
 20
-45.62511301662297
 30
0.0
 11
631.9415427143304
 21
-44.025113016623
 31
0.0
  0
LINE
  5
436B
330
17
100
AcDbEntity
  8
0
100
AcDbLine
 10
631.9415427143304
 20
-44.025113016623
 30
0.0
 11
632.5754866064897
 21
-44.02511301662295
 31
0.0
  0
LINE
  5
436C
330
17
100
AcDbEntity
  8
0
100
AcDbLine
 10
660.6754866064895
 20
-44.02511301662295
 30
0.0
 11
660.6754866064895
 21
-35.62511301662298
 31
0.0
  0
LINE
  5
436D
330
17
100
AcDbEntity
  8
0
100
AcDbLine
 10
660.6754866064895
 20
-25.225113016623
 30
0.0
 11
635.1754866064895
 21
-25.225113016623
 31
0.0
  0
LINE
  5
436E
330
17
100
AcDbEntity
  8
0
100
AcDbLine
 10
631.9415427143304
 20
-25.225113016623
 30
0.0
 11
631.9415427143304
 21
-23.62511301662298
 31
0.0
  0
LINE
  5
436F
330
17
100
AcDbEntity
  8
0
100
AcDbLine
 10
631.9415427143304
 20
-23.62511301662298
 30
0.0
 11
660.7754866064897
 21
-23.62511301662298
 31
0.0
  0
LINE
  5
4370
330
17
100
AcDbEntity
  8
0
100
AcDbLine
 10
662.2754866064897
 20
-25.12511301662299
 30
0.0
 11
662.2754866064897
 21
-33.62511301662298
 31
0.0
  0
LINE
  5
4371
330
17
100
AcDbEntity
  8
0
100
AcDbLine
 10
660.7754866064897
 20
-45.62511301662297
 30
0.0
 11
631.9415427143304
 21
-45.62511301662297
 31
0.0
  0
LINE
  5
4372
330
17
100
AcDbEntity
  8
additional
 48
0.5
100
AcDbLine
 10
638.2754866064897
 20
-47.29518027909658
 30
0.0
 11
638.2754866064897
 21
-42.29384212749535
 31
0.0
  0
LINE
  5
4373
330
17
100
AcDbEntity
  8
additional
 48
0.5
100
AcDbLine
 10
646.2754866064897
 20
-47.29518027909658
 30
0.0
 11
646.2754866064897
 21
-42.29384212749535
 31
0.0
  0
ARC
  5
4374
330
17
100
AcDbEntity
  8
0
100
AcDbCircle
 10
660.7754866064897
 20
-44.12511301662298
 30
0.0
 40
1.5
100
AcDbArc
 50
270.0
 51
0.0
  0
ARC
  5
4375
330
17
100
AcDbEntity
  8
0
100
AcDbCircle
 10
660.7754866064897
 20
-25.12511301662299
 30
0.0
 40
1.5
100
AcDbArc
 50
0.0
 51
90.0
  0
LINE
  5
4376
330
17
100
AcDbEntity
  8
0
100
AcDbLine
 10
662.2754866064897
 20
-100.724801412317
 30
0.0
 11
662.2754866064897
 21
-87.72480141231701
 31
0.0
  0
LINE
  5
4377
330
17
100
AcDbEntity
  8
0
100
AcDbLine
 10
662.2754866064897
 20
-87.72480141231701
 30
0.0
 11
658.4754866064898
 21
-87.72480141231701
 31
0.0
  0
LINE
  5
4378
330
17
100
AcDbEntity
  8
0
100
AcDbLine
 10
658.2754866064897
 20
-87.52480141231703
 30
0.0
 11
658.2754866064897
 21
-85.22480141231701
 31
0.0
  0
LINE
  5
4379
330
17
100
AcDbEntity
  8
0
100
AcDbLine
 10
658.2754866064897
 20
-85.22480141231701
 30
0.0
 11
632.5754866064897
 21
-85.22480141231701
 31
0.0
  0
LINE
  5
437A
330
17
100
AcDbEntity
  8
0
100
AcDbLine
 10
632.5754866064897
 20
-103.221301412317
 30
0.0
 11
658.2754866064897
 21
-103.224801412317
 31
0.0
  0
LINE
  5
437B
330
17
100
AcDbEntity
  8
0
100
AcDbLine
 10
658.2754866064897
 20
-103.224801412317
 30
0.0
 11
658.2754866064897
 21
-100.924801412317
 31
0.0
  0
LINE
  5
437C
330
17
100
AcDbEntity
  8
0
100
AcDbLine
 10
658.4754866064898
 20
-100.724801412317
 30
0.0
 11
662.2754866064897
 21
-100.724801412317
 31
0.0
  0
LINE
  5
437D
330
17
100
AcDbEntity
  8
0
100
AcDbLine
 10
635.1754866064896
 20
-103.224801412317
 30
0.0
 11
635.1754866064896
 21
-98.21230141231705
 31
0.0
  0
LINE
  5
437E
330
17
100
AcDbEntity
  8
0
100
AcDbLine
 10
635.1754866064896
 20
-85.22480141231701
 30
0.0
 11
635.1754866064896
 21
-90.237301412317
 31
0.0
  0
LINE
  5
437F
330
17
100
AcDbEntity
  8
0
100
AcDbLine
 10
635.1754866064896
 20
-98.21230141231705
 30
0.0
 11
631.9415427143304
 21
-98.21230141231705
 31
0.0
  0
ARC
  5
4380
330
17
100
AcDbEntity
  8
0
100
AcDbCircle
 10
658.4754866064898
 20
-100.924801412317
 30
0.0
 40
0.2
100
AcDbArc
 50
90.0
 51
180.0
  0
ARC
  5
4381
330
17
100
AcDbEntity
  8
0
100
AcDbCircle
 10
658.4754866064898
 20
-87.52480141231703
 30
0.0
 40
0.2
100
AcDbArc
 50
180.0
 51
270.0
  0
LINE
  5
4382
330
17
100
AcDbEntity
  8
0
100
AcDbLine
 10
635.1754866064896
 20
-90.237301412317
 30
0.0
 11
631.9415427143304
 21
-90.237301412317
 31
0.0
  0
LINE
  5
4383
330
17
100
AcDbEntity
  8
0
 48
0.5
100
AcDbLine
 10
632.5754866064897
 20
-45.62511301662297
 30
0.0
 11
632.5754866064897
 21
-23.62511301662298
 31
0.0
  0
LINE
  5
4384
330
17
100
AcDbEntity
  8
0
100
AcDbLine
 10
632.5754866064897
 20
-25.225113016623
 30
0.0
 11
631.9415427143304
 21
-25.225113016623
 31
0.0
  0
LINE
  5
4385
330
17
100
AcDbEntity
  8
0
100
AcDbLine
 10
635.1754866064895
 20
-44.02511301662295
 30
0.0
 11
660.6754866064895
 21
-44.02511301662295
 31
0.0
  0
LINE
  5
4386
330
17
100
AcDbEntity
  8
0
100
AcDbLine
 10
659.6754866064896
 20
-44.02511301662295
 30
0.0
 11
659.6754866064896
 21
-25.225113016623
 31
0.0
  0
LINE
  5
4387
330
17
100
AcDbEntity
  8
0
 48
0.5
100
AcDbLine
 10
635.1754866064895
 20
-45.62511301662297
 30
0.0
 11
635.1754866064895
 21
-23.62511301662298
 31
0.0
  0
LINE
  5
4388
330
17
100
AcDbEntity
  8
0
 48
0.5
100
AcDbLine
 10
635.9254866064897
 20
-44.02511301662295
 30
0.0
 11
635.9254866064897
 21
-25.225113016623
 31
0.0
  0
LINE
  5
4389
330
17
100
AcDbEntity
  8
0
100
AcDbLine
 10
635.9254866064897
 20
-43.02511301662295
 30
0.0
 11
659.6754866064896
 21
-43.02511301662295
 31
0.0
  0
LINE
  5
438A
330
17
100
AcDbEntity
  8
0
100
AcDbLine
 10
659.6754866064896
 20
-26.225113016623
 30
0.0
 11
635.9254866064897
 21
-26.225113016623
 31
0.0
  0
LINE
  5
438B
330
17
100
AcDbEntity
  8
additional
  6
CENTER2
 48
0.5
100
AcDbLine
 10
626.2754866064897
 20
-28.58017083906593
 30
0.0
 11
626.2754866064897
 21
-40.60569467529872
 31
0.0
  0
LINE
  5
438C
330
17
100
AcDbEntity
  8
0
 48
0.5
100
AcDbLine
 10
632.5754866064897
 20
-103.221301412317
 30
0.0
 11
632.5754866064897
 21
-98.21230141231705
 31
0.0
  0
LINE
  5
438D
330
17
100
AcDbEntity
  8
0
 48
0.5
100
AcDbLine
 10
632.5754866064897
 20
-90.237301412317
 30
0.0
 11
632.5754866064897
 21
-85.22130141231697
 31
0.0
  0
LINE
  5
438E
330
17
100
AcDbEntity
  8
0
 48
0.5
100
AcDbLine
 10
659.6754866064896
 20
-87.72480141231701
 30
0.0
 11
659.6754866064896
 21
-85.22480141231701
 31
0.0
  0
LINE
  5
438F
330
17
100
AcDbEntity
  8
0
 48
0.5
100
AcDbLine
 10
659.6754866064896
 20
-104.824801412317
 30
0.0
 11
659.6754866064896
 21
-100.724801412317
 31
0.0
  0
LINE
  5
4390
330
17
100
AcDbEntity
  8
0
 48
0.5
100
AcDbLine
 10
660.6754866064895
 20
-85.22480141231701
 30
0.0
 11
660.6754866064895
 21
-87.72480141231701
 31
0.0
  0
LINE
  5
4391
330
17
100
AcDbEntity
  8
0
 48
0.5
100
AcDbLine
 10
659.6754866064896
 20
-104.824801412317
 30
0.0
 11
662.1754866064897
 21
-104.824801412317
 31
0.0
  0
LINE
  5
4392
330
17
100
AcDbEntity
  8
0
 48
0.5
100
AcDbLine
 10
662.1754866064897
 20
-104.824801412317
 30
0.0
 11
662.1754866064897
 21
-101.324801412317
 31
0.0
  0
LINE
  5
4393
330
17
100
AcDbEntity
  8
0
 48
0.5
100
AcDbLine
 10
662.1754866064897
 20
-101.324801412317
 30
0.0
 11
660.6754866064895
 21
-100.8248014123169
 31
0.0
  0
LINE
  5
4394
330
17
100
AcDbEntity
  8
0
 48
0.5
100
AcDbLine
 10
660.6754866064895
 20
-100.8248014123169
 30
0.0
 11
660.6754866064895
 21
-100.724801412317
 31
0.0
  0
LINE
  5
4395
330
17
100
AcDbEntity
  8
0
 48
0.5
100
AcDbLine
 10
659.6754866064896
 20
-85.22480141231701
 30
0.0
 11
660.6754866064895
 21
-85.22480141231701
 31
0.0
  0
LINE
  5
4396
330
17
100
AcDbEntity
  8
0
100
AcDbLine
 10
658.2754866064897
 20
-102.624801412317
 30
0.0
 11
659.6754866064896
 21
-102.624801412317
 31
0.0
  0
LINE
  5
4397
330
17
100
AcDbEntity
  8
0
100
AcDbLine
 10
662.2754866064897
 20
-35.62511301662298
 30
0.0
 11
662.2754866064897
 21
-44.12511301662298
 31
0.0
  0
LINE
  5
4398
330
17
100
AcDbEntity
  8
0
100
AcDbLine
 10
660.6754866064895
 20
-33.62511301662298
 30
0.0
 11
660.6754866064895
 21
-25.225113016623
 31
0.0
  0
LINE
  5
4399
330
17
100
AcDbEntity
  8
0
 48
0.5
100
AcDbLine
 10
635.9254866064897
 20
-85.22480141231701
 30
0.0
 11
645.3323438826409
 21
-83.92480141231699
 31
0.0
  0
LINE
  5
439A
330
17
100
AcDbEntity
  8
0
 48
0.5
100
AcDbLine
 10
645.3323438826409
 20
-83.92480141231699
 30
0.0
 11
659.6754866064896
 21
-83.92480141231699
 31
0.0
  0
LINE
  5
439B
330
17
100
AcDbEntity
  8
0
 48
0.5
100
AcDbLine
 10
659.6754866064896
 20
-85.22480141231701
 30
0.0
 11
659.6754866064896
 21
-83.92480141231699
 31
0.0
  0
LINE
  5
439C
330
17
100
AcDbEntity
  8
0
 48
0.5
100
AcDbLine
 10
557.8063060350741
 20
-85.22480141231701
 30
0.0
 11
557.8063060350741
 21
-103.224801412317
 31
0.0
  0
LINE
  5
439D
330
17
100
AcDbEntity
  8
0
 48
0.5
100
AcDbLine
 10
557.8063060350741
 20
-103.224801412317
 30
0.0
 11
579.8063060350743
 21
-103.224801412317
 31
0.0
  0
LINE
  5
439E
330
17
100
AcDbEntity
  8
0
 48
0.5
100
AcDbLine
 10
579.8063060350743
 20
-85.22480141231701
 30
0.0
 11
557.8063060350741
 21
-85.22480141231701
 31
0.0
  0
LINE
  5
439F
330
17
100
AcDbEntity
  8
0
 48
0.5
100
AcDbLine
 10
579.8063060350743
 20
-85.22480141231701
 30
0.0
 11
579.8063060350743
 21
-103.224801412317
 31
0.0
  0
LINE
  5
43A0
330
17
100
AcDbEntity
  8
additional
  6
CENTER2
 48
0.5
100
AcDbLine
 10
568.8063060350742
 20
-81.29491078620819
 30
0.0
 11
568.8063060350742
 21
-107.4846382719094
 31
0.0
  0
LINE
  5
43A1
330
17
100
AcDbEntity
  8
additional
  6
CENTER2
 48
0.5
100
AcDbLine
 10
555.0381849615964
 20
-94.224801412317
 30
0.0
 11
582.6342226965822
 21
-94.224801412317
 31
0.0
  0
LINE
  5
43A2
330
17
100
AcDbEntity
  8
0
 48
0.5
100
AcDbLine
 10
559.5563060350741
 20
-103.224801412317
 30
0.0
 11
559.5563060350741
 21
-104.824801412317
 31
0.0
  0
LINE
  5
43A3
330
17
100
AcDbEntity
  8
0
 48
0.5
100
AcDbLine
 10
559.5563060350741
 20
-104.824801412317
 30
0.0
 11
578.0563060350742
 21
-104.824801412317
 31
0.0
  0
LINE
  5
43A4
330
17
100
AcDbEntity
  8
0
 48
0.5
100
AcDbLine
 10
578.0563060350742
 20
-104.824801412317
 30
0.0
 11
578.0563060350742
 21
-103.224801412317
 31
0.0
  0
LINE
  5
43A5
330
17
100
AcDbEntity
  8
0
 48
0.5
100
AcDbLine
 10
579.8063060350743
 20
-90.237301412317
 30
0.0
 11
578.2063060350743
 21
-90.237301412317
 31
0.0
  0
LINE
  5
43A6
330
17
100
AcDbEntity
  8
0
 48
0.5
100
AcDbLine
 10
578.2063060350743
 20
-90.237301412317
 30
0.0
 11
578.2063060350743
 21
-98.21230141231705
 31
0.0
  0
LINE
  5
43A7
330
17
100
AcDbEntity
  8
0
 48
0.5
100
AcDbLine
 10
578.2063060350743
 20
-98.21230141231705
 30
0.0
 11
579.8063060350743
 21
-98.21230141231705
 31
0.0
  0
LINE
  5
43A8
330
17
100
AcDbEntity
  8
0
 48
0.5
100
AcDbLine
 10
557.8063060350741
 20
-90.237301412317
 30
0.0
 11
559.4063060350743
 21
-90.237301412317
 31
0.0
  0
LINE
  5
43A9
330
17
100
AcDbEntity
  8
0
 48
0.5
100
AcDbLine
 10
559.4063060350743
 20
-90.237301412317
 30
0.0
 11
559.4063060350743
 21
-98.21230141231705
 31
0.0
  0
LINE
  5
43AA
330
17
100
AcDbEntity
  8
0
 48
0.5
100
AcDbLine
 10
559.4063060350743
 20
-98.21230141231705
 30
0.0
 11
557.8063060350741
 21
-98.21230141231705
 31
0.0
  0
LINE
  5
43AB
330
17
100
AcDbEntity
  8
0
 48
0.5
100
AcDbLine
 10
577.2063060350742
 20
-85.22480141231701
 30
0.0
 11
572.8063060350742
 21
-83.92480141231699
 31
0.0
  0
LINE
  5
43AC
330
17
100
AcDbEntity
  8
0
 48
0.5
100
AcDbLine
 10
572.8063060350742
 20
-83.92480141231699
 30
0.0
 11
564.8063060350742
 21
-83.92480141231699
 31
0.0
  0
LINE
  5
43AD
330
17
100
AcDbEntity
  8
0
 48
0.5
100
AcDbLine
 10
560.4063060350743
 20
-85.22480141231701
 30
0.0
 11
564.8063060350742
 21
-83.92480141231699
 31
0.0
  0
CIRCLE
  5
43AE
330
17
100
AcDbEntity
  8
0
 48
0.5
100
AcDbCircle
 10
568.8063060350742
 20
-94.224801412317
 30
0.0
 40
3.991
  0
LINE
  5
43AF
330
17
100
AcDbEntity
  8
0
 48
0.5
100
AcDbLine
 10
567.7563060350742
 20
-90.37440130323743
 30
0.0
 11
567.7563060350742
 21
-98.07520152139659
 31
0.0
  0
LINE
  5
43B0
330
17
100
AcDbEntity
  8
0
 48
0.5
100
AcDbLine
 10
569.8563060350742
 20
-90.37440130323743
 30
0.0
 11
569.8563060350742
 21
-98.07520152139659
 31
0.0
  0
LINE
  5
43B1
330
17
100
AcDbEntity
  8
0
100
AcDbLine
 10
632.5754866064897
 20
-98.21580141231706
 30
0.0
 11
623.0754866064897
 21
-98.21580141231706
 31
0.0
  0
LINE
  5
43B2
330
17
100
AcDbEntity
  8
0
100
AcDbLine
 10
622.5754866064896
 20
-97.71580141231709
 30
0.0
 11
622.5754866064896
 21
-90.73380141231705
 31
0.0
  0
LINE
  5
43B3
330
17
100
AcDbEntity
  8
0
100
AcDbLine
 10
623.0754866064897
 20
-90.23380141231704
 30
0.0
 11
632.5754866064897
 21
-90.23380141231704
 31
0.0
  0
LINE
  5
43B4
330
17
100
AcDbEntity
  8
0
100
AcDbLine
 10
623.0754866064897
 20
-98.21580141231706
 30
0.0
 11
622.5754866064896
 21
-97.71580141231709
 31
0.0
  0
LINE
  5
43B5
330
17
100
AcDbEntity
  8
0
100
AcDbLine
 10
623.0754866064897
 20
-90.23380141231704
 30
0.0
 11
622.5754866064896
 21
-90.73380141231705
 31
0.0
  0
LINE
  5
43B6
330
17
100
AcDbEntity
  8
0
100
AcDbLine
 10
623.0754866064897
 20
-98.21580141231706
 30
0.0
 11
623.0754866064897
 21
-90.23380141231704
 31
0.0
  0
CIRCLE
  5
43B7
330
17
100
AcDbEntity
  8
0
 48
0.5
100
AcDbCircle
 10
626.2754866064897
 20
-94.224801412317
 30
0.0
 40
1.55
  0
LINE
  5
43B8
330
17
100
AcDbEntity
  8
0
100
AcDbLine
 10
622.5754866064896
 20
-38.11611301662296
 30
0.0
 11
622.5754866064896
 21
-35.725113016623
 31
0.0
  0
LINE
  5
43B9
330
17
100
AcDbEntity
  8
0
100
AcDbLine
 10
622.5754866064896
 20
-35.725113016623
 30
0.0
 11
632.5254866064897
 21
-35.725113016623
 31
0.0
  0
LINE
  5
43BA
330
17
100
AcDbEntity
  8
0
100
AcDbLine
 10
632.5254866064897
 20
-33.52511301662295
 30
0.0
 11
622.5754866064896
 21
-33.52511301662295
 31
0.0
  0
LINE
  5
43BB
330
17
100
AcDbEntity
  8
0
100
AcDbLine
 10
622.5754866064896
 20
-33.52511301662295
 30
0.0
 11
622.5754866064896
 21
-31.13411301662299
 31
0.0
  0
LINE
  5
43BC
330
17
100
AcDbEntity
  8
0
100
AcDbLine
 10
623.0754866064897
 20
-38.61611301662296
 30
0.0
 11
622.5754866064896
 21
-38.11611301662296
 31
0.0
  0
LINE
  5
43BD
330
17
100
AcDbEntity
  8
0
100
AcDbLine
 10
623.0754866064897
 20
-30.63411301662299
 30
0.0
 11
622.5754866064896
 21
-31.13411301662299
 31
0.0
  0
LINE
  5
43BE
330
17
100
AcDbEntity
  8
0
100
AcDbLine
 10
623.0754866064897
 20
-30.63411301662299
 30
0.0
 11
623.0754866064897
 21
-33.52511301662295
 31
0.0
  0
LINE
  5
43BF
330
17
100
AcDbEntity
  8
0
100
AcDbLine
 10
623.0754866064897
 20
-38.61611301662296
 30
0.0
 11
623.0754866064897
 21
-35.725113016623
 31
0.0
  0
LINE
  5
43C0
330
17
100
AcDbEntity
  8
0
 48
0.5
100
AcDbLine
 10
632.5754866064897
 20
-33.52511301662295
 30
0.0
 11
632.5254866064897
 21
-33.52511301662295
 31
0.0
  0
LINE
  5
43C1
330
17
100
AcDbEntity
  8
0
 48
0.5
100
AcDbLine
 10
632.5754866064897
 20
-35.725113016623
 30
0.0
 11
632.5254866064897
 21
-35.725113016623
 31
0.0
  0
LINE
  5
43C2
330
17
100
AcDbEntity
  8
0
 48
0.5
100
AcDbLine
 10
623.0754866064897
 20
-30.63411301662299
 30
0.0
 11
632.5254866064897
 21
-30.63411301662299
 31
0.0
  0
LINE
  5
43C3
330
17
100
AcDbEntity
  8
0
 48
0.5
100
AcDbLine
 10
623.0754866064897
 20
-38.61611301662296
 30
0.0
 11
632.5254866064897
 21
-38.61611301662296
 31
0.0
  0
LINE
  5
43C4
330
17
100
AcDbEntity
  8
additional
  6
CENTER2
 48
0.5
100
AcDbLine
 10
646.2754866064897
 20
-102.1044950643727
 30
0.0
 11
646.2754866064897
 21
-86.30316258202752
 31
0.0
  0
CIRCLE
  5
43C5
330
17
100
AcDbEntity
  8
0
 48
0.5
100
AcDbCircle
 10
646.2754866064897
 20
-89.224801412317
 30
0.0
 40
1.5
  0
CIRCLE
  5
43C6
330
17
100
AcDbEntity
  8
0
 48
0.5
100
AcDbCircle
 10
638.2754866064897
 20
-99.22480141231702
 30
0.0
 40
1.5
  0
LINE
  5
43C7
330
17
100
AcDbEntity
  8
additional
  6
CENTER2
 48
0.5
100
AcDbLine
 10
635.6754866064895
 20
-99.22480141231702
 30
0.0
 11
649.4055860672468
 21
-99.22480141231702
 31
0.0
  0
LINE
  5
43C8
330
17
100
AcDbEntity
  8
additional
  6
CENTER2
 48
0.5
100
AcDbLine
 10
635.6754866064895
 20
-89.224801412317
 30
0.0
 11
649.4055860672468
 21
-89.224801412317
 31
0.0
  0
LINE
  5
43C9
330
17
100
AcDbEntity
  8
additional
  6
CENTER2
 48
0.5
100
AcDbLine
 10
638.2754866064897
 20
-102.1044950643727
 30
0.0
 11
638.2754866064897
 21
-86.30316258202752
 31
0.0
  0
LINE
  5
43CA
330
17
100
AcDbEntity
  8
additional
  6
CENTER2
 48
0.5
100
AcDbLine
 10
619.5688300880922
 20
-94.224801412317
 30
0.0
 11
665.5351382566611
 21
-94.22480141231705
 31
0.0
  0
LINE
  5
43CB
330
17
100
AcDbEntity
  8
additional
  6
CENTER2
 48
0.5
100
AcDbLine
 10
626.2754866064897
 20
-88.29346348465783
 30
0.0
 11
626.2754866064897
 21
-100.2053830709928
 31
0.0
  0
CIRCLE
  5
43CC
330
17
100
AcDbEntity
  8
additional
  6
HIDDEN2
 48
0.5
100
AcDbCircle
 10
646.2754866064897
 20
-99.22480141231702
 30
0.0
 40
1.5
  0
CIRCLE
  5
43CD
330
17
100
AcDbEntity
  8
0
 48
0.5
100
AcDbCircle
 10
646.2754866064897
 20
-99.22480141231702
 30
0.0
 40
1.25
  0
CIRCLE
  5
43CE
330
17
100
AcDbEntity
  8
additional
  6
HIDDEN2
 48
0.5
100
AcDbCircle
 10
638.2754866064897
 20
-89.224801412317
 30
0.0
 40
1.5
  0
CIRCLE
  5
43CF
330
17
100
AcDbEntity
  8
0
 48
0.5
100
AcDbCircle
 10
638.2754866064897
 20
-89.224801412317
 30
0.0
 40
1.25
  0
ARC
  5
43D0
330
17
100
AcDbEntity
  8
0
 48
0.5
100
AcDbCircle
 10
568.8228891496704
 20
-94.224801412317
 30
0.0
 40
3.47441688540364
100
AcDbArc
 50
107.8774398719538
 51
252.1225601280462
  0
ARC
  5
43D1
330
17
100
AcDbEntity
  8
0
 48
0.5
100
AcDbCircle
 10
568.8228891496704
 20
-94.224801412317
 30
0.0
 40
3.47441688540364
100
AcDbArc
 50
287.3036721212797
 51
72.69632787872031
  0
LINE
  5
43D2
330
17
100
AcDbEntity
  8
0
100
AcDbLine
 10
631.9415427143304
 20
-90.237301412317
 30
0.0
 11
631.9415427143304
 21
-98.21230141231705
 31
0.0
  0
LINE
  5
43D3
330
17
100
AcDbEntity
  8
additional
  6
HIDDEN2
 48
0.5
100
AcDbLine
 10
572.4840201348922
 20
-92.674801412317
 30
0.0
 11
569.8563060350742
 21
-92.674801412317
 31
0.0
  0
LINE
  5
43D4
330
17
100
AcDbEntity
  8
additional
  6
HIDDEN2
 48
0.5
100
AcDbLine
 10
567.7563060350742
 20
-92.674801412317
 30
0.0
 11
565.1285919352562
 21
-92.674801412317
 31
0.0
  0
LINE
  5
43D5
330
17
100
AcDbEntity
  8
additional
  6
HIDDEN2
 48
0.5
100
AcDbLine
 10
572.4840201348922
 20
-95.77480141231704
 30
0.0
 11
569.8563060350742
 21
-95.77480141231704
 31
0.0
  0
LINE
  5
43D6
330
17
100
AcDbEntity
  8
additional
  6
HIDDEN2
 48
0.5
100
AcDbLine
 10
567.7563060350742
 20
-95.77480141231704
 30
0.0
 11
565.1285919352562
 21
-95.77480141231704
 31
0.0
  0
LINE
  5
43D7
330
17
100
AcDbEntity
  8
additional
100
AcDbLine
 10
581.8068197549445
 20
-89.224801412317
 30
0.0
 11
577.6115737949867
 21
-89.224801412317
 31
0.0
  0
LINE
  5
43D8
330
17
100
AcDbEntity
  8
additional
100
AcDbLine
 10
581.8068197549445
 20
-99.22480141231702
 30
0.0
 11
577.6115737949867
 21
-99.22480141231702
 31
0.0
  0
LINE
  5
43DD
330
17
100
AcDbEntity
  8
0
100
AcDbLine
 10
662.2754866064897
 20
-92.22480141231704
 30
0.0
 11
662.6754866064897
 21
-92.22480141231704
 31
0.0
  0
LINE
  5
43DE
330
17
100
AcDbEntity
  8
0
100
AcDbLine
 10
662.6754866064897
 20
-92.22480141231704
 30
0.0
 11
662.6754866064897
 21
-96.22480141231704
 31
0.0
  0
LINE
  5
43DF
330
17
100
AcDbEntity
  8
0
100
AcDbLine
 10
662.6754866064897
 20
-96.22480141231704
 30
0.0
 11
662.2754866064897
 21
-96.22480141231704
 31
0.0
  0
LINE
  5
43E0
330
17
100
AcDbEntity
  8
0
100
AcDbLine
 10
662.2754866064897
 20
-32.62511301662299
 30
0.0
 11
662.6754866064897
 21
-32.62511301662299
 31
0.0
  0
LINE
  5
43E1
330
17
100
AcDbEntity
  8
0
100
AcDbLine
 10
662.6754866064897
 20
-32.62511301662299
 30
0.0
 11
662.6754866064897
 21
-33.62511301662298
 31
0.0
  0
LINE
  5
43E2
330
17
100
AcDbEntity
  8
0
100
AcDbLine
 10
662.6754866064897
 20
-35.62511301662298
 30
0.0
 11
662.6754866064897
 21
-36.62511301662298
 31
0.0
  0
LINE
  5
43E3
330
17
100
AcDbEntity
  8
0
100
AcDbLine
 10
662.6754866064897
 20
-36.62511301662298
 30
0.0
 11
662.2754866064897
 21
-36.62511301662298
 31
0.0
  0
LINE
  5
43E4
330
17
100
AcDbEntity
  8
0
 48
0.5
100
AcDbLine
 10
672.0544781585509
 20
-84.22480141231702
 30
0.0
 11
659.6754866064896
 21
-84.22480141231702
 31
0.0
  0
LINE
  5
43E5
330
17
100
AcDbEntity
  8
0
 48
0.5
100
AcDbLine
 10
671.5800950642943
 20
-85.22480141231701
 30
0.0
 11
659.6754866064896
 21
-85.22480141231701
 31
0.0
  0
LINE
  5
43E7
330
17
100
AcDbEntity
  8
additional
  6
CENTER2
 48
0.5
100
AcDbLine
 10
619.5688300880922
 20
-34.62511301662298
 30
0.0
 11
659.6754866064896
 21
-34.62511301662298
 31
0.0
  0
LINE
  5
43E8
330
17
100
AcDbEntity
  8
additional
  6
HIDDEN2
 48
0.5
100
AcDbLine
 10
627.8254866064896
 20
-33.52511301662295
 30
0.0
 11
627.8254866064896
 21
-31.13411301662299
 31
0.0
  0
LINE
  5
43E9
330
17
100
AcDbEntity
  8
additional
  6
HIDDEN2
 48
0.5
100
AcDbLine
 10
627.8254866064896
 20
-31.13411301662299
 30
0.0
 11
628.3254866064896
 21
-30.63411301662299
 31
0.0
  0
LINE
  5
43EA
330
17
100
AcDbEntity
  8
additional
  6
HIDDEN2
 48
0.5
100
AcDbLine
 10
624.7254866064896
 20
-33.52511301662295
 30
0.0
 11
624.7254866064896
 21
-31.13411301662299
 31
0.0
  0
LINE
  5
43EB
330
17
100
AcDbEntity
  8
additional
  6
HIDDEN2
 48
0.5
100
AcDbLine
 10
624.7254866064896
 20
-31.13411301662299
 30
0.0
 11
624.2254866064897
 21
-30.63411301662299
 31
0.0
  0
LINE
  5
43EC
330
17
100
AcDbEntity
  8
additional
  6
HIDDEN2
 48
0.5
100
AcDbLine
 10
627.8254866064896
 20
-35.725113016623
 30
0.0
 11
627.8254866064896
 21
-38.11611301662296
 31
0.0
  0
LINE
  5
43ED
330
17
100
AcDbEntity
  8
additional
  6
HIDDEN2
 48
0.5
100
AcDbLine
 10
627.8254866064896
 20
-38.11611301662296
 30
0.0
 11
628.3254866064896
 21
-38.61611301662296
 31
0.0
  0
LINE
  5
43EE
330
17
100
AcDbEntity
  8
additional
  6
HIDDEN2
 48
0.5
100
AcDbLine
 10
624.7254866064896
 20
-35.725113016623
 30
0.0
 11
624.7254866064896
 21
-38.11611301662296
 31
0.0
  0
LINE
  5
43EF
330
17
100
AcDbEntity
  8
additional
  6
HIDDEN2
 48
0.5
100
AcDbLine
 10
624.7254866064896
 20
-38.11611301662296
 30
0.0
 11
624.2254866064897
 21
-38.61611301662296
 31
0.0
  0
LINE
  5
43F0
330
17
100
AcDbEntity
  8
additional
  6
HIDDEN2
 48
0.5
100
AcDbLine
 10
624.7254866064896
 20
-31.13411301662299
 30
0.0
 11
627.8254866064896
 21
-31.13411301662299
 31
0.0
  0
LINE
  5
43F1
330
17
100
AcDbEntity
  8
additional
  6
HIDDEN2
 48
0.5
100
AcDbLine
 10
624.7254866064896
 20
-38.11611301662296
 30
0.0
 11
627.8254866064896
 21
-38.11611301662296
 31
0.0
  0
DIMENSION
  5
43F2
330
17
100
AcDbEntity
  8
Z_OM_DIM
100
AcDbDimension
  2
*D1
 10
632.5754866064897
 20
-18.41786674401862
 30
0.0
 11
627.5754866064897
 21
-16.54286674401862
 31
0.0
 70
    32
 71
     5
 42
10.0
  3
CatalogDxf
100
AcDbAlignedDimension
 13
622.5754866064896
 23
-31.13411301662299
 33
0.0
 14
632.5754866064897
 24
-23.62511301662298
 34
0.0
100
AcDbRotatedDimension
  0
DIMENSION
  5
43FF
330
17
100
AcDbEntity
  8
Z_OM_DIM
100
AcDbDimension
  2
*D2
 10
662.2754866064897
 20
-57.15225852301911
 30
0.0
 11
647.10851466041
 21
-55.27725852301911
 31
0.0
 70
    32
  1
30.4
 71
     5
 42
30.33394389215937
  3
CatalogDxf
100
AcDbAlignedDimension
 13
631.9415427143304
 23
-45.62511301662297
 33
0.0
 14
662.2754866064897
 24
-44.12511301662298
 34
0.0
100
AcDbRotatedDimension
  0
DIMENSION
  5
4417
330
17
100
AcDbEntity
  8
Z_OM_DIM
100
AcDbDimension
  2
*D3
 10
638.2754866064897
 20
-72.63777742017248
 30
0.0
 11
632.2754866064897
 21
-70.76277742017248
 31
0.0
 70
    32
 71
     5
 42
12.0
  3
CatalogDxf
100
AcDbAlignedDimension
 13
626.2754866064897
 23
-88.29346348465783
 33
0.0
 14
638.2754866064897
 24
-86.30316258202752
 34
0.0
100
AcDbRotatedDimension
  0
DIMENSION
  5
4424
330
17
100
AcDbEntity
  8
Z_OM_DIM
100
AcDbDimension
  2
*D4
 10
646.2754866064897
 20
-72.63777742017248
 30
0.0
 11
642.2754866064897
 21
-70.76277742017248
 31
0.0
 70
    32
 71
     5
 42
8.0
  3
CatalogDxf
100
AcDbAlignedDimension
 13
638.2754866064897
 23
-86.30316258202752
 33
0.0
 14
646.2754866064897
 24
-86.30316258202752
 34
0.0
100
AcDbRotatedDimension
1001
ACAD
1000
DSTYLE
1002
{
1070
   279
1070
     1
1002
}
  0
DIMENSION
  5
4431
330
17
100
AcDbEntity
  8
Z_OM_DIM
100
AcDbDimension
  2
*D5
 10
676.4273799110715
 20
-99.22480141231702
 30
0.0
 11
674.5523799110714
 21
-94.22480141231691
 31
0.0
 70
    32
 71
     5
 42
10.0
  3
CatalogDxf
100
AcDbAlignedDimension
 13
649.4055860672468
 23
-89.224801412317
 33
0.0
 14
649.4055860672468
 24
-99.22480141231702
 34
0.0
 50
90.0
100
AcDbRotatedDimension
  0
DIMENSION
  5
443E
330
17
100
AcDbEntity
  8
Z_OM_DIM
100
AcDbDimension
  2
*D6
 10
681.4561716629992
 20
-100.724801412317
 30
0.0
 11
679.5811716629991
 21
-94.22480141231691
 31
0.0
 70
    32
 71
     5
 42
13.0
  3
CatalogDxf
100
AcDbAlignedDimension
 13
662.2754866064897
 23
-87.72480141231701
 33
0.0
 14
662.2754866064897
 24
-100.724801412317
 34
0.0
 50
90.0
100
AcDbRotatedDimension
  0
MTEXT
  5
444E
330
17
100
AcDbEntity
  8
Z_OM_DIM
100
AcDbMText
 10
646.8215972757617
 20
-109.1758826427611
 30
0.0
 40
2.5
 41
5.006569453927347
 71
     4
 72
     1
  1
M3
  7
CatalogDxf
 73
     1
 44
1.0
1001
ACAD
1000
MTEXTBEGIN
1070
    73
1070
     1
1070
    44
1040
1.0
1070
    74
1070
     0
1000
MTEXTEND
  0
LEADER
  5
444F
330
17
100
AcDbEntity
  8
Z_OM_DIM
100
AcDbLeader
  3
CatalogDxf
 76
     2
 10
646.0171969010129
 20
-100.4478248904419
 30
0.0
 10
644.7064318688611
 20
-111.2899544078049
 30
0.0
1001
ACAD
1000
DSTYLE
1002
{
1070
   147
1040
0.625
1070
    77
1070
     1
1002
}
  0
LEADER
  5
4450
330
17
100
AcDbEntity
  8
Z_OM_DIM
100
AcDbLeader
  3
CatalogDxf
 76
     2
 10
638.9294219595053
 20
-97.87485009687026
 30
0.0
 10
648.5348989983811
 20
-78.04578548929487
 30
0.0
1001
ACAD
1000
DSTYLE
1002
{
1070
   147
1040
0.625
1070
    77
1070
     1
1002
}
  0
DIMENSION
  5
4451
330
17
100
AcDbEntity
  8
Z_OM_DIM
100
AcDbDimension
  2
*D7
 10
612.3387085580855
 20
-98.21580141231706
 30
0.0
 11
610.0136081178369
 21
-94.51855196573342
 31
0.0
 70
   160
  1
%%c8
 71
     5
 42
7.982000000000013
  3
CatalogDxf
100
AcDbAlignedDimension
 13
623.0754866064897
 23
-90.23380141231704
 33
0.0
 14
623.0754866064897
 24
-98.21580141231706
 34
0.0
 50
90.0
100
AcDbRotatedDimension
1001
ACAD
1000
DSTYLE
1002
{
1070
   279
1070
     2
1002
}
  0
DIMENSION
  5
4467
330
17
100
AcDbEntity
  8
Z_OM_DIM
100
AcDbDimension
  2
*D8
 10
612.3387085580855
 20
-35.725113016623
 30
0.0
 11
612.3387085580855
 21
-25.81677968328952
 31
0.0
 70
   160
  1
2.1
 71
     5
 42
2.200000000000052
  3
CatalogDxf
100
AcDbAlignedDimension
 13
622.5754866064896
 23
-33.52511301662295
 33
0.0
 14
622.5754866064896
 24
-35.725113016623
 34
0.0
 50
90.0
100
AcDbRotatedDimension
  0
DIMENSION
  5
4481
330
17
100
AcDbEntity
  8
Z_OM_DIM
100
AcDbDimension
  2
*D9
 10
592.8547526269922
 20
-103.224801412317
 30
0.0
 11
590.9797526269922
 21
-94.22480141231693
 31
0.0
 70
    32
 71
     5
 42
17.99999999999998
  3
CatalogDxf
100
AcDbAlignedDimension
 13
579.8063060350743
 23
-85.22480141231701
 33
0.0
 14
579.8063060350743
 24
-103.224801412317
 34
0.0
 50
90.0
100
AcDbRotatedDimension
  0
DIMENSION
  5
448E
330
17
100
AcDbEntity
  8
Z_OM_DIM
100
AcDbDimension
  2
*D10
 10
579.8063060350743
 20
-115.323215217084
 30
0.0
 11
568.8063060350741
 21
-113.448215217084
 31
0.0
 70
    32
 71
     5
 42
22.00000000000011
  3
CatalogDxf
100
AcDbAlignedDimension
 13
557.8063060350741
 23
-103.224801412317
 33
0.0
 14
579.8063060350743
 24
-103.224801412317
 34
0.0
100
AcDbRotatedDimension
  0
LINE
  5
4527
330
17
100
AcDbEntity
  8
0
 48
0.5
100
AcDbLine
 10
687.0900901058034
 20
-34.62511301662298
 30
0.0
 11
687.0900901058031
 21
-35.62511301662298
 31
0.0
  0
SPLINE
  5
4528
330
17
100
AcDbEntity
  8
additional
 48
0.5
100
AcDbSpline
210
0.0
220
0.0
230
1.0
 70
     8
 71
     3
 72
    18
 73
    14
 74
    12
 42
0.0000000001
 43
0.0000000001
 44
0.0000000001
 40
0.0
 40
0.0
 40
0.0
 40
0.0
 40
0.3913118960626792
 40
0.7826237921250408
 40
1.482623792125
 40
1.873935688187426
 40
2.265247584250041
 40
2.656559480312453
 40
3.047871376374872
 40
4.097871376374884
 40
4.489183272437252
 40
4.880495168499709
 40
5.271807064562364
 40
5.271807064562364
 40
5.271807064562364
 40
5.271807064562364
 10
668.6692604217786
 20
-32.10773980304114
 30
0.0
 10
668.7255452634251
 20
-32.22537953639555
 30
0.0
 10
668.8381149467182
 20
-32.46065900310426
 30
0.0
 10
669.0979386358582
 20
-32.88425797441861
 30
0.0
 10
669.0980161238221
 20
-33.43124059294821
 30
0.0
 10
668.8379849954521
 20
-33.85477695313426
 30
0.0
 10
668.6697459285426
 20
-34.20790847701477
 30
0.0
 10
668.4985938210493
 20
-34.56002795705294
 30
0.0
 10
668.190820259409
 20
-35.08828737546531
 30
0.0
 10
668.1904234721615
 20
-35.7773375993251
 30
0.0
 10
668.4990374426782
 20
-36.30524874167587
 30
0.0
 10
668.6680661665536
 20
-36.65836256838253
 30
0.0
 10
668.7855290033704
 20
-36.89128072482156
 30
0.0
 10
668.844260421779
 20
-37.00773980304111
 30
0.0
 11
668.6692604217786
 21
-32.10773980304114
 31
0.0
 11
668.844260421779
 21
-32.45773980304118
 31
0.0
 11
669.0192604217789
 21
-32.80773980304115
 31
0.0
 11
669.0192604217789
 21
-33.5077398030411
 31
0.0
 11
668.844260421779
 21
-33.85773980304114
 31
0.0
 11
668.6692604217786
 21
-34.20773980304111
 31
0.0
 11
668.4942604217787
 21
-34.55773980304107
 31
0.0
 11
668.3192604217788
 21
-34.90773980304111
 31
0.0
 11
668.3192604217788
 21
-35.95773980304111
 31
0.0
 11
668.4942604217787
 21
-36.30773980304109
 31
0.0
 11
668.6692604217786
 21
-36.6577398030411
 31
0.0
 11
668.844260421779
 21
-37.00773980304111
 31
0.0
  0
SPLINE
  5
4529
330
17
100
AcDbEntity
  8
additional
 48
0.5
100
AcDbSpline
210
0.0
220
0.0
230
1.0
 70
     8
 71
     3
 72
    18
 73
    14
 74
    12
 42
0.0000000001
 43
0.0000000001
 44
0.0000000001
 40
0.0
 40
0.0
 40
0.0
 40
0.0
 40
0.3913118960625776
 40
0.7826237921249391
 40
1.482623792124899
 40
1.873935688187324
 40
2.265247584249838
 40
2.656559480312352
 40
3.04787137637472
 40
4.097871376374731
 40
4.489183272437048
 40
4.880495168499606
 40
5.271807064562159
 40
5.271807064562159
 40
5.271807064562159
 40
5.271807064562159
 10
669.5442604217788
 20
-32.10773980304114
 30
0.0
 10
669.6005452634253
 20
-32.22537953639555
 30
0.0
 10
669.7131149467182
 20
-32.4606590031043
 30
0.0
 10
669.9729386358582
 20
-32.8842579744186
 30
0.0
 10
669.9730161238224
 20
-33.43124059294825
 30
0.0
 10
669.7129849954518
 20
-33.85477695313418
 30
0.0
 10
669.544745928543
 20
-34.2079084770149
 30
0.0
 10
669.373593821049
 20
-34.56002795705284
 30
0.0
 10
669.0658202594094
 20
-35.08828737546541
 30
0.0
 10
669.0654234721613
 20
-35.77733759932498
 30
0.0
 10
669.3740374426783
 20
-36.305248741676
 30
0.0
 10
669.5430661665539
 20
-36.65836256838239
 30
0.0
 10
669.6605290033708
 20
-36.89128072482154
 30
0.0
 10
669.719260421779
 20
-37.00773980304111
 30
0.0
 11
669.5442604217788
 21
-32.10773980304114
 31
0.0
 11
669.719260421779
 21
-32.45773980304118
 31
0.0
 11
669.8942604217789
 21
-32.80773980304115
 31
0.0
 11
669.8942604217789
 21
-33.5077398030411
 31
0.0
 11
669.719260421779
 21
-33.85773980304114
 31
0.0
 11
669.5442604217788
 21
-34.20773980304111
 31
0.0
 11
669.3692604217787
 21
-34.55773980304107
 31
0.0
 11
669.1942604217789
 21
-34.90773980304111
 31
0.0
 11
669.1942604217789
 21
-35.95773980304111
 31
0.0
 11
669.3692604217787
 21
-36.30773980304109
 31
0.0
 11
669.5442604217788
 21
-36.6577398030411
 31
0.0
 11
669.719260421779
 21
-37.00773980304111
 31
0.0
  0
LINE
  5
452A
330
17
100
AcDbEntity
  8
0
100
AcDbLine
 10
659.6754866064896
 20
-35.62511301662298
 30
0.0
 11
668.2350085075897
 21
-35.62511301662298
 31
0.0
  0
LINE
  5
452B
330
17
100
AcDbEntity
  8
0
100
AcDbLine
 10
659.6754866064896
 20
-34.62511301662298
 30
0.0
 11
668.4578993569962
 21
-34.62511301662298
 31
0.0
  0
LINE
  5
452C
330
17
100
AcDbEntity
  8
0
100
AcDbLine
 10
659.6754866064896
 20
-33.62511301662296
 30
0.0
 11
668.969514021951
 21
-33.62511301662296
 31
0.0
  0
LINE
  5
452D
330
17
100
AcDbEntity
  8
0
100
AcDbLine
 10
687.0900901058034
 20
-33.62511301662296
 30
0.0
 11
687.0900901058034
 21
-35.62511301662298
 31
0.0
  0
LINE
  5
452E
330
17
100
AcDbEntity
  8
0
100
AcDbLine
 10
669.844514021951
 20
-33.62511301662296
 30
0.0
 11
687.0900901058031
 21
-33.62511301662296
 31
0.0
  0
LINE
  5
452F
330
17
100
AcDbEntity
  8
0
100
AcDbLine
 10
669.1100085075897
 20
-35.62511301662298
 30
0.0
 11
687.0900901058034
 21
-35.62511301662298
 31
0.0
  0
LINE
  5
4530
330
17
100
AcDbEntity
  8
0
100
AcDbLine
 10
669.3328993569962
 20
-34.62511301662298
 30
0.0
 11
687.0900901058034
 21
-34.62511301662298
 31
0.0
  0
POINT
  5
4531
330
17
100
AcDbEntity
  8
0
100
AcDbPoint
 10
687.0900901058031
 20
-33.62511301662296
 30
0.0
  0
POINT
  5
4532
330
17
100
AcDbEntity
  8
0
100
AcDbPoint
 10
687.0900901058034
 20
-34.12511301662298
 30
0.0
  0
POINT
  5
4533
330
17
100
AcDbEntity
  8
0
100
AcDbPoint
 10
687.0900901058031
 20
-35.62511301662298
 30
0.0
  0
POINT
  5
4534
330
17
100
AcDbEntity
  8
0
100
AcDbPoint
 10
687.0900901058034
 20
-35.12511301662299
 30
0.0
  0
LINE
  5
4535
330
17
100
AcDbEntity
  8
0
100
AcDbLine
 10
687.0900901058034
 20
-35.37511301662298
 30
0.0
 11
694.0900901058033
 21
-35.37511301662298
 31
0.0
  0
LINE
  5
4536
330
17
100
AcDbEntity
  8
0
100
AcDbLine
 10
687.0900901058034
 20
-34.87511301662296
 30
0.0
 11
694.0900901058033
 21
-34.87511301662296
 31
0.0
  0
LINE
  5
4537
330
17
100
AcDbEntity
  8
0
100
AcDbLine
 10
687.0900901058034
 20
-34.37511301662298
 30
0.0
 11
694.0900901058033
 21
-34.37511301662298
 31
0.0
  0
LINE
  5
4538
330
17
100
AcDbEntity
  8
0
100
AcDbLine
 10
687.0900901058034
 20
-33.87511301662299
 30
0.0
 11
694.0900901058033
 21
-33.87511301662299
 31
0.0
  0
DIMENSION
  5
4539
330
17
100
AcDbEntity
  8
Z_OM_DIM
100
AcDbDimension
  2
*D11
 10
694.0900901058033
 20
-57.15225852301911
 30
0.0
 11
678.1827883561466
 21
-55.27725852301911
 31
0.0
 70
    32
  1
180 - 200
 71
     5
 42
31.81460349931365
  3
CatalogDxf
100
AcDbAlignedDimension
 13
662.2754866064897
 23
-44.75011301662298
 33
0.0
 14
694.0900901058033
 24
-35.37511301662298
 34
0.0
100
AcDbRotatedDimension
  0
MTEXT
  5
45C4
330
17
100
AcDbEntity
  8
Z_OM_DIM
100
AcDbMText
 10
683.1728346539543
 20
-24.88621923131339
 30
0.0
 40
2.5
 41
42.8494883882687
 71
     7
 72
     1
  1
UL1007 AWG24 white
  7
CatalogDxf
 73
     1
 44
1.0
1001
ACAD
1000
ACAD_MTEXT_DEFINED_HEIGHT_BEGIN
1070
    46
1040
2.500000000000005
1000
ACAD_MTEXT_DEFINED_HEIGHT_END
1000
MTEXTBEGIN
1070
    73
1070
     1
1070
    44
1040
1.0
1070
    74
1070
     0
1000
MTEXTEND
  0
LEADER
  5
45C5
330
17
100
AcDbEntity
  8
Z_OM_DIM
100
AcDbLeader
  3
ISO-25
 76
     3
 10
677.1359243617715
 20
-33.62511301662296
 30
0.0
 10
682.6087251601948
 20
-25.51121923131338
 30
0.0
 10
723.9670152323129
 20
-25.51121923131338
 30
0.0
1001
ACAD
1000
DSTYLE
1002
{
1070
   341
1005
977
1070
   147
1040
0.625
1070
    77
1070
     0
1002
}
  0
MTEXT
  5
45CD
330
17
100
AcDbEntity
  8
Z_OM_DIM
100
AcDbMText
 10
649.1164841055304
 20
-77.34118524738756
 30
0.0
 40
2.5
 41
4.453208684878745
 71
     7
 72
     1
  1
%%C3
  7
CatalogDxf
 73
     1
 44
1.0
1001
ACAD
1000
MTEXTBEGIN
1070
    73
1070
     1
1070
    44
1040
1.0
1070
    74
1070
     0
1000
MTEXTEND
  0
LEADER
  5
45CE
330
17
100
AcDbEntity
  8
Z_OM_DIM
100
AcDbLeader
  3
ISO-25
 76
     3
 10
646.5726458733757
 20
-87.75453056308421
 30
0.0
 10
648.5348989983811
 20
-78.04578548929487
 30
0.0
 10
654.2948127592324
 20
-78.04578548929487
 30
0.0
1001
ACAD
1000
DSTYLE
1002
{
1070
   341
1005
977
1070
   147
1040
0.625
1070
    77
1070
     0
1002
}
  0
LEADER
  5
46A3
330
17
100
AcDbEntity
  8
Z_OM_DIM
100
AcDbLeader
  3
ISO-25
 76
     3
 10
638.5753256105886
 20
-90.43830731325897
 30
0.0
 10
644.7064318688611
 20
-111.2899544078049
 30
0.0
 10
652.1209922939809
 20
-111.2899544078049
 30
0.0
1001
ACAD
1000
DSTYLE
1002
{
1070
   341
1005
977
1070
   147
1040
0.625
1070
    77
1070
     0
1002
}
  0
MTEXT
  5
46A6
330
17
100
AcDbEntity
  8
Z_OM_DIM
100
AcDbMText
 10
616.1192036400284
 20
-106.6664069790623
 30
0.0
 40
2.5
 41
4.84903737802665
 71
     7
 72
     1
  1
%%C3
  7
CatalogDxf
 73
     1
 44
1.0
1001
ACAD
1000
MTEXTBEGIN
1070
    73
1070
     1
1070
    44
1040
1.0
1070
    74
1070
     0
1000
MTEXTEND
  0
LEADER
  5
46A7
330
17
100
AcDbEntity
  8
Z_OM_DIM
100
AcDbLeader
  3
ISO-25
 76
     3
 10
625.765333000627
 20
-95.68844183893322
 30
0.0
 10
621.6933609868782
 20
-107.3710072209696
 30
0.0
 10
615.2872827862368
 20
-107.3710072209696
 30
0.0
211
-1.0
221
0.0
231
0.0
1001
ACAD
1000
DSTYLE
1002
{
1070
   341
1005
977
1070
   147
1040
0.625
1070
    77
1070
     0
1002
}
  0
DIMENSION
  5
46CC
330
17
100
AcDbEntity
  8
Z_OM_DIM
100
AcDbDimension
  2
*D12
 10
638.2754866064897
 20
-78.76087034587101
 30
0.0
 11
635.038270970796
 21
-76.17562305887673
 31
0.0
 70
   160
  1
6.5
 71
     5
 42
6.333943892159368
  3
CatalogDxf
100
AcDbAlignedDimension
 13
631.9415427143304
 23
-90.237301412317
 33
0.0
 14
638.2754866064897
 24
-86.30316258202752
 34
0.0
100
AcDbRotatedDimension
1001
ACAD
1000
DSTYLE
1002
{
1070
   279
1070
     2
1002
}
  0
SPLINE
  5
47B6
330
17
100
AcDbEntity
  8
additional
 48
0.5
100
AcDbSpline
210
0.0
220
0.0
230
1.0
 70
     8
 71
     3
 72
    18
 73
    14
 74
    12
 42
0.0000000001
 43
0.0000000001
 44
0.0000000001
 40
0.0
 40
0.0
 40
0.0
 40
0.0
 40
0.3913118960626666
 40
0.7826237921250281
 40
1.482623792124988
 40
1.873935688187426
 40
2.265247584250041
 40
2.656559480312453
 40
3.047871376374866
 40
4.097871376374877
 40
4.489183272437238
 40
4.880495168499701
 40
5.271807064562356
 40
5.271807064562356
 40
5.271807064562356
 40
5.271807064562356
 10
671.9751539985928
 20
-82.28867022344678
 30
0.0
 10
672.0314388402393
 20
-82.40630995680119
 30
0.0
 10
672.1440085235323
 20
-82.64158942350988
 30
0.0
 10
672.4038322126725
 20
-83.06518839482425
 30
0.0
 10
672.4039097006363
 20
-83.61217101335384
 30
0.0
 10
672.1438785722662
 20
-84.03570737353987
 30
0.0
 10
671.9756395053567
 20
-84.38883889742042
 30
0.0
 10
671.8044873978637
 20
-84.74095837745862
 30
0.0
 10
671.4967138362228
 20
-85.26921779587089
 30
0.0
 10
671.4963170489759
 20
-85.95826801973075
 30
0.0
 10
671.8049310194924
 20
-86.4861791620815
 30
0.0
 10
671.9739597433679
 20
-86.83929298878814
 30
0.0
 10
672.0914225801849
 20
-87.07221114522718
 30
0.0
 10
672.1501539985933
 20
-87.18867022344674
 30
0.0
 11
671.9751539985928
 21
-82.28867022344678
 31
0.0
 11
672.1501539985933
 21
-82.63867022344681
 31
0.0
 11
672.325153998593
 21
-82.98867022344678
 31
0.0
 11
672.325153998593
 21
-83.68867022344673
 31
0.0
 11
672.1501539985933
 21
-84.03867022344678
 31
0.0
 11
671.9751539985928
 21
-84.38867022344675
 31
0.0
 11
671.8001539985928
 21
-84.73867022344672
 31
0.0
 11
671.6251539985931
 21
-85.08867022344674
 31
0.0
 11
671.6251539985931
 21
-86.13867022344676
 31
0.0
 11
671.8001539985928
 21
-86.48867022344672
 31
0.0
 11
671.9751539985928
 21
-86.83867022344674
 31
0.0
 11
672.1501539985933
 21
-87.18867022344674
 31
0.0
  0
ENDSEC
  0
SECTION
  2
OBJECTS
  0
DICTIONARY
  5
C
330
0
100
AcDbDictionary
281
     1
  3
ACAD_2007HEADERVARS_RT
350
45A2
  3
ACAD_COLOR
350
3D57
  3
ACAD_GROUP
350
D
  3
ACAD_LAYOUT
350
3D5A
  3
ACAD_MATERIAL
350
3D42
  3
ACAD_MLINESTYLE
350
1A
  3
ACAD_PLOTSETTINGS
350
957
  3
ACAD_PLOTSTYLENAME
350
3D40
  3
ACAD_TABLESTYLE
350
3D58
  3
ACAD_VISUALSTYLE
350
3D46
  3
ACADDIM
350
1BB8
  3
ACDBHEADERROUNDTRIPXREC
350
47D1
  3
AcDbVariableDictionary
350
4116
  3
DWGPROPS
350
47D0
1001
ACAD
1000
TREAT_AS_HARD
1070
     0
  0
DICTIONARY
  5
4581
330
8
100
AcDbDictionary
280
     1
281
     1
  3
ACAD_XREC_ROUNDTRIP
360
45A6
  0
DICTIONARY
  5
3DBA
330
2
100
AcDbDictionary
280
     1
281
     1
  3
ACAD_LAYERFILTERS
360
421C
  3
ACAD_LAYERSTATES
360
3DBB
  3
ACLYDICTIONARY
360
421B
  0
DICTIONARY
  5
45A7
330
E
100
AcDbDictionary
280
     1
281
     1
  3
ACAD_XREC_ROUNDTRIP
360
45A8
  0
DICTIONARY
  5
45A9
330
27
100
AcDbDictionary
280
     1
281
     1
  3
ACAD_XREC_ROUNDTRIP
360
45AA
  0
DICTIONARY
  5
45AB
330
2B
100
AcDbDictionary
280
     1
281
     1
  3
ACAD_XREC_ROUNDTRIP
360
45AC
  0
DICTIONARY
  5
45B5
330
3DB5
100
AcDbDictionary
280
     1
281
     1
  3
ACAD_XREC_ROUNDTRIP
360
45B6
  0
DICTIONARY
  5
1808
330
17
100
AcDbDictionary
280
     1
281
     1
  3
ACAD_LAYOUTSELFREF
360
3D3B
  3
ACAD_SORTENTS
360
47B5
1001
ACAD
1000
TREAT_AS_HARD
1070
     1
  0
DICTIONARY
  5
1806
330
14
100
AcDbDictionary
280
     1
281
     1
  3
ACAD_LAYOUTSELFREF
360
3D3A
1001
ACAD
1000
TREAT_AS_HARD
1070
     1
  0
DICTIONARY
  5
45A2
102
{ACAD_REACTORS
330
C
102
}
330
C
100
AcDbDictionary
281
     1
  3
DIMLTEX1
350
45A4
  3
DIMLTEX2
350
45A5
  3
DIMLTYPE
350
45A3
  0
DICTIONARY
  5
3D57
102
{ACAD_REACTORS
330
C
102
}
330
C
100
AcDbDictionary
281
     1
  0
DICTIONARY
  5
D
102
{ACAD_REACTORS
330
C
102
}
330
C
100
AcDbDictionary
281
     1
1001
ACAD
1000
TREAT_AS_HARD
1070
     0
  0
DICTIONARY
  5
3D5A
102
{ACAD_REACTORS
330
C
102
}
330
C
100
AcDbDictionary
281
     1
  3
Model
350
3D5B
  3
レイアウト1
350
3D5C
  0
DICTIONARY
  5
3D42
102
{ACAD_REACTORS
330
C
102
}
330
C
100
AcDbDictionary
281
     1
  3
ByBlock
350
3D44
  3
ByLayer
350
3D43
  3
Global
350
3D45
  0
DICTIONARY
  5
1A
102
{ACAD_REACTORS
330
C
102
}
330
C
100
AcDbDictionary
281
     1
  3
STANDARD
350
1B
1001
ACAD
1000
TREAT_AS_HARD
1070
     0
  0
DICTIONARY
  5
957
102
{ACAD_REACTORS
330
C
102
}
330
C
100
AcDbDictionary
281
     1
1001
ACAD
1000
TREAT_AS_HARD
1070
     0
  0
ACDBDICTIONARYWDFLT
  5
3D40
102
{ACAD_REACTORS
330
C
102
}
330
C
100
AcDbDictionary
281
     1
  3
Normal
350
3D41
100
AcDbDictionaryWithDefault
340
3D41
  0
DICTIONARY
  5
3D58
102
{ACAD_REACTORS
330
C
102
}
330
C
100
AcDbDictionary
281
     1
  3
Standard
350
3D59
  0
DICTIONARY
  5
3D46
102
{ACAD_REACTORS
330
C
102
}
330
C
100
AcDbDictionary
281
     1
  3
2dWireframe
350
3D4C
  3
3D Hidden
350
3D4E
  3
3dWireframe
350
3D4D
  3
Basic
350
3D4B
  3
Brighten
350
3D52
  3
ColorChange
350
3D56
  3
Conceptual
350
3D4F
  3
Dim
350
3D51
  3
Facepattern
350
3D55
  3
Flat
350
3D47
  3
FlatWithEdges
350
3D48
  3
Gouraud
350
3D49
  3
GouraudWithEdges
350
3D4A
  3
Linepattern
350
3D54
  3
Realistic
350
3D50
  3
Thicken
350
3D53
  0
XRECORD
  5
1BB8
102
{ACAD_REACTORS
330
C
102
}
330
C
100
AcDbXrecord
280
     1
 90
   990106
  3

 60
     0
 61
     0
 62
     4
 63
     4
 64
     1
 65
     0
 66
     0
 67
     2
 68
     1
 69
     0
 70
     0
 71
     0
 72
     0
 40
30.07459792854275
170
     2
340
444E
  0
DICTIONARY
  5
47D1
102
{ACAD_REACTORS
330
C
102
}
330
C
100
AcDbDictionary
281
     1
  0
DICTIONARY
  5
4116
102
{ACAD_REACTORS
330
C
102
}
330
C
100
AcDbDictionary
281
     1
  3
CTABLESTYLE
350
4117
  3
DIMASSOC
350
47CD
  3
PROJECTNAME
350
47CE
  0
XRECORD
  5
47D0
102
{ACAD_REACTORS
330
C
102
}
330
C
100
AcDbXrecord
280
     1
  1
DWGPROPS COOKIE
  2

  3

  4

  6

  7

  8
mitsuhara
  9

300
=
301
=
302
=
303
=
304
=
305
=
306
=
307
=
308
=
309
=
 40
0.5851649537037038
 41
2455090.761732894
 42
2455678.568253831
  1

 90
        0
  0
XRECORD
  5
45A6
102
{ACAD_REACTORS
330
4581
102
}
330
4581
100
AcDbXrecord
280
     1
102
VTR_0.000_0.000_1.000_1.000_VISUALSTYLE
340
3D4C
102
VTR_0.000_0.000_1.000_1.000_GRIDDISPLAY
 70
     3
102
VTR_0.000_0.000_1.000_1.000_GRIDMAJOR
 70
     5
102
VTR_0.000_0.000_1.000_1.000_DEFAULTLIGHTING
280
     1
102
VTR_0.000_0.000_1.000_1.000_DEFAULTLIGHTINGTYPE
 70
     1
102
VTR_0.000_0.000_1.000_1.000_BRIGHTNESS
141
0.0
102
VTR_0.000_0.000_1.000_1.000_CONTRAST
142
0.0
  0
DICTIONARY
  5
421C
102
{ACAD_REACTORS
330
3DBA
102
}
330
3DBA
100
AcDbDictionary
281
     1
  0
DICTIONARY
  5
3DBB
102
{ACAD_REACTORS
330
3DBA
102
}
330
3DBA
100
AcDbDictionary
281
     1
  0
DICTIONARY
  5
421B
102
{ACAD_REACTORS
330
3DBA
102
}
330
3DBA
100
AcDbDictionary
281
     1
1001
ACAD
1000
<All
  0
XRECORD
  5
45A8
102
{ACAD_REACTORS
330
45A7
102
}
330
45A7
100
AcDbXrecord
280
     1
102
MATERIAL
340
3D45
  0
XRECORD
  5
45AA
102
{ACAD_REACTORS
330
45A9
102
}
330
45A9
100
AcDbXrecord
280
     1
102
MATERIAL
340
3D45
  0
XRECORD
  5
45AC
102
{ACAD_REACTORS
330
45AB
102
}
330
45AB
100
AcDbXrecord
280
     1
102
MATERIAL
340
3D45
  0
XRECORD
  5
45B6
102
{ACAD_REACTORS
330
45B5
102
}
330
45B5
100
AcDbXrecord
280
     1
102
MATERIAL
340
3D45
  0
XRECORD
  5
3D3B
102
{ACAD_REACTORS
330
1808
102
}
330
1808
100
AcDbXrecord
280
     1
340
17
  0
SORTENTSTABLE
  5
47B5
102
{ACAD_REACTORS
330
1808
102
}
330
1808
100
AcDbSortentsTable
330
17
331
43A6
  5
43A6
331
43E5
  5
43E6
331
452A
  5
452B
331
436F
  5
436F
331
4532
  5
4533
331
43AE
  5
43AE
331
43ED
  5
43EE
331
4130
  5
4130
331
4377
  5
4377
331
4424
  5
4431
331
437F
  5
437F
331
43B6
  5
43B6
331
43BE
  5
43BE
331
4387
  5
4387
331
43C6
  5
43C6
331
43CE
  5
43CE
331
438F
  5
438F
331
4397
  5
4397
331
43D6
  5
43D6
331
439F
  5
439F
331
43DE
  5
43DE
331
4370
  5
4370
331
43A7
  5
43A7
331
452B
  5
452C
331
43EE
  5
43EF
331
4533
  5
4534
331
4378
  5
4378
331
43AF
  5
43AF
331
43B7
  5
43B7
331
43BF
  5
43BF
331
46A3
  5
46A6
331
4380
  5
4380
331
4388
  5
4388
331
43C7
  5
43C7
331
4390
  5
4390
331
43CF
  5
43CF
331
4398
  5
4398
331
43D7
  5
43D7
331
43DF
  5
43DF
331
43A0
  5
43A0
331
43A8
  5
43A8
331
43E7
  5
43E8
331
452C
  5
452D
331
4371
  5
4371
331
43B0
  5
43B0
331
43EF
  5
43F0
331
4534
  5
4535
331
4379
  5
4379
331
43B8
  5
43B8
331
4381
  5
4381
331
43C0
  5
43C0
331
43C8
  5
43C8
331
43FF
  5
4417
331
4389
  5
4389
331
443E
  5
444E
331
43D0
  5
43D0
331
42AA
  5
42AA
331
4391
  5
4391
331
444E
  5
444F
331
46CC
  5
47B4
331
4399
  5
4399
331
43D8
  5
43D8
331
4417
  5
4424
331
436A
  5
436A
331
43A1
  5
43A1
331
43E0
  5
43E0
331
452D
  5
452E
331
4372
  5
4372
331
43A9
  5
43A9
331
43E8
  5
43E9
331
43F0
  5
43F1
331
4535
  5
4536
331
45C4
  5
45C5
331
437A
  5
437A
331
43B1
  5
43B1
331
43B9
  5
43B9
331
43C1
  5
43C1
331
4382
  5
4382
331
438A
  5
438A
331
43C9
  5
43C9
331
444F
  5
4450
331
4392
  5
4392
331
43D1
  5
43D1
331
448E
  5
4527
331
439A
  5
439A
331
43E1
  5
43E1
331
436B
  5
436B
331
43A2
  5
43A2
331
4467
  5
4481
331
43AA
  5
43AA
331
43E9
  5
43EA
331
452E
  5
452F
331
4373
  5
4373
331
45C5
  5
45CD
331
437B
  5
437B
331
43B2
  5
43B2
331
43F1
  5
43F2
331
4536
  5
4537
331
45CD
  5
45CE
331
43BA
  5
43BA
331
46A6
  5
46A7
331
4383
  5
4383
331
43C2
  5
43C2
331
43CA
  5
43CA
331
438B
  5
438B
331
4450
  5
4451
331
43D2
  5
43D2
331
4393
  5
4393
331
439B
  5
439B
331
4527
  5
4528
331
436C
  5
436C
331
43A3
  5
43A3
331
43E2
  5
43E2
331
43EA
  5
43EB
331
452F
  5
4530
331
4374
  5
4374
331
43AB
  5
43AB
331
43F2
  5
43FF
331
4537
  5
4538
331
437C
  5
437C
331
43B3
  5
43B3
331
43BB
  5
43BB
331
4431
  5
443E
331
45CE
  5
46A3
331
46A7
  5
46CC
331
4384
  5
4384
331
43C3
  5
43C3
331
438C
  5
438C
331
43CB
  5
43CB
331
4451
  5
4467
331
4394
  5
4394
331
43D3
  5
43D3
331
439C
  5
439C
331
43E3
  5
43E3
331
4528
  5
4529
331
436D
  5
436D
331
43A4
  5
43A4
331
43AC
  5
43AC
331
43EB
  5
43EC
331
4530
  5
4531
331
4375
  5
4375
331
437D
  5
437D
331
43B4
  5
43B4
331
4538
  5
4539
331
43BC
  5
43BC
331
4385
  5
4385
331
43C4
  5
43C4
331
4481
  5
448E
331
43CC
  5
43CC
331
438D
  5
438D
331
4395
  5
4395
331
43D4
  5
43D4
331
439D
  5
439D
331
436E
  5
436E
331
43A5
  5
43A5
331
43E4
  5
43E4
331
4529
  5
452A
331
43EC
  5
43ED
331
4531
  5
4532
331
4376
  5
4376
331
43AD
  5
43AD
331
4539
  5
45C4
331
437E
  5
437E
331
43B5
  5
43B5
331
43BD
  5
43BD
331
4386
  5
4386
331
43C5
  5
43C5
331
438E
  5
438E
331
43CD
  5
43CD
331
4396
  5
4396
331
43D5
  5
43D5
331
43DD
  5
43DD
331
439E
  5
439E
  0
XRECORD
  5
3D3A
102
{ACAD_REACTORS
330
1806
102
}
330
1806
100
AcDbXrecord
280
     1
340
14
  0
XRECORD
  5
45A4
102
{ACAD_REACTORS
330
45A2
102
}
330
45A2
100
AcDbXrecord
280
     1
340
12
  0
XRECORD
  5
45A5
102
{ACAD_REACTORS
330
45A2
102
}
330
45A2
100
AcDbXrecord
280
     1
340
12
  0
XRECORD
  5
45A3
102
{ACAD_REACTORS
330
45A2
102
}
330
45A2
100
AcDbXrecord
280
     1
340
12
  0
LAYOUT
  5
3D5B
102
{ACAD_XDICTIONARY
360
47D2
102
}
102
{ACAD_REACTORS
330
3D5A
102
}
330
3D5A
100
AcDbPlotSettings
  1

  2
none_device
  4
Letter_(8.50_x_11.00_Inches)
  6

 40
6.349999904632568
 41
6.349999904632568
 42
6.350006103515625
 43
6.350006103515625
 44
215.8999938964844
 45
279.3999938964844
 46
21.27873175979551
 47
-50.50323736758965
 48
0.0
 49
0.0
140
0.0
141
0.0
142
1.0
143
23.29434
 70
 11940
 72
     0
 73
     1
 74
     0
  7
monochrome.ctb
 75
     0
147
0.0429288831535901
148
-13672.07191964195
149
3479.454916316616
100
AcDbLayout
  1
Model
 70
     1
 71
     0
 10
0.0
 20
0.0
 11
12.0
 21
9.0
 12
0.0
 22
0.0
 32
0.0
 14
0.0
 24
0.0
 34
0.0
 15
0.0
 25
0.0
 35
0.0
146
0.0
 13
0.0
 23
0.0
 33
0.0
 16
1.0
 26
0.0
 36
0.0
 17
0.0
 27
1.0
 37
0.0
 76
     0
330
17
1001
ACAD_PSEXT
1000
なし
1000
なし
1000
適切ではありません
1000
新しいプロッタ環境設定名を選択しない限り、レイアウトは印刷されません。
1070
     0
  0
LAYOUT
  5
3D5C
102
{ACAD_XDICTIONARY
360
47D4
102
}
102
{ACAD_REACTORS
330
3D5A
102
}
330
3D5A
100
AcDbPlotSettings
  1

  2
Microsoft XPS Document Writer
  4

  6

 40
0.0
 41
0.0
 42
0.0
 43
0.0
 44
0.0
 45
0.0
 46
0.0
 47
0.0
 48
0.0
 49
0.0
140
0.0
141
0.0
142
1.0
143
1.0
 70
   688
 72
     0
 73
     0
 74
     5
  7
monochrome.ctb
 75
    16
147
1.0
148
0.0
149
0.0
100
AcDbLayout
  1
レイアウト1
 70
     1
 71
     1
 10
0.0
 20
0.0
 11
12.0
 21
9.0
 12
0.0
 22
0.0
 32
0.0
 14
1.000000000000000E+20
 24
1.000000000000000E+20
 34
1.000000000000000E+20
 15
-1.000000000000000E+20
 25
-1.000000000000000E+20
 35
-1.000000000000000E+20
146
0.0
 13
0.0
 23
0.0
 33
0.0
 16
1.0
 26
0.0
 36
0.0
 17
0.0
 27
1.0
 37
0.0
 76
     0
330
14
  0
MATERIAL
  5
3D44
102
{ACAD_XDICTIONARY
360
45AF
102
}
102
{ACAD_REACTORS
330
3D42
102
}
330
3D42
100
AcDbMaterial
  1
ByBlock
  0
MATERIAL
  5
3D43
102
{ACAD_XDICTIONARY
360
45AD
102
}
102
{ACAD_REACTORS
330
3D42
102
}
330
3D42
100
AcDbMaterial
  1
ByLayer
  0
MATERIAL
  5
3D45
102
{ACAD_XDICTIONARY
360
45B1
102
}
102
{ACAD_REACTORS
330
3D42
102
}
330
3D42
100
AcDbMaterial
  1
Global
  0
MLINESTYLE
  5
1B
102
{ACAD_REACTORS
330
1A
102
}
330
1A
100
AcDbMlineStyle
  2
STANDARD
 70
     0
  3

 62
   256
 51
90.0
 52
90.0
 71
     2
 49
0.5
 62
   256
  6
BYLAYER
 49
-0.5
 62
   256
  6
BYLAYER
  0
ACDBPLACEHOLDER
  5
3D41
102
{ACAD_REACTORS
330
3D40
102
}
330
3D40
  0
TABLESTYLE
  5
3D59
102
{ACAD_XDICTIONARY
360
45B3
102
}
102
{ACAD_REACTORS
330
3D58
102
}
330
3D58
100
AcDbTableStyle
  3
Standard
 70
     0
 71
     0
 40
0.06
 41
0.06
280
     0
281
     0
  7
STANDARD
140
0.18
170
     2
 62
     0
 63
     7
283
     0
274
    -2
284
     1
 64
     0
275
    -2
285
     1
 65
     0
276
    -2
286
     1
 66
     0
277
    -2
287
     1
 67
     0
278
    -2
288
     1
 68
     0
279
    -2
289
     1
 69
     0
  7
STANDARD
140
0.25
170
     5
 62
     0
 63
     7
283
     0
274
    -2
284
     1
 64
     0
275
    -2
285
     1
 65
     0
276
    -2
286
     1
 66
     0
277
    -2
287
     1
 67
     0
278
    -2
288
     1
 68
     0
279
    -2
289
     1
 69
     0
  7
STANDARD
140
0.18
170
     5
 62
     0
 63
     7
283
     0
274
    -2
284
     1
 64
     0
275
    -2
285
     1
 65
     0
276
    -2
286
     1
 66
     0
277
    -2
287
     1
 67
     0
278
    -2
288
     1
 68
     0
279
    -2
289
     1
 69
     0
  0
ACAD_PROXY_OBJECT
  5
3D4C
102
{ACAD_REACTORS
330
3D46
102
}
330
3D46
100
AcDbProxyObject
 90
      499
 91
      503
 95
  2555929
 70
     0
 93
      598
310
430C9915DA5C99599C985B59401049028333333333333E3BF0000000000000FB023FFFFFF0802405048070000C3008000000C800405A000000320014050640A01C00030C010500920280D3
 94
        0
1001
ACAD
1000
AcDbSavedByObjectVersion
1070
     0
1000
AcDbSavedByObjectVersion
1070
     0
1000
AcDbSavedByObjectVersion
1070
     0
1000
AcDbSavedByObjectVersion
1070
     0
1000
AcDbSavedByObjectVersion
1070
     0
1000
AcDbSavedByObjectVersion
1070
     0
1000
AcRTDxfName
1000
VISUALSTYLE
  0
ACAD_PROXY_OBJECT
  5
3D4E
102
{ACAD_REACTORS
330
3D46
102
}
330
3D46
100
AcDbProxyObject
 90
      499
 91
      503
 95
  2555929
 70
     0
 93
      662
310
428CD108121A5919195B8010640502408333333333333E3BF0000000000000FB023FFFFFF0802409028070000C3008000000C8004080000000000004440A000000320014050640A01C00030C010300920280D0
 94
        0
1001
ACAD
1000
AcDbSavedByObjectVersion
1070
     0
1000
AcDbSavedByObjectVersion
1070
     0
1000
AcDbSavedByObjectVersion
1070
     0
1000
AcDbSavedByObjectVersion
1070
     0
1000
AcDbSavedByObjectVersion
1070
     0
1000
AcDbSavedByObjectVersion
1070
     0
1000
AcRTDxfName
1000
VISUALSTYLE
  0
ACAD_PROXY_OBJECT
  5
3D4D
102
{ACAD_REACTORS
330
3D46
102
}
330
3D46
100
AcDbProxyObject
 90
      499
 91
      503
 95
  2555929
 70
     0
 93
      598
310
430CD915DA5C99599C985B59401059028333333333333E3BF0000000000000FB023FFFFFF0802405048070000C3008000000C800405A000000320014050640A01C00030C010500920280D0
 94
        0
1001
ACAD
1000
AcDbSavedByObjectVersion
1070
     0
1000
AcDbSavedByObjectVersion
1070
     0
1000
AcDbSavedByObjectVersion
1070
     0
1000
AcDbSavedByObjectVersion
1070
     0
1000
AcDbSavedByObjectVersion
1070
     0
1000
AcDbSavedByObjectVersion
1070
     0
1000
AcRTDxfName
1000
VISUALSTYLE
  0
ACAD_PROXY_OBJECT
  5
3D4B
102
{ACAD_REACTORS
330
3D46
102
}
330
3D46
100
AcDbProxyObject
 90
      499
 91
      503
 95
  2555929
 70
     0
 93
      558
310
4190985CDA58C0107406404333333333333E3BF0000000000000FB023FFFFFF08029048070000C3008000000C80040542201C00030C014050640A01C00030C010500920280D4
 94
        0
1001
ACAD
1000
AcDbSavedByObjectVersion
1070
     0
1000
AcDbSavedByObjectVersion
1070
     0
1000
AcDbSavedByObjectVersion
1070
     0
1000
AcDbSavedByObjectVersion
1070
     0
1000
AcDbSavedByObjectVersion
1070
     0
1000
AcDbSavedByObjectVersion
1070
     0
1000
AcRTDxfName
1000
VISUALSTYLE
  0
ACAD_PROXY_OBJECT
  5
3D52
102
{ACAD_REACTORS
330
3D46
102
}
330
3D46
100
AcDbProxyObject
 90
      499
 91
      503
 95
  2555929
 70
     0
 93
      598
310
42509C9A59DA1D195B8010C409028333333333333E3BF0000000000000FB023FFFFFF0802405048070000C3008000000C80040542201C00030C014050640A01C00030C010500920280A657
 94
        0
1001
ACAD
1000
AcDbSavedByObjectVersion
1070
     0
1000
AcDbSavedByObjectVersion
1070
     0
1000
AcDbSavedByObjectVersion
1070
     0
1000
AcDbSavedByObjectVersion
1070
     0
1000
AcDbSavedByObjectVersion
1070
     0
1000
AcDbSavedByObjectVersion
1070
     0
1000
AcRTDxfName
1000
VISUALSTYLE
  0
ACAD_PROXY_OBJECT
  5
3D56
102
{ACAD_REACTORS
330
3D46
102
}
330
3D46
100
AcDbProxyObject
 90
      499
 91
      503
 95
  2555929
 70
     0
 93
      622
310
4310DBDB1BDC90DA185B99D9401104090240C333333333333E3BF0000000000000FB0220202030802405048070000C3008000000C800405422202020308014050640A01C00030C010500920280D7
 94
        0
1001
ACAD
1000
AcDbSavedByObjectVersion
1070
     0
1000
AcDbSavedByObjectVersion
1070
     0
1000
AcDbSavedByObjectVersion
1070
     0
1000
AcDbSavedByObjectVersion
1070
     0
1000
AcDbSavedByObjectVersion
1070
     0
1000
AcDbSavedByObjectVersion
1070
     0
1000
AcRTDxfName
1000
VISUALSTYLE
  0
ACAD_PROXY_OBJECT
  5
3D4F
102
{ACAD_REACTORS
330
3D46
102
}
330
3D46
100
AcDbProxyObject
 90
      499
 91
      503
 95
  2555929
 70
     0
 93
      670
310
42D0DBDB98D95C1D1D585B0010940D028333333333333E3BF0000000000000FB023FFFFFF0802409028070000C3008000000C800404000000000000444042201C00030C014050640A01C00030C010300920280D0
 94
        0
1001
ACAD
1000
AcDbSavedByObjectVersion
1070
     0
1000
AcDbSavedByObjectVersion
1070
     0
1000
AcDbSavedByObjectVersion
1070
     0
1000
AcDbSavedByObjectVersion
1070
     0
1000
AcDbSavedByObjectVersion
1070
     0
1000
AcDbSavedByObjectVersion
1070
     0
1000
AcRTDxfName
1000
VISUALSTYLE
  0
ACAD_PROXY_OBJECT
  5
3D51
102
{ACAD_REACTORS
330
3D46
102
}
330
3D46
100
AcDbProxyObject
 90
      499
 91
      503
 95
  2555929
 70
     0
 93
      582
310
41111A5B4010B409028333333333333E3BF0000000000000FB023FFFFFF0802405048070000C3008000000C80040542201C00030C014050640A01C00030C01050092028099DFFFFFF4
 94
        0
1001
ACAD
1000
AcDbSavedByObjectVersion
1070
     0
1000
AcDbSavedByObjectVersion
1070
     0
1000
AcDbSavedByObjectVersion
1070
     0
1000
AcDbSavedByObjectVersion
1070
     0
1000
AcDbSavedByObjectVersion
1070
     0
1000
AcDbSavedByObjectVersion
1070
     0
1000
AcRTDxfName
1000
VISUALSTYLE
  0
ACAD_PROXY_OBJECT
  5
3D55
102
{ACAD_REACTORS
330
3D46
102
}
330
3D46
100
AcDbProxyObject
 90
      499
 91
      503
 95
  2555929
 70
     0
 93
      614
310
43119858D95C185D1D195C9B8010F409028333333333333E3BF0000000000000FB023FFFFFF0802405048070000C3008000000C80040542201C00030C014050640A01C00030C010500920280D4
 94
        0
1001
ACAD
1000
AcDbSavedByObjectVersion
1070
     0
1000
AcDbSavedByObjectVersion
1070
     0
1000
AcDbSavedByObjectVersion
1070
     0
1000
AcDbSavedByObjectVersion
1070
     0
1000
AcDbSavedByObjectVersion
1070
     0
1000
AcDbSavedByObjectVersion
1070
     0
1000
AcRTDxfName
1000
VISUALSTYLE
  0
ACAD_PROXY_OBJECT
  5
3D47
102
{ACAD_REACTORS
330
3D46
102
}
330
3D46
100
AcDbProxyObject
 90
      499
 91
      503
 95
  2555929
 70
     0
 93
      558
310
41519B185D00240901404333333333333E3BF0000000000000F9023FFFFFF0801029048070000C3008000000C80040542201C00030C014050640A01C00030C010500920286D4
 94
        0
1001
ACAD
1000
AcDbSavedByObjectVersion
1070
     0
1000
AcDbSavedByObjectVersion
1070
     0
1000
AcDbSavedByObjectVersion
1070
     0
1000
AcDbSavedByObjectVersion
1070
     0
1000
AcDbSavedByObjectVersion
1070
     0
1000
AcDbSavedByObjectVersion
1070
     0
1000
AcRTDxfName
1000
VISUALSTYLE
  0
ACAD_PROXY_OBJECT
  5
3D48
102
{ACAD_REACTORS
330
3D46
102
}
330
3D46
100
AcDbProxyObject
 90
      499
 91
      503
 95
  2555929
 70
     0
 93
      638
310
43919B185D15DA5D1A115919D95CC010140901404333333333333E3BF0000000000000F9023FFFFFF080102405048070000C3008000000C800405A000000320014050640A01C00030C010500920286D4
 94
        0
1001
ACAD
1000
AcDbSavedByObjectVersion
1070
     0
1000
AcDbSavedByObjectVersion
1070
     0
1000
AcDbSavedByObjectVersion
1070
     0
1000
AcDbSavedByObjectVersion
1070
     0
1000
AcDbSavedByObjectVersion
1070
     0
1000
AcDbSavedByObjectVersion
1070
     0
1000
AcRTDxfName
1000
VISUALSTYLE
  0
ACAD_PROXY_OBJECT
  5
3D49
102
{ACAD_REACTORS
330
3D46
102
}
330
3D46
100
AcDbProxyObject
 90
      499
 91
      503
 95
  2555929
 70
     0
 93
      582
310
4211DBDD5C985D590010240902404333333333333E3BF0000000000000F9023FFFFFF0801029048070000C3008000000C800405A01C00030C014050640A01C00030C010500920286D4
 94
        0
1001
ACAD
1000
AcDbSavedByObjectVersion
1070
     0
1000
AcDbSavedByObjectVersion
1070
     0
1000
AcDbSavedByObjectVersion
1070
     0
1000
AcDbSavedByObjectVersion
1070
     0
1000
AcDbSavedByObjectVersion
1070
     0
1000
AcDbSavedByObjectVersion
1070
     0
1000
AcRTDxfName
1000
VISUALSTYLE
  0
ACAD_PROXY_OBJECT
  5
3D4A
102
{ACAD_REACTORS
330
3D46
102
}
330
3D46
100
AcDbProxyObject
 90
      499
 91
      503
 95
  2555929
 70
     0
 93
      662
310
4451DBDD5C985D5915DA5D1A115919D95CC010340902404333333333333E3BF0000000000000F9023FFFFFF080102405048070000C3008000000C800405A000000320014050640A01C00030C010500920286D4
 94
        0
1001
ACAD
1000
AcDbSavedByObjectVersion
1070
     0
1000
AcDbSavedByObjectVersion
1070
     0
1000
AcDbSavedByObjectVersion
1070
     0
1000
AcDbSavedByObjectVersion
1070
     0
1000
AcDbSavedByObjectVersion
1070
     0
1000
AcDbSavedByObjectVersion
1070
     0
1000
AcRTDxfName
1000
VISUALSTYLE
  0
ACAD_PROXY_OBJECT
  5
3D54
102
{ACAD_REACTORS
330
3D46
102
}
330
3D46
100
AcDbProxyObject
 90
      499
 91
      503
 95
  2555929
 70
     0
 93
      614
310
43131A5B995C185D1D195C9B8010E409028333333333333E3BF0000000000000FB023FFFFFF0802405048070000C3008000000C80041D42201C00030C014050640A01C00030C010500920E80D5
 94
        0
1001
ACAD
1000
AcDbSavedByObjectVersion
1070
     0
1000
AcDbSavedByObjectVersion
1070
     0
1000
AcDbSavedByObjectVersion
1070
     0
1000
AcDbSavedByObjectVersion
1070
     0
1000
AcDbSavedByObjectVersion
1070
     0
1000
AcDbSavedByObjectVersion
1070
     0
1000
AcRTDxfName
1000
VISUALSTYLE
  0
ACAD_PROXY_OBJECT
  5
3D50
102
{ACAD_REACTORS
330
3D46
102
}
330
3D46
100
AcDbProxyObject
 90
      499
 91
      503
 95
  2555929
 70
     0
 93
      590
310
429499585B1A5CDD1A58C0108409028333333333333E3BF0000000000000FB023FFFFFF08024068070000C3008000000C8004054221E1E1E308014050640A01C00030C010500920286D0
 94
        0
1001
ACAD
1000
AcDbSavedByObjectVersion
1070
     0
1000
AcDbSavedByObjectVersion
1070
     0
1000
AcDbSavedByObjectVersion
1070
     0
1000
AcDbSavedByObjectVersion
1070
     0
1000
AcDbSavedByObjectVersion
1070
     0
1000
AcDbSavedByObjectVersion
1070
     0
1000
AcRTDxfName
1000
VISUALSTYLE
  0
ACAD_PROXY_OBJECT
  5
3D53
102
{ACAD_REACTORS
330
3D46
102
}
330
3D46
100
AcDbProxyObject
 90
      499
 91
      503
 95
  2555929
 70
     0
 93
      582
310
42151A1A58DAD95B8010D409028333333333333E3BF0000000000000FB023FFFFFF0802405048070000C3008000000C80040543201C00030C014050640A01C00030C010500920280D4
 94
        0
1001
ACAD
1000
AcDbSavedByObjectVersion
1070
     0
1000
AcDbSavedByObjectVersion
1070
     0
1000
AcDbSavedByObjectVersion
1070
     0
1000
AcDbSavedByObjectVersion
1070
     0
1000
AcDbSavedByObjectVersion
1070
     0
1000
AcDbSavedByObjectVersion
1070
     0
1000
AcRTDxfName
1000
VISUALSTYLE
  0
DICTIONARYVAR
  5
4117
102
{ACAD_REACTORS
330
4116
102
}
330
4116
100
DictionaryVariables
280
     0
  1
STANDARD
  0
DICTIONARYVAR
  5
47CD
102
{ACAD_REACTORS
330
4116
102
}
330
4116
100
DictionaryVariables
280
     0
  1
1
  0
DICTIONARYVAR
  5
47CE
102
{ACAD_REACTORS
330
4116
102
}
330
4116
100
DictionaryVariables
280
     0
  1

  0
DICTIONARY
  5
47D2
330
3D5B
100
AcDbDictionary
280
     1
281
     1
  3
ACAD_XREC_ROUNDTRIP
360
47D3
  0
DICTIONARY
  5
47D4
330
3D5C
100
AcDbDictionary
280
     1
281
     1
  3
ACAD_XREC_ROUNDTRIP
360
47D5
  0
DICTIONARY
  5
45AF
330
3D44
100
AcDbDictionary
280
     1
281
     1
  3
ACAD_XREC_ROUNDTRIP
360
45B0
  0
DICTIONARY
  5
45AD
330
3D43
100
AcDbDictionary
280
     1
281
     1
  3
ACAD_XREC_ROUNDTRIP
360
45AE
  0
DICTIONARY
  5
45B1
330
3D45
100
AcDbDictionary
280
     1
281
     1
  3
ACAD_XREC_ROUNDTRIP
360
45B2
  0
DICTIONARY
  5
45B3
330
3D59
100
AcDbDictionary
280
     1
281
     1
  3
ACAD_XREC_ROUNDTRIP
360
45B4
  0
XRECORD
  5
47D3
102
{ACAD_REACTORS
330
47D2
102
}
330
47D2
100
AcDbXrecord
280
     1
102
SHADEPLOT
 70
     0
102
SHADEPLOTRESLEVEL
 70
     2
102
SHADEPLOTCUSTOMDPI
 70
   300
  0
XRECORD
  5
47D5
102
{ACAD_REACTORS
330
47D4
102
}
330
47D4
100
AcDbXrecord
280
     1
102
SHADEPLOT
 70
     0
102
SHADEPLOTRESLEVEL
 70
     2
102
SHADEPLOTCUSTOMDPI
 70
   300
  0
XRECORD
  5
45B0
102
{ACAD_REACTORS
330
45AF
102
}
330
45AF
100
AcDbXrecord
280
     1
102
MATERIAL
148
0.0
149
0.0
149
0.0
 93
        0
 94
       63
282
     0
 72
     1
 77
     1
171
     1
175
     1
179
     1
273
     0
  0
XRECORD
  5
45AE
102
{ACAD_REACTORS
330
45AD
102
}
330
45AD
100
AcDbXrecord
280
     1
102
MATERIAL
148
0.0
149
0.0
149
0.0
 93
        0
 94
       63
282
     0
 72
     1
 77
     1
171
     1
175
     1
179
     1
273
     0
  0
XRECORD
  5
45B2
102
{ACAD_REACTORS
330
45B1
102
}
330
45B1
100
AcDbXrecord
280
     1
102
MATERIAL
148
0.0
149
0.0
149
0.0
 93
        0
 94
       63
282
     0
 72
     1
 77
     1
171
     1
175
     1
179
     1
273
     0
  0
XRECORD
  5
45B4
102
{ACAD_REACTORS
330
45B3
102
}
330
45B3
100
AcDbXrecord
280
     1
102
ACAD_ROUNDTRIP_PRE2007_TABLESTYLE
 90
      512
 91
        0
  1

 92
      512
 93
        0
  2

 94
      512
 95
        0
  3

  0
ENDSEC
  0
EOF
