  0
SECTION
  2
HEADER
  9
$ACADVER
  1
AC1015
  9
$ACADMAINTVER
 70
    20
  9
$DWGCODEPAGE
  3
ANSI_932
  9
$INSBASE
 10
0.0
 20
0.0
 30
0.0
  9
$EXTMIN
 10
530.1490891630367
 20
-140.7565208482715
 30
-0.0000000349181948
  9
$EXTMAX
 10
725.4695035875056
 20
0.047239343867318
 30
0.0000000814935746
  9
$LIMMIN
 10
0.0
 20
0.0
  9
$LIMMAX
 10
12.0
 20
9.0
  9
$ORTHOMODE
 70
     1
  9
$REGENMODE
 70
     1
  9
$FILLMODE
 70
     1
  9
$QTEXTMODE
 70
     0
  9
$MIRRTEXT
 70
     1
  9
$LTSCALE
 40
0.5
  9
$ATTMODE
 70
     1
  9
$TEXTSIZE
 40
2.5
  9
$TRACEWID
 40
0.05
  9
$TEXTSTYLE
  7
CatalogDxf
  9
$CLAYER
  8
Z_OM_DIM
  9
$CELTYPE
  6
BYLAYER
  9
$CECOLOR
 62
   256
  9
$CELTSCALE
 40
1.0
  9
$DISPSILH
 70
     0
  9
$DIMSCALE
 40
1.0
  9
$DIMASZ
 40
2.5
  9
$DIMEXO
 40
0.625
  9
$DIMDLI
 40
3.75
  9
$DIMRND
 40
0.0
  9
$DIMDLE
 40
0.0
  9
$DIMEXE
 40
1.25
  9
$DIMTP
 40
0.0
  9
$DIMTM
 40
0.0
  9
$DIMTXT
 40
2.5
  9
$DIMCEN
 40
2.5
  9
$DIMTSZ
 40
0.0
  9
$DIMTOL
 70
     0
  9
$DIMLIM
 70
     0
  9
$DIMTIH
 70
     0
  9
$DIMTOH
 70
     0
  9
$DIMSE1
 70
     0
  9
$DIMSE2
 70
     0
  9
$DIMTAD
 70
     1
  9
$DIMZIN
 70
     8
  9
$DIMBLK
  1
OPEN30
  9
$DIMASO
 70
     1
  9
$DIMSHO
 70
     1
  9
$DIMPOST
  1

  9
$DIMAPOST
  1

  9
$DIMALT
 70
     0
  9
$DIMALTD
 70
     3
  9
$DIMALTF
 40
0.03937007874016
  9
$DIMLFAC
 40
1.0
  9
$DIMTOFL
 70
     1
  9
$DIMTVP
 40
0.0
  9
$DIMTIX
 70
     0
  9
$DIMSOXD
 70
     0
  9
$DIMSAH
 70
     0
  9
$DIMBLK1
  1

  9
$DIMBLK2
  1

  9
$DIMSTYLE
  2
CatalogDxf
  9
$DIMCLRD
 70
   256
  9
$DIMCLRE
 70
   256
  9
$DIMCLRT
 70
   256
  9
$DIMTFAC
 40
1.0
  9
$DIMGAP
 40
0.625
  9
$DIMJUST
 70
     0
  9
$DIMSD1
 70
     0
  9
$DIMSD2
 70
     0
  9
$DIMTOLJ
 70
     0
  9
$DIMTZIN
 70
     8
  9
$DIMALTZ
 70
     0
  9
$DIMALTTZ
 70
     0
  9
$DIMUPT
 70
     0
  9
$DIMDEC
 70
     1
  9
$DIMTDEC
 70
     1
  9
$DIMALTU
 70
     2
  9
$DIMALTTD
 70
     3
  9
$DIMTXSTY
  7
CatalogDxf
  9
$DIMAUNIT
 70
     0
  9
$DIMADEC
 70
     0
  9
$DIMALTRND
 40
0.0
  9
$DIMAZIN
 70
     0
  9
$DIMDSEP
 70
    46
  9
$DIMATFIT
 70
     3
  9
$DIMFRAC
 70
     0
  9
$DIMLDRBLK
  1
OPEN30
  9
$DIMLUNIT
 70
     2
  9
$DIMLWD
 70
    -1
  9
$DIMLWE
 70
    -1
  9
$DIMTMOVE
 70
     0
  9
$LUNITS
 70
     2
  9
$LUPREC
 70
     2
  9
$SKETCHINC
 40
0.1
  9
$FILLETRAD
 40
0.0
  9
$AUNITS
 70
     0
  9
$AUPREC
 70
     2
  9
$MENU
  1
acad
  9
$ELEVATION
 40
0.0
  9
$PELEVATION
 40
0.0
  9
$THICKNESS
 40
0.0
  9
$LIMCHECK
 70
     0
  9
$CHAMFERA
 40
0.0
  9
$CHAMFERB
 40
0.0
  9
$CHAMFERC
 40
0.0
  9
$CHAMFERD
 40
0.0
  9
$SKPOLY
 70
     0
  9
$TDCREATE
 40
2455090.761732894
  9
$TDUCREATE
 40
2455090.386732893
  9
$TDUPDATE
 40
2455678.565751748
  9
$TDUUPDATE
 40
2455678.190751748
  9
$TDINDWG
 40
0.5902793287
  9
$TDUSRTIMER
 40
0.5902737153
  9
$USRTIMER
 70
     1
  9
$ANGBASE
 50
0.0
  9
$ANGDIR
 70
     0
  9
$PDMODE
 70
     0
  9
$PDSIZE
 40
0.0
  9
$PLINEWID
 40
0.0
  9
$SPLFRAME
 70
     0
  9
$SPLINETYPE
 70
     6
  9
$SPLINESEGS
 70
     8
  9
$HANDSEED
  5
49DD
  9
$SURFTAB1
 70
     6
  9
$SURFTAB2
 70
     6
  9
$SURFTYPE
 70
     6
  9
$SURFU
 70
     6
  9
$SURFV
 70
     6
  9
$UCSBASE
  2

  9
$UCSNAME
  2

  9
$UCSORG
 10
0.0
 20
0.0
 30
0.0
  9
$UCSXDIR
 10
1.0
 20
0.0
 30
0.0
  9
$UCSYDIR
 10
0.0
 20
1.0
 30
0.0
  9
$UCSORTHOREF
  2

  9
$UCSORTHOVIEW
 70
     1
  9
$UCSORGTOP
 10
0.0
 20
0.0
 30
0.0
  9
$UCSORGBOTTOM
 10
0.0
 20
0.0
 30
0.0
  9
$UCSORGLEFT
 10
0.0
 20
0.0
 30
0.0
  9
$UCSORGRIGHT
 10
0.0
 20
0.0
 30
0.0
  9
$UCSORGFRONT
 10
0.0
 20
0.0
 30
0.0
  9
$UCSORGBACK
 10
0.0
 20
0.0
 30
0.0
  9
$PUCSBASE
  2

  9
$PUCSNAME
  2

  9
$PUCSORG
 10
0.0
 20
0.0
 30
0.0
  9
$PUCSXDIR
 10
1.0
 20
0.0
 30
0.0
  9
$PUCSYDIR
 10
0.0
 20
1.0
 30
0.0
  9
$PUCSORTHOREF
  2

  9
$PUCSORTHOVIEW
 70
     0
  9
$PUCSORGTOP
 10
0.0
 20
0.0
 30
0.0
  9
$PUCSORGBOTTOM
 10
0.0
 20
0.0
 30
0.0
  9
$PUCSORGLEFT
 10
0.0
 20
0.0
 30
0.0
  9
$PUCSORGRIGHT
 10
0.0
 20
0.0
 30
0.0
  9
$PUCSORGFRONT
 10
0.0
 20
0.0
 30
0.0
  9
$PUCSORGBACK
 10
0.0
 20
0.0
 30
0.0
  9
$USERI1
 70
     0
  9
$USERI2
 70
     0
  9
$USERI3
 70
     0
  9
$USERI4
 70
     0
  9
$USERI5
 70
     0
  9
$USERR1
 40
0.0
  9
$USERR2
 40
0.0
  9
$USERR3
 40
0.0
  9
$USERR4
 40
0.0
  9
$USERR5
 40
0.0
  9
$WORLDVIEW
 70
     1
  9
$SHADEDGE
 70
     3
  9
$SHADEDIF
 70
    70
  9
$TILEMODE
 70
     1
  9
$MAXACTVP
 70
    16
  9
$PINSBASE
 10
0.0
 20
0.0
 30
0.0
  9
$PLIMCHECK
 70
     0
  9
$PEXTMIN
 10
1.000000000000000E+20
 20
1.000000000000000E+20
 30
1.000000000000000E+20
  9
$PEXTMAX
 10
-1.000000000000000E+20
 20
-1.000000000000000E+20
 30
-1.000000000000000E+20
  9
$PLIMMIN
 10
0.0
 20
0.0
  9
$PLIMMAX
 10
12.0
 20
9.0
  9
$UNITMODE
 70
     0
  9
$VISRETAIN
 70
     0
  9
$PLINEGEN
 70
     0
  9
$PSLTSCALE
 70
     1
  9
$TREEDEPTH
 70
  3020
  9
$CMLSTYLE
  2
STANDARD
  9
$CMLJUST
 70
     0
  9
$CMLSCALE
 40
1.0
  9
$PROXYGRAPHICS
 70
     1
  9
$MEASUREMENT
 70
     0
  9
$CELWEIGHT
370
    -1
  9
$ENDCAPS
280
     0
  9
$JOINSTYLE
280
     0
  9
$LWDISPLAY
290
     0
  9
$INSUNITS
 70
     0
  9
$HYPERLINKBASE
  1

  9
$STYLESHEET
  1
monochrome.ctb
  9
$XEDIT
290
     1
  9
$CEPSNTYPE
380
     0
  9
$PSTYLEMODE
290
     1
  9
$FINGERPRINTGUID
  2
{AFC0AA2D-B3CD-48CF-B830-EF9C44F122D3}
  9
$VERSIONGUID
  2
{20D41230-95E9-4EC9-813D-0156C9C27203}
  9
$EXTNAMES
290
     1
  9
$PSVPSCALE
 40
0.0
  9
$OLESTARTUP
290
     0
  0
ENDSEC
  0
SECTION
  2
CLASSES
  0
CLASS
  1
ACDBDICTIONARYWDFLT
  2
AcDbDictionaryWithDefault
  3
ObjectDBX Classes
 90
        0
280
     0
281
     0
  0
CLASS
  1
DICTIONARYVAR
  2
AcDbDictionaryVar
  3
ObjectDBX Classes
 90
        0
280
     0
281
     0
  0
CLASS
  1
MATERIAL
  2
AcDbMaterial
  3
ObjectDBX Classes
 90
        0
280
     0
281
     0
  0
CLASS
  1
VISUALSTYLE
  2
AcDbVisualStyle
  3
ObjectDBX Classes
 90
     4095
280
     0
281
     0
  0
CLASS
  1
TABLESTYLE
  2
AcDbTableStyle
  3
ObjectDBX Classes
 90
     2047
280
     0
281
     0
  0
CLASS
  1
DIMASSOC
  2
AcDbDimAssoc
  3
"AcDbDimAssoc|Product Desc:     AcDim ARX App For Dimension|Company:          Autodesk, Inc.|WEB Address:      www.autodesk.com"
 90
    32768
280
     0
281
     0
  0
CLASS
  1
SORTENTSTABLE
  2
AcDbSortentsTable
  3
ObjectDBX Classes
 90
        0
280
     0
281
     0
  0
CLASS
  1
ACDBPLACEHOLDER
  2
AcDbPlaceHolder
  3
ObjectDBX Classes
 90
        0
280
     0
281
     0
  0
CLASS
  1
LAYOUT
  2
AcDbLayout
  3
ObjectDBX Classes
 90
        0
280
     0
281
     0
  0
ENDSEC
  0
SECTION
  2
TABLES
  0
TABLE
  2
VPORT
  5
8
102
{ACAD_XDICTIONARY
360
46E5
102
}
330
0
100
AcDbSymbolTable
 70
     2
  0
VPORT
  5
49D6
330
8
100
AcDbSymbolTableRecord
100
AcDbViewportTableRecord
  2
*Active
 70
     0
 10
0.0
 20
0.0
 11
1.0
 21
1.0
 12
634.8777342688945
 22
-67.24074153741181
 13
0.0
 23
0.0
 14
1.0
 24
1.0
 15
0.0
 25
0.0
 16
0.0
 26
0.0
 36
1.0
 17
0.0
 27
0.0
 37
0.0
 40
164.1925813420291
 41
2.288973384030418
 42
50.0
 43
0.0
 44
0.0
 50
0.0
 51
0.0
 71
     0
 72
   100
 73
     1
 74
     1
 75
     0
 76
     0
 77
     0
 78
     0
281
     0
 65
     1
110
0.0
120
0.0
130
0.0
111
1.0
121
0.0
131
0.0
112
0.0
122
1.0
132
0.0
 79
     0
146
0.0
  0
ENDTAB
  0
TABLE
  2
LTYPE
  5
5
330
0
100
AcDbSymbolTable
 70
     3
  0
LTYPE
  5
11
330
5
100
AcDbSymbolTableRecord
100
AcDbLinetypeTableRecord
  2
BYBLOCK
 70
     0
  3

 72
    65
 73
     0
 40
0.0
  0
LTYPE
  5
12
330
5
100
AcDbSymbolTableRecord
100
AcDbLinetypeTableRecord
  2
BYLAYER
 70
     0
  3

 72
    65
 73
     0
 40
0.0
  0
LTYPE
  5
13
330
5
100
AcDbSymbolTableRecord
100
AcDbLinetypeTableRecord
  2
CONTINUOUS
 70
     0
  3
Solid line
 72
    65
 73
     0
 40
0.0
  0
LTYPE
  5
3DB3
330
5
100
AcDbSymbolTableRecord
100
AcDbLinetypeTableRecord
  2
CENTER2
 70
     0
  3
Center (.5x) ___ _ ___ _ ___ _ ___ _ ___ _ ___
 72
    65
 73
     4
 40
28.575
 49
19.05
 74
     0
 49
-3.174999999999998
 74
     0
 49
3.174999999999998
 74
     0
 49
-3.174999999999998
 74
     0
  0
LTYPE
  5
3DB4
330
5
100
AcDbSymbolTableRecord
100
AcDbLinetypeTableRecord
  2
HIDDEN2
 70
     0
  3
Hidden (.5x) _ _ _ _ _ _ _ _ _ _ _ _ _ _ _ _ _
 72
    65
 73
     2
 40
4.762499999999998
 49
3.174999999999998
 74
     0
 49
-1.587499999999999
 74
     0
  0
ENDTAB
  0
TABLE
  2
LAYER
  5
2
102
{ACAD_XDICTIONARY
360
3DBA
102
}
330
0
100
AcDbSymbolTable
 70
     4
  0
LAYER
  5
E
102
{ACAD_XDICTIONARY
360
470B
102
}
330
2
100
AcDbSymbolTableRecord
100
AcDbLayerTableRecord
  2
0
 70
     0
 62
     7
  6
CONTINUOUS
370
    -3
390
3D41
  0
LAYER
  5
27
102
{ACAD_XDICTIONARY
360
470D
102
}
330
2
100
AcDbSymbolTableRecord
100
AcDbLayerTableRecord
  2
Z_OM_DIM
 70
     0
 62
     4
  6
CONTINUOUS
370
    -3
390
3D41
  0
LAYER
  5
2B
102
{ACAD_XDICTIONARY
360
470F
102
}
330
2
100
AcDbSymbolTableRecord
100
AcDbLayerTableRecord
  2
DEFPOINTS
 70
     0
 62
     7
  6
CONTINUOUS
290
     0
370
    -3
390
3D41
  0
LAYER
  5
3DB5
102
{ACAD_XDICTIONARY
360
4719
102
}
330
2
100
AcDbSymbolTableRecord
100
AcDbLayerTableRecord
  2
additional
 70
     0
 62
    50
  6
CONTINUOUS
370
    -3
390
3D41
1001
AcAecLayerStandard
1000

1000

  0
ENDTAB
  0
TABLE
  2
STYLE
  5
3
330
0
100
AcDbSymbolTable
 70
     5
  0
STYLE
  5
F
330
3
100
AcDbSymbolTableRecord
100
AcDbTextStyleTableRecord
  2
STANDARD
 70
     0
 40
0.0
 41
1.08
 50
0.0
 71
     0
 42
3.0
  3
txt.shx
  4
bigfont.shx
  0
STYLE
  5
3DB6
330
3
100
AcDbSymbolTableRecord
100
AcDbTextStyleTableRecord
  2
CatalogDxf
 70
     0
 40
0.0
 41
1.0
 50
0.0
 71
     0
 42
2.5
  3
txt.shx
  4
bigfont.shx
  0
STYLE
  5
4196
330
3
100
AcDbSymbolTableRecord
100
AcDbTextStyleTableRecord
  2

 70
     1
 40
0.0
 41
1.0
 50
0.0
 71
     0
 42
3.0
  3
ltypeshp.shx
  4

  0
ENDTAB
  0
TABLE
  2
VIEW
  5
6
330
0
100
AcDbSymbolTable
 70
     0
  0
ENDTAB
  0
TABLE
  2
UCS
  5
7
330
0
100
AcDbSymbolTable
 70
     0
  0
ENDTAB
  0
TABLE
  2
APPID
  5
9
330
0
100
AcDbSymbolTable
 70
     7
  0
APPID
  5
10
330
9
100
AcDbSymbolTableRecord
100
AcDbRegAppTableRecord
  2
ACAD
 70
     0
  0
APPID
  5
3D5E
330
9
100
AcDbSymbolTableRecord
100
AcDbRegAppTableRecord
  2
ACAD_PSEXT
 70
     0
  0
APPID
  5
3DB9
330
9
100
AcDbSymbolTableRecord
100
AcDbRegAppTableRecord
  2
AcAecLayerStandard
 70
     0
  0
APPID
  5
41A3
330
9
100
AcDbSymbolTableRecord
100
AcDbRegAppTableRecord
  2
ACAD_DSTYLE_DIM_LINETYPE
 70
     0
  0
APPID
  5
41A4
330
9
100
AcDbSymbolTableRecord
100
AcDbRegAppTableRecord
  2
ACAD_DSTYLE_DIM_EXT1_LINETYPE
 70
     0
  0
APPID
  5
41A5
330
9
100
AcDbSymbolTableRecord
100
AcDbRegAppTableRecord
  2
ACAD_DSTYLE_DIM_EXT2_LINETYPE
 70
     0
  0
APPID
  5
47D6
330
9
100
AcDbSymbolTableRecord
100
AcDbRegAppTableRecord
  2
ACAD_DSTYLE_DIMTEXT_FILL
 70
     0
  0
ENDTAB
  0
TABLE
  2
DIMSTYLE
  5
A
330
0
100
AcDbSymbolTable
 70
     5
100
AcDbDimStyleTable
 71
     2
340
3DB8
340
30
  0
DIMSTYLE
105
30
330
A
100
AcDbSymbolTableRecord
100
AcDbDimStyleTableRecord
  2
STANDARD
 70
     0
 41
6.0
 42
1.0
 43
16.0
 44
3.0
 73
     0
 74
     0
 77
     1
 78
     8
140
4.4
141
10.0
147
1.6
172
     1
176
   256
177
   256
178
   256
340
F
341
977
342
977
  0
DIMSTYLE
105
3DB8
102
{ACAD_REACTORS
330
4414
330
442E
330
4448
330
4491
330
44A0
330
44AD
330
44BC
330
44C9
330
44D8
330
44F9
330
4506
330
4513
330
4529
330
468E
102
}
330
A
100
AcDbSymbolTableRecord
100
AcDbDimStyleTableRecord
  2
CatalogDxf
 70
     0
 41
2.5
 42
0.625
 43
3.75
 44
1.25
 73
     0
 74
     0
 77
     1
 78
     8
140
2.5
141
2.5
143
0.03937007874016
147
0.625
171
     3
172
     1
176
   256
177
   256
178
   256
271
     1
272
     1
274
     3
283
     0
284
     8
340
3DB6
341
977
342
977
371
    -1
372
    -1
1001
ACAD_DSTYLE_DIM_LINETYPE
1070
   380
1005
12
1001
ACAD_DSTYLE_DIM_EXT1_LINETYPE
1070
   381
1005
12
1001
ACAD_DSTYLE_DIM_EXT2_LINETYPE
1070
   382
1005
12
  0
DIMSTYLE
105
42CB
330
A
100
AcDbSymbolTableRecord
100
AcDbDimStyleTableRecord
  2
ISO-25
 70
     0
 41
2.5
 42
0.625
 43
3.75
 44
1.25
 73
     0
 74
     0
 77
     1
 78
     8
140
2.5
141
2.5
143
0.03937007874016
147
0.625
171
     3
172
     1
271
     2
272
     2
274
     3
278
    44
283
     0
284
     8
340
F
  0
ENDTAB
  0
TABLE
  2
BLOCK_RECORD
  5
1
330
0
100
AcDbSymbolTable
 70
    19
  0
BLOCK_RECORD
  5
17
102
{ACAD_XDICTIONARY
360
1808
102
}
330
1
100
AcDbSymbolTableRecord
100
AcDbBlockTableRecord
  2
*MODEL_SPACE
340
3D5B
  0
BLOCK_RECORD
  5
14
102
{ACAD_XDICTIONARY
360
1806
102
}
330
1
100
AcDbSymbolTableRecord
100
AcDbBlockTableRecord
  2
*PAPER_SPACE
340
3D5C
  0
BLOCK_RECORD
  5
977
330
1
100
AcDbSymbolTableRecord
100
AcDbBlockTableRecord
  2
_OPEN30
340
0
102
{BLKREFS
331
4846
331
4847
331
484F
331
4850
331
4858
331
4859
331
4875
331
4876
331
487E
331
487F
331
4887
331
4888
331
4890
331
4891
331
4899
331
489A
331
48AD
331
48B8
331
4904
331
4905
331
490F
331
4910
331
4923
331
4924
331
4956
331
4957
102
}
  0
BLOCK_RECORD
  5
4415
330
1
100
AcDbSymbolTableRecord
100
AcDbBlockTableRecord
  2
*D1
340
0
  0
BLOCK_RECORD
  5
442F
330
1
100
AcDbSymbolTableRecord
100
AcDbBlockTableRecord
  2
*D2
340
0
  0
BLOCK_RECORD
  5
4449
330
1
100
AcDbSymbolTableRecord
100
AcDbBlockTableRecord
  2
*D3
340
0
  0
BLOCK_RECORD
  5
4492
330
1
100
AcDbSymbolTableRecord
100
AcDbBlockTableRecord
  2
*D4
340
0
  0
BLOCK_RECORD
  5
44A1
330
1
100
AcDbSymbolTableRecord
100
AcDbBlockTableRecord
  2
*D5
340
0
  0
BLOCK_RECORD
  5
44AE
330
1
100
AcDbSymbolTableRecord
100
AcDbBlockTableRecord
  2
*D6
340
0
  0
BLOCK_RECORD
  5
44BD
330
1
100
AcDbSymbolTableRecord
100
AcDbBlockTableRecord
  2
*D7
340
0
  0
BLOCK_RECORD
  5
44CA
330
1
100
AcDbSymbolTableRecord
100
AcDbBlockTableRecord
  2
*D8
340
0
  0
BLOCK_RECORD
  5
44D9
330
1
100
AcDbSymbolTableRecord
100
AcDbBlockTableRecord
  2
*D9
340
0
  0
BLOCK_RECORD
  5
44FA
330
1
100
AcDbSymbolTableRecord
100
AcDbBlockTableRecord
  2
*D10
340
0
  0
BLOCK_RECORD
  5
4507
330
1
100
AcDbSymbolTableRecord
100
AcDbBlockTableRecord
  2
*D11
340
0
  0
BLOCK_RECORD
  5
4514
330
1
100
AcDbSymbolTableRecord
100
AcDbBlockTableRecord
  2
*D12
340
0
  0
BLOCK_RECORD
  5
452A
330
1
100
AcDbSymbolTableRecord
100
AcDbBlockTableRecord
  2
*D13
340
0
  0
BLOCK_RECORD
  5
4652
102
{ACAD_XDICTIONARY
360
4654
102
}
330
1
100
AcDbSymbolTableRecord
100
AcDbBlockTableRecord
  2
A$C343D006D
340
0
  0
BLOCK_RECORD
  5
468F
330
1
100
AcDbSymbolTableRecord
100
AcDbBlockTableRecord
  2
*D15
340
0
  0
BLOCK_RECORD
  5
472B
330
1
100
AcDbSymbolTableRecord
100
AcDbBlockTableRecord
  2
_DotSmall
340
0
102
{BLKREFS
331
48AC
331
48B7
102
}
  0
ENDTAB
  0
ENDSEC
  0
SECTION
  2
BLOCKS
  0
BLOCK
  5
2E
330
17
100
AcDbEntity
  8
0
100
AcDbBlockBegin
  2
*MODEL_SPACE
 70
     0
 10
0.0
 20
0.0
 30
0.0
  3
*MODEL_SPACE
  1

  0
ENDBLK
  5
2F
330
17
100
AcDbEntity
  8
0
100
AcDbBlockEnd
  0
BLOCK
  5
2C
330
14
100
AcDbEntity
 67
     1
  8
0
100
AcDbBlockBegin
  2
*PAPER_SPACE
 70
     0
 10
0.0
 20
0.0
 30
0.0
  3
*PAPER_SPACE
  1

  0
ENDBLK
  5
2D
330
14
100
AcDbEntity
 67
     1
  8
0
100
AcDbBlockEnd
  0
BLOCK
  5
97B
330
977
100
AcDbEntity
  8
0
100
AcDbBlockBegin
  2
_OPEN30
 70
     0
 10
0.0
 20
0.0
 30
0.0
  3
_OPEN30
  1

  0
LINE
  5
978
330
977
100
AcDbEntity
  8
0
  6
ByBlock
 62
     0
100
AcDbLine
 10
-1.0
 20
0.26794919
 30
0.0
 11
0.0
 21
0.0
 31
0.0
  0
LINE
  5
979
330
977
100
AcDbEntity
  8
0
  6
ByBlock
 62
     0
100
AcDbLine
 10
0.0
 20
0.0
 30
0.0
 11
-1.0
 21
-0.26794919
 31
0.0
  0
LINE
  5
97A
330
977
100
AcDbEntity
  8
0
  6
ByBlock
 62
     0
100
AcDbLine
 10
0.0
 20
0.0
 30
0.0
 11
-1.0
 21
0.0
 31
0.0
  0
ENDBLK
  5
97C
330
977
100
AcDbEntity
  8
0
100
AcDbBlockEnd
  0
BLOCK
  5
4421
330
4415
100
AcDbEntity
  8
0
100
AcDbBlockBegin
  2
*D1
 70
     1
 10
0.0
 20
0.0
 30
0.0
  3
*D1
  1

  0
LINE
  5
490A
330
4415
100
AcDbEntity
  8
Z_OM_DIM
100
AcDbLine
 10
618.0462547048218
 20
-29.07239299312289
 30
0.0
 11
600.8219036165562
 21
-29.07239299312289
 31
0.0
  0
LINE
  5
490B
330
4415
100
AcDbEntity
  8
Z_OM_DIM
100
AcDbLine
 10
618.0462547048218
 20
-35.15439299312288
 30
0.0
 11
600.8219036165562
 21
-35.15439299312288
 31
0.0
  0
LINE
  5
490C
330
4415
100
AcDbEntity
  8
Z_OM_DIM
100
AcDbLine
 10
602.0719036165562
 20
-37.65439299312288
 30
0.0
 11
602.0719036165562
 21
-40.15439299312287
 31
0.0
  0
LINE
  5
490D
330
4415
100
AcDbEntity
  8
Z_OM_DIM
100
AcDbLine
 10
602.0719036165562
 20
-26.57239299312289
 30
0.0
 11
602.0719036165562
 21
-16.15572632645622
 31
0.0
  0
LINE
  5
490E
330
4415
100
AcDbEntity
  8
Z_OM_DIM
100
AcDbLine
 10
602.0719036165562
 20
-35.15439299312288
 30
0.0
 11
602.0719036165562
 21
-29.07239299312289
 31
0.0
  0
INSERT
  5
490F
330
4415
100
AcDbEntity
  8
Z_OM_DIM
100
AcDbBlockReference
  2
_OPEN30
 10
602.0719036165562
 20
-35.15439299312288
 30
0.0
 41
2.5
 42
2.5
 43
2.5
 50
90.0
  0
INSERT
  5
4910
330
4415
100
AcDbEntity
  8
Z_OM_DIM
100
AcDbBlockReference
  2
_OPEN30
 10
602.0719036165562
 20
-29.07239299312289
 30
0.0
 41
2.5
 42
2.5
 43
2.5
 50
270.0
  0
MTEXT
  5
4911
330
4415
100
AcDbEntity
  8
Z_OM_DIM
100
AcDbMText
 10
600.1969036165562
 20
-20.11405965978946
 30
0.0
 40
2.5
 41
0.0
 71
     5
 72
     1
  1
%%C6.1
  7
CatalogDxf
 11
0.0000000000000001
 21
1.0
 31
0.0
 73
     1
 44
1.0
1001
ACAD
1000
MTEXTBEGIN
1070
    73
1070
     1
1070
    44
1040
1.0
1070
    74
1070
     0
1000
MTEXTEND
  0
POINT
  5
4912
330
4415
100
AcDbEntity
  8
DEFPOINTS
 62
     0
100
AcDbPoint
 10
618.6712547048219
 20
-29.07239299312289
 30
0.0
  0
POINT
  5
4913
330
4415
100
AcDbEntity
  8
DEFPOINTS
 62
     0
100
AcDbPoint
 10
618.6712547048219
 20
-35.15439299312288
 30
0.0
  0
POINT
  5
4914
330
4415
100
AcDbEntity
  8
DEFPOINTS
 62
     0
100
AcDbPoint
 10
602.0719036165562
 20
-35.15439299312288
 30
0.0
  0
ENDBLK
  5
4422
330
4415
100
AcDbEntity
  8
0
100
AcDbBlockEnd
  0
BLOCK
  5
443B
330
442F
100
AcDbEntity
  8
0
100
AcDbBlockBegin
  2
*D2
 70
     1
 10
0.0
 20
0.0
 30
0.0
  3
*D2
  1

  0
LINE
  5
48FF
330
442F
100
AcDbEntity
  8
Z_OM_DIM
100
AcDbLine
 10
618.8962547048218
 20
-30.1133929931229
 30
0.0
 11
606.0765804390755
 21
-30.1133929931229
 31
0.0
  0
LINE
  5
4900
330
442F
100
AcDbEntity
  8
Z_OM_DIM
100
AcDbLine
 10
618.8962547048218
 20
-34.11339299312289
 30
0.0
 11
606.0765804390755
 21
-34.11339299312289
 31
0.0
  0
LINE
  5
4901
330
442F
100
AcDbEntity
  8
Z_OM_DIM
100
AcDbLine
 10
607.3265804390755
 20
-36.61339299312289
 30
0.0
 11
607.3265804390755
 21
-39.1133929931229
 31
0.0
  0
LINE
  5
4902
330
442F
100
AcDbEntity
  8
Z_OM_DIM
100
AcDbLine
 10
607.3265804390755
 20
-27.6133929931229
 30
0.0
 11
607.3265804390755
 21
-19.69672632645623
 31
0.0
  0
LINE
  5
4903
330
442F
100
AcDbEntity
  8
Z_OM_DIM
100
AcDbLine
 10
607.3265804390755
 20
-34.11339299312289
 30
0.0
 11
607.3265804390755
 21
-30.1133929931229
 31
0.0
  0
INSERT
  5
4904
330
442F
100
AcDbEntity
  8
Z_OM_DIM
100
AcDbBlockReference
  2
_OPEN30
 10
607.3265804390755
 20
-34.11339299312289
 30
0.0
 41
2.5
 42
2.5
 43
2.5
 50
90.0
  0
INSERT
  5
4905
330
442F
100
AcDbEntity
  8
Z_OM_DIM
100
AcDbBlockReference
  2
_OPEN30
 10
607.3265804390755
 20
-30.1133929931229
 30
0.0
 41
2.5
 42
2.5
 43
2.5
 50
270.0
  0
MTEXT
  5
4906
330
442F
100
AcDbEntity
  8
Z_OM_DIM
100
AcDbMText
 10
605.4515804390755
 20
-22.40505965978946
 30
0.0
 40
2.5
 41
0.0
 71
     5
 72
     1
  1
%%c4
  7
CatalogDxf
 11
0.0000000000000001
 21
1.0
 31
0.0
 73
     1
 44
1.0
1001
ACAD
1000
MTEXTBEGIN
1070
    73
1070
     1
1070
    44
1040
1.0
1070
    74
1070
     0
1000
MTEXTEND
  0
POINT
  5
4907
330
442F
100
AcDbEntity
  8
DEFPOINTS
 62
     0
100
AcDbPoint
 10
619.5212547048217
 20
-30.1133929931229
 30
0.0
  0
POINT
  5
4908
330
442F
100
AcDbEntity
  8
DEFPOINTS
 62
     0
100
AcDbPoint
 10
619.5212547048217
 20
-34.11339299312289
 30
0.0
  0
POINT
  5
4909
330
442F
100
AcDbEntity
  8
DEFPOINTS
 62
     0
100
AcDbPoint
 10
607.3265804390755
 20
-34.11339299312289
 30
0.0
  0
ENDBLK
  5
443C
330
442F
100
AcDbEntity
  8
0
100
AcDbBlockEnd
  0
BLOCK
  5
4455
330
4449
100
AcDbEntity
  8
0
100
AcDbBlockBegin
  2
*D3
 70
     1
 10
0.0
 20
0.0
 30
0.0
  3
*D3
  1

  0
LINE
  5
48A7
330
4449
100
AcDbEntity
  8
Z_OM_DIM
100
AcDbLine
 10
622.5212547048219
 20
-28.54739299312289
 30
0.0
 11
622.5212547048219
 21
-17.15989641028773
 31
0.0
  0
LINE
  5
48A8
330
4449
100
AcDbEntity
  8
Z_OM_DIM
100
AcDbLine
 10
619.5212547048217
 20
-28.54739299312289
 30
0.0
 11
619.5212547048217
 21
-17.15989641028773
 31
0.0
  0
LINE
  5
48A9
330
4449
100
AcDbEntity
  8
Z_OM_DIM
100
AcDbLine
 10
619.5212547048217
 20
-18.40989641028773
 30
0.0
 11
614.5212547048218
 21
-18.40989641028773
 31
0.0
  0
LINE
  5
48AA
330
4449
100
AcDbEntity
  8
Z_OM_DIM
100
AcDbLine
 10
625.0212547048219
 20
-18.40989641028773
 30
0.0
 11
630.4379213714885
 21
-18.40989641028773
 31
0.0
  0
LINE
  5
48AB
330
4449
100
AcDbEntity
  8
Z_OM_DIM
100
AcDbLine
 10
619.5212547048217
 20
-18.40989641028773
 30
0.0
 11
622.5212547048219
 21
-18.40989641028773
 31
0.0
  0
INSERT
  5
48AC
330
4449
100
AcDbEntity
  8
Z_OM_DIM
100
AcDbBlockReference
  2
_DotSmall
 10
619.5212547048217
 20
-18.40989641028773
 30
0.0
 41
2.5
 42
2.5
 43
2.5
  0
INSERT
  5
48AD
330
4449
100
AcDbEntity
  8
Z_OM_DIM
100
AcDbBlockReference
  2
_OPEN30
 10
622.5212547048219
 20
-18.40989641028773
 30
0.0
 41
2.5
 42
2.5
 43
2.5
 50
180.0
  0
MTEXT
  5
48AE
330
4449
100
AcDbEntity
  8
Z_OM_DIM
100
AcDbMText
 10
628.9795880381553
 20
-16.53489641028773
 30
0.0
 40
2.5
 41
0.0
 71
     5
 72
     1
  1
3
  7
CatalogDxf
 73
     1
 44
1.0
1001
ACAD
1000
MTEXTBEGIN
1070
    73
1070
     1
1070
    44
1040
1.0
1070
    74
1070
     0
1000
MTEXTEND
  0
POINT
  5
48AF
330
4449
100
AcDbEntity
  8
DEFPOINTS
 62
     0
100
AcDbPoint
 10
622.5212547048219
 20
-29.17239299312289
 30
0.0
  0
POINT
  5
48B0
330
4449
100
AcDbEntity
  8
DEFPOINTS
 62
     0
100
AcDbPoint
 10
619.5212547048217
 20
-29.17239299312289
 30
0.0
  0
POINT
  5
48B1
330
4449
100
AcDbEntity
  8
DEFPOINTS
 62
     0
100
AcDbPoint
 10
619.5212547048217
 20
-18.40989641028773
 30
0.0
  0
ENDBLK
  5
4456
330
4449
100
AcDbEntity
  8
0
100
AcDbBlockEnd
  0
BLOCK
  5
449E
330
4492
100
AcDbEntity
  8
0
100
AcDbBlockBegin
  2
*D4
 70
     1
 10
0.0
 20
0.0
 30
0.0
  3
*D4
  1

  0
LINE
  5
48B2
330
4492
100
AcDbEntity
  8
Z_OM_DIM
100
AcDbLine
 10
619.5212547048217
 20
-28.54739299312289
 30
0.0
 11
619.5212547048217
 21
-17.15989641028773
 31
0.0
  0
LINE
  5
48B3
330
4492
100
AcDbEntity
  8
Z_OM_DIM
100
AcDbLine
 10
618.5712547048217
 20
-28.54739299312289
 30
0.0
 11
618.5712547048217
 21
-17.15989641028773
 31
0.0
  0
LINE
  5
48B4
330
4492
100
AcDbEntity
  8
Z_OM_DIM
100
AcDbLine
 10
619.5212547048217
 20
-18.40989641028773
 30
0.0
 11
622.0212547048218
 21
-18.40989641028773
 31
0.0
  0
LINE
  5
48B5
330
4492
100
AcDbEntity
  8
Z_OM_DIM
100
AcDbLine
 10
616.0712547048217
 20
-18.40989641028773
 30
0.0
 11
611.4879213714884
 21
-18.40989641028773
 31
0.0
  0
LINE
  5
48B6
330
4492
100
AcDbEntity
  8
Z_OM_DIM
100
AcDbLine
 10
619.5212547048217
 20
-18.40989641028773
 30
0.0
 11
618.5712547048217
 21
-18.40989641028773
 31
0.0
  0
INSERT
  5
48B7
330
4492
100
AcDbEntity
  8
Z_OM_DIM
100
AcDbBlockReference
  2
_DotSmall
 10
619.5212547048217
 20
-18.40989641028773
 30
0.0
 41
2.5
 42
2.5
 43
2.5
 50
180.0
  0
INSERT
  5
48B8
330
4492
100
AcDbEntity
  8
Z_OM_DIM
100
AcDbBlockReference
  2
_OPEN30
 10
618.5712547048217
 20
-18.40989641028773
 30
0.0
 41
2.5
 42
2.5
 43
2.5
  0
MTEXT
  5
48B9
330
4492
100
AcDbEntity
  8
Z_OM_DIM
100
AcDbMText
 10
612.5295880381551
 20
-16.53489641028773
 30
0.0
 40
2.5
 41
0.0
 71
     5
 72
     1
  1
1
  7
CatalogDxf
 73
     1
 44
1.0
1001
ACAD
1000
MTEXTBEGIN
1070
    73
1070
     1
1070
    44
1040
1.0
1070
    74
1070
     0
1000
MTEXTEND
  0
POINT
  5
48BA
330
4492
100
AcDbEntity
  8
DEFPOINTS
 62
     0
100
AcDbPoint
 10
619.5212547048217
 20
-29.17239299312289
 30
0.0
  0
POINT
  5
48BB
330
4492
100
AcDbEntity
  8
DEFPOINTS
 62
     0
100
AcDbPoint
 10
618.5712547048217
 20
-29.17239299312289
 30
0.0
  0
POINT
  5
48BC
330
4492
100
AcDbEntity
  8
DEFPOINTS
 62
     0
100
AcDbPoint
 10
618.5712547048217
 20
-18.40989641028773
 30
0.0
  0
ENDBLK
  5
449F
330
4492
100
AcDbEntity
  8
0
100
AcDbBlockEnd
  0
BLOCK
  5
44AB
330
44A1
100
AcDbEntity
  8
0
100
AcDbBlockBegin
  2
*D5
 70
     1
 10
0.0
 20
0.0
 30
0.0
  3
*D5
  1

  0
LINE
  5
4843
330
44A1
100
AcDbEntity
  8
Z_OM_DIM
100
AcDbLine
 10
618.5712547048217
 20
-35.6793929931229
 30
0.0
 11
618.5712547048217
 21
-54.42180684016125
 31
0.0
  0
LINE
  5
4844
330
44A1
100
AcDbEntity
  8
Z_OM_DIM
100
AcDbLine
 10
625.5712547048219
 20
-40.16339299312289
 30
0.0
 11
625.5712547048219
 21
-54.42180684016125
 31
0.0
  0
LINE
  5
4845
330
44A1
100
AcDbEntity
  8
Z_OM_DIM
100
AcDbLine
 10
621.0712547048217
 20
-53.17180684016125
 30
0.0
 11
623.0712547048218
 21
-53.17180684016125
 31
0.0
  0
INSERT
  5
4846
330
44A1
100
AcDbEntity
  8
Z_OM_DIM
100
AcDbBlockReference
  2
_OPEN30
 10
618.5712547048217
 20
-53.17180684016125
 30
0.0
 41
2.5
 42
2.5
 43
2.5
 50
180.0
  0
INSERT
  5
4847
330
44A1
100
AcDbEntity
  8
Z_OM_DIM
100
AcDbBlockReference
  2
_OPEN30
 10
625.5712547048219
 20
-53.17180684016125
 30
0.0
 41
2.5
 42
2.5
 43
2.5
  0
MTEXT
  5
4848
330
44A1
100
AcDbEntity
  8
Z_OM_DIM
100
AcDbMText
 10
622.0712547048217
 20
-51.29680684016125
 30
0.0
 40
2.5
 41
0.0
 71
     5
 72
     1
  1
7
  7
CatalogDxf
 73
     1
 44
1.0
1001
ACAD
1000
MTEXTBEGIN
1070
    73
1070
     1
1070
    44
1040
1.0
1070
    74
1070
     0
1000
MTEXTEND
  0
POINT
  5
4849
330
44A1
100
AcDbEntity
  8
DEFPOINTS
 62
     0
100
AcDbPoint
 10
618.5712547048217
 20
-35.0543929931229
 30
0.0
  0
POINT
  5
484A
330
44A1
100
AcDbEntity
  8
DEFPOINTS
 62
     0
100
AcDbPoint
 10
625.5712547048219
 20
-39.5383929931229
 30
0.0
  0
POINT
  5
484B
330
44A1
100
AcDbEntity
  8
DEFPOINTS
 62
     0
100
AcDbPoint
 10
625.5712547048219
 20
-53.17180684016125
 30
0.0
  0
ENDBLK
  5
44AC
330
44A1
100
AcDbEntity
  8
0
100
AcDbBlockEnd
  0
BLOCK
  5
44B8
330
44AE
100
AcDbEntity
  8
0
100
AcDbBlockBegin
  2
*D6
 70
     1
 10
0.0
 20
0.0
 30
0.0
  3
*D6
  1

  0
LINE
  5
484C
330
44AE
100
AcDbEntity
  8
Z_OM_DIM
100
AcDbLine
 10
625.5712547048219
 20
-40.16339299312289
 30
0.0
 11
625.5712547048219
 21
-54.42180684016125
 31
0.0
  0
LINE
  5
484D
330
44AE
100
AcDbEntity
  8
Z_OM_DIM
100
AcDbLine
 10
664.5712547048217
 20
-38.6633929931229
 30
0.0
 11
664.5712547048217
 21
-54.42180684016125
 31
0.0
  0
LINE
  5
484E
330
44AE
100
AcDbEntity
  8
Z_OM_DIM
100
AcDbLine
 10
628.0712547048218
 20
-53.17180684016125
 30
0.0
 11
662.0712547048217
 21
-53.17180684016125
 31
0.0
  0
INSERT
  5
484F
330
44AE
100
AcDbEntity
  8
Z_OM_DIM
100
AcDbBlockReference
  2
_OPEN30
 10
625.5712547048219
 20
-53.17180684016125
 30
0.0
 41
2.5
 42
2.5
 43
2.5
 50
180.0
  0
INSERT
  5
4850
330
44AE
100
AcDbEntity
  8
Z_OM_DIM
100
AcDbBlockReference
  2
_OPEN30
 10
664.5712547048217
 20
-53.17180684016125
 30
0.0
 41
2.5
 42
2.5
 43
2.5
  0
MTEXT
  5
4851
330
44AE
100
AcDbEntity
  8
Z_OM_DIM
100
AcDbMText
 10
645.0712547048217
 20
-51.29680684016125
 30
0.0
 40
2.5
 41
0.0
 71
     5
 72
     1
  1
39
  7
CatalogDxf
 73
     1
 44
1.0
1001
ACAD
1000
MTEXTBEGIN
1070
    73
1070
     1
1070
    44
1040
1.0
1070
    74
1070
     0
1000
MTEXTEND
  0
POINT
  5
4852
330
44AE
100
AcDbEntity
  8
DEFPOINTS
 62
     0
100
AcDbPoint
 10
625.5712547048219
 20
-39.5383929931229
 30
0.0
  0
POINT
  5
4853
330
44AE
100
AcDbEntity
  8
DEFPOINTS
 62
     0
100
AcDbPoint
 10
664.5712547048217
 20
-38.0383929931229
 30
0.0
  0
POINT
  5
4854
330
44AE
100
AcDbEntity
  8
DEFPOINTS
 62
     0
100
AcDbPoint
 10
664.5712547048217
 20
-53.17180684016125
 30
0.0
  0
ENDBLK
  5
44B9
330
44AE
100
AcDbEntity
  8
0
100
AcDbBlockEnd
  0
BLOCK
  5
44C7
330
44BD
100
AcDbEntity
  8
0
100
AcDbBlockBegin
  2
*D7
 70
     1
 10
0.0
 20
0.0
 30
0.0
  3
*D7
  1

  0
LINE
  5
4855
330
44BD
100
AcDbEntity
  8
Z_OM_DIM
100
AcDbLine
 10
643.5587547048218
 20
-75.51339299312289
 30
0.0
 11
643.5587547048218
 21
-65.18354124492987
 31
0.0
  0
LINE
  5
4856
330
44BD
100
AcDbEntity
  8
Z_OM_DIM
100
AcDbLine
 10
656.5837547048219
 20
-75.51339299312289
 30
0.0
 11
656.5837547048219
 21
-65.18354124492987
 31
0.0
  0
LINE
  5
4857
330
44BD
100
AcDbEntity
  8
Z_OM_DIM
100
AcDbLine
 10
646.0587547048218
 20
-66.43354124492987
 30
0.0
 11
654.0837547048218
 21
-66.43354124492987
 31
0.0
  0
INSERT
  5
4858
330
44BD
100
AcDbEntity
  8
Z_OM_DIM
100
AcDbBlockReference
  2
_OPEN30
 10
643.5587547048218
 20
-66.43354124492987
 30
0.0
 41
2.5
 42
2.5
 43
2.5
 50
180.0
  0
INSERT
  5
4859
330
44BD
100
AcDbEntity
  8
Z_OM_DIM
100
AcDbBlockReference
  2
_OPEN30
 10
656.5837547048219
 20
-66.43354124492987
 30
0.0
 41
2.5
 42
2.5
 43
2.5
  0
MTEXT
  5
485A
330
44BD
100
AcDbEntity
  8
Z_OM_DIM
100
AcDbMText
 10
650.0712547048218
 20
-64.55854124492987
 30
0.0
 40
2.5
 41
0.0
 71
     5
 72
     1
  1
13
  7
CatalogDxf
 73
     1
 44
1.0
1001
ACAD
1000
MTEXTBEGIN
1070
    73
1070
     1
1070
    44
1040
1.0
1070
    74
1070
     0
1000
MTEXTEND
  0
POINT
  5
485B
330
44BD
100
AcDbEntity
  8
DEFPOINTS
 62
     0
100
AcDbPoint
 10
643.5587547048218
 20
-76.13839299312289
 30
0.0
  0
POINT
  5
485C
330
44BD
100
AcDbEntity
  8
DEFPOINTS
 62
     0
100
AcDbPoint
 10
656.5837547048219
 20
-76.13839299312289
 30
0.0
  0
POINT
  5
485D
330
44BD
100
AcDbEntity
  8
DEFPOINTS
 62
     0
100
AcDbPoint
 10
656.5837547048219
 20
-66.43354124492987
 30
0.0
  0
ENDBLK
  5
44C8
330
44BD
100
AcDbEntity
  8
0
100
AcDbBlockEnd
  0
BLOCK
  5
44D6
330
44CA
100
AcDbEntity
  8
0
100
AcDbBlockBegin
  2
*D8
 70
     1
 10
0.0
 20
0.0
 30
0.0
  3
*D8
  1

  0
LINE
  5
4951
330
44CA
100
AcDbEntity
  8
Z_OM_DIM
100
AcDbLine
 10
641.4462547048217
 20
-79.61339299312284
 30
0.0
 11
680.6851100876643
 21
-79.61339299312285
 31
0.0
  0
LINE
  5
4952
330
44CA
100
AcDbEntity
  8
Z_OM_DIM
100
AcDbLine
 10
653.4462547048218
 20
-84.61339299312289
 30
0.0
 11
680.6851100876643
 21
-84.61339299312291
 31
0.0
  0
LINE
  5
4953
330
44CA
100
AcDbEntity
  8
Z_OM_DIM
100
AcDbLine
 10
679.4351100876643
 20
-77.11339299312285
 30
0.0
 11
679.4351100876643
 21
-74.61339299312285
 31
0.0
  0
LINE
  5
4954
330
44CA
100
AcDbEntity
  8
Z_OM_DIM
100
AcDbLine
 10
679.4351100876643
 20
-87.11339299312291
 30
0.0
 11
679.4351100876643
 21
-89.61339299312291
 31
0.0
  0
LINE
  5
4955
330
44CA
100
AcDbEntity
  8
Z_OM_DIM
100
AcDbLine
 10
679.4351100876643
 20
-79.61339299312285
 30
0.0
 11
679.4351100876643
 21
-84.61339299312291
 31
0.0
  0
INSERT
  5
4956
330
44CA
100
AcDbEntity
  8
Z_OM_DIM
100
AcDbBlockReference
  2
_OPEN30
 10
679.4351100876643
 20
-79.61339299312285
 30
0.0
 41
2.5
 42
2.5
 43
2.5
 50
270.0
  0
INSERT
  5
4957
330
44CA
100
AcDbEntity
  8
Z_OM_DIM
100
AcDbBlockReference
  2
_OPEN30
 10
679.4351100876643
 20
-84.61339299312291
 30
0.0
 41
2.5
 42
2.5
 43
2.5
 50
90.0
  0
MTEXT
  5
4958
330
44CA
100
AcDbEntity
  8
Z_OM_DIM
100
AcDbMText
 10
677.5601100876643
 20
-82.11339299312276
 30
0.0
 40
2.5
 41
0.0
 71
     5
 72
     1
  1
5
  7
CatalogDxf
 11
0.0000000000000001
 21
1.0
 31
0.0
 73
     1
 44
1.0
1001
ACAD
1000
MTEXTBEGIN
1070
    73
1070
     1
1070
    44
1040
1.0
1070
    74
1070
     0
1000
MTEXTEND
  0
POINT
  5
4959
330
44CA
100
AcDbEntity
  8
DEFPOINTS
 62
     0
100
AcDbPoint
 10
640.8212547048217
 20
-79.61339299312284
 30
0.0
  0
POINT
  5
495A
330
44CA
100
AcDbEntity
  8
DEFPOINTS
 62
     0
100
AcDbPoint
 10
652.8212547048219
 20
-84.61339299312289
 30
0.0
  0
POINT
  5
495B
330
44CA
100
AcDbEntity
  8
DEFPOINTS
 62
     0
100
AcDbPoint
 10
679.4351100876643
 20
-84.61339299312291
 30
0.0
  0
ENDBLK
  5
44D7
330
44CA
100
AcDbEntity
  8
0
100
AcDbBlockEnd
  0
BLOCK
  5
44E3
330
44D9
100
AcDbEntity
  8
0
100
AcDbBlockBegin
  2
*D9
 70
     1
 10
0.0
 20
0.0
 30
0.0
  3
*D9
  1

  0
LINE
  5
4920
330
44D9
100
AcDbEntity
  8
Z_OM_DIM
100
AcDbLine
 10
657.2087547048218
 20
-77.12589299312288
 30
0.0
 11
686.0258938623236
 21
-77.12589299312289
 31
0.0
  0
LINE
  5
4921
330
44D9
100
AcDbEntity
  8
Z_OM_DIM
100
AcDbLine
 10
657.2087547048218
 20
-87.1008929931229
 30
0.0
 11
686.0258938623236
 21
-87.10089299312292
 31
0.0
  0
LINE
  5
4922
330
44D9
100
AcDbEntity
  8
Z_OM_DIM
100
AcDbLine
 10
684.7758938623236
 20
-79.62589299312289
 30
0.0
 11
684.7758938623236
 21
-84.60089299312292
 31
0.0
  0
INSERT
  5
4923
330
44D9
100
AcDbEntity
  8
Z_OM_DIM
100
AcDbBlockReference
  2
_OPEN30
 10
684.7758938623236
 20
-77.12589299312289
 30
0.0
 41
2.5
 42
2.5
 43
2.5
 50
90.0
  0
INSERT
  5
4924
330
44D9
100
AcDbEntity
  8
Z_OM_DIM
100
AcDbBlockReference
  2
_OPEN30
 10
684.7758938623236
 20
-87.10089299312292
 30
0.0
 41
2.5
 42
2.5
 43
2.5
 50
270.0
  0
MTEXT
  5
4925
330
44D9
100
AcDbEntity
  8
Z_OM_DIM
100
AcDbMText
 10
682.9008938623236
 20
-82.11339299312278
 30
0.0
 40
2.5
 41
0.0
 71
     5
 72
     1
  1
10
  7
CatalogDxf
 11
0.0000000000000001
 21
1.0
 31
0.0
 73
     1
 44
1.0
1001
ACAD
1000
MTEXTBEGIN
1070
    73
1070
     1
1070
    44
1040
1.0
1070
    74
1070
     0
1000
MTEXTEND
  0
POINT
  5
4926
330
44D9
100
AcDbEntity
  8
DEFPOINTS
 62
     0
100
AcDbPoint
 10
656.5837547048219
 20
-77.12589299312288
 30
0.0
  0
POINT
  5
4927
330
44D9
100
AcDbEntity
  8
DEFPOINTS
 62
     0
100
AcDbPoint
 10
656.5837547048219
 20
-87.1008929931229
 30
0.0
  0
POINT
  5
4928
330
44D9
100
AcDbEntity
  8
DEFPOINTS
 62
     0
100
AcDbPoint
 10
684.7758938623236
 20
-87.10089299312292
 30
0.0
  0
ENDBLK
  5
44E4
330
44D9
100
AcDbEntity
  8
0
100
AcDbBlockEnd
  0
BLOCK
  5
4504
330
44FA
100
AcDbEntity
  8
0
100
AcDbBlockBegin
  2
*D10
 70
     1
 10
0.0
 20
0.0
 30
0.0
  3
*D10
  1

  0
LINE
  5
4872
330
44FA
100
AcDbEntity
  8
Z_OM_DIM
100
AcDbLine
 10
650.071254704822
 20
-87.98839299312289
 30
0.0
 11
650.071254704822
 21
-101.9846677023761
 31
0.0
  0
LINE
  5
4873
330
44FA
100
AcDbEntity
  8
Z_OM_DIM
100
AcDbLine
 10
638.0712547048219
 20
-82.98839299312289
 30
0.0
 11
638.0712547048219
 21
-101.9846677023761
 31
0.0
  0
LINE
  5
4874
330
44FA
100
AcDbEntity
  8
Z_OM_DIM
100
AcDbLine
 10
647.5712547048219
 20
-100.7346677023761
 30
0.0
 11
640.5712547048218
 21
-100.7346677023761
 31
0.0
  0
INSERT
  5
4875
330
44FA
100
AcDbEntity
  8
Z_OM_DIM
100
AcDbBlockReference
  2
_OPEN30
 10
650.071254704822
 20
-100.7346677023761
 30
0.0
 41
2.5
 42
2.5
 43
2.5
  0
INSERT
  5
4876
330
44FA
100
AcDbEntity
  8
Z_OM_DIM
100
AcDbBlockReference
  2
_OPEN30
 10
638.0712547048219
 20
-100.7346677023761
 30
0.0
 41
2.5
 42
2.5
 43
2.5
 50
180.0
  0
MTEXT
  5
4877
330
44FA
100
AcDbEntity
  8
Z_OM_DIM
100
AcDbMText
 10
644.0712547048219
 20
-98.8596677023761
 30
0.0
 40
2.5
 41
0.0
 71
     5
 72
     1
  1
12
  7
CatalogDxf
 73
     1
 44
1.0
1001
ACAD
1000
MTEXTBEGIN
1070
    73
1070
     1
1070
    44
1040
1.0
1070
    74
1070
     0
1000
MTEXTEND
  0
POINT
  5
4878
330
44FA
100
AcDbEntity
  8
DEFPOINTS
 62
     0
100
AcDbPoint
 10
650.071254704822
 20
-87.36339299312289
 30
0.0
  0
POINT
  5
4879
330
44FA
100
AcDbEntity
  8
DEFPOINTS
 62
     0
100
AcDbPoint
 10
638.0712547048219
 20
-82.36339299312289
 30
0.0
  0
POINT
  5
487A
330
44FA
100
AcDbEntity
  8
DEFPOINTS
 62
     0
100
AcDbPoint
 10
638.0712547048219
 20
-100.7346677023761
 30
0.0
  0
ENDBLK
  5
4505
330
44FA
100
AcDbEntity
  8
0
100
AcDbBlockEnd
  0
BLOCK
  5
4511
330
4507
100
AcDbEntity
  8
0
100
AcDbBlockBegin
  2
*D11
 70
     1
 10
0.0
 20
0.0
 30
0.0
  3
*D11
  1

  0
LINE
  5
487B
330
4507
100
AcDbEntity
  8
Z_OM_DIM
100
AcDbLine
 10
638.0712547048219
 20
-82.98839299312289
 30
0.0
 11
638.0712547048219
 21
-101.9846677023761
 31
0.0
  0
LINE
  5
487C
330
4507
100
AcDbEntity
  8
Z_OM_DIM
100
AcDbLine
 10
625.5712547048219
 20
-88.71339299312287
 30
0.0
 11
625.5712547048219
 21
-101.9846677023761
 31
0.0
  0
LINE
  5
487D
330
4507
100
AcDbEntity
  8
Z_OM_DIM
100
AcDbLine
 10
635.5712547048218
 20
-100.7346677023761
 30
0.0
 11
628.0712547048218
 21
-100.7346677023761
 31
0.0
  0
INSERT
  5
487E
330
4507
100
AcDbEntity
  8
Z_OM_DIM
100
AcDbBlockReference
  2
_OPEN30
 10
638.0712547048219
 20
-100.7346677023761
 30
0.0
 41
2.5
 42
2.5
 43
2.5
  0
INSERT
  5
487F
330
4507
100
AcDbEntity
  8
Z_OM_DIM
100
AcDbBlockReference
  2
_OPEN30
 10
625.5712547048219
 20
-100.7346677023761
 30
0.0
 41
2.5
 42
2.5
 43
2.5
 50
180.0
  0
MTEXT
  5
4880
330
4507
100
AcDbEntity
  8
Z_OM_DIM
100
AcDbMText
 10
631.8212547048219
 20
-98.8596677023761
 30
0.0
 40
2.5
 41
0.0
 71
     5
 72
     1
  1
12.5
  7
CatalogDxf
 73
     1
 44
1.0
1001
ACAD
1000
MTEXTBEGIN
1070
    73
1070
     1
1070
    44
1040
1.0
1070
    74
1070
     0
1000
MTEXTEND
  0
POINT
  5
4881
330
4507
100
AcDbEntity
  8
DEFPOINTS
 62
     0
100
AcDbPoint
 10
638.0712547048219
 20
-82.36339299312289
 30
0.0
  0
POINT
  5
4882
330
4507
100
AcDbEntity
  8
DEFPOINTS
 62
     0
100
AcDbPoint
 10
625.5712547048219
 20
-88.08839299312287
 30
0.0
  0
POINT
  5
4883
330
4507
100
AcDbEntity
  8
DEFPOINTS
 62
     0
100
AcDbPoint
 10
625.5712547048219
 20
-100.7346677023761
 30
0.0
  0
ENDBLK
  5
4512
330
4507
100
AcDbEntity
  8
0
100
AcDbBlockEnd
  0
BLOCK
  5
451E
330
4514
100
AcDbEntity
  8
0
100
AcDbBlockBegin
  2
*D12
 70
     1
 10
0.0
 20
0.0
 30
0.0
  3
*D12
  1

  0
LINE
  5
4884
330
4514
100
AcDbEntity
  8
Z_OM_DIM
100
AcDbLine
 10
584.1638532330347
 20
-88.06339299312289
 30
0.0
 11
597.6106695342563
 21
-88.06339299312289
 31
0.0
  0
LINE
  5
4885
330
4514
100
AcDbEntity
  8
Z_OM_DIM
100
AcDbLine
 10
584.1638532330347
 20
-76.1633929931229
 30
0.0
 11
597.6106695342563
 21
-76.1633929931229
 31
0.0
  0
LINE
  5
4886
330
4514
100
AcDbEntity
  8
Z_OM_DIM
100
AcDbLine
 10
596.3606695342563
 20
-85.56339299312289
 30
0.0
 11
596.3606695342563
 21
-78.6633929931229
 31
0.0
  0
INSERT
  5
4887
330
4514
100
AcDbEntity
  8
Z_OM_DIM
100
AcDbBlockReference
  2
_OPEN30
 10
596.3606695342563
 20
-88.06339299312289
 30
0.0
 41
2.5
 42
2.5
 43
2.5
 50
270.0
  0
INSERT
  5
4888
330
4514
100
AcDbEntity
  8
Z_OM_DIM
100
AcDbBlockReference
  2
_OPEN30
 10
596.3606695342563
 20
-76.1633929931229
 30
0.0
 41
2.5
 42
2.5
 43
2.5
 50
90.0
  0
MTEXT
  5
4889
330
4514
100
AcDbEntity
  8
Z_OM_DIM
100
AcDbMText
 10
594.4856695342563
 20
-82.11339299312282
 30
0.0
 40
2.5
 41
0.0
 71
     5
 72
     1
  1
12
  7
CatalogDxf
 11
0.0000000000000001
 21
1.0
 31
0.0
 73
     1
 44
1.0
1001
ACAD
1000
MTEXTBEGIN
1070
    73
1070
     1
1070
    44
1040
1.0
1070
    74
1070
     0
1000
MTEXTEND
  0
POINT
  5
488A
330
4514
100
AcDbEntity
  8
DEFPOINTS
 62
     0
100
AcDbPoint
 10
583.5388532330347
 20
-88.06339299312289
 30
0.0
  0
POINT
  5
488B
330
4514
100
AcDbEntity
  8
DEFPOINTS
 62
     0
100
AcDbPoint
 10
583.5388532330347
 20
-76.1633929931229
 30
0.0
  0
POINT
  5
488C
330
4514
100
AcDbEntity
  8
DEFPOINTS
 62
     0
100
AcDbPoint
 10
596.3606695342563
 20
-76.1633929931229
 30
0.0
  0
ENDBLK
  5
451F
330
4514
100
AcDbEntity
  8
0
100
AcDbBlockEnd
  0
BLOCK
  5
4534
330
452A
100
AcDbEntity
  8
0
100
AcDbBlockBegin
  2
*D13
 70
     1
 10
0.0
 20
0.0
 30
0.0
  3
*D13
  1

  0
LINE
  5
488D
330
452A
100
AcDbEntity
  8
Z_OM_DIM
100
AcDbLine
 10
568.5388532330347
 20
-88.68839299312289
 30
0.0
 11
568.5388532330347
 21
-101.9846677023761
 31
0.0
  0
LINE
  5
488E
330
452A
100
AcDbEntity
  8
Z_OM_DIM
100
AcDbLine
 10
583.5388532330347
 20
-88.68839299312289
 30
0.0
 11
583.5388532330347
 21
-101.9846677023761
 31
0.0
  0
LINE
  5
488F
330
452A
100
AcDbEntity
  8
Z_OM_DIM
100
AcDbLine
 10
571.0388532330347
 20
-100.7346677023761
 30
0.0
 11
581.0388532330347
 21
-100.7346677023761
 31
0.0
  0
INSERT
  5
4890
330
452A
100
AcDbEntity
  8
Z_OM_DIM
100
AcDbBlockReference
  2
_OPEN30
 10
568.5388532330347
 20
-100.7346677023761
 30
0.0
 41
2.5
 42
2.5
 43
2.5
 50
180.0
  0
INSERT
  5
4891
330
452A
100
AcDbEntity
  8
Z_OM_DIM
100
AcDbBlockReference
  2
_OPEN30
 10
583.5388532330347
 20
-100.7346677023761
 30
0.0
 41
2.5
 42
2.5
 43
2.5
  0
MTEXT
  5
4892
330
452A
100
AcDbEntity
  8
Z_OM_DIM
100
AcDbMText
 10
576.0388532330347
 20
-98.8596677023761
 30
0.0
 40
2.5
 41
0.0
 71
     5
 72
     1
  1
15
  7
CatalogDxf
 73
     1
 44
1.0
1001
ACAD
1000
MTEXTBEGIN
1070
    73
1070
     1
1070
    44
1040
1.0
1070
    74
1070
     0
1000
MTEXTEND
  0
POINT
  5
4893
330
452A
100
AcDbEntity
  8
DEFPOINTS
 62
     0
100
AcDbPoint
 10
568.5388532330347
 20
-88.06339299312289
 30
0.0
  0
POINT
  5
4894
330
452A
100
AcDbEntity
  8
DEFPOINTS
 62
     0
100
AcDbPoint
 10
583.5388532330347
 20
-88.06339299312289
 30
0.0
  0
POINT
  5
4895
330
452A
100
AcDbEntity
  8
DEFPOINTS
 62
     0
100
AcDbPoint
 10
583.5388532330347
 20
-100.7346677023761
 30
0.0
  0
ENDBLK
  5
4535
330
452A
100
AcDbEntity
  8
0
100
AcDbBlockEnd
  0
BLOCK
  5
4656
330
4652
100
AcDbEntity
  8
0
100
AcDbBlockBegin
  2
A$C343D006D
 70
     0
 10
0.0
 20
0.0
 30
0.0
  3
A$C343D006D
  1

  0
SPLINE
  5
4653
330
4652
100
AcDbEntity
  8
additional
 48
0.5
100
AcDbSpline
210
0.0
220
0.0
230
1.0
 70
     8
 71
     3
 72
    18
 73
    14
 74
    12
 42
0.0000000001
 43
0.0000000001
 44
0.0000000001
 40
0.0
 40
0.0
 40
0.0
 40
0.0
 40
0.3913118960625776
 40
0.7826237921249391
 40
1.482623792124902
 40
1.873935688187327
 40
2.265247584249841
 40
2.656559480312355
 40
3.047871376374723
 40
4.097871376374735
 40
4.489183272437052
 40
4.88049516849961
 40
5.271807064562162
 40
5.271807064562162
 40
5.271807064562162
 40
5.271807064562162
 10
0.4455590563753731
 20
4.900000064019916
 30
0.0
 10
0.5018438980217911
 20
4.782360330665506
 30
0.0
 10
0.6144135813145962
 20
4.547080863956752
 30
0.0
 10
0.8742372704548348
 20
4.123481892642457
 30
0.0
 10
0.8743147584187717
 20
3.576499274112814
 30
0.0
 10
0.6142836300484805
 20
3.152962913926878
 30
0.0
 10
0.4460445631394808
 20
2.799831390046152
 30
0.0
 10
0.2748924556458436
 20
2.447711910008212
 30
0.0
 10
-0.032881105994339
 20
1.919452491595652
 30
0.0
 10
-0.0332778932417204
 20
1.230402267736065
 30
0.0
 10
0.2753360772747064
 20
0.7024911253850752
 30
0.0
 10
0.4443648011505013
 20
0.3493772986786579
 30
0.0
 10
0.5618276379672041
 20
0.1164591422395141
 30
0.0
 10
0.620559056375555
 20
0.0000000640199431
 30
0.0
 11
0.4455590563753731
 21
4.900000064019916
 31
0.0
 11
0.620559056375555
 21
4.550000064019879
 31
0.0
 11
0.7955590563753959
 21
4.200000064019913
 31
0.0
 11
0.7955590563753959
 21
3.50000006401995
 31
0.0
 11
0.620559056375555
 21
3.150000064019913
 31
0.0
 11
0.4455590563753731
 21
2.800000064019947
 31
0.0
 11
0.2705590563751912
 21
2.450000064019981
 31
0.0
 11
0.095559056375464
 21
2.100000064019951
 31
0.0
 11
0.095559056375464
 21
1.05000006401994
 31
0.0
 11
0.2705590563751912
 21
0.7000000640199673
 31
0.0
 11
0.4455590563753731
 21
0.3500000640199516
 31
0.0
 11
0.620559056375555
 21
0.0000000640199431
 31
0.0
  0
ENDBLK
  5
4657
330
4652
100
AcDbEntity
  8
0
100
AcDbBlockEnd
  0
BLOCK
  5
4699
330
468F
100
AcDbEntity
  8
0
100
AcDbBlockBegin
  2
*D15
 70
     1
 10
0.0
 20
0.0
 30
0.0
  3
*D15
  1

  0
LINE
  5
4896
330
468F
100
AcDbEntity
  8
Z_OM_DIM
100
AcDbLine
 10
664.5712547048217
 20
-38.66339299312287
 30
0.0
 11
664.5712547048217
 21
-54.42180684016125
 31
0.0
  0
LINE
  5
4897
330
468F
100
AcDbEntity
  8
Z_OM_DIM
100
AcDbLine
 10
696.2858582041356
 20
-33.48839299312289
 30
0.0
 11
696.2858582041356
 21
-54.42180684016125
 31
0.0
  0
LINE
  5
4898
330
468F
100
AcDbEntity
  8
Z_OM_DIM
100
AcDbLine
 10
667.0712547048217
 20
-53.17180684016125
 30
0.0
 11
693.7858582041355
 21
-53.17180684016125
 31
0.0
  0
INSERT
  5
4899
330
468F
100
AcDbEntity
  8
Z_OM_DIM
100
AcDbBlockReference
  2
_OPEN30
 10
664.5712547048217
 20
-53.17180684016125
 30
0.0
 41
2.5
 42
2.5
 43
2.5
 50
180.0
  0
INSERT
  5
489A
330
468F
100
AcDbEntity
  8
Z_OM_DIM
100
AcDbBlockReference
  2
_OPEN30
 10
696.2858582041356
 20
-53.17180684016125
 30
0.0
 41
2.5
 42
2.5
 43
2.5
  0
MTEXT
  5
489B
330
468F
100
AcDbEntity
  8
Z_OM_DIM
100
AcDbMText
 10
680.4285564544787
 20
-51.29680684016125
 30
0.0
 40
2.5
 41
0.0
 71
     5
 72
     1
  1
180 - 200
  7
CatalogDxf
 73
     1
 44
1.0
1001
ACAD
1000
MTEXTBEGIN
1070
    73
1070
     1
1070
    44
1040
1.0
1070
    74
1070
     0
1000
MTEXTEND
  0
POINT
  5
489C
330
468F
100
AcDbEntity
  8
DEFPOINTS
 62
     0
100
AcDbPoint
 10
664.5712547048217
 20
-38.03839299312287
 30
0.0
  0
POINT
  5
489D
330
468F
100
AcDbEntity
  8
DEFPOINTS
 62
     0
100
AcDbPoint
 10
696.2858582041356
 20
-32.86339299312289
 30
0.0
  0
POINT
  5
489E
330
468F
100
AcDbEntity
  8
DEFPOINTS
 62
     0
100
AcDbPoint
 10
696.2858582041356
 20
-53.17180684016125
 30
0.0
  0
ENDBLK
  5
469A
330
468F
100
AcDbEntity
  8
0
100
AcDbBlockEnd
  0
BLOCK
  5
472D
330
472B
100
AcDbEntity
  8
0
100
AcDbBlockBegin
  2
_DotSmall
 70
     0
 10
0.0
 20
0.0
 30
0.0
  3
_DotSmall
  1

  0
LWPOLYLINE
  5
472C
330
472B
100
AcDbEntity
  8
0
  6
ByBlock
 62
     0
100
AcDbPolyline
 90
        2
 70
     1
 43
0.5
 10
-0.0625
 20
0.0
 42
1.0
 10
0.0625
 20
0.0
 42
1.0
  0
ENDBLK
  5
472E
330
472B
100
AcDbEntity
  8
0
100
AcDbBlockEnd
  0
ENDSEC
  0
SECTION
  2
ENTITIES
  0
MTEXT
  5
4130
330
17
100
AcDbEntity
  8
Z_OM_DIM
100
AcDbMText
 10
662.501115762133
 20
-132.7473815513037
 30
0.0
 40
3.0
 41
93.92693936784551
 71
     1
 72
     5
  1
TAKAHA KIKO Co., Ltd\PCAD DRAWING No. CA0639
  7
CatalogDxf
 73
     1
 44
1.0
1001
ACAD
1000
MTEXTBEGIN
1070
    73
1070
     1
1070
    44
1040
1.0
1070
    74
1070
     0
1000
MTEXTEND
  0
MTEXT
  5
42AA
330
17
100
AcDbEntity
  8
Z_OM_DIM
100
AcDbMText
 10
530.1981027995096
 20
0.0372092765255694
 30
0.0
 40
3.0
 41
47.03999999999999
 71
     1
 72
     1
  1
Adsorbed position
  7
CatalogDxf
 73
     1
 44
1.0
1001
ACAD
1000
MTEXTBEGIN
1070
    73
1070
     1
1070
    44
1040
1.0
1070
    74
1070
     0
1000
MTEXTEND
  0
LINE
  5
436F
330
17
100
AcDbEntity
  8
0
 48
0.5
100
AcDbLine
 10
625.5712547048219
 20
-39.5383929931229
 30
0.0
 11
663.0712547048219
 21
-39.5383929931229
 31
0.0
  0
LINE
  5
4370
330
17
100
AcDbEntity
  8
0
 48
0.5
100
AcDbLine
 10
664.5712547048217
 20
-38.0383929931229
 30
0.0
 11
664.5712547048217
 21
-33.11339299312289
 31
0.0
  0
LINE
  5
4371
330
17
100
AcDbEntity
  8
0
 48
0.5
100
AcDbLine
 10
663.0712547048219
 20
-24.6883929931229
 30
0.0
 11
625.5712547048219
 21
-24.68839299312288
 31
0.0
  0
LINE
  5
4372
330
17
100
AcDbEntity
  8
0
 48
0.5
100
AcDbLine
 10
625.5712547048219
 20
-24.68839299312288
 30
0.0
 11
625.5712547048219
 21
-26.2883929931229
 31
0.0
  0
LINE
  5
4373
330
17
100
AcDbEntity
  8
0
 48
0.5
100
AcDbLine
 10
625.5712547048219
 20
-26.2883929931229
 30
0.0
 11
662.9712547048218
 21
-26.2883929931229
 31
0.0
  0
LINE
  5
4374
330
17
100
AcDbEntity
  8
0
 48
0.5
100
AcDbLine
 10
662.9712547048218
 20
-37.93839299312288
 30
0.0
 11
625.5712547048219
 21
-37.93839299312288
 31
0.0
  0
LINE
  5
4375
330
17
100
AcDbEntity
  8
0
 48
0.5
100
AcDbLine
 10
625.5712547048219
 20
-37.93839299312288
 30
0.0
 11
625.5712547048219
 21
-39.5383929931229
 31
0.0
  0
ARC
  5
4376
330
17
100
AcDbEntity
  8
0
 48
0.5
100
AcDbCircle
 10
663.0712547048219
 20
-38.03839299312287
 30
0.0
 40
1.5
100
AcDbArc
 50
270.0
 51
0.0
  0
ARC
  5
4377
330
17
100
AcDbEntity
  8
0
 48
0.5
100
AcDbCircle
 10
663.0712547048219
 20
-26.18839299312288
 30
0.0
 40
1.5
100
AcDbArc
 50
0.0
 51
90.0
  0
LINE
  5
4378
330
17
100
AcDbEntity
  8
0
 48
0.5
100
AcDbLine
 10
628.1712547048218
 20
-37.93839299312288
 30
0.0
 11
628.1712547048218
 21
-26.2883929931229
 31
0.0
  0
LINE
  5
4379
330
17
100
AcDbEntity
  8
0
 48
0.5
100
AcDbLine
 10
626.171254704822
 20
-37.93839299312288
 30
0.0
 11
626.171254704822
 21
-26.2883929931229
 31
0.0
  0
LINE
  5
437A
330
17
100
AcDbEntity
  8
0
 48
0.5
100
AcDbLine
 10
625.5712547048219
 20
-88.08839299312287
 30
0.0
 11
643.5587547048218
 21
-88.08839299312287
 31
0.0
  0
LINE
  5
437B
330
17
100
AcDbEntity
  8
0
 48
0.5
100
AcDbLine
 10
664.5712547048217
 20
-88.08839299312287
 30
0.0
 11
664.5712547048217
 21
-75.43839299312288
 31
0.0
  0
LINE
  5
437C
330
17
100
AcDbEntity
  8
0
 48
0.5
100
AcDbLine
 10
664.5712547048217
 20
-76.13839299312289
 30
0.0
 11
656.5837547048219
 21
-76.13839299312289
 31
0.0
  0
LINE
  5
437D
330
17
100
AcDbEntity
  8
0
 48
0.5
100
AcDbLine
 10
625.5712547048219
 20
-76.13839299312289
 30
0.0
 11
625.5712547048219
 21
-79.65089299312284
 31
0.0
  0
LINE
  5
437E
330
17
100
AcDbEntity
  8
0
 48
0.5
100
AcDbLine
 10
625.5712547048219
 20
-79.65089299312284
 30
0.0
 11
628.1712547048218
 21
-79.65089299312286
 31
0.0
  0
LINE
  5
437F
330
17
100
AcDbEntity
  8
0
 48
0.5
100
AcDbLine
 10
628.1712547048218
 20
-79.65089299312286
 30
0.0
 11
628.1712547048218
 21
-84.57589299312289
 31
0.0
  0
LINE
  5
4380
330
17
100
AcDbEntity
  8
0
 48
0.5
100
AcDbLine
 10
643.5587547048218
 20
-88.08839299312287
 30
0.0
 11
643.5587547048218
 21
-87.1008929931229
 31
0.0
  0
LINE
  5
4381
330
17
100
AcDbEntity
  8
0
 48
0.5
100
AcDbLine
 10
643.5587547048218
 20
-87.1008929931229
 30
0.0
 11
656.5837547048219
 21
-87.1008929931229
 31
0.0
  0
LINE
  5
4382
330
17
100
AcDbEntity
  8
0
 48
0.5
100
AcDbLine
 10
656.5837547048219
 20
-87.1008929931229
 30
0.0
 11
656.5837547048219
 21
-88.08839299312287
 31
0.0
  0
LINE
  5
4383
330
17
100
AcDbEntity
  8
0
 48
0.5
100
AcDbLine
 10
643.5587547048218
 20
-76.13839299312289
 30
0.0
 11
643.5587547048218
 21
-77.12589299312288
 31
0.0
  0
LINE
  5
4384
330
17
100
AcDbEntity
  8
0
 48
0.5
100
AcDbLine
 10
643.5587547048218
 20
-77.12589299312288
 30
0.0
 11
656.5837547048219
 21
-77.12589299312288
 31
0.0
  0
LINE
  5
4385
330
17
100
AcDbEntity
  8
0
 48
0.5
100
AcDbLine
 10
656.5837547048219
 20
-77.12589299312288
 30
0.0
 11
656.5837547048219
 21
-76.13839299312289
 31
0.0
  0
CIRCLE
  5
4386
330
17
100
AcDbEntity
  8
0
 48
0.5
100
AcDbCircle
 10
650.071254704822
 20
-84.61339299312284
 30
0.0
 40
1.199999999999999
  0
CIRCLE
  5
4387
330
17
100
AcDbEntity
  8
0
 48
0.5
100
AcDbCircle
 10
638.0712547048219
 20
-79.61339299312284
 30
0.0
 40
1.1625
  0
LINE
  5
4388
330
17
100
AcDbEntity
  8
0
 48
0.5
100
AcDbLine
 10
570.138853233035
 20
-77.1633929931229
 30
0.0
 11
572.6388532330347
 21
-77.1633929931229
 31
0.0
  0
LINE
  5
4389
330
17
100
AcDbEntity
  8
0
 48
0.5
100
AcDbLine
 10
573.1388532330347
 20
-76.6633929931229
 30
0.0
 11
573.1388532330347
 21
-76.1633929931229
 31
0.0
  0
ARC
  5
438A
330
17
100
AcDbEntity
  8
0
 48
0.5
100
AcDbCircle
 10
572.6388532330347
 20
-76.6633929931229
 30
0.0
 40
0.5
100
AcDbArc
 50
270.0
 51
0.0
  0
LINE
  5
438B
330
17
100
AcDbEntity
  8
0
 48
0.5
100
AcDbLine
 10
581.9388532330346
 20
-87.06339299312277
 30
0.0
 11
581.9388532330346
 21
-85.59583600047764
 31
0.0
  0
LINE
  5
438C
330
17
100
AcDbEntity
  8
0
 48
0.5
100
AcDbLine
 10
581.9388532330346
 20
-87.06339299312277
 30
0.0
 11
579.4388532330347
 21
-87.06339299312277
 31
0.0
  0
LINE
  5
438D
330
17
100
AcDbEntity
  8
0
 48
0.5
100
AcDbLine
 10
578.9388532330347
 20
-87.56339299312278
 30
0.0
 11
578.9388532330347
 21
-88.06339299312275
 31
0.0
  0
ARC
  5
438E
330
17
100
AcDbEntity
  8
0
 48
0.5
100
AcDbCircle
 10
579.4388532330347
 20
-87.56339299312278
 30
0.0
 40
0.5
100
AcDbArc
 50
90.0
 51
180.0
  0
LINE
  5
438F
330
17
100
AcDbEntity
  8
0
 48
0.5
100
AcDbLine
 10
568.5388532330347
 20
-76.1633929931229
 30
0.0
 11
583.5388532330347
 21
-76.1633929931229
 31
0.0
  0
LINE
  5
4390
330
17
100
AcDbEntity
  8
0
 48
0.5
100
AcDbLine
 10
568.5388532330347
 20
-88.06339299312289
 30
0.0
 11
581.9388532330349
 21
-88.06339299312289
 31
0.0
  0
LINE
  5
4391
330
17
100
AcDbEntity
  8
0
 48
0.5
100
AcDbLine
 10
629.171254704822
 20
-26.7883929931229
 30
0.0
 11
661.8712547048218
 21
-26.7883929931229
 31
0.0
  0
LINE
  5
4392
330
17
100
AcDbEntity
  8
0
 48
0.5
100
AcDbLine
 10
661.8712547048218
 20
-37.43839299312288
 30
0.0
 11
629.171254704822
 21
-37.43839299312288
 31
0.0
  0
LINE
  5
4393
330
17
100
AcDbEntity
  8
0
 48
0.5
100
AcDbLine
 10
664.8712547048218
 20
-33.8633929931229
 30
0.0
 11
664.8712547048218
 21
-33.11339299312289
 31
0.0
  0
LINE
  5
4394
330
17
100
AcDbEntity
  8
0
 48
0.5
100
AcDbLine
 10
664.5712547048217
 20
-30.36339299312289
 30
0.0
 11
664.8712547048218
 21
-30.36339299312289
 31
0.0
  0
LINE
  5
4395
330
17
100
AcDbEntity
  8
0
 48
0.5
100
AcDbLine
 10
664.5712547048217
 20
-33.8633929931229
 30
0.0
 11
664.8712547048218
 21
-33.8633929931229
 31
0.0
  0
LINE
  5
4396
330
17
100
AcDbEntity
  8
0
 48
0.5
100
AcDbLine
 10
626.171254704822
 20
-79.68839299312287
 30
0.0
 11
626.171254704822
 21
-84.5383929931229
 31
0.0
  0
LINE
  5
4397
330
17
100
AcDbEntity
  8
0
 48
0.5
100
AcDbLine
 10
583.5388532330347
 20
-75.4633929931229
 30
0.0
 11
583.5388532330347
 21
-88.06339299312289
 31
0.0
  0
LINE
  5
4398
330
17
100
AcDbEntity
  8
0
 48
0.5
100
AcDbLine
 10
568.5388532330347
 20
-75.46339299312286
 30
0.0
 11
568.5388532330347
 21
-88.06339299312289
 31
0.0
  0
LINE
  5
4399
330
17
100
AcDbEntity
  8
additional
 48
0.5
100
AcDbLine
 10
585.4252777521455
 20
-79.61339299312289
 30
0.0
 11
580.8388532330351
 21
-79.61339299312289
 31
0.0
  0
LINE
  5
439A
330
17
100
AcDbEntity
  8
additional
 48
0.5
100
AcDbLine
 10
585.4252777521455
 20
-84.61339299312289
 30
0.0
 11
580.8388532330351
 21
-84.61339299312289
 31
0.0
  0
LINE
  5
439B
330
17
100
AcDbEntity
  8
0
 48
0.5
100
AcDbLine
 10
581.9388532330349
 20
-88.06339299312289
 30
0.0
 11
581.9388532330349
 21
-84.57589299312289
 31
0.0
  0
LINE
  5
439C
330
17
100
AcDbEntity
  8
0
 48
0.5
100
AcDbLine
 10
664.8712547048218
 20
-31.11339299312283
 30
0.0
 11
664.8712547048218
 21
-30.36339299312289
 31
0.0
  0
LINE
  5
439D
330
17
100
AcDbEntity
  8
0
 48
0.5
100
AcDbLine
 10
664.5712547048217
 20
-80.36339299312286
 30
0.0
 11
664.8712547048218
 21
-80.36339299312286
 31
0.0
  0
LINE
  5
439E
330
17
100
AcDbEntity
  8
0
 48
0.5
100
AcDbLine
 10
664.5712547048217
 20
-83.86339299312288
 30
0.0
 11
664.8712547048218
 21
-83.86339299312288
 31
0.0
  0
LINE
  5
439F
330
17
100
AcDbEntity
  8
0
 48
0.5
100
AcDbLine
 10
664.8712547048218
 20
-83.86339299312288
 30
0.0
 11
664.8712547048218
 21
-80.36339299312286
 31
0.0
  0
LINE
  5
43A0
330
17
100
AcDbEntity
  8
additional
 48
0.5
100
AcDbLine
 10
638.0712547048219
 20
-76.86339299312283
 30
0.0
 11
638.0712547048219
 21
-82.36339299312289
 31
0.0
  0
LINE
  5
43A1
330
17
100
AcDbEntity
  8
additional
 48
0.5
100
AcDbLine
 10
635.321254704822
 20
-79.61339299312284
 30
0.0
 11
640.8212547048217
 21
-79.61339299312284
 31
0.0
  0
LINE
  5
43A2
330
17
100
AcDbEntity
  8
additional
 48
0.5
100
AcDbLine
 10
650.071254704822
 20
-81.86339299312285
 30
0.0
 11
650.071254704822
 21
-87.36339299312289
 31
0.0
  0
LINE
  5
43A3
330
17
100
AcDbEntity
  8
additional
 48
0.5
100
AcDbLine
 10
647.321254704822
 20
-84.61339299312289
 30
0.0
 11
652.8212547048219
 21
-84.61339299312289
 31
0.0
  0
LINE
  5
43A4
330
17
100
AcDbEntity
  8
additional
  6
CENTER2
 48
0.5
100
AcDbLine
 10
565.7385271804331
 20
-82.11339299312284
 30
0.0
 11
586.3391792856368
 21
-82.11339299312289
 31
0.0
  0
LINE
  5
43A5
330
17
100
AcDbEntity
  8
additional
  6
CENTER2
 48
0.5
100
AcDbLine
 10
576.0388532330347
 20
-71.44928291349315
 30
0.0
 11
576.0388532330347
 21
-91.05866240496501
 31
0.0
  0
LINE
  5
43A6
330
17
100
AcDbEntity
  8
0
 48
0.5
100
AcDbLine
 10
629.1715567942739
 20
-76.13839299312289
 30
0.0
 11
654.2874282456168
 21
-74.43839299312284
 31
0.0
  0
LINE
  5
43A7
330
17
100
AcDbEntity
  8
0
 48
0.5
100
AcDbLine
 10
674.5259676992167
 20
-75.43839299312288
 30
0.0
 11
661.9712547048218
 21
-75.43839299312288
 31
0.0
  0
LINE
  5
43A8
330
17
100
AcDbEntity
  8
0
 48
0.5
100
AcDbLine
 10
654.2874282456168
 20
-74.43839299312284
 30
0.0
 11
661.9712547048218
 21
-74.43839299312284
 31
0.0
  0
LINE
  5
43A9
330
17
100
AcDbEntity
  8
0
 48
0.5
100
AcDbLine
 10
661.9712547048218
 20
-76.13839299312289
 30
0.0
 11
661.9712547048218
 21
-74.43839299312284
 31
0.0
  0
LINE
  5
43AA
330
17
100
AcDbEntity
  8
0
 48
0.5
100
AcDbLine
 10
656.5837547048219
 20
-87.4133929931229
 30
0.0
 11
643.5587547048218
 21
-87.41339299312286
 31
0.0
  0
LINE
  5
43AB
330
17
100
AcDbEntity
  8
0
 48
0.5
100
AcDbLine
 10
643.5587547048218
 20
-76.13839299312289
 30
0.0
 11
625.5712547048219
 21
-76.13839299312289
 31
0.0
  0
LINE
  5
43AC
330
17
100
AcDbEntity
  8
0
 48
0.5
100
AcDbLine
 10
656.5837547048219
 20
-88.08839299312287
 30
0.0
 11
664.5712547048217
 21
-88.08839299312287
 31
0.0
  0
LINE
  5
43AD
330
17
100
AcDbEntity
  8
0
 48
0.5
100
AcDbLine
 10
570.138853233035
 20
-76.16339299312286
 30
0.0
 11
573.1555388056785
 21
-74.43839299312284
 31
0.0
  0
LINE
  5
43AE
330
17
100
AcDbEntity
  8
0
 48
0.5
100
AcDbLine
 10
573.1555388056785
 20
-74.43839299312284
 30
0.0
 11
578.9221676603911
 21
-74.43839299312284
 31
0.0
  0
LINE
  5
43AF
330
17
100
AcDbEntity
  8
0
 48
0.5
100
AcDbLine
 10
568.5388532330347
 20
-75.46339299312286
 30
0.0
 11
571.3630154943976
 21
-75.46339299312286
 31
0.0
  0
LINE
  5
43B0
330
17
100
AcDbEntity
  8
0
 48
0.5
100
AcDbLine
 10
581.9388532330349
 20
-88.06339299312289
 30
0.0
 11
583.5388532330347
 21
-88.06339299312289
 31
0.0
  0
LINE
  5
43B1
330
17
100
AcDbEntity
  8
0
 48
0.5
100
AcDbLine
 10
581.9388532330349
 20
-87.41339299312286
 30
0.0
 11
578.9618836323263
 21
-87.41339299312286
 31
0.0
  0
CIRCLE
  5
43B6
330
17
100
AcDbEntity
  8
0
 48
0.5
100
AcDbCircle
 10
576.0388532330347
 20
-82.11339299312284
 30
0.0
 40
3.041000000000031
  0
LINE
  5
43C6
330
17
100
AcDbEntity
  8
0
 48
0.5
100
AcDbLine
 10
580.7450279400696
 20
-75.46339299312286
 30
0.0
 11
583.5388532330347
 21
-75.46339299312286
 31
0.0
  0
LINE
  5
43C7
330
17
100
AcDbEntity
  8
0
 48
0.5
100
AcDbLine
 10
675.1033179684062
 20
-74.43839299312287
 30
0.0
 11
661.9712547048218
 21
-74.43839299312284
 31
0.0
  0
LINE
  5
43C8
330
17
100
AcDbEntity
  8
0
 48
0.5
100
AcDbLine
 10
628.1712547048218
 20
-37.83839299312291
 30
0.0
 11
629.171254704822
 21
-37.83839299312291
 31
0.0
  0
LINE
  5
43C9
330
17
100
AcDbEntity
  8
0
 48
0.5
100
AcDbLine
 10
629.171254704822
 20
-37.83839299312291
 30
0.0
 11
629.171254704822
 21
-26.38839299312292
 31
0.0
  0
LINE
  5
43CA
330
17
100
AcDbEntity
  8
0
 48
0.5
100
AcDbLine
 10
629.171254704822
 20
-26.38839299312292
 30
0.0
 11
628.1712547048218
 21
-26.38839299312292
 31
0.0
  0
LINE
  5
43CB
330
17
100
AcDbEntity
  8
0
 48
0.5
100
AcDbLine
 10
628.1712547048218
 20
-26.38839299312292
 30
0.0
 11
628.1712547048218
 21
-37.83839299312291
 31
0.0
  0
LINE
  5
43CC
330
17
100
AcDbEntity
  8
0
 48
0.5
100
AcDbLine
 10
661.8712547048218
 20
-37.83839299312291
 30
0.0
 11
664.4712547048218
 21
-37.83839299312288
 31
0.0
  0
LINE
  5
43CD
330
17
100
AcDbEntity
  8
0
 48
0.5
100
AcDbLine
 10
664.4712547048218
 20
-26.38839299312289
 30
0.0
 11
661.8712547048218
 21
-26.38839299312292
 31
0.0
  0
LINE
  5
43CE
330
17
100
AcDbEntity
  8
0
 48
0.5
100
AcDbLine
 10
661.8712547048218
 20
-26.38839299312292
 30
0.0
 11
661.8712547048218
 21
-37.83839299312291
 31
0.0
  0
LINE
  5
43CF
330
17
100
AcDbEntity
  8
0
 48
0.5
100
AcDbLine
 10
664.4712547048218
 20
-37.83839299312291
 30
0.0
 11
664.4712547048218
 21
-33.11339299312289
 31
0.0
  0
LINE
  5
43D0
330
17
100
AcDbEntity
  8
0
 48
0.5
100
AcDbLine
 10
664.4712547048218
 20
-31.11339299312283
 30
0.0
 11
664.4712547048218
 21
-26.38839299312292
 31
0.0
  0
LINE
  5
43D1
330
17
100
AcDbEntity
  8
0
 48
0.5
100
AcDbLine
 10
664.5712547048217
 20
-31.11339299312286
 30
0.0
 11
664.5712547048217
 21
-26.1883929931229
 31
0.0
  0
LINE
  5
43D2
330
17
100
AcDbEntity
  8
0
 48
0.5
100
AcDbLine
 10
662.9712547048218
 20
-26.2883929931229
 30
0.0
 11
662.9712547048218
 21
-26.38839299312292
 31
0.0
  0
LINE
  5
43D3
330
17
100
AcDbEntity
  8
0
 48
0.5
100
AcDbLine
 10
662.9712547048218
 20
-37.93839299312288
 30
0.0
 11
662.9712547048218
 21
-37.83839299312291
 31
0.0
  0
LINE
  5
43D4
330
17
100
AcDbEntity
  8
additional
  6
CENTER2
 48
0.5
100
AcDbLine
 10
614.6149582668547
 20
-82.11339299312287
 30
0.0
 11
668.6079354373572
 21
-82.11339299312289
 31
0.0
  0
LINE
  5
43D5
330
17
100
AcDbEntity
  8
0
 48
0.5
100
AcDbLine
 10
624.6712547048217
 20
-85.15439299312289
 30
0.0
 11
624.6712547048217
 21
-79.07239299312289
 31
0.0
  0
LINE
  5
43D6
330
17
100
AcDbEntity
  8
0
100
AcDbLine
 10
619.5212547048217
 20
-80.11339299312288
 30
0.0
 11
622.5212547048219
 21
-80.11339299312288
 31
0.0
  0
LINE
  5
43D7
330
17
100
AcDbEntity
  8
0
100
AcDbLine
 10
619.5212547048217
 20
-84.11339299312286
 30
0.0
 11
622.5212547048219
 21
-84.11339299312285
 31
0.0
  0
LINE
  5
43D8
330
17
100
AcDbEntity
  8
0
 48
0.5
100
AcDbLine
 10
625.5712547048219
 20
-79.07239299312289
 30
0.0
 11
625.2712547048218
 21
-79.07239299312289
 31
0.0
  0
LINE
  5
43D9
330
17
100
AcDbEntity
  8
0
 48
0.5
100
AcDbLine
 10
624.6712547048217
 20
-79.07239299312289
 30
0.0
 11
622.6212547048218
 21
-79.07239299312289
 31
0.0
  0
LINE
  5
43DA
330
17
100
AcDbEntity
  8
0
 48
0.5
100
AcDbLine
 10
622.5212547048219
 20
-79.17239299312289
 30
0.0
 11
622.5212547048219
 21
-85.05439299312291
 31
0.0
  0
LINE
  5
43DB
330
17
100
AcDbEntity
  8
0
 48
0.5
100
AcDbLine
 10
622.6212547048218
 20
-85.15439299312289
 30
0.0
 11
624.6712547048217
 21
-85.15439299312289
 31
0.0
  0
LINE
  5
43DC
330
17
100
AcDbEntity
  8
0
 48
0.5
100
AcDbLine
 10
625.2712547048218
 20
-85.15439299312289
 30
0.0
 11
625.5712547048219
 21
-85.15439299312289
 31
0.0
  0
LINE
  5
43DD
330
17
100
AcDbEntity
  8
0
 48
0.5
100
AcDbLine
 10
619.4212547048217
 20
-79.07239299312289
 30
0.0
 11
618.6712547048219
 21
-79.07239299312289
 31
0.0
  0
LINE
  5
43DE
330
17
100
AcDbEntity
  8
0
 48
0.5
100
AcDbLine
 10
618.5712547048217
 20
-79.17239299312289
 30
0.0
 11
618.5712547048217
 21
-85.05439299312289
 31
0.0
  0
LINE
  5
43DF
330
17
100
AcDbEntity
  8
0
 48
0.5
100
AcDbLine
 10
618.6712547048219
 20
-85.15439299312289
 30
0.0
 11
619.4212547048217
 21
-85.15439299312289
 31
0.0
  0
LINE
  5
43E0
330
17
100
AcDbEntity
  8
0
 48
0.5
100
AcDbLine
 10
619.5212547048217
 20
-85.05439299312291
 30
0.0
 11
619.5212547048217
 21
-79.17239299312289
 31
0.0
  0
LINE
  5
43E1
330
17
100
AcDbEntity
  8
0
 48
0.5
100
AcDbLine
 10
618.6712547048219
 20
-79.07239299312289
 30
0.0
 11
618.5712547048217
 21
-79.17239299312289
 31
0.0
  0
LINE
  5
43E2
330
17
100
AcDbEntity
  8
0
 48
0.5
100
AcDbLine
 10
618.5712547048217
 20
-85.05439299312289
 30
0.0
 11
618.6712547048219
 21
-85.15439299312289
 31
0.0
  0
LINE
  5
43E3
330
17
100
AcDbEntity
  8
0
 48
0.5
100
AcDbLine
 10
619.4212547048217
 20
-79.07239299312289
 30
0.0
 11
619.5212547048217
 21
-79.17239299312289
 31
0.0
  0
LINE
  5
43E4
330
17
100
AcDbEntity
  8
0
 48
0.5
100
AcDbLine
 10
622.6212547048218
 20
-79.07239299312289
 30
0.0
 11
622.5212547048219
 21
-79.17239299312289
 31
0.0
  0
LINE
  5
43E5
330
17
100
AcDbEntity
  8
0
 48
0.5
100
AcDbLine
 10
622.5212547048219
 20
-85.05439299312291
 30
0.0
 11
622.6212547048218
 21
-85.15439299312289
 31
0.0
  0
LINE
  5
43E6
330
17
100
AcDbEntity
  8
0
 48
0.5
100
AcDbLine
 10
619.5212547048217
 20
-85.05439299312291
 30
0.0
 11
619.4212547048217
 21
-85.15439299312289
 31
0.0
  0
LINE
  5
43E7
330
17
100
AcDbEntity
  8
0
 48
0.5
100
AcDbLine
 10
581.9388532330349
 20
-76.16339299312286
 30
0.0
 11
578.9221676603911
 21
-74.43839299312284
 31
0.0
  0
LINE
  5
43E8
330
17
100
AcDbEntity
  8
additional
  6
CENTER2
 48
0.5
100
AcDbLine
 10
614.6149582668547
 20
-32.11339299312289
 30
0.0
 11
661.8712547048218
 21
-32.11339299312289
 31
0.0
  0
LINE
  5
43E9
330
17
100
AcDbEntity
  8
0
100
AcDbLine
 10
619.5212547048217
 20
-30.1133929931229
 30
0.0
 11
622.5212547048219
 21
-30.1133929931229
 31
0.0
  0
LINE
  5
43EA
330
17
100
AcDbEntity
  8
0
100
AcDbLine
 10
619.5212547048217
 20
-34.11339299312289
 30
0.0
 11
622.5212547048219
 21
-34.11339299312289
 31
0.0
  0
LINE
  5
43EB
330
17
100
AcDbEntity
  8
0
 48
0.5
100
AcDbLine
 10
626.171254704822
 20
-29.07239299312289
 30
0.0
 11
625.2712547048218
 21
-29.07239299312289
 31
0.0
  0
LINE
  5
43EC
330
17
100
AcDbEntity
  8
0
 48
0.5
100
AcDbLine
 10
624.6712547048217
 20
-29.07239299312289
 30
0.0
 11
622.6212547048218
 21
-29.07239299312289
 31
0.0
  0
LINE
  5
43ED
330
17
100
AcDbEntity
  8
0
 48
0.5
100
AcDbLine
 10
622.5212547048219
 20
-29.17239299312289
 30
0.0
 11
622.5212547048219
 21
-35.05439299312293
 31
0.0
  0
LINE
  5
43EE
330
17
100
AcDbEntity
  8
0
 48
0.5
100
AcDbLine
 10
622.6212547048218
 20
-35.15439299312291
 30
0.0
 11
624.6712547048217
 21
-35.15439299312288
 31
0.0
  0
LINE
  5
43EF
330
17
100
AcDbEntity
  8
0
 48
0.5
100
AcDbLine
 10
625.2712547048218
 20
-35.15439299312288
 30
0.0
 11
626.171254704822
 21
-35.15439299312288
 31
0.0
  0
LINE
  5
43F0
330
17
100
AcDbEntity
  8
0
 48
0.5
100
AcDbLine
 10
619.4212547048217
 20
-29.07239299312289
 30
0.0
 11
618.6712547048219
 21
-29.07239299312289
 31
0.0
  0
LINE
  5
43F1
330
17
100
AcDbEntity
  8
0
 48
0.5
100
AcDbLine
 10
618.5712547048217
 20
-29.17239299312289
 30
0.0
 11
618.5712547048217
 21
-35.0543929931229
 31
0.0
  0
LINE
  5
43F2
330
17
100
AcDbEntity
  8
0
 48
0.5
100
AcDbLine
 10
618.6712547048219
 20
-35.15439299312288
 30
0.0
 11
619.4212547048217
 21
-35.15439299312288
 31
0.0
  0
LINE
  5
43F3
330
17
100
AcDbEntity
  8
0
 48
0.5
100
AcDbLine
 10
619.5212547048217
 20
-35.05439299312293
 30
0.0
 11
619.5212547048217
 21
-29.17239299312289
 31
0.0
  0
LINE
  5
43F4
330
17
100
AcDbEntity
  8
0
 48
0.5
100
AcDbLine
 10
618.6712547048219
 20
-29.07239299312289
 30
0.0
 11
618.5712547048217
 21
-29.17239299312289
 31
0.0
  0
LINE
  5
43F5
330
17
100
AcDbEntity
  8
0
 48
0.5
100
AcDbLine
 10
618.5712547048217
 20
-35.0543929931229
 30
0.0
 11
618.6712547048219
 21
-35.15439299312288
 31
0.0
  0
LINE
  5
43F6
330
17
100
AcDbEntity
  8
0
 48
0.5
100
AcDbLine
 10
619.4212547048217
 20
-29.07239299312289
 30
0.0
 11
619.5212547048217
 21
-29.17239299312289
 31
0.0
  0
LINE
  5
43F7
330
17
100
AcDbEntity
  8
0
 48
0.5
100
AcDbLine
 10
622.6212547048218
 20
-29.07239299312289
 30
0.0
 11
622.5212547048219
 21
-29.17239299312289
 31
0.0
  0
LINE
  5
43F8
330
17
100
AcDbEntity
  8
0
 48
0.5
100
AcDbLine
 10
622.5212547048219
 20
-35.05439299312293
 30
0.0
 11
622.6212547048218
 21
-35.15439299312291
 31
0.0
  0
LINE
  5
43F9
330
17
100
AcDbEntity
  8
0
 48
0.5
100
AcDbLine
 10
619.5212547048217
 20
-35.05439299312293
 30
0.0
 11
619.4212547048217
 21
-35.15439299312288
 31
0.0
  0
LINE
  5
43FA
330
17
100
AcDbEntity
  8
0
 48
0.5
100
AcDbLine
 10
625.5712547048219
 20
-88.08839299312284
 30
0.0
 11
625.5712547048219
 21
-84.57589299312289
 31
0.0
  0
LINE
  5
43FB
330
17
100
AcDbEntity
  8
0
 48
0.5
100
AcDbLine
 10
625.5712547048219
 20
-84.57589299312289
 30
0.0
 11
628.1712547048218
 21
-84.57589299312287
 31
0.0
  0
LINE
  5
43FE
330
17
100
AcDbEntity
  8
0
 48
0.5
100
AcDbLine
 10
624.6712547048216
 20
-85.15439299312289
 30
0.0
 11
624.6712547048217
 21
-79.07239299312291
 31
0.0
  0
LINE
  5
43FF
330
17
100
AcDbEntity
  8
0
 48
0.5
100
AcDbLine
 10
625.2712547048218
 20
-85.15439299312289
 30
0.0
 11
625.2712547048217
 21
-79.07239299312287
 31
0.0
  0
LINE
  5
4400
330
17
100
AcDbEntity
  8
0
100
AcDbLine
 10
583.5388532330347
 20
-84.57589299312289
 30
0.0
 11
581.9388532330349
 21
-84.57589299312289
 31
0.0
  0
LINE
  5
4401
330
17
100
AcDbEntity
  8
0
 48
0.5
100
AcDbLine
 10
581.9388532330349
 20
-76.16339299312286
 30
0.0
 11
581.9388532330349
 21
-79.65089299312284
 31
0.0
  0
LINE
  5
4402
330
17
100
AcDbEntity
  8
0
100
AcDbLine
 10
583.5388532330347
 20
-79.65089299312284
 30
0.0
 11
581.9388532330349
 21
-79.65089299312284
 31
0.0
  0
LINE
  5
4403
330
17
100
AcDbEntity
  8
0
 48
0.5
100
AcDbLine
 10
570.138853233035
 20
-88.06339299312289
 30
0.0
 11
570.138853233035
 21
-84.57589299312289
 31
0.0
  0
LINE
  5
4404
330
17
100
AcDbEntity
  8
0
100
AcDbLine
 10
568.5388532330347
 20
-84.57589299312289
 30
0.0
 11
570.138853233035
 21
-84.57589299312289
 31
0.0
  0
LINE
  5
4405
330
17
100
AcDbEntity
  8
0
 48
0.5
100
AcDbLine
 10
570.138853233035
 20
-76.16339299312286
 30
0.0
 11
570.138853233035
 21
-79.65089299312284
 31
0.0
  0
LINE
  5
4406
330
17
100
AcDbEntity
  8
0
100
AcDbLine
 10
568.5388532330347
 20
-79.65089299312284
 30
0.0
 11
570.138853233035
 21
-79.65089299312284
 31
0.0
  0
LINE
  5
440C
330
17
100
AcDbEntity
  8
additional
 48
0.5
100
AcDbLine
 10
638.0712547048219
 20
-41.37917824809181
 30
0.0
 11
638.0712547048219
 21
-36.1549871376705
 31
0.0
  0
LINE
  5
440D
330
17
100
AcDbEntity
  8
additional
 48
0.5
100
AcDbLine
 10
650.071254704822
 20
-41.37917824809181
 30
0.0
 11
650.071254704822
 21
-36.1549871376705
 31
0.0
  0
DIMENSION
  5
4414
330
17
100
AcDbEntity
  8
Z_OM_DIM
100
AcDbDimension
  2
*D1
 10
602.0719036165562
 20
-35.15439299312288
 30
0.0
 11
602.0719036165562
 21
-20.11405965978946
 31
0.0
 70
   160
  1
%%C6.1
 71
     5
 42
6.081999999999986
  3
CatalogDxf
100
AcDbAlignedDimension
 13
618.6712547048219
 23
-29.07239299312289
 33
0.0
 14
618.6712547048219
 24
-35.15439299312288
 34
0.0
 50
90.0
100
AcDbRotatedDimension
  0
DIMENSION
  5
442E
330
17
100
AcDbEntity
  8
Z_OM_DIM
100
AcDbDimension
  2
*D2
 10
607.3265804390755
 20
-34.11339299312289
 30
0.0
 11
607.3265804390755
 21
-22.40505965978946
 31
0.0
 70
   160
  1
%%c4
 71
     5
 42
4.0
  3
CatalogDxf
100
AcDbAlignedDimension
 13
619.5212547048217
 23
-30.1133929931229
 33
0.0
 14
619.5212547048217
 24
-34.11339299312289
 34
0.0
 50
90.0
100
AcDbRotatedDimension
  0
DIMENSION
  5
4448
330
17
100
AcDbEntity
  8
Z_OM_DIM
100
AcDbDimension
  2
*D3
 10
619.5212547048217
 20
-18.40989641028773
 30
0.0
 11
628.9795880381553
 21
-18.40989641028773
 31
0.0
 70
   160
 71
     5
 42
3.000000000000113
  3
CatalogDxf
100
AcDbAlignedDimension
 13
622.5212547048219
 23
-29.17239299312289
 33
0.0
 14
619.5212547048217
 24
-29.17239299312289
 34
0.0
100
AcDbRotatedDimension
1001
ACAD
1000
DSTYLE
1002
{
1070
   344
1005
472B
1070
   342
1005
0
1070
   173
1070
     1
1070
   343
1005
977
1002
}
  0
DIMENSION
  5
4491
330
17
100
AcDbEntity
  8
Z_OM_DIM
100
AcDbDimension
  2
*D4
 10
618.5712547048217
 20
-18.40989641028773
 30
0.0
 11
612.5295880381551
 21
-16.53489641028773
 31
0.0
 70
    33
 71
     5
 42
0.9500000000000454
  3
CatalogDxf
100
AcDbAlignedDimension
 13
619.5212547048217
 23
-29.17239299312289
 33
0.0
 14
618.5712547048217
 24
-29.17239299312289
 34
0.0
1001
ACAD
1000
DSTYLE
1002
{
1070
   344
1005
977
1070
   342
1005
0
1070
   173
1070
     1
1070
   343
1005
472B
1002
}
  0
DIMENSION
  5
44A0
330
17
100
AcDbEntity
  8
Z_OM_DIM
100
AcDbDimension
  2
*D5
 10
625.5712547048219
 20
-53.17180684016125
 30
0.0
 11
622.0712547048217
 21
-51.29680684016125
 31
0.0
 70
    32
 71
     5
 42
7.000000000000113
  3
CatalogDxf
100
AcDbAlignedDimension
 13
618.5712547048217
 23
-35.0543929931229
 33
0.0
 14
625.5712547048219
 24
-39.5383929931229
 34
0.0
100
AcDbRotatedDimension
  0
DIMENSION
  5
44AD
330
17
100
AcDbEntity
  8
Z_OM_DIM
100
AcDbDimension
  2
*D6
 10
664.5712547048217
 20
-53.17180684016125
 30
0.0
 11
645.0712547048217
 21
-51.29680684016125
 31
0.0
 70
    32
 71
     5
 42
38.99999999999989
  3
CatalogDxf
100
AcDbAlignedDimension
 13
625.5712547048219
 23
-39.5383929931229
 33
0.0
 14
664.5712547048217
 24
-38.0383929931229
 34
0.0
100
AcDbRotatedDimension
1001
ACAD
1000
DSTYLE
1002
{
1070
   279
1070
     1
1002
}
  0
DIMENSION
  5
44BC
330
17
100
AcDbEntity
  8
Z_OM_DIM
100
AcDbDimension
  2
*D7
 10
656.5837547048219
 20
-66.43354124492987
 30
0.0
 11
650.0712547048218
 21
-64.55854124492987
 31
0.0
 70
    32
 71
     5
 42
13.02500000000009
  3
CatalogDxf
100
AcDbAlignedDimension
 13
643.5587547048218
 23
-76.13839299312289
 33
0.0
 14
656.5837547048219
 24
-76.13839299312289
 34
0.0
100
AcDbRotatedDimension
  0
DIMENSION
  5
44C9
330
17
100
AcDbEntity
  8
Z_OM_DIM
100
AcDbDimension
  2
*D8
 10
679.4351100876643
 20
-84.61339299312291
 30
0.0
 11
677.5601100876643
 21
-82.11339299312276
 31
0.0
 70
    32
 71
     5
 42
5.000000000000042
  3
CatalogDxf
100
AcDbAlignedDimension
 13
640.8212547048217
 23
-79.61339299312284
 33
0.0
 14
652.8212547048219
 24
-84.61339299312289
 34
0.0
 50
90.0
100
AcDbRotatedDimension
  0
DIMENSION
  5
44D8
330
17
100
AcDbEntity
  8
Z_OM_DIM
100
AcDbDimension
  2
*D9
 10
684.7758938623236
 20
-87.10089299312292
 30
0.0
 11
682.9008938623236
 21
-82.11339299312278
 31
0.0
 70
    32
 71
     5
 42
9.975000000000022
  3
CatalogDxf
100
AcDbAlignedDimension
 13
656.5837547048219
 23
-77.12589299312288
 33
0.0
 14
656.5837547048219
 24
-87.1008929931229
 34
0.0
 50
90.0
100
AcDbRotatedDimension
  0
DIMENSION
  5
44F9
330
17
100
AcDbEntity
  8
Z_OM_DIM
100
AcDbDimension
  2
*D10
 10
638.0712547048219
 20
-100.7346677023761
 30
0.0
 11
644.0712547048219
 21
-98.8596677023761
 31
0.0
 70
    32
 71
     5
 42
12.00000000000011
  3
CatalogDxf
100
AcDbAlignedDimension
 13
650.071254704822
 23
-87.36339299312289
 33
0.0
 14
638.0712547048219
 24
-82.36339299312289
 34
0.0
100
AcDbRotatedDimension
  0
DIMENSION
  5
4506
330
17
100
AcDbEntity
  8
Z_OM_DIM
100
AcDbDimension
  2
*D11
 10
625.5712547048219
 20
-100.7346677023761
 30
0.0
 11
631.8212547048219
 21
-98.8596677023761
 31
0.0
 70
    32
 71
     5
 42
12.5
  3
CatalogDxf
100
AcDbAlignedDimension
 13
638.0712547048219
 23
-82.36339299312289
 33
0.0
 14
625.5712547048219
 24
-88.08839299312287
 34
0.0
100
AcDbRotatedDimension
1001
ACAD
1000
DSTYLE
1002
{
1070
   279
1070
     1
1002
}
  0
DIMENSION
  5
4513
330
17
100
AcDbEntity
  8
Z_OM_DIM
100
AcDbDimension
  2
*D12
 10
596.3606695342563
 20
-76.1633929931229
 30
0.0
 11
594.4856695342563
 21
-82.11339299312282
 31
0.0
 70
    32
  1
12
 71
     5
 42
11.89999999999999
  3
CatalogDxf
100
AcDbAlignedDimension
 13
583.5388532330347
 23
-88.06339299312289
 33
0.0
 14
583.5388532330347
 24
-76.1633929931229
 34
0.0
 50
90.0
100
AcDbRotatedDimension
  0
DIMENSION
  5
4529
330
17
100
AcDbEntity
  8
Z_OM_DIM
100
AcDbDimension
  2
*D13
 10
583.5388532330347
 20
-100.7346677023761
 30
0.0
 11
576.0388532330347
 21
-98.8596677023761
 31
0.0
 70
    32
 71
     5
 42
15.0
  3
CatalogDxf
100
AcDbAlignedDimension
 13
568.5388532330347
 23
-88.06339299312289
 33
0.0
 14
583.5388532330347
 24
-88.06339299312289
 34
0.0
100
AcDbRotatedDimension
  0
LINE
  5
467C
330
17
100
AcDbEntity
  8
0
 48
0.5
100
AcDbLine
 10
689.2858582041355
 20
-32.11339299312289
 30
0.0
 11
689.2858582041354
 21
-33.11339299312289
 31
0.0
  0
SPLINE
  5
467D
330
17
100
AcDbEntity
  8
additional
 48
0.5
100
AcDbSpline
210
0.0
220
0.0
230
1.0
 70
     8
 71
     3
 72
    18
 73
    14
 74
    12
 42
0.0000000001
 43
0.0000000001
 44
0.0000000001
 40
0.0
 40
0.0
 40
0.0
 40
0.0
 40
0.3913118960626792
 40
0.7826237921250408
 40
1.482623792125004
 40
1.873935688187429
 40
2.265247584250045
 40
2.656559480312457
 40
3.047871376374876
 40
4.097871376374888
 40
4.489183272437256
 40
4.880495168499713
 40
5.271807064562367
 40
5.271807064562367
 40
5.271807064562367
 40
5.271807064562367
 10
670.8650285201108
 20
-29.59601977954105
 30
0.0
 10
670.9213133617573
 20
-29.71365951289545
 30
0.0
 10
671.0338830450503
 20
-29.94893897960416
 30
0.0
 10
671.2937067341905
 20
-30.37253795091852
 30
0.0
 10
671.2937842221542
 20
-30.91952056944812
 30
0.0
 10
671.0337530937843
 20
-31.34305692963417
 30
0.0
 10
670.8655140268747
 20
-31.69618845351468
 30
0.0
 10
670.6943619193816
 20
-32.04830793355285
 30
0.0
 10
670.3865883577413
 20
-32.57656735196522
 30
0.0
 10
670.3861915704936
 20
-33.26561757582502
 30
0.0
 10
670.6948055410103
 20
-33.79352871817578
 30
0.0
 10
670.863834264886
 20
-34.14664254488244
 30
0.0
 10
670.9812971017027
 20
-34.37956070132147
 30
0.0
 10
671.0400285201112
 20
-34.49601977954102
 30
0.0
 11
670.8650285201108
 21
-29.59601977954105
 31
0.0
 11
671.0400285201112
 21
-29.94601977954109
 31
0.0
 11
671.2150285201111
 21
-30.29601977954105
 31
0.0
 11
671.2150285201111
 21
-30.99601977954101
 31
0.0
 11
671.0400285201112
 21
-31.34601977954105
 31
0.0
 11
670.8650285201108
 21
-31.69601977954102
 31
0.0
 11
670.6900285201109
 21
-32.04601977954098
 31
0.0
 11
670.515028520111
 21
-32.39601977954102
 31
0.0
 11
670.515028520111
 21
-33.44601977954102
 31
0.0
 11
670.6900285201109
 21
-33.796019779541
 31
0.0
 11
670.8650285201108
 21
-34.14601977954101
 31
0.0
 11
671.0400285201112
 21
-34.49601977954102
 31
0.0
  0
SPLINE
  5
467E
330
17
100
AcDbEntity
  8
additional
 48
0.5
100
AcDbSpline
210
0.0
220
0.0
230
1.0
 70
     8
 71
     3
 72
    18
 73
    14
 74
    12
 42
0.0000000001
 43
0.0000000001
 44
0.0000000001
 40
0.0
 40
0.0
 40
0.0
 40
0.0
 40
0.3913118960625776
 40
0.7826237921249391
 40
1.482623792124902
 40
1.873935688187327
 40
2.265247584249841
 40
2.656559480312355
 40
3.047871376374723
 40
4.097871376374735
 40
4.489183272437052
 40
4.88049516849961
 40
5.271807064562162
 40
5.271807064562162
 40
5.271807064562162
 40
5.271807064562162
 10
671.7400285201111
 20
-29.59601977954105
 30
0.0
 10
671.7963133617574
 20
-29.71365951289546
 30
0.0
 10
671.9088830450504
 20
-29.94893897960422
 30
0.0
 10
672.1687067341903
 20
-30.3725379509185
 30
0.0
 10
672.1687842221545
 20
-30.91952056944816
 30
0.0
 10
671.9087530937841
 20
-31.34305692963409
 30
0.0
 10
671.7405140268752
 20
-31.69618845351481
 30
0.0
 10
671.5693619193814
 20
-32.04830793355275
 30
0.0
 10
671.2615883577414
 20
-32.57656735196532
 30
0.0
 10
671.2611915704938
 20
-33.26561757582489
 30
0.0
 10
671.5698055410105
 20
-33.7935287181759
 30
0.0
 10
671.738834264886
 20
-34.14664254488231
 30
0.0
 10
671.8562971017028
 20
-34.37956070132145
 30
0.0
 10
671.9150285201112
 20
-34.49601977954102
 30
0.0
 11
671.7400285201111
 21
-29.59601977954105
 31
0.0
 11
671.9150285201112
 21
-29.94601977954109
 31
0.0
 11
672.0900285201111
 21
-30.29601977954105
 31
0.0
 11
672.0900285201111
 21
-30.99601977954101
 31
0.0
 11
671.9150285201112
 21
-31.34601977954105
 31
0.0
 11
671.7400285201111
 21
-31.69601977954102
 31
0.0
 11
671.5650285201109
 21
-32.04601977954098
 31
0.0
 11
671.3900285201112
 21
-32.39601977954102
 31
0.0
 11
671.3900285201112
 21
-33.44601977954102
 31
0.0
 11
671.5650285201109
 21
-33.796019779541
 31
0.0
 11
671.7400285201111
 21
-34.14601977954101
 31
0.0
 11
671.9150285201112
 21
-34.49601977954102
 31
0.0
  0
LINE
  5
467F
330
17
100
AcDbEntity
  8
0
100
AcDbLine
 10
661.8712547048218
 20
-33.11339299312289
 30
0.0
 11
670.4307766059218
 21
-33.11339299312289
 31
0.0
  0
LINE
  5
4680
330
17
100
AcDbEntity
  8
0
100
AcDbLine
 10
661.8712547048218
 20
-32.11339299312289
 30
0.0
 11
670.6536674553284
 21
-32.11339299312289
 31
0.0
  0
LINE
  5
4681
330
17
100
AcDbEntity
  8
0
100
AcDbLine
 10
661.8712547048218
 20
-31.11339299312287
 30
0.0
 11
671.1652821202832
 21
-31.11339299312287
 31
0.0
  0
LINE
  5
4682
330
17
100
AcDbEntity
  8
0
100
AcDbLine
 10
689.2858582041355
 20
-31.11339299312287
 30
0.0
 11
689.2858582041355
 21
-33.11339299312289
 31
0.0
  0
LINE
  5
4683
330
17
100
AcDbEntity
  8
0
100
AcDbLine
 10
672.0402821202831
 20
-31.11339299312287
 30
0.0
 11
689.2858582041354
 21
-31.11339299312287
 31
0.0
  0
LINE
  5
4684
330
17
100
AcDbEntity
  8
0
100
AcDbLine
 10
671.3057766059218
 20
-33.11339299312289
 30
0.0
 11
689.2858582041355
 21
-33.11339299312289
 31
0.0
  0
LINE
  5
4685
330
17
100
AcDbEntity
  8
0
100
AcDbLine
 10
671.5286674553284
 20
-32.11339299312289
 30
0.0
 11
689.2858582041355
 21
-32.11339299312289
 31
0.0
  0
POINT
  5
4686
330
17
100
AcDbEntity
  8
0
100
AcDbPoint
 10
689.2858582041354
 20
-31.11339299312287
 30
0.0
  0
POINT
  5
4687
330
17
100
AcDbEntity
  8
0
100
AcDbPoint
 10
689.2858582041355
 20
-31.61339299312289
 30
0.0
  0
POINT
  5
4688
330
17
100
AcDbEntity
  8
0
100
AcDbPoint
 10
689.2858582041354
 20
-33.11339299312289
 30
0.0
  0
POINT
  5
4689
330
17
100
AcDbEntity
  8
0
100
AcDbPoint
 10
689.2858582041355
 20
-32.6133929931229
 30
0.0
  0
LINE
  5
468A
330
17
100
AcDbEntity
  8
0
100
AcDbLine
 10
689.2858582041355
 20
-32.86339299312289
 30
0.0
 11
696.2858582041356
 21
-32.86339299312289
 31
0.0
  0
LINE
  5
468B
330
17
100
AcDbEntity
  8
0
100
AcDbLine
 10
689.2858582041355
 20
-32.36339299312287
 30
0.0
 11
696.2858582041356
 21
-32.36339299312287
 31
0.0
  0
LINE
  5
468C
330
17
100
AcDbEntity
  8
0
100
AcDbLine
 10
689.2858582041355
 20
-31.86339299312289
 30
0.0
 11
696.2858582041356
 21
-31.86339299312289
 31
0.0
  0
LINE
  5
468D
330
17
100
AcDbEntity
  8
0
100
AcDbLine
 10
689.2858582041355
 20
-31.3633929931229
 30
0.0
 11
696.2858582041356
 21
-31.3633929931229
 31
0.0
  0
DIMENSION
  5
468E
330
17
100
AcDbEntity
  8
Z_OM_DIM
100
AcDbDimension
  2
*D15
 10
696.2858582041356
 20
-53.17180684016125
 30
0.0
 11
680.4285564544787
 21
-51.29680684016125
 31
0.0
 70
    32
  1
180 - 200
 71
     5
 42
31.71460349931385
  3
CatalogDxf
100
AcDbAlignedDimension
 13
664.5712547048217
 23
-38.03839299312287
 33
0.0
 14
696.2858582041356
 24
-32.86339299312289
 34
0.0
100
AcDbRotatedDimension
  0
SPLINE
  5
46D4
330
17
100
AcDbEntity
  8
additional
 48
0.5
100
AcDbSpline
210
0.0
220
0.0
230
1.0
 70
     8
 71
     3
 72
    18
 73
    14
 74
    12
 42
0.0000000001
 43
0.0000000001
 44
0.0000000001
 40
0.0
 40
0.0
 40
0.0
 40
0.0
 40
0.3913118960625776
 40
0.7826237921249391
 40
1.482623792124899
 40
1.873935688187324
 40
2.265247584249838
 40
2.656559480312352
 40
3.047871376374713
 40
4.097871376374724
 40
4.489183272437047
 40
4.880495168499599
 40
5.271807064562164
 40
5.271807064562164
 40
5.271807064562164
 40
5.271807064562164
 10
675.1200775867876
 20
-72.21817115225843
 30
0.0
 10
675.176362428434
 20
-72.33581088561286
 30
0.0
 10
675.2889321117268
 20
-72.57109035232161
 30
0.0
 10
675.548755800867
 20
-72.99468932363588
 30
0.0
 10
675.5488332888311
 20
-73.54167194216555
 30
0.0
 10
675.2888021604604
 20
-73.96520830235147
 30
0.0
 10
675.1205630935519
 20
-74.31833982623221
 30
0.0
 10
674.9494109860578
 20
-74.67045930627012
 30
0.0
 10
674.641637424418
 20
-75.19871872468269
 30
0.0
 10
674.6412406371704
 20
-75.88776894854226
 30
0.0
 10
674.949854607687
 20
-76.41568009089329
 30
0.0
 10
675.1188833315625
 20
-76.76879391759968
 30
0.0
 10
675.2363461683793
 20
-77.00171207403883
 30
0.0
 10
675.2950775867877
 20
-77.11817115225841
 30
0.0
 11
675.1200775867876
 21
-72.21817115225843
 31
0.0
 11
675.2950775867877
 21
-72.56817115225847
 31
0.0
 11
675.4700775867876
 21
-72.91817115225843
 31
0.0
 11
675.4700775867876
 21
-73.61817115225839
 31
0.0
 11
675.2950775867877
 21
-73.96817115225843
 31
0.0
 11
675.1200775867876
 21
-74.3181711522584
 31
0.0
 11
674.9450775867874
 21
-74.66817115225836
 31
0.0
 11
674.7700775867876
 21
-75.01817115225839
 31
0.0
 11
674.7700775867876
 21
-76.0681711522584
 31
0.0
 11
674.9450775867874
 21
-76.41817115225838
 31
0.0
 11
675.1200775867876
 21
-76.76817115225839
 31
0.0
 11
675.2950775867877
 21
-77.11817115225841
 31
0.0
  0
MTEXT
  5
4729
330
17
100
AcDbEntity
  8
Z_OM_DIM
100
AcDbMText
 10
684.6310425135241
 20
-22.37476471626078
 30
0.0
 40
2.5
 41
42.8494883882687
 71
     7
 72
     1
  1
UL1007 AWG24 white
  7
CatalogDxf
 73
     1
 44
1.0
1001
ACAD
1000
ACAD_MTEXT_DEFINED_HEIGHT_BEGIN
1070
    46
1040
2.500000000000005
1000
ACAD_MTEXT_DEFINED_HEIGHT_END
1000
MTEXTBEGIN
1070
    73
1070
     1
1070
    44
1040
1.0
1070
    74
1070
     0
1000
MTEXTEND
  0
LEADER
  5
472A
330
17
100
AcDbEntity
  8
Z_OM_DIM
100
AcDbLeader
  3
ISO-25
 76
     3
 10
678.5128782983386
 20
-31.11339299312287
 30
0.0
 10
684.0669330197645
 20
-22.99976471626077
 30
0.0
 10
725.4252230918827
 20
-22.99976471626077
 30
0.0
1001
ACAD
1000
DSTYLE
1002
{
1070
   341
1005
977
1070
   147
1040
0.625
1070
    77
1070
     0
1002
}
  0
MTEXT
  5
478F
330
17
100
AcDbEntity
  8
Z_OM_DIM
100
AcDbMText
 10
657.7047750329019
 20
-97.12214493527174
 30
0.0
 40
2.5
 41
7.572100723740508
 71
     7
 72
     1
  1
%%c2.4
  7
CatalogDxf
 73
     1
 44
1.0
1001
ACAD
1000
MTEXTBEGIN
1070
    73
1070
     1
1070
    44
1040
1.0
1070
    74
1070
     0
1000
MTEXTEND
  0
LEADER
  5
4790
330
17
100
AcDbEntity
  8
Z_OM_DIM
100
AcDbLeader
  3
ISO-25
 76
     3
 10
650.6001658928924
 20
-85.69054337962137
 30
0.0
 10
656.532792922545
 20
-97.77259352731245
 30
0.0
 10
666.1399763800635
 20
-97.77259352731245
 30
0.0
1001
ACAD
1000
DSTYLE
1002
{
1070
   341
1005
977
1070
   147
1040
0.625
1070
    77
1070
     0
1002
}
  0
MTEXT
  5
4799
330
17
100
AcDbEntity
  8
Z_OM_DIM
100
AcDbMText
 10
623.1727631059205
 20
-67.58830707951729
 30
0.0
 40
2.5
 41
7.635213878752445
 71
     7
 72
     1
  1
%%c2.3
  7
CatalogDxf
 73
     1
 44
1.0
1001
ACAD
1000
MTEXTBEGIN
1070
    73
1070
     1
1070
    44
1040
1.0
1070
    74
1070
     0
1000
MTEXTEND
  0
LEADER
  5
479A
330
17
100
AcDbEntity
  8
Z_OM_DIM
100
AcDbLeader
  3
ISO-25
 76
     3
 10
637.4984529789655
 20
-78.6018078840707
 30
0.0
 10
631.6691145427532
 20
-68.30702054054133
 30
0.0
 10
622.2536087657675
 20
-68.30702054054139
 30
0.0
211
-1.0
221
-0.0000000000000109
231
0.0
1001
ACAD
1000
DSTYLE
1002
{
1070
   341
1005
977
1070
   147
1040
0.625
1070
    77
1070
     0
1002
}
  0
LINE
  5
47B7
330
17
100
AcDbEntity
  8
0
100
AcDbLine
 10
624.6712547048216
 20
-84.11339299312285
 30
0.0
 11
625.2712547048218
 21
-84.11339299312285
 31
0.0
  0
LINE
  5
47B9
330
17
100
AcDbEntity
  8
0
100
AcDbLine
 10
624.6712547048216
 20
-80.11339299312293
 30
0.0
 11
625.2712547048218
 21
-80.11339299312293
 31
0.0
  0
LINE
  5
47BA
330
17
100
AcDbEntity
  8
0
 48
0.5
100
AcDbLine
 10
624.6712547048217
 20
-35.15439299312291
 30
0.0
 11
624.6712547048217
 21
-29.0723929931229
 31
0.0
  0
LINE
  5
47BB
330
17
100
AcDbEntity
  8
0
100
AcDbLine
 10
624.6712547048216
 20
-34.11339299312285
 30
0.0
 11
625.2712547048218
 21
-34.11339299312285
 31
0.0
  0
LINE
  5
47BC
330
17
100
AcDbEntity
  8
0
 48
0.5
100
AcDbLine
 10
624.6712547048216
 20
-35.15439299312289
 30
0.0
 11
624.6712547048217
 21
-29.07239299312291
 31
0.0
  0
LINE
  5
47BD
330
17
100
AcDbEntity
  8
0
 48
0.5
100
AcDbLine
 10
625.2712547048218
 20
-35.15439299312291
 30
0.0
 11
625.2712547048217
 21
-29.07239299312288
 31
0.0
  0
LINE
  5
47BE
330
17
100
AcDbEntity
  8
0
100
AcDbLine
 10
624.6712547048216
 20
-30.11339299312294
 30
0.0
 11
625.2712547048218
 21
-30.11339299312294
 31
0.0
  0
ENDSEC
  0
SECTION
  2
OBJECTS
  0
DICTIONARY
  5
C
330
0
100
AcDbDictionary
281
     1
  3
ACAD_2007HEADERVARS_RT
350
4706
  3
ACAD_COLOR
350
3D57
  3
ACAD_GROUP
350
D
  3
ACAD_LAYOUT
350
3D5A
  3
ACAD_MATERIAL
350
3D42
  3
ACAD_MLINESTYLE
350
1A
  3
ACAD_PLOTSETTINGS
350
957
  3
ACAD_PLOTSTYLENAME
350
3D40
  3
ACAD_TABLESTYLE
350
3D58
  3
ACAD_VISUALSTYLE
350
3D46
  3
ACADDIM
350
1BB8
  3
ACDBHEADERROUNDTRIPXREC
350
49D8
  3
AcDbVariableDictionary
350
4116
  3
DWGPROPS
350
49D7
1001
ACAD
1000
TREAT_AS_HARD
1070
     0
  0
DICTIONARY
  5
46E5
330
8
100
AcDbDictionary
280
     1
281
     1
  3
ACAD_XREC_ROUNDTRIP
360
470A
  0
DICTIONARY
  5
3DBA
330
2
100
AcDbDictionary
280
     1
281
     1
  3
ACAD_LAYERFILTERS
360
421C
  3
ACAD_LAYERSTATES
360
3DBB
  3
ACLYDICTIONARY
360
421B
  0
DICTIONARY
  5
470B
330
E
100
AcDbDictionary
280
     1
281
     1
  3
ACAD_XREC_ROUNDTRIP
360
470C
  0
DICTIONARY
  5
470D
330
27
100
AcDbDictionary
280
     1
281
     1
  3
ACAD_XREC_ROUNDTRIP
360
470E
  0
DICTIONARY
  5
470F
330
2B
100
AcDbDictionary
280
     1
281
     1
  3
ACAD_XREC_ROUNDTRIP
360
4710
  0
DICTIONARY
  5
4719
330
3DB5
100
AcDbDictionary
280
     1
281
     1
  3
ACAD_XREC_ROUNDTRIP
360
471A
  0
DICTIONARY
  5
1808
330
17
100
AcDbDictionary
280
     1
281
     1
  3
ACAD_LAYOUTSELFREF
360
3D3B
  3
ACAD_SORTENTS
360
47B8
1001
ACAD
1000
TREAT_AS_HARD
1070
     1
  0
DICTIONARY
  5
1806
330
14
100
AcDbDictionary
280
     1
281
     1
  3
ACAD_LAYOUTSELFREF
360
3D3A
1001
ACAD
1000
TREAT_AS_HARD
1070
     1
  0
DICTIONARY
  5
4654
330
4652
100
AcDbDictionary
280
     1
281
     1
  3
ACAD_SORTENTS
360
4655
  0
DICTIONARY
  5
4706
102
{ACAD_REACTORS
330
C
102
}
330
C
100
AcDbDictionary
281
     1
  3
DIMLTEX1
350
4708
  3
DIMLTEX2
350
4709
  3
DIMLTYPE
350
4707
  0
DICTIONARY
  5
3D57
102
{ACAD_REACTORS
330
C
102
}
330
C
100
AcDbDictionary
281
     1
  0
DICTIONARY
  5
D
102
{ACAD_REACTORS
330
C
102
}
330
C
100
AcDbDictionary
281
     1
1001
ACAD
1000
TREAT_AS_HARD
1070
     0
  0
DICTIONARY
  5
3D5A
102
{ACAD_REACTORS
330
C
102
}
330
C
100
AcDbDictionary
281
     1
  3
Model
350
3D5B
  3
レイアウト1
350
3D5C
  0
DICTIONARY
  5
3D42
102
{ACAD_REACTORS
330
C
102
}
330
C
100
AcDbDictionary
281
     1
  3
ByBlock
350
3D44
  3
ByLayer
350
3D43
  3
Global
350
3D45
  0
DICTIONARY
  5
1A
102
{ACAD_REACTORS
330
C
102
}
330
C
100
AcDbDictionary
281
     1
  3
STANDARD
350
1B
1001
ACAD
1000
TREAT_AS_HARD
1070
     0
  0
DICTIONARY
  5
957
102
{ACAD_REACTORS
330
C
102
}
330
C
100
AcDbDictionary
281
     1
1001
ACAD
1000
TREAT_AS_HARD
1070
     0
  0
ACDBDICTIONARYWDFLT
  5
3D40
102
{ACAD_REACTORS
330
C
102
}
330
C
100
AcDbDictionary
281
     1
  3
Normal
350
3D41
100
AcDbDictionaryWithDefault
340
3D41
  0
DICTIONARY
  5
3D58
102
{ACAD_REACTORS
330
C
102
}
330
C
100
AcDbDictionary
281
     1
  3
Standard
350
3D59
  0
DICTIONARY
  5
3D46
102
{ACAD_REACTORS
330
C
102
}
330
C
100
AcDbDictionary
281
     1
  3
2dWireframe
350
3D4C
  3
3D Hidden
350
3D4E
  3
3dWireframe
350
3D4D
  3
Basic
350
3D4B
  3
Brighten
350
3D52
  3
ColorChange
350
3D56
  3
Conceptual
350
3D4F
  3
Dim
350
3D51
  3
Facepattern
350
3D55
  3
Flat
350
3D47
  3
FlatWithEdges
350
3D48
  3
Gouraud
350
3D49
  3
GouraudWithEdges
350
3D4A
  3
Linepattern
350
3D54
  3
Realistic
350
3D50
  3
Thicken
350
3D53
  0
XRECORD
  5
1BB8
102
{ACAD_REACTORS
330
C
102
}
330
C
100
AcDbXrecord
280
     1
 90
   990106
  3

 60
     0
 61
     0
 62
     4
 63
     4
 64
     1
 65
     0
 66
     0
 67
     2
 68
     1
 69
     0
 70
     0
 71
     0
 72
     0
 40
81.85735540996715
170
     2
340
0
  0
DICTIONARY
  5
49D8
102
{ACAD_REACTORS
330
C
102
}
330
C
100
AcDbDictionary
281
     1
  0
DICTIONARY
  5
4116
102
{ACAD_REACTORS
330
C
102
}
330
C
100
AcDbDictionary
281
     1
  3
CTABLESTYLE
350
4117
  3
DIMASSOC
350
49D4
  3
PROJECTNAME
350
49D5
  0
XRECORD
  5
49D7
102
{ACAD_REACTORS
330
C
102
}
330
C
100
AcDbXrecord
280
     1
  1
DWGPROPS COOKIE
  2

  3

  4

  6

  7

  8
mitsuhara
  9

300
=
301
=
302
=
303
=
304
=
305
=
306
=
307
=
308
=
309
=
 40
0.5902791435185186
 41
2455090.761732894
 42
2455678.565751748
  1

 90
        0
  0
XRECORD
  5
470A
102
{ACAD_REACTORS
330
46E5
102
}
330
46E5
100
AcDbXrecord
280
     1
102
VTR_0.000_0.000_1.000_1.000_VISUALSTYLE
340
3D4C
102
VTR_0.000_0.000_1.000_1.000_GRIDDISPLAY
 70
     3
102
VTR_0.000_0.000_1.000_1.000_GRIDMAJOR
 70
     5
102
VTR_0.000_0.000_1.000_1.000_DEFAULTLIGHTING
280
     1
102
VTR_0.000_0.000_1.000_1.000_DEFAULTLIGHTINGTYPE
 70
     1
102
VTR_0.000_0.000_1.000_1.000_BRIGHTNESS
141
0.0
102
VTR_0.000_0.000_1.000_1.000_CONTRAST
142
0.0
  0
DICTIONARY
  5
421C
102
{ACAD_REACTORS
330
3DBA
102
}
330
3DBA
100
AcDbDictionary
281
     1
  0
DICTIONARY
  5
3DBB
102
{ACAD_REACTORS
330
3DBA
102
}
330
3DBA
100
AcDbDictionary
281
     1
  0
DICTIONARY
  5
421B
102
{ACAD_REACTORS
330
3DBA
102
}
330
3DBA
100
AcDbDictionary
281
     1
1001
ACAD
1000
<All
  0
XRECORD
  5
470C
102
{ACAD_REACTORS
330
470B
102
}
330
470B
100
AcDbXrecord
280
     1
102
MATERIAL
340
3D45
  0
XRECORD
  5
470E
102
{ACAD_REACTORS
330
470D
102
}
330
470D
100
AcDbXrecord
280
     1
102
MATERIAL
340
3D45
  0
XRECORD
  5
4710
102
{ACAD_REACTORS
330
470F
102
}
330
470F
100
AcDbXrecord
280
     1
102
MATERIAL
340
3D45
  0
XRECORD
  5
471A
102
{ACAD_REACTORS
330
4719
102
}
330
4719
100
AcDbXrecord
280
     1
102
MATERIAL
340
3D45
  0
XRECORD
  5
3D3B
102
{ACAD_REACTORS
330
1808
102
}
330
1808
100
AcDbXrecord
280
     1
340
17
  0
SORTENTSTABLE
  5
47B8
102
{ACAD_REACTORS
330
1808
102
}
330
1808
100
AcDbSortentsTable
330
17
331
4448
  5
4491
331
43F9
  5
43FA
331
437B
  5
437B
331
479A
  5
47B7
331
4401
  5
4402
331
4383
  5
4383
331
43CA
  5
43CA
331
43D2
  5
43D2
331
438B
  5
438B
331
43DA
  5
43DB
331
4393
  5
4393
331
44A0
  5
44AD
331
467E
  5
467F
331
439B
  5
439B
331
43E2
  5
43E3
331
4686
  5
4687
331
43A3
  5
43A3
331
43EA
  5
43EB
331
468E
  5
46D4
331
43F2
  5
43F3
331
4374
  5
4374
331
43AB
  5
43AB
331
437C
  5
437C
331
43FA
  5
43FB
331
4491
  5
44A0
331
4402
  5
4403
331
4384
  5
4384
331
43CB
  5
43CB
331
44D8
  5
44F9
331
438C
  5
438C
331
43D3
  5
43D3
331
4394
  5
4394
331
43DB
  5
43DC
331
467F
  5
4680
331
43E3
  5
43E4
331
439C
  5
439C
331
4687
  5
4688
331
43EB
  5
43EC
331
43A4
  5
43A4
331
43AC
  5
43AC
331
4375
  5
4375
331
43F3
  5
43F4
331
43FB
  5
43FC
331
437D
  5
437D
331
44C9
  5
44D8
331
4403
  5
4404
331
4385
  5
4385
331
43CC
  5
43CC
331
43D4
  5
43D4
331
438D
  5
438D
331
4395
  5
4395
331
43DC
  5
43DD
331
4680
  5
4681
331
44F9
  5
4506
331
439D
  5
439D
331
43E4
  5
43E5
331
4688
  5
4689
331
43A5
  5
43A5
331
43EC
  5
43ED
331
43F4
  5
43F5
331
4376
  5
4376
331
43AD
  5
43AD
331
437E
  5
437E
331
4529
  5
467C
331
4404
  5
4405
331
4386
  5
4386
331
43CD
  5
43CD
331
440C
  5
440D
331
438E
  5
438E
331
43D5
  5
43D5
331
4414
  5
442E
331
4396
  5
4396
331
43DD
  5
43DE
331
4681
  5
4682
331
43E5
  5
43E6
331
439E
  5
439E
331
4689
  5
468A
331
43A6
  5
43A6
331
436F
  5
436F
331
43ED
  5
43EE
331
43AE
  5
43AE
331
4130
  5
4130
331
4377
  5
4377
331
43F5
  5
43F6
331
43B6
  5
43B6
331
437F
  5
437F
331
43C6
  5
43C6
331
4405
  5
4406
331
43CE
  5
43CE
331
4387
  5
4387
331
43D6
  5
43D6
331
438F
  5
438F
331
440D
  5
4414
331
4397
  5
4397
331
43DE
  5
43DF
331
4682
  5
4683
331
439F
  5
439F
331
43E6
  5
43E7
331
468A
  5
468B
331
43A7
  5
43A7
331
4370
  5
4370
331
43EE
  5
43EF
331
44BC
  5
44C9
331
4513
  5
4529
331
43F6
  5
43F7
331
4378
  5
4378
331
43AF
  5
43AF
331
478F
  5
4790
331
43FE
  5
43FF
331
43C7
  5
43C7
331
4380
  5
4380
331
4406
  5
440C
331
4388
  5
4388
331
43CF
  5
43CF
331
47B7
  5
43D8
331
4390
  5
4390
331
43D7
  5
43D7
331
43DF
  5
43E0
331
4398
  5
4398
331
43E7
  5
43E8
331
44AD
  5
44BC
331
4683
  5
4684
331
43A0
  5
43A0
331
442E
  5
4448
331
43A8
  5
43A8
331
4371
  5
4371
331
43EF
  5
43F0
331
468B
  5
468C
331
43B0
  5
43B0
331
4379
  5
4379
331
43F7
  5
43F8
331
4790
  5
4799
331
43FF
  5
4400
331
4381
  5
4381
331
43C8
  5
43C8
331
43D0
  5
43D0
331
4389
  5
4389
331
43D8
  5
43D9
331
42AA
  5
42AA
331
4391
  5
4391
331
467C
  5
467D
331
4399
  5
4399
331
43E0
  5
43E1
331
4684
  5
4685
331
43A1
  5
43A1
331
43E8
  5
43E9
331
4729
  5
472A
331
468C
  5
468D
331
43F0
  5
43F1
331
4372
  5
4372
331
43A9
  5
43A9
331
437A
  5
437A
331
43B1
  5
43B1
331
43F8
  5
43F9
331
46D4
  5
4729
331
4799
  5
479A
331
43C9
  5
43C9
331
4382
  5
4382
331
4400
  5
4401
331
438A
  5
438A
331
43D1
  5
43D1
331
4392
  5
4392
331
43D9
  5
43DA
331
467D
  5
467E
331
43E1
  5
43E2
331
439A
  5
439A
331
4685
  5
4686
331
43E9
  5
43EA
331
472A
  5
478F
331
43A2
  5
43A2
331
468D
  5
468E
331
4506
  5
4513
331
43AA
  5
43AA
331
4373
  5
4373
331
43F1
  5
43F2
  0
XRECORD
  5
3D3A
102
{ACAD_REACTORS
330
1806
102
}
330
1806
100
AcDbXrecord
280
     1
340
14
  0
SORTENTSTABLE
  5
4655
102
{ACAD_REACTORS
330
4654
102
}
330
4654
100
AcDbSortentsTable
330
4652
  0
XRECORD
  5
4708
102
{ACAD_REACTORS
330
4706
102
}
330
4706
100
AcDbXrecord
280
     1
340
12
  0
XRECORD
  5
4709
102
{ACAD_REACTORS
330
4706
102
}
330
4706
100
AcDbXrecord
280
     1
340
12
  0
XRECORD
  5
4707
102
{ACAD_REACTORS
330
4706
102
}
330
4706
100
AcDbXrecord
280
     1
340
12
  0
LAYOUT
  5
3D5B
102
{ACAD_XDICTIONARY
360
49D9
102
}
102
{ACAD_REACTORS
330
3D5A
102
}
330
3D5A
100
AcDbPlotSettings
  1

  2
none_device
  4
Letter_(8.50_x_11.00_Inches)
  6

 40
6.349999904632568
 41
6.349999904632568
 42
6.350006103515625
 43
6.350006103515625
 44
215.8999938964844
 45
279.3999938964844
 46
-1.12309248102531
 47
-101.7804168085559
 48
0.0
 49
0.0
140
0.0
141
0.0
142
1.0
143
20.29968
 70
 11940
 72
     0
 73
     1
 74
     0
  7
monochrome.ctb
 75
     0
147
0.0492618602854823
148
-11352.82235388106
149
3793.16061809403
100
AcDbLayout
  1
Model
 70
     1
 71
     0
 10
0.0
 20
0.0
 11
12.0
 21
9.0
 12
0.0
 22
0.0
 32
0.0
 14
0.0
 24
0.0
 34
0.0
 15
0.0
 25
0.0
 35
0.0
146
0.0
 13
0.0
 23
0.0
 33
0.0
 16
1.0
 26
0.0
 36
0.0
 17
0.0
 27
1.0
 37
0.0
 76
     0
330
17
1001
ACAD_PSEXT
1000
なし
1000
なし
1000
適切ではありません
1000
新しいプロッタ環境設定名を選択しない限り、レイアウトは印刷されません。
1070
     0
  0
LAYOUT
  5
3D5C
102
{ACAD_XDICTIONARY
360
49DB
102
}
102
{ACAD_REACTORS
330
3D5A
102
}
330
3D5A
100
AcDbPlotSettings
  1

  2
Microsoft XPS Document Writer
  4

  6

 40
0.0
 41
0.0
 42
0.0
 43
0.0
 44
0.0
 45
0.0
 46
0.0
 47
0.0
 48
0.0
 49
0.0
140
0.0
141
0.0
142
1.0
143
1.0
 70
   688
 72
     0
 73
     0
 74
     5
  7
monochrome.ctb
 75
    16
147
1.0
148
0.0
149
0.0
100
AcDbLayout
  1
レイアウト1
 70
     1
 71
     1
 10
0.0
 20
0.0
 11
12.0
 21
9.0
 12
0.0
 22
0.0
 32
0.0
 14
1.000000000000000E+20
 24
1.000000000000000E+20
 34
1.000000000000000E+20
 15
-1.000000000000000E+20
 25
-1.000000000000000E+20
 35
-1.000000000000000E+20
146
0.0
 13
0.0
 23
0.0
 33
0.0
 16
1.0
 26
0.0
 36
0.0
 17
0.0
 27
1.0
 37
0.0
 76
     0
330
14
  0
MATERIAL
  5
3D44
102
{ACAD_XDICTIONARY
360
4713
102
}
102
{ACAD_REACTORS
330
3D42
102
}
330
3D42
100
AcDbMaterial
  1
ByBlock
  0
MATERIAL
  5
3D43
102
{ACAD_XDICTIONARY
360
4711
102
}
102
{ACAD_REACTORS
330
3D42
102
}
330
3D42
100
AcDbMaterial
  1
ByLayer
  0
MATERIAL
  5
3D45
102
{ACAD_XDICTIONARY
360
4715
102
}
102
{ACAD_REACTORS
330
3D42
102
}
330
3D42
100
AcDbMaterial
  1
Global
  0
MLINESTYLE
  5
1B
102
{ACAD_REACTORS
330
1A
102
}
330
1A
100
AcDbMlineStyle
  2
STANDARD
 70
     0
  3

 62
   256
 51
90.0
 52
90.0
 71
     2
 49
0.5
 62
   256
  6
BYLAYER
 49
-0.5
 62
   256
  6
BYLAYER
  0
ACDBPLACEHOLDER
  5
3D41
102
{ACAD_REACTORS
330
3D40
102
}
330
3D40
  0
TABLESTYLE
  5
3D59
102
{ACAD_XDICTIONARY
360
4717
102
}
102
{ACAD_REACTORS
330
3D58
102
}
330
3D58
100
AcDbTableStyle
  3
Standard
 70
     0
 71
     0
 40
0.06
 41
0.06
280
     0
281
     0
  7
STANDARD
140
0.18
170
     2
 62
     0
 63
     7
283
     0
274
    -2
284
     1
 64
     0
275
    -2
285
     1
 65
     0
276
    -2
286
     1
 66
     0
277
    -2
287
     1
 67
     0
278
    -2
288
     1
 68
     0
279
    -2
289
     1
 69
     0
  7
STANDARD
140
0.25
170
     5
 62
     0
 63
     7
283
     0
274
    -2
284
     1
 64
     0
275
    -2
285
     1
 65
     0
276
    -2
286
     1
 66
     0
277
    -2
287
     1
 67
     0
278
    -2
288
     1
 68
     0
279
    -2
289
     1
 69
     0
  7
STANDARD
140
0.18
170
     5
 62
     0
 63
     7
283
     0
274
    -2
284
     1
 64
     0
275
    -2
285
     1
 65
     0
276
    -2
286
     1
 66
     0
277
    -2
287
     1
 67
     0
278
    -2
288
     1
 68
     0
279
    -2
289
     1
 69
     0
  0
ACAD_PROXY_OBJECT
  5
3D4C
102
{ACAD_REACTORS
330
3D46
102
}
330
3D46
100
AcDbProxyObject
 90
      499
 91
      503
 95
  2555929
 70
     0
 93
      598
310
430C9915DA5C99599C985B59401049028333333333333E3BF0000000000000FB023FFFFFF0802405048070000C3008000000C800405A000000320014050640A01C00030C010500920280D3
 94
        0
1001
ACAD
1000
AcDbSavedByObjectVersion
1070
     0
1000
AcDbSavedByObjectVersion
1070
     0
1000
AcDbSavedByObjectVersion
1070
     0
1000
AcDbSavedByObjectVersion
1070
     0
1000
AcDbSavedByObjectVersion
1070
     0
1000
AcDbSavedByObjectVersion
1070
     0
1000
AcRTDxfName
1000
VISUALSTYLE
  0
ACAD_PROXY_OBJECT
  5
3D4E
102
{ACAD_REACTORS
330
3D46
102
}
330
3D46
100
AcDbProxyObject
 90
      499
 91
      503
 95
  2555929
 70
     0
 93
      662
310
428CD108121A5919195B8010640502408333333333333E3BF0000000000000FB023FFFFFF0802409028070000C3008000000C8004080000000000004440A000000320014050640A01C00030C010300920280D0
 94
        0
1001
ACAD
1000
AcDbSavedByObjectVersion
1070
     0
1000
AcDbSavedByObjectVersion
1070
     0
1000
AcDbSavedByObjectVersion
1070
     0
1000
AcDbSavedByObjectVersion
1070
     0
1000
AcDbSavedByObjectVersion
1070
     0
1000
AcDbSavedByObjectVersion
1070
     0
1000
AcRTDxfName
1000
VISUALSTYLE
  0
ACAD_PROXY_OBJECT
  5
3D4D
102
{ACAD_REACTORS
330
3D46
102
}
330
3D46
100
AcDbProxyObject
 90
      499
 91
      503
 95
  2555929
 70
     0
 93
      598
310
430CD915DA5C99599C985B59401059028333333333333E3BF0000000000000FB023FFFFFF0802405048070000C3008000000C800405A000000320014050640A01C00030C010500920280D1
 94
        0
1001
ACAD
1000
AcDbSavedByObjectVersion
1070
     0
1000
AcDbSavedByObjectVersion
1070
     0
1000
AcDbSavedByObjectVersion
1070
     0
1000
AcDbSavedByObjectVersion
1070
     0
1000
AcDbSavedByObjectVersion
1070
     0
1000
AcDbSavedByObjectVersion
1070
     0
1000
AcRTDxfName
1000
VISUALSTYLE
  0
ACAD_PROXY_OBJECT
  5
3D4B
102
{ACAD_REACTORS
330
3D46
102
}
330
3D46
100
AcDbProxyObject
 90
      499
 91
      503
 95
  2555929
 70
     0
 93
      558
310
4190985CDA58C0107406404333333333333E3BF0000000000000FB023FFFFFF08029048070000C3008000000C80040542201C00030C014050640A01C00030C010500920280D6
 94
        0
1001
ACAD
1000
AcDbSavedByObjectVersion
1070
     0
1000
AcDbSavedByObjectVersion
1070
     0
1000
AcDbSavedByObjectVersion
1070
     0
1000
AcDbSavedByObjectVersion
1070
     0
1000
AcDbSavedByObjectVersion
1070
     0
1000
AcDbSavedByObjectVersion
1070
     0
1000
AcRTDxfName
1000
VISUALSTYLE
  0
ACAD_PROXY_OBJECT
  5
3D52
102
{ACAD_REACTORS
330
3D46
102
}
330
3D46
100
AcDbProxyObject
 90
      499
 91
      503
 95
  2555929
 70
     0
 93
      598
310
42509C9A59DA1D195B8010C409028333333333333E3BF0000000000000FB023FFFFFF0802405048070000C3008000000C80040542201C00030C014050640A01C00030C010500920280A657
 94
        0
1001
ACAD
1000
AcDbSavedByObjectVersion
1070
     0
1000
AcDbSavedByObjectVersion
1070
     0
1000
AcDbSavedByObjectVersion
1070
     0
1000
AcDbSavedByObjectVersion
1070
     0
1000
AcDbSavedByObjectVersion
1070
     0
1000
AcDbSavedByObjectVersion
1070
     0
1000
AcRTDxfName
1000
VISUALSTYLE
  0
ACAD_PROXY_OBJECT
  5
3D56
102
{ACAD_REACTORS
330
3D46
102
}
330
3D46
100
AcDbProxyObject
 90
      499
 91
      503
 95
  2555929
 70
     0
 93
      622
310
4310DBDB1BDC90DA185B99D9401104090240C333333333333E3BF0000000000000FB0220202030802405048070000C3008000000C800405422202020308014050640A01C00030C010500920280D7
 94
        0
1001
ACAD
1000
AcDbSavedByObjectVersion
1070
     0
1000
AcDbSavedByObjectVersion
1070
     0
1000
AcDbSavedByObjectVersion
1070
     0
1000
AcDbSavedByObjectVersion
1070
     0
1000
AcDbSavedByObjectVersion
1070
     0
1000
AcDbSavedByObjectVersion
1070
     0
1000
AcRTDxfName
1000
VISUALSTYLE
  0
ACAD_PROXY_OBJECT
  5
3D4F
102
{ACAD_REACTORS
330
3D46
102
}
330
3D46
100
AcDbProxyObject
 90
      499
 91
      503
 95
  2555929
 70
     0
 93
      670
310
42D0DBDB98D95C1D1D585B0010940D028333333333333E3BF0000000000000FB023FFFFFF0802409028070000C3008000000C800404000000000000444042201C00030C014050640A01C00030C010300920280D0
 94
        0
1001
ACAD
1000
AcDbSavedByObjectVersion
1070
     0
1000
AcDbSavedByObjectVersion
1070
     0
1000
AcDbSavedByObjectVersion
1070
     0
1000
AcDbSavedByObjectVersion
1070
     0
1000
AcDbSavedByObjectVersion
1070
     0
1000
AcDbSavedByObjectVersion
1070
     0
1000
AcRTDxfName
1000
VISUALSTYLE
  0
ACAD_PROXY_OBJECT
  5
3D51
102
{ACAD_REACTORS
330
3D46
102
}
330
3D46
100
AcDbProxyObject
 90
      499
 91
      503
 95
  2555929
 70
     0
 93
      582
310
41111A5B4010B409028333333333333E3BF0000000000000FB023FFFFFF0802405048070000C3008000000C80040542201C00030C014050640A01C00030C01050092028099DFFFFFF4
 94
        0
1001
ACAD
1000
AcDbSavedByObjectVersion
1070
     0
1000
AcDbSavedByObjectVersion
1070
     0
1000
AcDbSavedByObjectVersion
1070
     0
1000
AcDbSavedByObjectVersion
1070
     0
1000
AcDbSavedByObjectVersion
1070
     0
1000
AcDbSavedByObjectVersion
1070
     0
1000
AcRTDxfName
1000
VISUALSTYLE
  0
ACAD_PROXY_OBJECT
  5
3D55
102
{ACAD_REACTORS
330
3D46
102
}
330
3D46
100
AcDbProxyObject
 90
      499
 91
      503
 95
  2555929
 70
     0
 93
      614
310
43119858D95C185D1D195C9B8010F409028333333333333E3BF0000000000000FB023FFFFFF0802405048070000C3008000000C80040542201C00030C014050640A01C00030C010500920280D4
 94
        0
1001
ACAD
1000
AcDbSavedByObjectVersion
1070
     0
1000
AcDbSavedByObjectVersion
1070
     0
1000
AcDbSavedByObjectVersion
1070
     0
1000
AcDbSavedByObjectVersion
1070
     0
1000
AcDbSavedByObjectVersion
1070
     0
1000
AcDbSavedByObjectVersion
1070
     0
1000
AcRTDxfName
1000
VISUALSTYLE
  0
ACAD_PROXY_OBJECT
  5
3D47
102
{ACAD_REACTORS
330
3D46
102
}
330
3D46
100
AcDbProxyObject
 90
      499
 91
      503
 95
  2555929
 70
     0
 93
      558
310
41519B185D00240901404333333333333E3BF0000000000000F9023FFFFFF0801029048070000C3008000000C80040542201C00030C014050640A01C00030C010500920286D4
 94
        0
1001
ACAD
1000
AcDbSavedByObjectVersion
1070
     0
1000
AcDbSavedByObjectVersion
1070
     0
1000
AcDbSavedByObjectVersion
1070
     0
1000
AcDbSavedByObjectVersion
1070
     0
1000
AcDbSavedByObjectVersion
1070
     0
1000
AcDbSavedByObjectVersion
1070
     0
1000
AcRTDxfName
1000
VISUALSTYLE
  0
ACAD_PROXY_OBJECT
  5
3D48
102
{ACAD_REACTORS
330
3D46
102
}
330
3D46
100
AcDbProxyObject
 90
      499
 91
      503
 95
  2555929
 70
     0
 93
      638
310
43919B185D15DA5D1A115919D95CC010140901404333333333333E3BF0000000000000F9023FFFFFF080102405048070000C3008000000C800405A000000320014050640A01C00030C010500920286D4
 94
        0
1001
ACAD
1000
AcDbSavedByObjectVersion
1070
     0
1000
AcDbSavedByObjectVersion
1070
     0
1000
AcDbSavedByObjectVersion
1070
     0
1000
AcDbSavedByObjectVersion
1070
     0
1000
AcDbSavedByObjectVersion
1070
     0
1000
AcDbSavedByObjectVersion
1070
     0
1000
AcRTDxfName
1000
VISUALSTYLE
  0
ACAD_PROXY_OBJECT
  5
3D49
102
{ACAD_REACTORS
330
3D46
102
}
330
3D46
100
AcDbProxyObject
 90
      499
 91
      503
 95
  2555929
 70
     0
 93
      582
310
4211DBDD5C985D590010240902404333333333333E3BF0000000000000F9023FFFFFF0801029048070000C3008000000C800405A01C00030C014050640A01C00030C010500920286D4
 94
        0
1001
ACAD
1000
AcDbSavedByObjectVersion
1070
     0
1000
AcDbSavedByObjectVersion
1070
     0
1000
AcDbSavedByObjectVersion
1070
     0
1000
AcDbSavedByObjectVersion
1070
     0
1000
AcDbSavedByObjectVersion
1070
     0
1000
AcDbSavedByObjectVersion
1070
     0
1000
AcRTDxfName
1000
VISUALSTYLE
  0
ACAD_PROXY_OBJECT
  5
3D4A
102
{ACAD_REACTORS
330
3D46
102
}
330
3D46
100
AcDbProxyObject
 90
      499
 91
      503
 95
  2555929
 70
     0
 93
      662
310
4451DBDD5C985D5915DA5D1A115919D95CC010340902404333333333333E3BF0000000000000F9023FFFFFF080102405048070000C3008000000C800405A000000320014050640A01C00030C010500920286D4
 94
        0
1001
ACAD
1000
AcDbSavedByObjectVersion
1070
     0
1000
AcDbSavedByObjectVersion
1070
     0
1000
AcDbSavedByObjectVersion
1070
     0
1000
AcDbSavedByObjectVersion
1070
     0
1000
AcDbSavedByObjectVersion
1070
     0
1000
AcDbSavedByObjectVersion
1070
     0
1000
AcRTDxfName
1000
VISUALSTYLE
  0
ACAD_PROXY_OBJECT
  5
3D54
102
{ACAD_REACTORS
330
3D46
102
}
330
3D46
100
AcDbProxyObject
 90
      499
 91
      503
 95
  2555929
 70
     0
 93
      614
310
43131A5B995C185D1D195C9B8010E409028333333333333E3BF0000000000000FB023FFFFFF0802405048070000C3008000000C80041D42201C00030C014050640A01C00030C010500920E80D5
 94
        0
1001
ACAD
1000
AcDbSavedByObjectVersion
1070
     0
1000
AcDbSavedByObjectVersion
1070
     0
1000
AcDbSavedByObjectVersion
1070
     0
1000
AcDbSavedByObjectVersion
1070
     0
1000
AcDbSavedByObjectVersion
1070
     0
1000
AcDbSavedByObjectVersion
1070
     0
1000
AcRTDxfName
1000
VISUALSTYLE
  0
ACAD_PROXY_OBJECT
  5
3D50
102
{ACAD_REACTORS
330
3D46
102
}
330
3D46
100
AcDbProxyObject
 90
      499
 91
      503
 95
  2555929
 70
     0
 93
      590
310
429499585B1A5CDD1A58C0108409028333333333333E3BF0000000000000FB023FFFFFF08024068070000C3008000000C8004054221E1E1E308014050640A01C00030C010500920286D0
 94
        0
1001
ACAD
1000
AcDbSavedByObjectVersion
1070
     0
1000
AcDbSavedByObjectVersion
1070
     0
1000
AcDbSavedByObjectVersion
1070
     0
1000
AcDbSavedByObjectVersion
1070
     0
1000
AcDbSavedByObjectVersion
1070
     0
1000
AcDbSavedByObjectVersion
1070
     0
1000
AcRTDxfName
1000
VISUALSTYLE
  0
ACAD_PROXY_OBJECT
  5
3D53
102
{ACAD_REACTORS
330
3D46
102
}
330
3D46
100
AcDbProxyObject
 90
      499
 91
      503
 95
  2555929
 70
     0
 93
      582
310
42151A1A58DAD95B8010D409028333333333333E3BF0000000000000FB023FFFFFF0802405048070000C3008000000C80040543201C00030C014050640A01C00030C010500920280D4
 94
        0
1001
ACAD
1000
AcDbSavedByObjectVersion
1070
     0
1000
AcDbSavedByObjectVersion
1070
     0
1000
AcDbSavedByObjectVersion
1070
     0
1000
AcDbSavedByObjectVersion
1070
     0
1000
AcDbSavedByObjectVersion
1070
     0
1000
AcDbSavedByObjectVersion
1070
     0
1000
AcRTDxfName
1000
VISUALSTYLE
  0
DICTIONARYVAR
  5
4117
102
{ACAD_REACTORS
330
4116
102
}
330
4116
100
DictionaryVariables
280
     0
  1
STANDARD
  0
DICTIONARYVAR
  5
49D4
102
{ACAD_REACTORS
330
4116
102
}
330
4116
100
DictionaryVariables
280
     0
  1
1
  0
DICTIONARYVAR
  5
49D5
102
{ACAD_REACTORS
330
4116
102
}
330
4116
100
DictionaryVariables
280
     0
  1

  0
DICTIONARY
  5
49D9
330
3D5B
100
AcDbDictionary
280
     1
281
     1
  3
ACAD_XREC_ROUNDTRIP
360
49DA
  0
DICTIONARY
  5
49DB
330
3D5C
100
AcDbDictionary
280
     1
281
     1
  3
ACAD_XREC_ROUNDTRIP
360
49DC
  0
DICTIONARY
  5
4713
330
3D44
100
AcDbDictionary
280
     1
281
     1
  3
ACAD_XREC_ROUNDTRIP
360
4714
  0
DICTIONARY
  5
4711
330
3D43
100
AcDbDictionary
280
     1
281
     1
  3
ACAD_XREC_ROUNDTRIP
360
4712
  0
DICTIONARY
  5
4715
330
3D45
100
AcDbDictionary
280
     1
281
     1
  3
ACAD_XREC_ROUNDTRIP
360
4716
  0
DICTIONARY
  5
4717
330
3D59
100
AcDbDictionary
280
     1
281
     1
  3
ACAD_XREC_ROUNDTRIP
360
4718
  0
XRECORD
  5
49DA
102
{ACAD_REACTORS
330
49D9
102
}
330
49D9
100
AcDbXrecord
280
     1
102
SHADEPLOT
 70
     0
102
SHADEPLOTRESLEVEL
 70
     2
102
SHADEPLOTCUSTOMDPI
 70
   300
  0
XRECORD
  5
49DC
102
{ACAD_REACTORS
330
49DB
102
}
330
49DB
100
AcDbXrecord
280
     1
102
SHADEPLOT
 70
     0
102
SHADEPLOTRESLEVEL
 70
     2
102
SHADEPLOTCUSTOMDPI
 70
   300
  0
XRECORD
  5
4714
102
{ACAD_REACTORS
330
4713
102
}
330
4713
100
AcDbXrecord
280
     1
102
MATERIAL
148
0.0
149
0.0
149
0.0
 93
        0
 94
       63
282
     0
 72
     1
 77
     1
171
     1
175
     1
179
     1
273
     0
  0
XRECORD
  5
4712
102
{ACAD_REACTORS
330
4711
102
}
330
4711
100
AcDbXrecord
280
     1
102
MATERIAL
148
0.0
149
0.0
149
0.0
 93
        0
 94
       63
282
     0
 72
     1
 77
     1
171
     1
175
     1
179
     1
273
     0
  0
XRECORD
  5
4716
102
{ACAD_REACTORS
330
4715
102
}
330
4715
100
AcDbXrecord
280
     1
102
MATERIAL
148
0.0
149
0.0
149
0.0
 93
        0
 94
       63
282
     0
 72
     1
 77
     1
171
     1
175
     1
179
     1
273
     0
  0
XRECORD
  5
4718
102
{ACAD_REACTORS
330
4717
102
}
330
4717
100
AcDbXrecord
280
     1
102
ACAD_ROUNDTRIP_PRE2007_TABLESTYLE
 90
      512
 91
        0
  1

 92
      512
 93
        0
  2

 94
      512
 95
        0
  3

  0
ENDSEC
  0
EOF
