  0
SECTION
  2
HEADER
  9
$ACADVER
  1
AC1015
  9
$ACADMAINTVER
 70
    20
  9
$DWGCODEPAGE
  3
ANSI_932
  9
$INSBASE
 10
0.0
 20
0.0
 30
0.0
  9
$EXTMIN
 10
508.7504332993039
 20
-140.7565208482715
 30
-0.0000000349181948
  9
$EXTMAX
 10
720.9497886692643
 20
-3.014705461245853
 30
0.0000000814935746
  9
$LIMMIN
 10
0.0
 20
0.0
  9
$LIMMAX
 10
12.0
 20
9.0
  9
$ORTHOMODE
 70
     1
  9
$REGENMODE
 70
     1
  9
$FILLMODE
 70
     1
  9
$QTEXTMODE
 70
     0
  9
$MIRRTEXT
 70
     1
  9
$LTSCALE
 40
0.5
  9
$ATTMODE
 70
     1
  9
$TEXTSIZE
 40
2.5
  9
$TRACEWID
 40
0.05
  9
$TEXTSTYLE
  7
CatalogDxf
  9
$CLAYER
  8
Z_OM_DIM
  9
$CELTYPE
  6
BYLAYER
  9
$CECOLOR
 62
   256
  9
$CELTSCALE
 40
1.0
  9
$DISPSILH
 70
     0
  9
$DIMSCALE
 40
1.0
  9
$DIMASZ
 40
2.5
  9
$DIMEXO
 40
0.625
  9
$DIMDLI
 40
3.75
  9
$DIMRND
 40
0.0
  9
$DIMDLE
 40
0.0
  9
$DIMEXE
 40
1.25
  9
$DIMTP
 40
0.0
  9
$DIMTM
 40
0.0
  9
$DIMTXT
 40
2.5
  9
$DIMCEN
 40
2.5
  9
$DIMTSZ
 40
0.0
  9
$DIMTOL
 70
     0
  9
$DIMLIM
 70
     0
  9
$DIMTIH
 70
     0
  9
$DIMTOH
 70
     0
  9
$DIMSE1
 70
     0
  9
$DIMSE2
 70
     0
  9
$DIMTAD
 70
     1
  9
$DIMZIN
 70
     8
  9
$DIMBLK
  1
OPEN30
  9
$DIMASO
 70
     1
  9
$DIMSHO
 70
     1
  9
$DIMPOST
  1

  9
$DIMAPOST
  1

  9
$DIMALT
 70
     0
  9
$DIMALTD
 70
     3
  9
$DIMALTF
 40
0.03937007874016
  9
$DIMLFAC
 40
1.0
  9
$DIMTOFL
 70
     1
  9
$DIMTVP
 40
0.0
  9
$DIMTIX
 70
     0
  9
$DIMSOXD
 70
     0
  9
$DIMSAH
 70
     0
  9
$DIMBLK1
  1

  9
$DIMBLK2
  1

  9
$DIMSTYLE
  2
CatalogDxf
  9
$DIMCLRD
 70
   256
  9
$DIMCLRE
 70
   256
  9
$DIMCLRT
 70
   256
  9
$DIMTFAC
 40
1.0
  9
$DIMGAP
 40
0.625
  9
$DIMJUST
 70
     0
  9
$DIMSD1
 70
     0
  9
$DIMSD2
 70
     0
  9
$DIMTOLJ
 70
     0
  9
$DIMTZIN
 70
     8
  9
$DIMALTZ
 70
     0
  9
$DIMALTTZ
 70
     0
  9
$DIMUPT
 70
     0
  9
$DIMDEC
 70
     1
  9
$DIMTDEC
 70
     1
  9
$DIMALTU
 70
     2
  9
$DIMALTTD
 70
     3
  9
$DIMTXSTY
  7
CatalogDxf
  9
$DIMAUNIT
 70
     0
  9
$DIMADEC
 70
     0
  9
$DIMALTRND
 40
0.0
  9
$DIMAZIN
 70
     0
  9
$DIMDSEP
 70
    46
  9
$DIMATFIT
 70
     3
  9
$DIMFRAC
 70
     0
  9
$DIMLDRBLK
  1
OPEN30
  9
$DIMLUNIT
 70
     2
  9
$DIMLWD
 70
    -1
  9
$DIMLWE
 70
    -1
  9
$DIMTMOVE
 70
     0
  9
$LUNITS
 70
     2
  9
$LUPREC
 70
     2
  9
$SKETCHINC
 40
0.1
  9
$FILLETRAD
 40
0.0
  9
$AUNITS
 70
     0
  9
$AUPREC
 70
     2
  9
$MENU
  1
acad
  9
$ELEVATION
 40
0.0
  9
$PELEVATION
 40
0.0
  9
$THICKNESS
 40
0.0
  9
$LIMCHECK
 70
     0
  9
$CHAMFERA
 40
0.0
  9
$CHAMFERB
 40
0.0
  9
$CHAMFERC
 40
0.0
  9
$CHAMFERD
 40
0.0
  9
$SKPOLY
 70
     0
  9
$TDCREATE
 40
2455090.761732894
  9
$TDUCREATE
 40
2455090.386732893
  9
$TDUPDATE
 40
2455678.565018299
  9
$TDUUPDATE
 40
2455678.190018299
  9
$TDINDWG
 40
0.5706315394
  9
$TDUSRTIMER
 40
0.5706271991
  9
$USRTIMER
 70
     1
  9
$ANGBASE
 50
0.0
  9
$ANGDIR
 70
     0
  9
$PDMODE
 70
     0
  9
$PDSIZE
 40
0.0
  9
$PLINEWID
 40
0.0
  9
$SPLFRAME
 70
     0
  9
$SPLINETYPE
 70
     6
  9
$SPLINESEGS
 70
     8
  9
$HANDSEED
  5
4A58
  9
$SURFTAB1
 70
     6
  9
$SURFTAB2
 70
     6
  9
$SURFTYPE
 70
     6
  9
$SURFU
 70
     6
  9
$SURFV
 70
     6
  9
$UCSBASE
  2

  9
$UCSNAME
  2

  9
$UCSORG
 10
0.0
 20
0.0
 30
0.0
  9
$UCSXDIR
 10
1.0
 20
0.0
 30
0.0
  9
$UCSYDIR
 10
0.0
 20
1.0
 30
0.0
  9
$UCSORTHOREF
  2

  9
$UCSORTHOVIEW
 70
     1
  9
$UCSORGTOP
 10
0.0
 20
0.0
 30
0.0
  9
$UCSORGBOTTOM
 10
0.0
 20
0.0
 30
0.0
  9
$UCSORGLEFT
 10
0.0
 20
0.0
 30
0.0
  9
$UCSORGRIGHT
 10
0.0
 20
0.0
 30
0.0
  9
$UCSORGFRONT
 10
0.0
 20
0.0
 30
0.0
  9
$UCSORGBACK
 10
0.0
 20
0.0
 30
0.0
  9
$PUCSBASE
  2

  9
$PUCSNAME
  2

  9
$PUCSORG
 10
0.0
 20
0.0
 30
0.0
  9
$PUCSXDIR
 10
1.0
 20
0.0
 30
0.0
  9
$PUCSYDIR
 10
0.0
 20
1.0
 30
0.0
  9
$PUCSORTHOREF
  2

  9
$PUCSORTHOVIEW
 70
     0
  9
$PUCSORGTOP
 10
0.0
 20
0.0
 30
0.0
  9
$PUCSORGBOTTOM
 10
0.0
 20
0.0
 30
0.0
  9
$PUCSORGLEFT
 10
0.0
 20
0.0
 30
0.0
  9
$PUCSORGRIGHT
 10
0.0
 20
0.0
 30
0.0
  9
$PUCSORGFRONT
 10
0.0
 20
0.0
 30
0.0
  9
$PUCSORGBACK
 10
0.0
 20
0.0
 30
0.0
  9
$USERI1
 70
     0
  9
$USERI2
 70
     0
  9
$USERI3
 70
     0
  9
$USERI4
 70
     0
  9
$USERI5
 70
     0
  9
$USERR1
 40
0.0
  9
$USERR2
 40
0.0
  9
$USERR3
 40
0.0
  9
$USERR4
 40
0.0
  9
$USERR5
 40
0.0
  9
$WORLDVIEW
 70
     1
  9
$SHADEDGE
 70
     3
  9
$SHADEDIF
 70
    70
  9
$TILEMODE
 70
     1
  9
$MAXACTVP
 70
    16
  9
$PINSBASE
 10
0.0
 20
0.0
 30
0.0
  9
$PLIMCHECK
 70
     0
  9
$PEXTMIN
 10
1.000000000000000E+20
 20
1.000000000000000E+20
 30
1.000000000000000E+20
  9
$PEXTMAX
 10
-1.000000000000000E+20
 20
-1.000000000000000E+20
 30
-1.000000000000000E+20
  9
$PLIMMIN
 10
0.0
 20
0.0
  9
$PLIMMAX
 10
12.0
 20
9.0
  9
$UNITMODE
 70
     0
  9
$VISRETAIN
 70
     0
  9
$PLINEGEN
 70
     0
  9
$PSLTSCALE
 70
     1
  9
$TREEDEPTH
 70
  3020
  9
$CMLSTYLE
  2
STANDARD
  9
$CMLJUST
 70
     0
  9
$CMLSCALE
 40
1.0
  9
$PROXYGRAPHICS
 70
     1
  9
$MEASUREMENT
 70
     0
  9
$CELWEIGHT
370
    -1
  9
$ENDCAPS
280
     0
  9
$JOINSTYLE
280
     0
  9
$LWDISPLAY
290
     0
  9
$INSUNITS
 70
     0
  9
$HYPERLINKBASE
  1

  9
$STYLESHEET
  1
monochrome.ctb
  9
$XEDIT
290
     1
  9
$CEPSNTYPE
380
     0
  9
$PSTYLEMODE
290
     1
  9
$FINGERPRINTGUID
  2
{AFC0AA2D-B3CD-48CF-B830-EF9C44F122D3}
  9
$VERSIONGUID
  2
{A6F92822-7AD3-473A-838A-18FDD9297A3F}
  9
$EXTNAMES
290
     1
  9
$PSVPSCALE
 40
0.0
  9
$OLESTARTUP
290
     0
  0
ENDSEC
  0
SECTION
  2
CLASSES
  0
CLASS
  1
ACDBDICTIONARYWDFLT
  2
AcDbDictionaryWithDefault
  3
ObjectDBX Classes
 90
        0
280
     0
281
     0
  0
CLASS
  1
DICTIONARYVAR
  2
AcDbDictionaryVar
  3
ObjectDBX Classes
 90
        0
280
     0
281
     0
  0
CLASS
  1
MATERIAL
  2
AcDbMaterial
  3
ObjectDBX Classes
 90
        0
280
     0
281
     0
  0
CLASS
  1
VISUALSTYLE
  2
AcDbVisualStyle
  3
ObjectDBX Classes
 90
     4095
280
     0
281
     0
  0
CLASS
  1
TABLESTYLE
  2
AcDbTableStyle
  3
ObjectDBX Classes
 90
     2047
280
     0
281
     0
  0
CLASS
  1
DIMASSOC
  2
AcDbDimAssoc
  3
"AcDbDimAssoc|Product Desc:     AcDim ARX App For Dimension|Company:          Autodesk, Inc.|WEB Address:      www.autodesk.com"
 90
    32768
280
     0
281
     0
  0
CLASS
  1
SORTENTSTABLE
  2
AcDbSortentsTable
  3
ObjectDBX Classes
 90
        0
280
     0
281
     0
  0
CLASS
  1
ACDBPLACEHOLDER
  2
AcDbPlaceHolder
  3
ObjectDBX Classes
 90
        0
280
     0
281
     0
  0
CLASS
  1
LAYOUT
  2
AcDbLayout
  3
ObjectDBX Classes
 90
        0
280
     0
281
     0
  0
ENDSEC
  0
SECTION
  2
TABLES
  0
TABLE
  2
VPORT
  5
8
102
{ACAD_XDICTIONARY
360
46B0
102
}
330
0
100
AcDbSymbolTable
 70
     2
  0
VPORT
  5
4A51
330
8
100
AcDbSymbolTableRecord
100
AcDbViewportTableRecord
  2
*Active
 70
     0
 10
0.0
 20
0.0
 11
1.0
 21
1.0
 12
660.840727864316
 22
-70.90862862524847
 13
0.0
 23
0.0
 14
1.0
 24
1.0
 15
0.0
 25
0.0
 16
0.0
 26
0.0
 36
1.0
 17
0.0
 27
0.0
 37
0.0
 40
176.868989392752
 41
2.288973384030418
 42
50.0
 43
0.0
 44
0.0
 50
0.0
 51
0.0
 71
     0
 72
   100
 73
     1
 74
     1
 75
     0
 76
     0
 77
     0
 78
     0
281
     0
 65
     1
110
0.0
120
0.0
130
0.0
111
1.0
121
0.0
131
0.0
112
0.0
122
1.0
132
0.0
 79
     0
146
0.0
  0
ENDTAB
  0
TABLE
  2
LTYPE
  5
5
330
0
100
AcDbSymbolTable
 70
     3
  0
LTYPE
  5
11
330
5
100
AcDbSymbolTableRecord
100
AcDbLinetypeTableRecord
  2
BYBLOCK
 70
     0
  3

 72
    65
 73
     0
 40
0.0
  0
LTYPE
  5
12
330
5
100
AcDbSymbolTableRecord
100
AcDbLinetypeTableRecord
  2
BYLAYER
 70
     0
  3

 72
    65
 73
     0
 40
0.0
  0
LTYPE
  5
13
330
5
100
AcDbSymbolTableRecord
100
AcDbLinetypeTableRecord
  2
CONTINUOUS
 70
     0
  3
Solid line
 72
    65
 73
     0
 40
0.0
  0
LTYPE
  5
3DB3
330
5
100
AcDbSymbolTableRecord
100
AcDbLinetypeTableRecord
  2
CENTER2
 70
     0
  3
Center (.5x) ___ _ ___ _ ___ _ ___ _ ___ _ ___
 72
    65
 73
     4
 40
28.575
 49
19.05
 74
     0
 49
-3.174999999999998
 74
     0
 49
3.174999999999998
 74
     0
 49
-3.174999999999998
 74
     0
  0
LTYPE
  5
3DB4
330
5
100
AcDbSymbolTableRecord
100
AcDbLinetypeTableRecord
  2
HIDDEN2
 70
     0
  3
Hidden (.5x) _ _ _ _ _ _ _ _ _ _ _ _ _ _ _ _ _
 72
    65
 73
     2
 40
4.762499999999998
 49
3.174999999999998
 74
     0
 49
-1.587499999999999
 74
     0
  0
ENDTAB
  0
TABLE
  2
LAYER
  5
2
102
{ACAD_XDICTIONARY
360
3DBA
102
}
330
0
100
AcDbSymbolTable
 70
     4
  0
LAYER
  5
E
102
{ACAD_XDICTIONARY
360
46D6
102
}
330
2
100
AcDbSymbolTableRecord
100
AcDbLayerTableRecord
  2
0
 70
     0
 62
     7
  6
CONTINUOUS
370
    -3
390
3D41
  0
LAYER
  5
27
102
{ACAD_XDICTIONARY
360
46D8
102
}
330
2
100
AcDbSymbolTableRecord
100
AcDbLayerTableRecord
  2
Z_OM_DIM
 70
     0
 62
     4
  6
CONTINUOUS
370
    -3
390
3D41
  0
LAYER
  5
2B
102
{ACAD_XDICTIONARY
360
46DA
102
}
330
2
100
AcDbSymbolTableRecord
100
AcDbLayerTableRecord
  2
DEFPOINTS
 70
     0
 62
     7
  6
CONTINUOUS
290
     0
370
    -3
390
3D41
  0
LAYER
  5
3DB5
102
{ACAD_XDICTIONARY
360
46E4
102
}
330
2
100
AcDbSymbolTableRecord
100
AcDbLayerTableRecord
  2
additional
 70
     0
 62
    50
  6
CONTINUOUS
370
    -3
390
3D41
1001
AcAecLayerStandard
1000

1000

  0
ENDTAB
  0
TABLE
  2
STYLE
  5
3
330
0
100
AcDbSymbolTable
 70
     5
  0
STYLE
  5
F
330
3
100
AcDbSymbolTableRecord
100
AcDbTextStyleTableRecord
  2
STANDARD
 70
     0
 40
0.0
 41
1.08
 50
0.0
 71
     0
 42
3.0
  3
txt.shx
  4
bigfont.shx
  0
STYLE
  5
3DB6
330
3
100
AcDbSymbolTableRecord
100
AcDbTextStyleTableRecord
  2
CatalogDxf
 70
     0
 40
0.0
 41
1.0
 50
0.0
 71
     0
 42
2.5
  3
txt.shx
  4
bigfont.shx
  0
STYLE
  5
4196
330
3
100
AcDbSymbolTableRecord
100
AcDbTextStyleTableRecord
  2

 70
     1
 40
0.0
 41
1.0
 50
0.0
 71
     0
 42
3.0
  3
ltypeshp.shx
  4

  0
ENDTAB
  0
TABLE
  2
VIEW
  5
6
330
0
100
AcDbSymbolTable
 70
     0
  0
ENDTAB
  0
TABLE
  2
UCS
  5
7
330
0
100
AcDbSymbolTable
 70
     0
  0
ENDTAB
  0
TABLE
  2
APPID
  5
9
330
0
100
AcDbSymbolTable
 70
     8
  0
APPID
  5
10
330
9
100
AcDbSymbolTableRecord
100
AcDbRegAppTableRecord
  2
ACAD
 70
     0
  0
APPID
  5
3D5E
330
9
100
AcDbSymbolTableRecord
100
AcDbRegAppTableRecord
  2
ACAD_PSEXT
 70
     0
  0
APPID
  5
3DB9
330
9
100
AcDbSymbolTableRecord
100
AcDbRegAppTableRecord
  2
AcAecLayerStandard
 70
     0
  0
APPID
  5
41A3
330
9
100
AcDbSymbolTableRecord
100
AcDbRegAppTableRecord
  2
ACAD_DSTYLE_DIM_LINETYPE
 70
     0
  0
APPID
  5
41A4
330
9
100
AcDbSymbolTableRecord
100
AcDbRegAppTableRecord
  2
ACAD_DSTYLE_DIM_EXT1_LINETYPE
 70
     0
  0
APPID
  5
41A5
330
9
100
AcDbSymbolTableRecord
100
AcDbRegAppTableRecord
  2
ACAD_DSTYLE_DIM_EXT2_LINETYPE
 70
     0
  0
APPID
  5
4679
330
9
100
AcDbSymbolTableRecord
100
AcDbRegAppTableRecord
  2
ACAD_EXEMPT_FROM_CAD_STANDARDS
 70
     0
  0
APPID
  5
46EC
330
9
100
AcDbSymbolTableRecord
100
AcDbRegAppTableRecord
  2
ACAD_DSTYLE_DIMTEXT_FILL
 70
     0
  0
ENDTAB
  0
TABLE
  2
DIMSTYLE
  5
A
330
0
100
AcDbSymbolTable
 70
     5
100
AcDbDimStyleTable
 71
     2
340
3DB8
340
30
  0
DIMSTYLE
105
30
330
A
100
AcDbSymbolTableRecord
100
AcDbDimStyleTableRecord
  2
STANDARD
 70
     0
 41
6.0
 42
1.0
 43
16.0
 44
3.0
 73
     0
 74
     0
 77
     1
 78
     8
140
4.4
141
10.0
147
1.6
172
     1
176
   256
177
   256
178
   256
340
F
341
977
342
977
  0
DIMSTYLE
105
3DB8
102
{ACAD_REACTORS
330
4406
330
4415
330
4441
330
4450
330
445D
330
446A
330
4495
330
44A2
330
44BE
330
44CB
330
4659
330
497C
102
}
330
A
100
AcDbSymbolTableRecord
100
AcDbDimStyleTableRecord
  2
CatalogDxf
 70
     0
 41
2.5
 42
0.625
 43
3.75
 44
1.25
 73
     0
 74
     0
 77
     1
 78
     8
140
2.5
141
2.5
143
0.03937007874016
147
0.625
171
     3
172
     1
176
   256
177
   256
178
   256
271
     1
272
     1
274
     3
283
     0
284
     8
340
3DB6
341
977
342
977
371
    -1
372
    -1
1001
ACAD_DSTYLE_DIM_LINETYPE
1070
   380
1005
12
1001
ACAD_DSTYLE_DIM_EXT1_LINETYPE
1070
   381
1005
12
1001
ACAD_DSTYLE_DIM_EXT2_LINETYPE
1070
   382
1005
12
  0
DIMSTYLE
105
42CB
330
A
100
AcDbSymbolTableRecord
100
AcDbDimStyleTableRecord
  2
ISO-25
 70
     0
 41
2.5
 42
0.625
 43
3.75
 44
1.25
 73
     0
 74
     0
 77
     1
 78
     8
140
2.5
141
2.5
143
0.03937007874016
147
0.625
171
     3
172
     1
271
     2
272
     2
274
     3
278
    44
283
     0
284
     8
340
F
  0
ENDTAB
  0
TABLE
  2
BLOCK_RECORD
  5
1
330
0
100
AcDbSymbolTable
 70
    15
  0
BLOCK_RECORD
  5
17
102
{ACAD_XDICTIONARY
360
1808
102
}
330
1
100
AcDbSymbolTableRecord
100
AcDbBlockTableRecord
  2
*MODEL_SPACE
340
3D5B
  0
BLOCK_RECORD
  5
14
102
{ACAD_XDICTIONARY
360
1806
102
}
330
1
100
AcDbSymbolTableRecord
100
AcDbBlockTableRecord
  2
*PAPER_SPACE
340
3D5C
  0
BLOCK_RECORD
  5
977
330
1
100
AcDbSymbolTableRecord
100
AcDbBlockTableRecord
  2
_OPEN30
340
0
102
{BLKREFS
331
48FD
331
48FE
331
4928
331
4929
331
4945
331
4946
331
495A
331
495B
331
4975
331
4976
331
49C2
331
49C3
331
49CB
331
49CC
331
49D6
331
49D7
331
49FB
331
49FC
331
4A03
331
4A04
331
4A15
331
4A16
331
4A20
331
4A21
102
}
  0
BLOCK_RECORD
  5
4407
330
1
100
AcDbSymbolTableRecord
100
AcDbBlockTableRecord
  2
*D1
340
0
  0
BLOCK_RECORD
  5
4416
330
1
100
AcDbSymbolTableRecord
100
AcDbBlockTableRecord
  2
*D2
340
0
  0
BLOCK_RECORD
  5
4442
330
1
100
AcDbSymbolTableRecord
100
AcDbBlockTableRecord
  2
*D3
340
0
  0
BLOCK_RECORD
  5
4451
330
1
100
AcDbSymbolTableRecord
100
AcDbBlockTableRecord
  2
*D4
340
0
  0
BLOCK_RECORD
  5
445E
330
1
100
AcDbSymbolTableRecord
100
AcDbBlockTableRecord
  2
*D5
340
0
  0
BLOCK_RECORD
  5
446B
330
1
100
AcDbSymbolTableRecord
100
AcDbBlockTableRecord
  2
*D6
340
0
  0
BLOCK_RECORD
  5
4496
330
1
100
AcDbSymbolTableRecord
100
AcDbBlockTableRecord
  2
*D7
340
0
  0
BLOCK_RECORD
  5
44A3
330
1
100
AcDbSymbolTableRecord
100
AcDbBlockTableRecord
  2
*D8
340
0
  0
BLOCK_RECORD
  5
44BF
330
1
100
AcDbSymbolTableRecord
100
AcDbBlockTableRecord
  2
*D9
340
0
  0
BLOCK_RECORD
  5
44CC
330
1
100
AcDbSymbolTableRecord
100
AcDbBlockTableRecord
  2
*D10
340
0
  0
BLOCK_RECORD
  5
465A
330
1
100
AcDbSymbolTableRecord
100
AcDbBlockTableRecord
  2
*D11
340
0
  0
BLOCK_RECORD
  5
497D
330
1
100
AcDbSymbolTableRecord
100
AcDbBlockTableRecord
  2
*D12
340
0
  0
ENDTAB
  0
ENDSEC
  0
SECTION
  2
BLOCKS
  0
BLOCK
  5
2E
330
17
100
AcDbEntity
  8
0
100
AcDbBlockBegin
  2
*MODEL_SPACE
 70
     0
 10
0.0
 20
0.0
 30
0.0
  3
*MODEL_SPACE
  1

  0
ENDBLK
  5
2F
330
17
100
AcDbEntity
  8
0
100
AcDbBlockEnd
  0
BLOCK
  5
2C
330
14
100
AcDbEntity
 67
     1
  8
0
100
AcDbBlockBegin
  2
*PAPER_SPACE
 70
     0
 10
0.0
 20
0.0
 30
0.0
  3
*PAPER_SPACE
  1

  0
ENDBLK
  5
2D
330
14
100
AcDbEntity
 67
     1
  8
0
100
AcDbBlockEnd
  0
BLOCK
  5
97B
330
977
100
AcDbEntity
  8
0
100
AcDbBlockBegin
  2
_OPEN30
 70
     0
 10
0.0
 20
0.0
 30
0.0
  3
_OPEN30
  1

  0
LINE
  5
978
330
977
100
AcDbEntity
  8
0
  6
ByBlock
 62
     0
100
AcDbLine
 10
-1.0
 20
0.26794919
 30
0.0
 11
0.0
 21
0.0
 31
0.0
  0
LINE
  5
979
330
977
100
AcDbEntity
  8
0
  6
ByBlock
 62
     0
100
AcDbLine
 10
0.0
 20
0.0
 30
0.0
 11
-1.0
 21
-0.26794919
 31
0.0
  0
LINE
  5
97A
330
977
100
AcDbEntity
  8
0
  6
ByBlock
 62
     0
100
AcDbLine
 10
0.0
 20
0.0
 30
0.0
 11
-1.0
 21
0.0
 31
0.0
  0
ENDBLK
  5
97C
330
977
100
AcDbEntity
  8
0
100
AcDbBlockEnd
  0
BLOCK
  5
4413
330
4407
100
AcDbEntity
  8
0
100
AcDbBlockBegin
  2
*D1
 70
     1
 10
0.0
 20
0.0
 30
0.0
  3
*D1
  1

  0
LINE
  5
48F8
330
4407
100
AcDbEntity
  8
Z_OM_DIM
100
AcDbLine
 10
614.2323472142452
 20
-27.55980578931755
 30
0.0
 11
603.9749853281507
 21
-27.55980578931755
 31
0.0
  0
LINE
  5
48F9
330
4407
100
AcDbEntity
  8
Z_OM_DIM
100
AcDbLine
 10
614.2323472142452
 20
-29.55980578931755
 30
0.0
 11
603.9749853281507
 21
-29.55980578931755
 31
0.0
  0
LINE
  5
48FA
330
4407
100
AcDbEntity
  8
Z_OM_DIM
100
AcDbLine
 10
605.2249853281507
 20
-32.05980578931755
 30
0.0
 11
605.2249853281507
 21
-34.55980578931755
 31
0.0
  0
LINE
  5
48FB
330
4407
100
AcDbEntity
  8
Z_OM_DIM
100
AcDbLine
 10
605.2249853281507
 20
-25.05980578931755
 30
0.0
 11
605.2249853281507
 21
-19.64313912265088
 31
0.0
  0
LINE
  5
48FC
330
4407
100
AcDbEntity
  8
Z_OM_DIM
100
AcDbLine
 10
605.2249853281507
 20
-29.55980578931755
 30
0.0
 11
605.2249853281507
 21
-27.55980578931755
 31
0.0
  0
INSERT
  5
48FD
330
4407
100
AcDbEntity
  8
Z_OM_DIM
100
AcDbBlockReference
  2
_OPEN30
 10
605.2249853281507
 20
-29.55980578931755
 30
0.0
 41
2.5
 42
2.5
 43
2.5
 50
90.0
  0
INSERT
  5
48FE
330
4407
100
AcDbEntity
  8
Z_OM_DIM
100
AcDbBlockReference
  2
_OPEN30
 10
605.2249853281507
 20
-27.55980578931755
 30
0.0
 41
2.5
 42
2.5
 43
2.5
 50
270.0
  0
MTEXT
  5
48FF
330
4407
100
AcDbEntity
  8
Z_OM_DIM
100
AcDbMText
 10
603.3499853281507
 20
-21.10147245598412
 30
0.0
 40
2.5
 41
0.0
 71
     5
 72
     1
  1
2
  7
CatalogDxf
 11
0.0000000000000001
 21
1.0
 31
0.0
 73
     1
 44
1.0
1001
ACAD
1000
MTEXTBEGIN
1070
    73
1070
     1
1070
    44
1040
1.0
1070
    74
1070
     0
1000
MTEXTEND
  0
POINT
  5
4900
330
4407
100
AcDbEntity
  8
DEFPOINTS
 62
     0
100
AcDbPoint
 10
614.8573472142452
 20
-27.55980578931755
 30
0.0
  0
POINT
  5
4901
330
4407
100
AcDbEntity
  8
DEFPOINTS
 62
     0
100
AcDbPoint
 10
614.8573472142452
 20
-29.55980578931755
 30
0.0
  0
POINT
  5
4902
330
4407
100
AcDbEntity
  8
DEFPOINTS
 62
     0
100
AcDbPoint
 10
605.2249853281507
 20
-29.55980578931755
 30
0.0
  0
ENDBLK
  5
4414
330
4407
100
AcDbEntity
  8
0
100
AcDbBlockEnd
  0
BLOCK
  5
4421
330
4416
100
AcDbEntity
  8
0
100
AcDbBlockBegin
  2
*D2
 70
     1
 10
0.0
 20
0.0
 30
0.0
  3
*D2
  1

  0
LINE
  5
4A1C
330
4416
100
AcDbEntity
  8
Z_OM_DIM
100
AcDbLine
 10
614.8573472142452
 20
-30.18480578931755
 30
0.0
 11
614.8573472142452
 21
-41.16735686612344
 31
0.0
  0
LINE
  5
4A1D
330
4416
100
AcDbEntity
  8
Z_OM_DIM
100
AcDbLine
 10
621.3573472142456
 20
-30.18480578931755
 30
0.0
 11
621.3573472142456
 21
-41.16735686612344
 31
0.0
  0
LINE
  5
4A1E
330
4416
100
AcDbEntity
  8
Z_OM_DIM
100
AcDbLine
 10
618.8573472142455
 20
-39.91735686612344
 30
0.0
 11
617.3573472142452
 21
-39.91735686612344
 31
0.0
  0
LINE
  5
4A1F
330
4416
100
AcDbEntity
  8
Z_OM_DIM
100
AcDbLine
 10
614.8573472142452
 20
-39.91735686612344
 30
0.0
 11
606.1073472142452
 21
-39.91735686612344
 31
0.0
  0
INSERT
  5
4A20
330
4416
100
AcDbEntity
  8
Z_OM_DIM
100
AcDbBlockReference
  2
_OPEN30
 10
621.3573472142456
 20
-39.91735686612344
 30
0.0
 41
2.5
 42
2.5
 43
2.5
  0
INSERT
  5
4A21
330
4416
100
AcDbEntity
  8
Z_OM_DIM
100
AcDbBlockReference
  2
_OPEN30
 10
614.8573472142452
 20
-39.91735686612344
 30
0.0
 41
2.5
 42
2.5
 43
2.5
 50
180.0
  0
MTEXT
  5
4A22
330
4416
100
AcDbEntity
  8
Z_OM_DIM
100
AcDbMText
 10
609.2323472142452
 20
-38.04235686612344
 30
0.0
 40
2.5
 41
0.0
 71
     5
 72
     1
  1
6.5
  7
CatalogDxf
 73
     1
 44
1.0
1001
ACAD
1000
MTEXTBEGIN
1070
    73
1070
     1
1070
    44
1040
1.0
1070
    74
1070
     0
1000
MTEXTEND
  0
POINT
  5
4A23
330
4416
100
AcDbEntity
  8
DEFPOINTS
 62
     0
100
AcDbPoint
 10
614.8573472142452
 20
-29.55980578931755
 30
0.0
  0
POINT
  5
4A24
330
4416
100
AcDbEntity
  8
DEFPOINTS
 62
     0
100
AcDbPoint
 10
621.3573472142456
 20
-29.55980578931755
 30
0.0
  0
POINT
  5
4A25
330
4416
100
AcDbEntity
  8
DEFPOINTS
 62
     0
100
AcDbPoint
 10
621.3573472142456
 20
-39.91735686612344
 30
0.0
  0
ENDBLK
  5
4422
330
4416
100
AcDbEntity
  8
0
100
AcDbBlockEnd
  0
BLOCK
  5
444C
330
4442
100
AcDbEntity
  8
0
100
AcDbBlockBegin
  2
*D3
 70
     1
 10
0.0
 20
0.0
 30
0.0
  3
*D3
  1

  0
LINE
  5
4942
330
4442
100
AcDbEntity
  8
Z_OM_DIM
100
AcDbLine
 10
623.7573472142452
 20
-38.18480578931755
 30
0.0
 11
623.7573472142452
 21
-50.43294155492469
 31
0.0
  0
LINE
  5
4943
330
4442
100
AcDbEntity
  8
Z_OM_DIM
100
AcDbLine
 10
654.4573472142452
 20
-36.68480578931755
 30
0.0
 11
654.4573472142452
 21
-50.43294155492469
 31
0.0
  0
LINE
  5
4944
330
4442
100
AcDbEntity
  8
Z_OM_DIM
100
AcDbLine
 10
626.2573472142451
 20
-49.18294155492469
 30
0.0
 11
651.9573472142452
 21
-49.18294155492469
 31
0.0
  0
INSERT
  5
4945
330
4442
100
AcDbEntity
  8
Z_OM_DIM
100
AcDbBlockReference
  2
_OPEN30
 10
623.7573472142452
 20
-49.18294155492469
 30
0.0
 41
2.5
 42
2.5
 43
2.5
 50
180.0
  0
INSERT
  5
4946
330
4442
100
AcDbEntity
  8
Z_OM_DIM
100
AcDbBlockReference
  2
_OPEN30
 10
654.4573472142452
 20
-49.18294155492469
 30
0.0
 41
2.5
 42
2.5
 43
2.5
  0
MTEXT
  5
4947
330
4442
100
AcDbEntity
  8
Z_OM_DIM
100
AcDbMText
 10
639.1073472142452
 20
-47.30794155492469
 30
0.0
 40
2.5
 41
0.0
 71
     5
 72
     1
  1
30.7
  7
CatalogDxf
 73
     1
 44
1.0
1001
ACAD
1000
MTEXTBEGIN
1070
    73
1070
     1
1070
    44
1040
1.0
1070
    74
1070
     0
1000
MTEXTEND
  0
POINT
  5
4948
330
4442
100
AcDbEntity
  8
DEFPOINTS
 62
     0
100
AcDbPoint
 10
623.7573472142452
 20
-37.55980578931755
 30
0.0
  0
POINT
  5
4949
330
4442
100
AcDbEntity
  8
DEFPOINTS
 62
     0
100
AcDbPoint
 10
654.4573472142452
 20
-36.05980578931755
 30
0.0
  0
POINT
  5
494A
330
4442
100
AcDbEntity
  8
DEFPOINTS
 62
     0
100
AcDbPoint
 10
654.4573472142452
 20
-49.18294155492469
 30
0.0
  0
ENDBLK
  5
444D
330
4442
100
AcDbEntity
  8
0
100
AcDbBlockEnd
  0
BLOCK
  5
445B
330
4451
100
AcDbEntity
  8
0
100
AcDbBlockBegin
  2
*D4
 70
     1
 10
0.0
 20
0.0
 30
0.0
  3
*D4
  1

  0
LINE
  5
49BF
330
4451
100
AcDbEntity
  8
Z_OM_DIM
100
AcDbLine
 10
646.4573472142452
 20
-87.43480578931755
 30
0.0
 11
646.4573472142452
 21
-64.02735068422053
 31
0.0
  0
LINE
  5
49C0
330
4451
100
AcDbEntity
  8
Z_OM_DIM
100
AcDbLine
 10
632.4573472142454
 20
-78.43480578931755
 30
0.0
 11
632.4573472142454
 21
-64.02735068422053
 31
0.0
  0
LINE
  5
49C1
330
4451
100
AcDbEntity
  8
Z_OM_DIM
100
AcDbLine
 10
643.9573472142452
 20
-65.27735068422053
 30
0.0
 11
634.9573472142453
 21
-65.27735068422053
 31
0.0
  0
INSERT
  5
49C2
330
4451
100
AcDbEntity
  8
Z_OM_DIM
100
AcDbBlockReference
  2
_OPEN30
 10
646.4573472142452
 20
-65.27735068422053
 30
0.0
 41
2.5
 42
2.5
 43
2.5
  0
INSERT
  5
49C3
330
4451
100
AcDbEntity
  8
Z_OM_DIM
100
AcDbBlockReference
  2
_OPEN30
 10
632.4573472142454
 20
-65.27735068422053
 30
0.0
 41
2.5
 42
2.5
 43
2.5
 50
180.0
  0
MTEXT
  5
49C4
330
4451
100
AcDbEntity
  8
Z_OM_DIM
100
AcDbMText
 10
639.4573472142454
 20
-63.40235068422053
 30
0.0
 40
2.5
 41
0.0
 71
     5
 72
     1
  1
14
  7
CatalogDxf
 73
     1
 44
1.0
1001
ACAD
1000
MTEXTBEGIN
1070
    73
1070
     1
1070
    44
1040
1.0
1070
    74
1070
     0
1000
MTEXTEND
  0
POINT
  5
49C5
330
4451
100
AcDbEntity
  8
DEFPOINTS
 62
     0
100
AcDbPoint
 10
646.4573472142452
 20
-88.05980578931755
 30
0.0
  0
POINT
  5
49C6
330
4451
100
AcDbEntity
  8
DEFPOINTS
 62
     0
100
AcDbPoint
 10
632.4573472142454
 20
-79.05980578931755
 30
0.0
  0
POINT
  5
49C7
330
4451
100
AcDbEntity
  8
DEFPOINTS
 62
     0
100
AcDbPoint
 10
632.4573472142454
 20
-65.27735068422053
 30
0.0
  0
ENDBLK
  5
445C
330
4451
100
AcDbEntity
  8
0
100
AcDbBlockEnd
  0
BLOCK
  5
4468
330
445E
100
AcDbEntity
  8
0
100
AcDbBlockBegin
  2
*D5
 70
     1
 10
0.0
 20
0.0
 30
0.0
  3
*D5
  1

  0
LINE
  5
49C8
330
445E
100
AcDbEntity
  8
Z_OM_DIM
100
AcDbLine
 10
632.4573472142454
 20
-78.43480578931755
 30
0.0
 11
632.4573472142454
 21
-64.02735068422053
 31
0.0
  0
LINE
  5
49C9
330
445E
100
AcDbEntity
  8
Z_OM_DIM
100
AcDbLine
 10
617.3573472142455
 20
-80.59153804594831
 30
0.0
 11
617.3573472142455
 21
-64.02735068422053
 31
0.0
  0
LINE
  5
49CA
330
445E
100
AcDbEntity
  8
Z_OM_DIM
100
AcDbLine
 10
629.9573472142453
 20
-65.27735068422053
 30
0.0
 11
619.8573472142456
 21
-65.27735068422053
 31
0.0
  0
INSERT
  5
49CB
330
445E
100
AcDbEntity
  8
Z_OM_DIM
100
AcDbBlockReference
  2
_OPEN30
 10
632.4573472142454
 20
-65.27735068422053
 30
0.0
 41
2.5
 42
2.5
 43
2.5
  0
INSERT
  5
49CC
330
445E
100
AcDbEntity
  8
Z_OM_DIM
100
AcDbBlockReference
  2
_OPEN30
 10
617.3573472142455
 20
-65.27735068422053
 30
0.0
 41
2.5
 42
2.5
 43
2.5
 50
180.0
  0
MTEXT
  5
49CD
330
445E
100
AcDbEntity
  8
Z_OM_DIM
100
AcDbMText
 10
624.9073472142454
 20
-63.40235068422053
 30
0.0
 40
2.5
 41
0.0
 71
     5
 72
     1
  1
15.1
  7
CatalogDxf
 73
     1
 44
1.0
1001
ACAD
1000
MTEXTBEGIN
1070
    73
1070
     1
1070
    44
1040
1.0
1070
    74
1070
     0
1000
MTEXTEND
  0
POINT
  5
49CE
330
445E
100
AcDbEntity
  8
DEFPOINTS
 62
     0
100
AcDbPoint
 10
632.4573472142454
 20
-79.05980578931755
 30
0.0
  0
POINT
  5
49CF
330
445E
100
AcDbEntity
  8
DEFPOINTS
 62
     0
100
AcDbPoint
 10
617.3573472142455
 20
-81.21653804594831
 30
0.0
  0
POINT
  5
49D0
330
445E
100
AcDbEntity
  8
DEFPOINTS
 62
     0
100
AcDbPoint
 10
617.3573472142455
 20
-65.27735068422053
 30
0.0
  0
ENDBLK
  5
4469
330
445E
100
AcDbEntity
  8
0
100
AcDbBlockEnd
  0
BLOCK
  5
447A
330
446B
100
AcDbEntity
  8
0
100
AcDbBlockBegin
  2
*D6
 70
     1
 10
0.0
 20
0.0
 30
0.0
  3
*D6
  1

  0
LINE
  5
49D1
330
446B
100
AcDbEntity
  8
Z_OM_DIM
100
AcDbLine
 10
617.3573472142455
 20
-80.59153804594831
 30
0.0
 11
617.3573472142455
 21
-64.02735068422053
 31
0.0
  0
LINE
  5
49D2
330
446B
100
AcDbEntity
  8
Z_OM_DIM
100
AcDbLine
 10
614.8573472142452
 20
-83.44380578931756
 30
0.0
 11
614.8573472142452
 21
-64.02735068422053
 31
0.0
  0
LINE
  5
49D3
330
446B
100
AcDbEntity
  8
Z_OM_DIM
100
AcDbLine
 10
619.8573472142456
 20
-65.27735068422053
 30
0.0
 11
622.3573472142455
 21
-65.27735068422053
 31
0.0
  0
LINE
  5
49D4
330
446B
100
AcDbEntity
  8
Z_OM_DIM
100
AcDbLine
 10
612.3573472142452
 20
-65.27735068422053
 30
0.0
 11
603.6073472142452
 21
-65.27735068422053
 31
0.0
  0
LINE
  5
49D5
330
446B
100
AcDbEntity
  8
Z_OM_DIM
100
AcDbLine
 10
617.3573472142455
 20
-65.27735068422053
 30
0.0
 11
614.8573472142452
 21
-65.27735068422053
 31
0.0
  0
INSERT
  5
49D6
330
446B
100
AcDbEntity
  8
Z_OM_DIM
100
AcDbBlockReference
  2
_OPEN30
 10
617.3573472142455
 20
-65.27735068422053
 30
0.0
 41
2.5
 42
2.5
 43
2.5
 50
180.0
  0
INSERT
  5
49D7
330
446B
100
AcDbEntity
  8
Z_OM_DIM
100
AcDbBlockReference
  2
_OPEN30
 10
614.8573472142452
 20
-65.27735068422053
 30
0.0
 41
2.5
 42
2.5
 43
2.5
  0
MTEXT
  5
49D8
330
446B
100
AcDbEntity
  8
Z_OM_DIM
100
AcDbMText
 10
606.7323472142452
 20
-63.40235068422053
 30
0.0
 40
2.5
 41
0.0
 71
     5
 72
     1
  1
2.5
  7
CatalogDxf
 73
     1
 44
1.0
1001
ACAD
1000
MTEXTBEGIN
1070
    73
1070
     1
1070
    44
1040
1.0
1070
    74
1070
     0
1000
MTEXTEND
  0
POINT
  5
49D9
330
446B
100
AcDbEntity
  8
DEFPOINTS
 62
     0
100
AcDbPoint
 10
617.3573472142455
 20
-81.21653804594831
 30
0.0
  0
POINT
  5
49DA
330
446B
100
AcDbEntity
  8
DEFPOINTS
 62
     0
100
AcDbPoint
 10
614.8573472142452
 20
-84.06880578931756
 30
0.0
  0
POINT
  5
49DB
330
446B
100
AcDbEntity
  8
DEFPOINTS
 62
     0
100
AcDbPoint
 10
614.8573472142452
 20
-65.27735068422053
 30
0.0
  0
ENDBLK
  5
447B
330
446B
100
AcDbEntity
  8
0
100
AcDbBlockEnd
  0
BLOCK
  5
44A0
330
4496
100
AcDbEntity
  8
0
100
AcDbBlockBegin
  2
*D7
 70
     1
 10
0.0
 20
0.0
 30
0.0
  3
*D7
  1

  0
LINE
  5
4A12
330
4496
100
AcDbEntity
  8
Z_OM_DIM
100
AcDbLine
 10
636.0823472142453
 20
-82.05980578931756
 30
0.0
 11
669.3945820348917
 21
-82.05980578931756
 31
0.0
  0
LINE
  5
4A13
330
4496
100
AcDbEntity
  8
Z_OM_DIM
100
AcDbLine
 10
650.0823472142452
 20
-91.05980578931754
 30
0.0
 11
669.3945820348917
 21
-91.05980578931754
 31
0.0
  0
LINE
  5
4A14
330
4496
100
AcDbEntity
  8
Z_OM_DIM
100
AcDbLine
 10
668.1445820348917
 20
-84.55980578931756
 30
0.0
 11
668.1445820348917
 21
-88.55980578931754
 31
0.0
  0
INSERT
  5
4A15
330
4496
100
AcDbEntity
  8
Z_OM_DIM
100
AcDbBlockReference
  2
_OPEN30
 10
668.1445820348917
 20
-82.05980578931756
 30
0.0
 41
2.5
 42
2.5
 43
2.5
 50
90.0
  0
INSERT
  5
4A16
330
4496
100
AcDbEntity
  8
Z_OM_DIM
100
AcDbBlockReference
  2
_OPEN30
 10
668.1445820348917
 20
-91.05980578931754
 30
0.0
 41
2.5
 42
2.5
 43
2.5
 50
270.0
  0
MTEXT
  5
4A17
330
4496
100
AcDbEntity
  8
Z_OM_DIM
100
AcDbMText
 10
666.2695820348917
 20
-86.55980578931744
 30
0.0
 40
2.5
 41
0.0
 71
     5
 72
     1
  1
9
  7
CatalogDxf
 11
0.0000000000000001
 21
1.0
 31
0.0
 73
     1
 44
1.0
1001
ACAD
1000
MTEXTBEGIN
1070
    73
1070
     1
1070
    44
1040
1.0
1070
    74
1070
     0
1000
MTEXTEND
  0
POINT
  5
4A18
330
4496
100
AcDbEntity
  8
DEFPOINTS
 62
     0
100
AcDbPoint
 10
635.4573472142454
 20
-82.05980578931756
 30
0.0
  0
POINT
  5
4A19
330
4496
100
AcDbEntity
  8
DEFPOINTS
 62
     0
100
AcDbPoint
 10
649.4573472142453
 20
-91.05980578931754
 30
0.0
  0
POINT
  5
4A1A
330
4496
100
AcDbEntity
  8
DEFPOINTS
 62
     0
100
AcDbPoint
 10
668.1445820348917
 20
-91.05980578931754
 30
0.0
  0
ENDBLK
  5
44A1
330
4496
100
AcDbEntity
  8
0
100
AcDbBlockEnd
  0
BLOCK
  5
44AF
330
44A3
100
AcDbEntity
  8
0
100
AcDbBlockBegin
  2
*D8
 70
     1
 10
0.0
 20
0.0
 30
0.0
  3
*D8
  1

  0
LINE
  5
4955
330
44A3
100
AcDbEntity
  8
Z_OM_DIM
100
AcDbLine
 10
614.7323472142452
 20
-83.56880578931756
 30
0.0
 11
603.9749853281507
 21
-83.56880578931756
 31
0.0
  0
LINE
  5
4956
330
44A3
100
AcDbEntity
  8
Z_OM_DIM
100
AcDbLine
 10
614.7323472142452
 20
-89.5508057893176
 30
0.0
 11
603.9749853281507
 21
-89.55080578931758
 31
0.0
  0
LINE
  5
4957
330
44A3
100
AcDbEntity
  8
Z_OM_DIM
100
AcDbLine
 10
605.2249853281507
 20
-81.06880578931756
 30
0.0
 11
605.2249853281507
 21
-78.56880578931755
 31
0.0
  0
LINE
  5
4958
330
44A3
100
AcDbEntity
  8
Z_OM_DIM
100
AcDbLine
 10
605.2249853281507
 20
-92.05080578931758
 30
0.0
 11
605.2249853281507
 21
-94.55080578931758
 31
0.0
  0
LINE
  5
4959
330
44A3
100
AcDbEntity
  8
Z_OM_DIM
100
AcDbLine
 10
605.2249853281507
 20
-83.56880578931756
 30
0.0
 11
605.2249853281507
 21
-89.55080578931758
 31
0.0
  0
INSERT
  5
495A
330
44A3
100
AcDbEntity
  8
Z_OM_DIM
100
AcDbBlockReference
  2
_OPEN30
 10
605.2249853281507
 20
-83.56880578931756
 30
0.0
 41
2.5
 42
2.5
 43
2.5
 50
270.0
  0
INSERT
  5
495B
330
44A3
100
AcDbEntity
  8
Z_OM_DIM
100
AcDbBlockReference
  2
_OPEN30
 10
605.2249853281507
 20
-89.55080578931758
 30
0.0
 41
2.5
 42
2.5
 43
2.5
 50
90.0
  0
MTEXT
  5
495C
330
44A3
100
AcDbEntity
  8
Z_OM_DIM
100
AcDbMText
 10
603.3499853281507
 20
-86.55980578931748
 30
0.0
 40
2.5
 41
0.0
 71
     5
 72
     1
  1
%%c6
  7
CatalogDxf
 11
0.0000000000000001
 21
1.0
 31
0.0
 73
     1
 44
1.0
1001
ACAD
1000
MTEXTBEGIN
1070
    73
1070
     1
1070
    44
1040
1.0
1070
    74
1070
     0
1000
MTEXTEND
  0
POINT
  5
495D
330
44A3
100
AcDbEntity
  8
DEFPOINTS
 62
     0
100
AcDbPoint
 10
615.3573472142452
 20
-83.56880578931756
 30
0.0
  0
POINT
  5
495E
330
44A3
100
AcDbEntity
  8
DEFPOINTS
 62
     0
100
AcDbPoint
 10
615.3573472142452
 20
-89.5508057893176
 30
0.0
  0
POINT
  5
495F
330
44A3
100
AcDbEntity
  8
DEFPOINTS
 62
     0
100
AcDbPoint
 10
605.2249853281507
 20
-89.55080578931758
 30
0.0
  0
ENDBLK
  5
44B0
330
44A3
100
AcDbEntity
  8
0
100
AcDbBlockEnd
  0
BLOCK
  5
44C9
330
44BF
100
AcDbEntity
  8
0
100
AcDbBlockBegin
  2
*D9
 70
     1
 10
0.0
 20
0.0
 30
0.0
  3
*D9
  1

  0
LINE
  5
4925
330
44BF
100
AcDbEntity
  8
Z_OM_DIM
100
AcDbLine
 10
548.7053255727776
 20
-77.93480578931755
 30
0.0
 11
548.7053255727776
 21
-66.52735068422053
 31
0.0
  0
LINE
  5
4926
330
44BF
100
AcDbEntity
  8
Z_OM_DIM
100
AcDbLine
 10
566.7053255727775
 20
-77.93480578931755
 30
0.0
 11
566.7053255727775
 21
-66.52735068422053
 31
0.0
  0
LINE
  5
4927
330
44BF
100
AcDbEntity
  8
Z_OM_DIM
100
AcDbLine
 10
551.2053255727776
 20
-67.77735068422053
 30
0.0
 11
564.2053255727774
 21
-67.77735068422053
 31
0.0
  0
INSERT
  5
4928
330
44BF
100
AcDbEntity
  8
Z_OM_DIM
100
AcDbBlockReference
  2
_OPEN30
 10
548.7053255727776
 20
-67.77735068422053
 30
0.0
 41
2.5
 42
2.5
 43
2.5
 50
180.0
  0
INSERT
  5
4929
330
44BF
100
AcDbEntity
  8
Z_OM_DIM
100
AcDbBlockReference
  2
_OPEN30
 10
566.7053255727775
 20
-67.77735068422053
 30
0.0
 41
2.5
 42
2.5
 43
2.5
  0
MTEXT
  5
492A
330
44BF
100
AcDbEntity
  8
Z_OM_DIM
100
AcDbMText
 10
557.7053255727776
 20
-65.90235068422053
 30
0.0
 40
2.5
 41
0.0
 71
     5
 72
     1
  1
18
  7
CatalogDxf
 73
     1
 44
1.0
1001
ACAD
1000
MTEXTBEGIN
1070
    73
1070
     1
1070
    44
1040
1.0
1070
    74
1070
     0
1000
MTEXTEND
  0
POINT
  5
492B
330
44BF
100
AcDbEntity
  8
DEFPOINTS
 62
     0
100
AcDbPoint
 10
548.7053255727776
 20
-78.55980578931755
 30
0.0
  0
POINT
  5
492C
330
44BF
100
AcDbEntity
  8
DEFPOINTS
 62
     0
100
AcDbPoint
 10
566.7053255727775
 20
-78.55980578931755
 30
0.0
  0
POINT
  5
492D
330
44BF
100
AcDbEntity
  8
DEFPOINTS
 62
     0
100
AcDbPoint
 10
566.7053255727775
 20
-67.77735068422053
 30
0.0
  0
ENDBLK
  5
44CA
330
44BF
100
AcDbEntity
  8
0
100
AcDbBlockEnd
  0
BLOCK
  5
44D6
330
44CC
100
AcDbEntity
  8
0
100
AcDbBlockBegin
  2
*D10
 70
     1
 10
0.0
 20
0.0
 30
0.0
  3
*D10
  1

  0
LINE
  5
4A00
330
44CC
100
AcDbEntity
  8
Z_OM_DIM
100
AcDbLine
 10
567.3303255727774
 20
-78.55980578931758
 30
0.0
 11
581.9043472834807
 21
-78.55980578931758
 31
0.0
  0
LINE
  5
4A01
330
44CC
100
AcDbEntity
  8
Z_OM_DIM
100
AcDbLine
 10
567.3303255727774
 20
-94.55980578931756
 30
0.0
 11
581.9043472834807
 21
-94.55980578931756
 31
0.0
  0
LINE
  5
4A02
330
44CC
100
AcDbEntity
  8
Z_OM_DIM
100
AcDbLine
 10
580.6543472834808
 20
-81.05980578931758
 30
0.0
 11
580.6543472834808
 21
-92.05980578931756
 31
0.0
  0
INSERT
  5
4A03
330
44CC
100
AcDbEntity
  8
Z_OM_DIM
100
AcDbBlockReference
  2
_OPEN30
 10
580.6543472834808
 20
-78.55980578931758
 30
0.0
 41
2.5
 42
2.5
 43
2.5
 50
90.0
  0
INSERT
  5
4A04
330
44CC
100
AcDbEntity
  8
Z_OM_DIM
100
AcDbBlockReference
  2
_OPEN30
 10
580.6543472834808
 20
-94.55980578931756
 30
0.0
 41
2.5
 42
2.5
 43
2.5
 50
270.0
  0
MTEXT
  5
4A05
330
44CC
100
AcDbEntity
  8
Z_OM_DIM
100
AcDbMText
 10
578.7793472834807
 20
-86.55980578931746
 30
0.0
 40
2.5
 41
0.0
 71
     5
 72
     1
  1
16
  7
CatalogDxf
 11
0.0000000000000001
 21
1.0
 31
0.0
 73
     1
 44
1.0
1001
ACAD
1000
MTEXTBEGIN
1070
    73
1070
     1
1070
    44
1040
1.0
1070
    74
1070
     0
1000
MTEXTEND
  0
POINT
  5
4A06
330
44CC
100
AcDbEntity
  8
DEFPOINTS
 62
     0
100
AcDbPoint
 10
566.7053255727775
 20
-78.55980578931758
 30
0.0
  0
POINT
  5
4A07
330
44CC
100
AcDbEntity
  8
DEFPOINTS
 62
     0
100
AcDbPoint
 10
566.7053255727775
 20
-94.55980578931756
 30
0.0
  0
POINT
  5
4A08
330
44CC
100
AcDbEntity
  8
DEFPOINTS
 62
     0
100
AcDbPoint
 10
580.6543472834808
 20
-94.55980578931756
 30
0.0
  0
ENDBLK
  5
44D7
330
44CC
100
AcDbEntity
  8
0
100
AcDbBlockEnd
  0
BLOCK
  5
4664
330
465A
100
AcDbEntity
  8
0
100
AcDbBlockBegin
  2
*D11
 70
     1
 10
0.0
 20
0.0
 30
0.0
  3
*D11
  1

  0
LINE
  5
4972
330
465A
100
AcDbEntity
  8
Z_OM_DIM
100
AcDbLine
 10
654.4573472142453
 20
-36.68480578931755
 30
0.0
 11
654.4573472142453
 21
-50.43294155492469
 31
0.0
  0
LINE
  5
4973
330
465A
100
AcDbEntity
  8
Z_OM_DIM
100
AcDbLine
 10
686.4719507135593
 20
-29.93480578931754
 30
0.0
 11
686.4719507135593
 21
-50.43294155492469
 31
0.0
  0
LINE
  5
4974
330
465A
100
AcDbEntity
  8
Z_OM_DIM
100
AcDbLine
 10
656.9573472142454
 20
-49.18294155492469
 30
0.0
 11
683.9719507135592
 21
-49.18294155492469
 31
0.0
  0
INSERT
  5
4975
330
465A
100
AcDbEntity
  8
Z_OM_DIM
100
AcDbBlockReference
  2
_OPEN30
 10
654.4573472142453
 20
-49.18294155492469
 30
0.0
 41
2.5
 42
2.5
 43
2.5
 50
180.0
  0
INSERT
  5
4976
330
465A
100
AcDbEntity
  8
Z_OM_DIM
100
AcDbBlockReference
  2
_OPEN30
 10
686.4719507135593
 20
-49.18294155492469
 30
0.0
 41
2.5
 42
2.5
 43
2.5
  0
MTEXT
  5
4977
330
465A
100
AcDbEntity
  8
Z_OM_DIM
100
AcDbMText
 10
670.4646489639023
 20
-47.30794155492469
 30
0.0
 40
2.5
 41
0.0
 71
     5
 72
     1
  1
180 - 200
  7
CatalogDxf
 73
     1
 44
1.0
1001
ACAD
1000
MTEXTBEGIN
1070
    73
1070
     1
1070
    44
1040
1.0
1070
    74
1070
     0
1000
MTEXTEND
  0
POINT
  5
4978
330
465A
100
AcDbEntity
  8
DEFPOINTS
 62
     0
100
AcDbPoint
 10
654.4573472142453
 20
-36.05980578931755
 30
0.0
  0
POINT
  5
4979
330
465A
100
AcDbEntity
  8
DEFPOINTS
 62
     0
100
AcDbPoint
 10
686.4719507135593
 20
-29.30980578931754
 30
0.0
  0
POINT
  5
497A
330
465A
100
AcDbEntity
  8
DEFPOINTS
 62
     0
100
AcDbPoint
 10
686.4719507135593
 20
-49.18294155492469
 30
0.0
  0
ENDBLK
  5
4665
330
465A
100
AcDbEntity
  8
0
100
AcDbBlockEnd
  0
BLOCK
  5
4987
330
497D
100
AcDbEntity
  8
0
100
AcDbBlockBegin
  2
*D12
 70
     1
 10
0.0
 20
0.0
 30
0.0
  3
*D12
  1

  0
LINE
  5
49F7
330
497D
100
AcDbEntity
  8
Z_OM_DIM
100
AcDbLine
 10
623.7573472142452
 20
-77.93480578931755
 30
0.0
 11
623.7573472142452
 21
-69.72518870200895
 31
0.0
  0
LINE
  5
49F8
330
497D
100
AcDbEntity
  8
Z_OM_DIM
100
AcDbLine
 10
632.4573472142454
 20
-78.43480578931755
 30
0.0
 11
632.4573472142454
 21
-69.72518870200895
 31
0.0
  0
LINE
  5
49F9
330
497D
100
AcDbEntity
  8
Z_OM_DIM
100
AcDbLine
 10
626.2573472142451
 20
-70.97518870200895
 30
0.0
 11
629.9573472142453
 21
-70.97518870200895
 31
0.0
  0
MTEXT
  5
49FA
330
497D
100
AcDbEntity
  8
Z_OM_DIM
100
AcDbMText
 10
628.2250756154849
 20
-68.32453375381004
 30
0.0
 40
2.5
 41
0.0
 71
     5
 72
     1
  1
8.7
  7
CatalogDxf
 73
     1
 44
1.0
1001
ACAD
1000
MTEXTBEGIN
1070
    73
1070
     1
1070
    44
1040
1.0
1070
    74
1070
     0
1000
MTEXTEND
  0
INSERT
  5
49FB
330
497D
100
AcDbEntity
  8
Z_OM_DIM
100
AcDbBlockReference
  2
_OPEN30
 10
623.7573472142452
 20
-70.97518870200895
 30
0.0
 41
2.5
 42
2.5
 43
2.5
 50
180.0
  0
INSERT
  5
49FC
330
497D
100
AcDbEntity
  8
Z_OM_DIM
100
AcDbBlockReference
  2
_OPEN30
 10
632.4573472142454
 20
-70.97518870200895
 30
0.0
 41
2.5
 42
2.5
 43
2.5
  0
POINT
  5
49FD
330
497D
100
AcDbEntity
  8
DEFPOINTS
 62
     0
100
AcDbPoint
 10
623.7573472142452
 20
-78.55980578931755
 30
0.0
  0
POINT
  5
49FE
330
497D
100
AcDbEntity
  8
DEFPOINTS
 62
     0
100
AcDbPoint
 10
632.4573472142454
 20
-79.05980578931755
 30
0.0
  0
POINT
  5
49FF
330
497D
100
AcDbEntity
  8
DEFPOINTS
 62
     0
100
AcDbPoint
 10
632.4573472142454
 20
-70.97518870200895
 30
0.0
  0
ENDBLK
  5
4988
330
497D
100
AcDbEntity
  8
0
100
AcDbBlockEnd
  0
ENDSEC
  0
SECTION
  2
ENTITIES
  0
MTEXT
  5
4130
330
17
100
AcDbEntity
  8
Z_OM_DIM
100
AcDbMText
 10
662.501115762133
 20
-132.7473815513037
 30
0.0
 40
3.0
 41
93.92693936784551
 71
     1
 72
     5
  1
TAKAHA KIKO Co., Ltd\PCAD DRAWING No. CA0630
  7
CatalogDxf
 73
     1
 44
1.0
1001
ACAD
1000
MTEXTBEGIN
1070
    73
1070
     1
1070
    44
1040
1.0
1070
    74
1070
     0
1000
MTEXTEND
  0
MTEXT
  5
42AA
330
17
100
AcDbEntity
  8
Z_OM_DIM
100
AcDbMText
 10
508.7974174697975
 20
-3.018785966199518
 30
0.0
 40
3.0
 41
47.03999999999999
 71
     1
 72
     1
  1
Adsorbed position
  7
CatalogDxf
 73
     1
 44
1.0
1001
ACAD
1000
MTEXTBEGIN
1070
    73
1070
     1
1070
    44
1040
1.0
1070
    74
1070
     0
1000
MTEXTEND
  0
LINE
  5
4365
330
17
100
AcDbEntity
  8
0
100
AcDbLine
 10
624.4573472142453
 20
-83.04730578931756
 30
0.0
 11
624.4573472142453
 21
-90.07230578931757
 31
0.0
  0
LINE
  5
4366
330
17
100
AcDbEntity
  8
0
100
AcDbLine
 10
623.7573472142452
 20
-37.55980578931755
 30
0.0
 11
652.9573472142454
 21
-37.55980578931755
 31
0.0
  0
ARC
  5
4368
330
17
100
AcDbEntity
  8
0
100
AcDbCircle
 10
652.9573472142454
 20
-21.05980578931755
 30
0.0
 40
1.5
100
AcDbArc
 50
0.0
 51
90.0
  0
ARC
  5
4369
330
17
100
AcDbEntity
  8
0
100
AcDbCircle
 10
652.9573472142454
 20
-36.05980578931755
 30
0.0
 40
1.5
100
AcDbArc
 50
270.0
 51
0.0
  0
LINE
  5
436A
330
17
100
AcDbEntity
  8
0
100
AcDbLine
 10
652.9573472142454
 20
-19.55980578931755
 30
0.0
 11
623.7573472142452
 21
-19.55980578931755
 31
0.0
  0
LINE
  5
436B
330
17
100
AcDbEntity
  8
0
100
AcDbLine
 10
623.7573472142452
 20
-19.55980578931755
 30
0.0
 11
623.7573472142452
 21
-21.15980578931758
 31
0.0
  0
LINE
  5
436C
330
17
100
AcDbEntity
  8
0
100
AcDbLine
 10
623.7573472142452
 20
-21.15980578931758
 30
0.0
 11
652.8573472142452
 21
-21.15980578931758
 31
0.0
  0
LINE
  5
436D
330
17
100
AcDbEntity
  8
0
100
AcDbLine
 10
627.6573472142452
 20
-21.65980578931757
 30
0.0
 11
652.0573472142455
 21
-21.65980578931757
 31
0.0
  0
LINE
  5
436E
330
17
100
AcDbEntity
  8
0
100
AcDbLine
 10
652.8573472142452
 20
-21.15980578931758
 30
0.0
 11
652.8573472142452
 21
-35.95980578931758
 31
0.0
  0
LINE
  5
436F
330
17
100
AcDbEntity
  8
0
100
AcDbLine
 10
652.8573472142452
 20
-35.95980578931758
 30
0.0
 11
623.7573472142452
 21
-35.95980578931758
 31
0.0
  0
LINE
  5
4370
330
17
100
AcDbEntity
  8
0
100
AcDbLine
 10
623.7573472142452
 20
-35.95980578931758
 30
0.0
 11
623.7573472142452
 21
-37.55980578931755
 31
0.0
  0
LINE
  5
4371
330
17
100
AcDbEntity
  8
0
100
AcDbLine
 10
623.7573472142452
 20
-94.55980578931756
 30
0.0
 11
623.7573472142452
 21
-90.07230578931757
 31
0.0
  0
LINE
  5
4372
330
17
100
AcDbEntity
  8
0
100
AcDbLine
 10
623.7573472142452
 20
-90.07230578931757
 30
0.0
 11
626.4573472142452
 21
-90.07230578931757
 31
0.0
  0
LINE
  5
4373
330
17
100
AcDbEntity
  8
0
100
AcDbLine
 10
626.4573472142452
 20
-90.07230578931757
 30
0.0
 11
626.4573472142452
 21
-83.04730578931756
 31
0.0
  0
LINE
  5
4374
330
17
100
AcDbEntity
  8
0
100
AcDbLine
 10
626.4573472142452
 20
-83.04730578931756
 30
0.0
 11
623.7573472142452
 21
-83.04730578931756
 31
0.0
  0
LINE
  5
4375
330
17
100
AcDbEntity
  8
0
100
AcDbLine
 10
623.7573472142452
 20
-83.04730578931756
 30
0.0
 11
623.7573472142452
 21
-78.55980578931755
 31
0.0
  0
LINE
  5
4376
330
17
100
AcDbEntity
  8
0
100
AcDbLine
 10
623.7573472142452
 20
-78.55980578931755
 30
0.0
 11
654.4573472142452
 21
-78.55980578931755
 31
0.0
  0
LINE
  5
4377
330
17
100
AcDbEntity
  8
0
100
AcDbLine
 10
654.4573472142452
 20
-78.55980578931755
 30
0.0
 11
654.4573472142452
 21
-94.55980578931756
 31
0.0
  0
LINE
  5
4378
330
17
100
AcDbEntity
  8
0
100
AcDbLine
 10
654.4573472142452
 20
-94.55980578931756
 30
0.0
 11
623.7573472142452
 21
-94.55980578931756
 31
0.0
  0
CIRCLE
  5
4379
330
17
100
AcDbEntity
  8
additional
  6
HIDDEN2
 48
0.5
100
AcDbCircle
 10
646.4573472142452
 20
-91.05980578931754
 30
0.0
 40
1.5
  0
CIRCLE
  5
437A
330
17
100
AcDbEntity
  8
0
100
AcDbCircle
 10
646.4573472142452
 20
-91.05980578931754
 30
0.0
 40
1.25
  0
CIRCLE
  5
437B
330
17
100
AcDbEntity
  8
additional
  6
HIDDEN2
 48
0.5
100
AcDbCircle
 10
632.4573472142454
 20
-82.05980578931756
 30
0.0
 40
1.5
  0
CIRCLE
  5
437C
330
17
100
AcDbEntity
  8
0
100
AcDbCircle
 10
632.4573472142454
 20
-82.05980578931756
 30
0.0
 40
1.25
  0
LINE
  5
437D
330
17
100
AcDbEntity
  8
additional
100
AcDbLine
 10
632.4573472142453
 20
-34.08233048010899
 30
0.0
 11
632.4573472142451
 21
-39.47720913885039
 31
0.0
  0
LINE
  5
437E
330
17
100
AcDbEntity
  8
additional
100
AcDbLine
 10
646.4573472142452
 20
-34.08233048010951
 30
0.0
 11
646.4573472142451
 21
-39.4772091388509
 31
0.0
  0
LINE
  5
437F
330
17
100
AcDbEntity
  8
0
100
AcDbLine
 10
626.4573472142452
 20
-21.15980578931758
 30
0.0
 11
626.4573472142452
 21
-35.95980578931758
 31
0.0
  0
LINE
  5
4380
330
17
100
AcDbEntity
  8
0
100
AcDbLine
 10
624.4573472142453
 20
-21.15980578931758
 30
0.0
 11
624.4573472142453
 21
-35.95980578931758
 31
0.0
  0
LINE
  5
4381
330
17
100
AcDbEntity
  8
0
100
AcDbLine
 10
624.4573472142453
 20
-83.04730578931756
 30
0.0
 11
624.4573472142453
 21
-90.07230578931757
 31
0.0
  0
LINE
  5
4382
330
17
100
AcDbEntity
  8
0
100
AcDbLine
 10
627.3573472142452
 20
-35.85980578931756
 30
0.0
 11
626.4573472142452
 21
-35.85980578931756
 31
0.0
  0
ARC
  5
4383
330
17
100
AcDbEntity
  8
0
100
AcDbCircle
 10
627.3573472142452
 20
-35.55980578931758
 30
0.0
 40
0.3
100
AcDbArc
 50
270.0
 51
0.0
  0
LINE
  5
4384
330
17
100
AcDbEntity
  8
0
100
AcDbLine
 10
626.4573472142452
 20
-21.25980578931757
 30
0.0
 11
627.3573472142452
 21
-21.25980578931754
 31
0.0
  0
LINE
  5
4385
330
17
100
AcDbEntity
  8
0
100
AcDbLine
 10
627.6573472142452
 20
-21.55980578931755
 30
0.0
 11
627.6573472142452
 21
-35.55980578931758
 31
0.0
  0
ARC
  5
4386
330
17
100
AcDbEntity
  8
0
100
AcDbCircle
 10
627.3573472142452
 20
-21.55980578931755
 30
0.0
 40
0.3
100
AcDbArc
 50
0.0
 51
90.0
  0
LINE
  5
4387
330
17
100
AcDbEntity
  8
0
100
AcDbLine
 10
652.3573472142452
 20
-35.80980578931758
 30
0.0
 11
652.8573472142452
 21
-35.80980578931754
 31
0.0
  0
LINE
  5
4388
330
17
100
AcDbEntity
  8
0
100
AcDbLine
 10
652.8573472142452
 20
-21.30980578931755
 30
0.0
 11
652.3573472142452
 21
-21.30980578931755
 31
0.0
  0
ARC
  5
4389
330
17
100
AcDbEntity
  8
0
100
AcDbCircle
 10
652.3573472142452
 20
-21.60980578931756
 30
0.0
 40
0.3
100
AcDbArc
 50
90.0
 51
180.0
  0
LINE
  5
438A
330
17
100
AcDbEntity
  8
0
100
AcDbLine
 10
652.0573472142455
 20
-21.60980578931756
 30
0.0
 11
652.0573472142455
 21
-35.50980578931757
 31
0.0
  0
ARC
  5
438B
330
17
100
AcDbEntity
  8
0
100
AcDbCircle
 10
652.3573472142452
 20
-35.50980578931757
 30
0.0
 40
0.3
100
AcDbArc
 50
180.0
 51
270.0
  0
LINE
  5
438C
330
17
100
AcDbEntity
  8
0
100
AcDbLine
 10
615.3573472142452
 20
-25.56880578931757
 30
0.0
 11
622.8573472142452
 21
-25.56880578931757
 31
0.0
  0
LINE
  5
438D
330
17
100
AcDbEntity
  8
additional
  6
HIDDEN2
 48
0.5
100
AcDbLine
 10
618.3823472142452
 20
-26.06880578931757
 30
0.0
 11
618.8823472142452
 21
-25.56880578931757
 31
0.0
  0
LINE
  5
438E
330
17
100
AcDbEntity
  8
0
100
AcDbLine
 10
622.8573472142452
 20
-25.56880578931757
 30
0.0
 11
622.8573472142452
 21
-31.55080578931757
 31
0.0
  0
LINE
  5
438F
330
17
100
AcDbEntity
  8
0
100
AcDbLine
 10
622.8573472142452
 20
-31.55080578931757
 30
0.0
 11
615.3573472142452
 21
-31.55080578931757
 31
0.0
  0
LINE
  5
4390
330
17
100
AcDbEntity
  8
0
100
AcDbLine
 10
614.8573472142452
 20
-31.05080578931757
 30
0.0
 11
615.3573472142452
 21
-31.55080578931757
 31
0.0
  0
LINE
  5
4391
330
17
100
AcDbEntity
  8
0
100
AcDbLine
 10
614.8573472142452
 20
-31.05080578931757
 30
0.0
 11
614.8573472142452
 21
-29.55980578931755
 31
0.0
  0
LINE
  5
4392
330
17
100
AcDbEntity
  8
0
100
AcDbLine
 10
614.8573472142452
 20
-27.55980578931755
 30
0.0
 11
614.8573472142452
 21
-26.06880578931757
 31
0.0
  0
LINE
  5
4393
330
17
100
AcDbEntity
  8
0
100
AcDbLine
 10
615.3573472142452
 20
-25.56880578931757
 30
0.0
 11
614.8573472142452
 21
-26.06880578931757
 31
0.0
  0
LINE
  5
4394
330
17
100
AcDbEntity
  8
0
100
AcDbLine
 10
614.8573472142452
 20
-29.55980578931755
 30
0.0
 11
621.3573472142456
 21
-29.55980578931755
 31
0.0
  0
LINE
  5
4395
330
17
100
AcDbEntity
  8
0
100
AcDbLine
 10
621.3573472142456
 20
-29.55980578931755
 30
0.0
 11
621.3573472142456
 21
-27.55980578931755
 31
0.0
  0
LINE
  5
4396
330
17
100
AcDbEntity
  8
0
100
AcDbLine
 10
621.3573472142456
 20
-27.55980578931755
 30
0.0
 11
614.8573472142452
 21
-27.55980578931755
 31
0.0
  0
LINE
  5
4397
330
17
100
AcDbEntity
  8
0
100
AcDbLine
 10
615.3573472142452
 20
-25.56880578931757
 30
0.0
 11
615.3573472142452
 21
-27.55980578931755
 31
0.0
  0
LINE
  5
4398
330
17
100
AcDbEntity
  8
0
100
AcDbLine
 10
615.3573472142452
 20
-31.55080578931757
 30
0.0
 11
615.3573472142452
 21
-29.55980578931755
 31
0.0
  0
LINE
  5
4399
330
17
100
AcDbEntity
  8
additional
  6
HIDDEN2
 48
0.5
100
AcDbLine
 10
618.3823472142452
 20
-26.06880578931757
 30
0.0
 11
618.3823472142452
 21
-27.55980578931755
 31
0.0
  0
LINE
  5
439A
330
17
100
AcDbEntity
  8
additional
  6
HIDDEN2
 48
0.5
100
AcDbLine
 10
616.3323472142455
 20
-26.06880578931762
 30
0.0
 11
615.8323472142454
 21
-25.56880578931765
 31
0.0
  0
LINE
  5
439B
330
17
100
AcDbEntity
  8
additional
  6
HIDDEN2
 48
0.5
100
AcDbLine
 10
616.3323472142455
 20
-26.06880578931762
 30
0.0
 11
616.3323472142455
 21
-27.55980578931764
 31
0.0
  0
LINE
  5
439C
330
17
100
AcDbEntity
  8
additional
  6
HIDDEN2
 48
0.5
100
AcDbLine
 10
618.3823472142452
 20
-31.05080578931757
 30
0.0
 11
618.8823472142452
 21
-31.55080578931757
 31
0.0
  0
LINE
  5
439D
330
17
100
AcDbEntity
  8
additional
  6
HIDDEN2
 48
0.5
100
AcDbLine
 10
618.3823472142452
 20
-31.05080578931757
 30
0.0
 11
618.3823472142452
 21
-29.55980578931755
 31
0.0
  0
LINE
  5
439E
330
17
100
AcDbEntity
  8
additional
  6
HIDDEN2
 48
0.5
100
AcDbLine
 10
616.3323472142455
 20
-31.05080578931751
 30
0.0
 11
615.8323472142454
 21
-31.55080578931748
 31
0.0
  0
LINE
  5
439F
330
17
100
AcDbEntity
  8
additional
  6
HIDDEN2
 48
0.5
100
AcDbLine
 10
616.3323472142455
 20
-31.05080578931751
 30
0.0
 11
616.3323472142455
 21
-29.55980578931749
 31
0.0
  0
LINE
  5
43A0
330
17
100
AcDbEntity
  8
additional
  6
HIDDEN2
 48
0.5
100
AcDbLine
 10
616.3323472142455
 20
-26.06880578931762
 30
0.0
 11
618.3823472142452
 21
-26.06880578931762
 31
0.0
  0
LINE
  5
43A1
330
17
100
AcDbEntity
  8
additional
  6
HIDDEN2
 48
0.5
100
AcDbLine
 10
616.3323472142455
 20
-31.05080578931751
 30
0.0
 11
618.3823472142452
 21
-31.05080578931751
 31
0.0
  0
LWPOLYLINE
  5
43A2
330
17
100
AcDbEntity
  8
0
100
AcDbPolyline
 90
        4
 70
     1
 43
0.0
 10
622.8573472142452
 20
-23.05980578931755
 10
623.4573472142455
 20
-23.05980578931755
 10
623.4573472142455
 20
-34.05980578931755
 10
622.8573472142452
 20
-34.05980578931755
  0
LINE
  5
43A3
330
17
100
AcDbEntity
  8
0
100
AcDbLine
 10
627.6573472142452
 20
-35.45980578931756
 30
0.0
 11
652.0573472142455
 21
-35.45980578931756
 31
0.0
  0
LINE
  5
43A7
330
17
100
AcDbEntity
  8
0
100
AcDbLine
 10
615.3573472142452
 20
-83.56880578931756
 30
0.0
 11
622.8573472142452
 21
-83.56880578931756
 31
0.0
  0
LINE
  5
43A8
330
17
100
AcDbEntity
  8
0
100
AcDbLine
 10
622.8573472142452
 20
-83.56880578931756
 30
0.0
 11
622.8573472142452
 21
-89.55080578931756
 31
0.0
  0
LINE
  5
43A9
330
17
100
AcDbEntity
  8
0
100
AcDbLine
 10
622.8573472142452
 20
-89.55080578931756
 30
0.0
 11
615.3573472142452
 21
-89.55080578931756
 31
0.0
  0
LINE
  5
43AA
330
17
100
AcDbEntity
  8
0
100
AcDbLine
 10
614.8573472142452
 20
-89.05080578931757
 30
0.0
 11
615.3573472142452
 21
-89.55080578931756
 31
0.0
  0
LINE
  5
43AB
330
17
100
AcDbEntity
  8
0
100
AcDbLine
 10
614.8573472142452
 20
-89.05080578931759
 30
0.0
 11
614.8573472142452
 21
-84.06880578931756
 31
0.0
  0
LINE
  5
43AC
330
17
100
AcDbEntity
  8
0
100
AcDbLine
 10
615.3573472142452
 20
-83.56880578931756
 30
0.0
 11
614.8573472142452
 21
-84.06880578931756
 31
0.0
  0
LINE
  5
43AD
330
17
100
AcDbEntity
  8
0
100
AcDbLine
 10
615.3573472142452
 20
-83.56880578931756
 30
0.0
 11
615.3573472142452
 21
-89.5508057893176
 31
0.0
  0
CIRCLE
  5
43AE
330
17
100
AcDbEntity
  8
0
100
AcDbCircle
 10
617.3573472142455
 20
-86.55980578931755
 30
0.0
 40
1.025000000000005
  0
LINE
  5
43AF
330
17
100
AcDbEntity
  8
additional
100
AcDbLine
 10
632.4573472142454
 20
-85.05980578931755
 30
0.0
 11
632.4573472142454
 21
-79.05980578931755
 31
0.0
  0
LINE
  5
43B0
330
17
100
AcDbEntity
  8
additional
100
AcDbLine
 10
629.4573472142452
 20
-82.05980578931756
 30
0.0
 11
635.4573472142454
 21
-82.05980578931756
 31
0.0
  0
LINE
  5
43B1
330
17
100
AcDbEntity
  8
additional
100
AcDbLine
 10
646.4573472142452
 20
-94.05980578931757
 30
0.0
 11
646.4573472142452
 21
-88.05980578931755
 31
0.0
  0
LINE
  5
43B2
330
17
100
AcDbEntity
  8
additional
100
AcDbLine
 10
643.4573472142452
 20
-91.05980578931754
 30
0.0
 11
649.4573472142453
 21
-91.05980578931754
 31
0.0
  0
LINE
  5
43B3
330
17
100
AcDbEntity
  8
0
100
AcDbLine
 10
548.7053255727776
 20
-78.55980578931755
 30
0.0
 11
548.7053255727776
 21
-94.55980578931756
 31
0.0
  0
LINE
  5
43B4
330
17
100
AcDbEntity
  8
0
100
AcDbLine
 10
548.7053255727776
 20
-94.55980578931756
 30
0.0
 11
566.7053255727775
 21
-94.55980578931756
 31
0.0
  0
LINE
  5
43B5
330
17
100
AcDbEntity
  8
0
100
AcDbLine
 10
566.7053255727775
 20
-94.55980578931756
 30
0.0
 11
566.7053255727775
 21
-78.55980578931758
 31
0.0
  0
LINE
  5
43B6
330
17
100
AcDbEntity
  8
0
100
AcDbLine
 10
566.7053255727775
 20
-78.55980578931758
 30
0.0
 11
548.7053255727776
 21
-78.55980578931758
 31
0.0
  0
LINE
  5
43B7
330
17
100
AcDbEntity
  8
0
100
AcDbLine
 10
566.7053255727775
 20
-83.04730578931756
 30
0.0
 11
565.1053255727775
 21
-83.04730578931756
 31
0.0
  0
LINE
  5
43B8
330
17
100
AcDbEntity
  8
0
100
AcDbLine
 10
565.1053255727775
 20
-83.04730578931756
 30
0.0
 11
565.1053255727775
 21
-78.55980578931758
 31
0.0
  0
LINE
  5
43B9
330
17
100
AcDbEntity
  8
0
100
AcDbLine
 10
566.7053255727775
 20
-90.07230578931757
 30
0.0
 11
565.1053255727775
 21
-90.07230578931757
 31
0.0
  0
LINE
  5
43BA
330
17
100
AcDbEntity
  8
0
100
AcDbLine
 10
565.1053255727775
 20
-90.07230578931757
 30
0.0
 11
565.1053255727775
 21
-94.55980578931756
 31
0.0
  0
LINE
  5
43BB
330
17
100
AcDbEntity
  8
0
100
AcDbLine
 10
548.7053255727776
 20
-83.04730578931756
 30
0.0
 11
550.3053255727777
 21
-83.04730578931756
 31
0.0
  0
LINE
  5
43BC
330
17
100
AcDbEntity
  8
0
100
AcDbLine
 10
550.3053255727777
 20
-83.04730578931756
 30
0.0
 11
550.3053255727777
 21
-78.55980578931758
 31
0.0
  0
LINE
  5
43BD
330
17
100
AcDbEntity
  8
0
100
AcDbLine
 10
548.7053255727776
 20
-90.07230578931757
 30
0.0
 11
550.3053255727777
 21
-90.07230578931757
 31
0.0
  0
LINE
  5
43BE
330
17
100
AcDbEntity
  8
0
100
AcDbLine
 10
550.3053255727777
 20
-90.07230578931757
 30
0.0
 11
550.3053255727777
 21
-94.55980578931756
 31
0.0
  0
CIRCLE
  5
43BF
330
17
100
AcDbEntity
  8
0
100
AcDbCircle
 10
557.7053255727776
 20
-86.55980578931755
 30
0.0
 40
2.991000000000012
  0
LINE
  5
43C0
330
17
100
AcDbEntity
  8
0
100
AcDbLine
 10
623.4573472142454
 20
-92.05980578931756
 30
0.0
 11
623.7573472142452
 21
-92.05980578931756
 31
0.0
  0
LINE
  5
43C1
330
17
100
AcDbEntity
  8
0
100
AcDbLine
 10
624.4573472142453
 20
-90.07230578931757
 30
0.0
 11
624.4573472142453
 21
-83.04730578931756
 31
0.0
  0
LINE
  5
43C2
330
17
100
AcDbEntity
  8
0
100
AcDbLine
 10
623.7573472142452
 20
-81.05980578931758
 30
0.0
 11
623.4573472142454
 21
-81.05980578931754
 31
0.0
  0
LINE
  5
43C3
330
17
100
AcDbEntity
  8
0
100
AcDbLine
 10
623.4573472142454
 20
-81.05980578931754
 30
0.0
 11
623.4573472142454
 21
-92.05980578931756
 31
0.0
  0
LINE
  5
43C4
330
17
100
AcDbEntity
  8
0
100
AcDbLine
 10
622.8573472142452
 20
-81.05980578931754
 30
0.0
 11
623.4573472142454
 21
-81.05980578931754
 31
0.0
  0
LINE
  5
43C5
330
17
100
AcDbEntity
  8
0
100
AcDbLine
 10
623.4573472142454
 20
-90.76984372843893
 30
0.0
 11
622.8573472142452
 21
-90.76984372843893
 31
0.0
  0
LINE
  5
43C6
330
17
100
AcDbEntity
  8
0
100
AcDbLine
 10
622.8573472142452
 20
-90.76984372843893
 30
0.0
 11
622.8573472142452
 21
-81.05980578931754
 31
0.0
  0
CIRCLE
  5
43C7
330
17
100
AcDbEntity
  8
0
100
AcDbCircle
 10
557.7053255727776
 20
-86.55980578931755
 30
0.0
 40
5.500000000000013
  0
ARC
  5
43C8
330
17
100
AcDbEntity
  8
0
100
AcDbCircle
 10
557.7053255727776
 20
-86.55980578931755
 30
0.0
 40
4.299999999999998
100
AcDbArc
 50
114.3012223046685
 51
175.6987776953271
  0
ARC
  5
43C9
330
17
100
AcDbEntity
  8
0
100
AcDbCircle
 10
557.7053255727776
 20
-86.55980578931755
 30
0.0
 40
4.299999999999998
100
AcDbArc
 50
4.301222304672901
 51
65.69877769533153
  0
ARC
  5
43CA
330
17
100
AcDbEntity
  8
0
100
AcDbCircle
 10
557.7053255727776
 20
-86.55980578931755
 30
0.0
 40
5.5
100
AcDbArc
 50
311.2421294362089
 51
228.7578705637911
  0
ARC
  5
43CB
330
17
100
AcDbEntity
  8
0
100
AcDbCircle
 10
554.2772644130796
 20
-90.46984372843914
 30
0.0
 40
0.3
100
AcDbArc
 50
228.7578705637911
 51
339.9999999999994
  0
ARC
  5
43CC
330
17
100
AcDbEntity
  8
0
100
AcDbCircle
 10
553.7165914377417
 20
-86.25980578931757
 30
0.0
 40
0.3
100
AcDbArc
 50
175.6987776953271
 51
270.0
  0
LINE
  5
43CD
330
17
100
AcDbEntity
  8
0
100
AcDbLine
 10
553.7165914377417
 20
-86.55980578931755
 30
0.0
 11
554.7143255727776
 21
-86.55980578931755
 31
0.0
  0
LINE
  5
43CE
330
17
100
AcDbEntity
  8
0
100
AcDbLine
 10
554.5591721993153
 20
-90.5724497714368
 30
0.0
 11
555.3490943981109
 21
-88.40215636711988
 31
0.0
  0
ARC
  5
43CF
330
17
100
AcDbEntity
  8
0
100
AcDbCircle
 10
561.1333867324758
 20
-90.46984372843892
 30
0.0
 40
0.3
100
AcDbArc
 50
200.0000000000037
 51
311.2421294362089
  0
LINE
  5
43D0
330
17
100
AcDbEntity
  8
0
100
AcDbLine
 10
560.6963255727776
 20
-86.55980578931755
 30
0.0
 11
561.6940597078134
 21
-86.55980578931755
 31
0.0
  0
LINE
  5
43D1
330
17
100
AcDbEntity
  8
0
100
AcDbLine
 10
560.0615567474447
 20
-88.4021563671196
 30
0.0
 11
560.8514789462401
 21
-90.57244977143655
 31
0.0
  0
ARC
  5
43D2
330
17
100
AcDbEntity
  8
0
100
AcDbCircle
 10
561.6940597078134
 20
-86.25980578931757
 30
0.0
 40
0.3
100
AcDbArc
 50
270.0
 51
4.301222304672901
  0
ARC
  5
43D3
330
17
100
AcDbEntity
  8
0
100
AcDbCircle
 10
556.059190365989
 20
-82.91422779934519
 30
0.0
 40
0.3
100
AcDbArc
 50
20.00000000000371
 51
114.3012223046685
  0
LINE
  5
43D4
330
17
100
AcDbEntity
  8
0
100
AcDbLine
 10
556.3410981522245
 20
-82.81162175634753
 30
0.0
 11
556.6823433240906
 21
-83.74918516054689
 31
0.0
  0
ARC
  5
43D5
330
17
100
AcDbEntity
  8
0
100
AcDbCircle
 10
559.3514607795663
 20
-82.9142277993453
 30
0.0
 40
0.3
100
AcDbArc
 50
65.69877769533153
 51
159.9999999999993
  0
LINE
  5
43D6
330
17
100
AcDbEntity
  8
0
100
AcDbLine
 10
559.0695529933306
 20
-82.81162175634753
 30
0.0
 11
558.7283078214648
 21
-83.74918516054689
 31
0.0
  0
LINE
  5
43D7
330
17
100
AcDbEntity
  8
additional
  6
CENTER2
 48
0.5
100
AcDbLine
 10
545.1021519994951
 20
-86.55980578931755
 30
0.0
 11
570.4108903490455
 21
-86.55980578931755
 31
0.0
  0
LINE
  5
43D8
330
17
100
AcDbEntity
  8
additional
  6
CENTER2
 48
0.5
100
AcDbLine
 10
557.7053255727776
 20
-99.46264980095378
 30
0.0
 11
557.7053255727776
 21
-75.40097134786325
 31
0.0
  0
LINE
  5
43D9
330
17
100
AcDbEntity
  8
0
100
AcDbLine
 10
627.6573472142452
 20
-94.55980578931733
 30
0.0
 11
635.5961244691557
 21
-96.05980578931742
 31
0.0
  0
LINE
  5
43DA
330
17
100
AcDbEntity
  8
0
100
AcDbLine
 10
635.5961244691557
 20
-96.05980578931742
 30
0.0
 11
652.0573472142451
 21
-96.05980578931756
 31
0.0
  0
LINE
  5
43DB
330
17
100
AcDbEntity
  8
0
100
AcDbLine
 10
652.0573472142451
 20
-96.05980578931756
 30
0.0
 11
652.0573472142451
 21
-94.55980578931756
 31
0.0
  0
LINE
  5
43DC
330
17
100
AcDbEntity
  8
0
100
AcDbLine
 10
550.3053255727776
 20
-94.55980578931677
 30
0.0
 11
556.2053255727776
 21
-96.05980578931688
 31
0.0
  0
LINE
  5
43DD
330
17
100
AcDbEntity
  8
0
100
AcDbLine
 10
556.2053255727776
 20
-96.05980578931688
 30
0.0
 11
559.2053255727774
 21
-96.0598057893169
 31
0.0
  0
LINE
  5
43DE
330
17
100
AcDbEntity
  8
0
100
AcDbLine
 10
565.1053255727775
 20
-94.55980578931695
 30
0.0
 11
559.2053255727774
 21
-96.0598057893169
 31
0.0
  0
LINE
  5
43DF
330
17
100
AcDbEntity
  8
additional
  6
CENTER2
 48
0.5
100
AcDbLine
 10
617.3573472142455
 20
-81.21653804594831
 30
0.0
 11
617.3573472142455
 21
-91.86476126280243
 31
0.0
  0
LINE
  5
43E0
330
17
100
AcDbEntity
  8
additional
  6
CENTER2
 48
0.5
100
AcDbLine
 10
612.1541736409628
 20
-86.55980578931755
 30
0.0
 11
657.6694778371565
 21
-86.55980578931755
 31
0.0
  0
LINE
  5
43E1
330
17
100
AcDbEntity
  8
additional
  6
CENTER2
 48
0.5
100
AcDbLine
 10
617.3573472142455
 20
-23.21653804594831
 30
0.0
 11
617.3573472142455
 21
-33.86476126280246
 31
0.0
  0
LINE
  5
43E2
330
17
100
AcDbEntity
  8
additional
  6
CENTER2
 48
0.5
100
AcDbLine
 10
612.1541736409628
 20
-28.55980578931755
 30
0.0
 11
657.6694778371565
 21
-28.55980578931755
 31
0.0
  0
LINE
  5
43E3
330
17
100
AcDbEntity
  8
0
100
AcDbLine
 10
654.4573472142452
 20
-93.05980578931757
 30
0.0
 11
665.6894104778301
 21
-93.05980578931729
 31
0.0
  0
LINE
  5
43E4
330
17
100
AcDbEntity
  8
0
100
AcDbLine
 10
654.4573472142452
 20
-94.05980578931757
 30
0.0
 11
665.1120602086401
 21
-94.05980578931732
 31
0.0
  0
LINE
  5
43E7
330
17
100
AcDbEntity
  8
0
100
AcDbLine
 10
654.4573472142452
 20
-26.55980578931755
 30
0.0
 11
654.9573472142452
 21
-26.55980578931755
 31
0.0
  0
LINE
  5
43E9
330
17
100
AcDbEntity
  8
0
100
AcDbLine
 10
654.9573472142461
 20
-26.55980578931755
 30
0.0
 11
654.9573472142452
 21
-30.55980578931755
 31
0.0
  0
LINE
  5
43EA
330
17
100
AcDbEntity
  8
0
100
AcDbLine
 10
654.9573472142452
 20
-30.55980578931755
 30
0.0
 11
654.4573472142452
 21
-30.55980578931755
 31
0.0
  0
LINE
  5
43EB
330
17
100
AcDbEntity
  8
0
100
AcDbLine
 10
654.4573472142452
 20
-84.55980578931749
 30
0.0
 11
654.9573472142452
 21
-84.55980578931749
 31
0.0
  0
LINE
  5
43EC
330
17
100
AcDbEntity
  8
0
100
AcDbLine
 10
654.9573472142452
 20
-84.55980578931749
 30
0.0
 11
654.9573472142452
 21
-88.55980578931749
 31
0.0
  0
LINE
  5
43ED
330
17
100
AcDbEntity
  8
0
100
AcDbLine
 10
654.9573472142452
 20
-88.55980578931749
 30
0.0
 11
654.4573472142452
 21
-88.55980578931749
 31
0.0
  0
ARC
  5
43EE
330
17
100
AcDbEntity
  8
0
100
AcDbCircle
 10
557.7053255727776
 20
-86.55980578931755
 30
0.0
 40
2.49100000000002
100
AcDbArc
 50
113.6685562144254
 51
246.3314437855745
  0
ARC
  5
43EF
330
17
100
AcDbEntity
  8
0
100
AcDbCircle
 10
557.7053255727776
 20
-86.55980578931755
 30
0.0
 40
2.49100000000002
100
AcDbArc
 50
293.6685562144255
 51
66.33144378557453
  0
LINE
  5
43F0
330
17
100
AcDbEntity
  8
additional
  6
HIDDEN2
 48
0.5
100
AcDbLine
 10
554.8954401658614
 20
-85.53480578931754
 30
0.0
 11
556.7053255727776
 21
-85.53480578931754
 31
0.0
  0
LINE
  5
43F1
330
17
100
AcDbEntity
  8
additional
  6
HIDDEN2
 48
0.5
100
AcDbLine
 10
558.7053255727775
 20
-85.53480578931754
 30
0.0
 11
560.5152109796939
 21
-85.53480578931754
 31
0.0
  0
LINE
  5
43F2
330
17
100
AcDbEntity
  8
0
100
AcDbLine
 10
556.7053255727776
 20
-83.74092640204324
 30
0.0
 11
556.7053255727776
 21
-89.37868517659188
 31
0.0
  0
LINE
  5
43F3
330
17
100
AcDbEntity
  8
0
100
AcDbLine
 10
558.7053255727775
 20
-83.74092640204324
 30
0.0
 11
558.7053255727775
 21
-89.37868517659188
 31
0.0
  0
LINE
  5
43F4
330
17
100
AcDbEntity
  8
additional
  6
HIDDEN2
 48
0.5
100
AcDbLine
 10
554.8954401658614
 20
-87.58480578931758
 30
0.0
 11
556.7053255727776
 21
-87.58480578931758
 31
0.0
  0
LINE
  5
43F5
330
17
100
AcDbEntity
  8
additional
  6
HIDDEN2
 48
0.5
100
AcDbLine
 10
558.7053255727775
 20
-87.58480578931758
 30
0.0
 11
560.5152109796939
 21
-87.58480578931758
 31
0.0
  0
LINE
  5
43F6
330
17
100
AcDbEntity
  8
additional
100
AcDbLine
 10
563.2545928242846
 20
-82.05980578931756
 30
0.0
 11
568.8440458153986
 21
-82.05980578931756
 31
0.0
  0
LINE
  5
43F7
330
17
100
AcDbEntity
  8
additional
100
AcDbLine
 10
563.2545928242846
 20
-91.05980578931756
 30
0.0
 11
568.8440458153986
 21
-91.05980578931756
 31
0.0
  0
LINE
  5
43F8
330
17
100
AcDbEntity
  8
0
100
AcDbLine
 10
623.4573472142454
 20
-34.05980578931755
 30
0.0
 11
624.4573472142453
 21
-34.05980578931755
 31
0.0
  0
LINE
  5
43F9
330
17
100
AcDbEntity
  8
0
100
AcDbLine
 10
624.4573472142453
 20
-23.05980578931755
 30
0.0
 11
623.4573472142454
 21
-23.05980578931755
 31
0.0
  0
DIMENSION
  5
4406
330
17
100
AcDbEntity
  8
Z_OM_DIM
100
AcDbDimension
  2
*D1
 10
605.2249853281507
 20
-29.55980578931755
 30
0.0
 11
605.2249853281507
 21
-21.10147245598412
 31
0.0
 70
   160
 71
     5
 42
2.0
  3
CatalogDxf
100
AcDbAlignedDimension
 13
614.8573472142452
 23
-27.55980578931755
 33
0.0
 14
614.8573472142452
 24
-29.55980578931755
 34
0.0
 50
90.0
100
AcDbRotatedDimension
  0
DIMENSION
  5
4415
330
17
100
AcDbEntity
  8
Z_OM_DIM
100
AcDbDimension
  2
*D2
 10
621.3573472142456
 20
-39.91735686612344
 30
0.0
 11
609.2323472142452
 21
-39.91735686612344
 31
0.0
 70
   160
 71
     5
 42
6.500000000000341
  3
CatalogDxf
100
AcDbAlignedDimension
 13
614.8573472142452
 23
-29.55980578931755
 33
0.0
 14
621.3573472142456
 24
-29.55980578931755
 34
0.0
100
AcDbRotatedDimension
1001
ACAD
1000
DSTYLE
1002
{
1070
    77
1070
     3
1002
}
  0
DIMENSION
  5
4441
330
17
100
AcDbEntity
  8
Z_OM_DIM
100
AcDbDimension
  2
*D3
 10
654.4573472142452
 20
-49.18294155492469
 30
0.0
 11
639.1073472142452
 21
-47.30794155492469
 31
0.0
 70
    32
 71
     5
 42
30.70000000000005
  3
CatalogDxf
100
AcDbAlignedDimension
 13
623.7573472142452
 23
-37.55980578931755
 33
0.0
 14
654.4573472142452
 24
-36.05980578931755
 34
0.0
100
AcDbRotatedDimension
  0
DIMENSION
  5
4450
330
17
100
AcDbEntity
  8
Z_OM_DIM
100
AcDbDimension
  2
*D4
 10
632.4573472142454
 20
-65.27735068422053
 30
0.0
 11
639.4573472142454
 21
-63.40235068422053
 31
0.0
 70
    32
 71
     5
 42
13.99999999999989
  3
CatalogDxf
100
AcDbAlignedDimension
 13
646.4573472142452
 23
-88.05980578931755
 33
0.0
 14
632.4573472142454
 24
-79.05980578931755
 34
0.0
100
AcDbRotatedDimension
  0
DIMENSION
  5
445D
330
17
100
AcDbEntity
  8
Z_OM_DIM
100
AcDbDimension
  2
*D5
 10
617.3573472142455
 20
-65.27735068422053
 30
0.0
 11
624.9073472142454
 21
-63.40235068422053
 31
0.0
 70
    32
 71
     5
 42
15.09999999999979
  3
CatalogDxf
100
AcDbAlignedDimension
 13
632.4573472142454
 23
-79.05980578931755
 33
0.0
 14
617.3573472142455
 24
-81.21653804594831
 34
0.0
100
AcDbRotatedDimension
1001
ACAD
1000
DSTYLE
1002
{
1070
   279
1070
     1
1002
}
  0
DIMENSION
  5
446A
330
17
100
AcDbEntity
  8
Z_OM_DIM
100
AcDbDimension
  2
*D6
 10
614.8573472142452
 20
-65.27735068422053
 30
0.0
 11
606.7323472142452
 21
-65.27735068422053
 31
0.0
 70
   160
 71
     5
 42
2.500000000000341
  3
CatalogDxf
100
AcDbAlignedDimension
 13
617.3573472142455
 23
-81.21653804594831
 33
0.0
 14
614.8573472142452
 24
-84.06880578931756
 34
0.0
100
AcDbRotatedDimension
  0
DIMENSION
  5
4495
330
17
100
AcDbEntity
  8
Z_OM_DIM
100
AcDbDimension
  2
*D7
 10
668.1445820348917
 20
-91.05980578931754
 30
0.0
 11
666.2695820348917
 21
-86.55980578931744
 31
0.0
 70
    32
 71
     5
 42
8.999999999999985
  3
CatalogDxf
100
AcDbAlignedDimension
 13
635.4573472142454
 23
-82.05980578931756
 33
0.0
 14
649.4573472142453
 24
-91.05980578931754
 34
0.0
 50
90.0
100
AcDbRotatedDimension
  0
DIMENSION
  5
44A2
330
17
100
AcDbEntity
  8
Z_OM_DIM
100
AcDbDimension
  2
*D8
 10
605.2249853281507
 20
-89.55080578931758
 30
0.0
 11
603.3499853281507
 21
-86.55980578931748
 31
0.0
 70
    32
  1
%%c6
 71
     5
 42
5.982000000000027
  3
CatalogDxf
100
AcDbAlignedDimension
 13
615.3573472142452
 23
-83.56880578931756
 33
0.0
 14
615.3573472142452
 24
-89.5508057893176
 34
0.0
 50
90.0
100
AcDbRotatedDimension
  0
DIMENSION
  5
44BE
330
17
100
AcDbEntity
  8
Z_OM_DIM
100
AcDbDimension
  2
*D9
 10
566.7053255727775
 20
-67.77735068422053
 30
0.0
 11
557.7053255727776
 21
-65.90235068422053
 31
0.0
 70
    32
 71
     5
 42
17.99999999999988
  3
CatalogDxf
100
AcDbAlignedDimension
 13
548.7053255727776
 23
-78.55980578931755
 33
0.0
 14
566.7053255727775
 24
-78.55980578931755
 34
0.0
100
AcDbRotatedDimension
  0
DIMENSION
  5
44CB
330
17
100
AcDbEntity
  8
Z_OM_DIM
100
AcDbDimension
  2
*D10
 10
580.6543472834808
 20
-94.55980578931756
 30
0.0
 11
578.7793472834807
 21
-86.55980578931746
 31
0.0
 70
    32
 71
     5
 42
15.99999999999998
  3
CatalogDxf
100
AcDbAlignedDimension
 13
566.7053255727775
 23
-78.55980578931758
 33
0.0
 14
566.7053255727775
 24
-94.55980578931756
 34
0.0
 50
90.0
100
AcDbRotatedDimension
  0
LINE
  5
4648
330
17
100
AcDbEntity
  8
0
 48
0.5
100
AcDbLine
 10
679.4719507135592
 20
-28.55980578931755
 30
0.0
 11
679.4719507135591
 21
-29.55980578931755
 31
0.0
  0
SPLINE
  5
4649
330
17
100
AcDbEntity
  8
additional
 48
0.5
100
AcDbSpline
210
0.0
220
0.0
230
1.0
 70
     8
 71
     3
 72
    18
 73
    14
 74
    12
 42
0.0000000001
 43
0.0000000001
 44
0.0000000001
 40
0.0
 40
0.0
 40
0.0
 40
0.0
 40
0.3913118960626792
 40
0.7826237921250408
 40
1.482623792125004
 40
1.873935688187429
 40
2.265247584250045
 40
2.656559480312457
 40
3.047871376374876
 40
4.097871376374888
 40
4.489183272437256
 40
4.880495168499713
 40
5.271807064562367
 40
5.271807064562367
 40
5.271807064562367
 40
5.271807064562367
 10
661.0511210295345
 20
-26.04243257573571
 30
0.0
 10
661.107405871181
 20
-26.16007230909011
 30
0.0
 10
661.219975554474
 20
-26.39535177579882
 30
0.0
 10
661.4797992436142
 20
-26.81895074711319
 30
0.0
 10
661.4798767315781
 20
-27.36593336564278
 30
0.0
 10
661.2198456032079
 20
-27.78946972582882
 30
0.0
 10
661.0516065362986
 20
-28.14260124970934
 30
0.0
 10
660.8804544288052
 20
-28.49472072974752
 30
0.0
 10
660.572680867165
 20
-29.02298014815987
 30
0.0
 10
660.5722840799174
 20
-29.71203037201966
 30
0.0
 10
660.8808980504341
 20
-30.23994151437045
 30
0.0
 10
661.0499267743096
 20
-30.59305534107709
 30
0.0
 10
661.1673896111263
 20
-30.82597349751613
 30
0.0
 10
661.226121029535
 20
-30.94243257573568
 30
0.0
 11
661.0511210295345
 21
-26.04243257573571
 31
0.0
 11
661.226121029535
 21
-26.39243257573574
 31
0.0
 11
661.4011210295347
 21
-26.74243257573571
 31
0.0
 11
661.4011210295347
 21
-27.44243257573567
 31
0.0
 11
661.226121029535
 21
-27.79243257573571
 31
0.0
 11
661.0511210295345
 21
-28.14243257573568
 31
0.0
 11
660.8761210295345
 21
-28.49243257573564
 31
0.0
 11
660.7011210295347
 21
-28.84243257573567
 31
0.0
 11
660.7011210295347
 21
-29.89243257573568
 31
0.0
 11
660.8761210295345
 21
-30.24243257573566
 31
0.0
 11
661.0511210295345
 21
-30.59243257573567
 31
0.0
 11
661.226121029535
 21
-30.94243257573568
 31
0.0
  0
SPLINE
  5
464A
330
17
100
AcDbEntity
  8
additional
 48
0.5
100
AcDbSpline
210
0.0
220
0.0
230
1.0
 70
     8
 71
     3
 72
    18
 73
    14
 74
    12
 42
0.0000000001
 43
0.0000000001
 44
0.0000000001
 40
0.0
 40
0.0
 40
0.0
 40
0.0
 40
0.3913118960625776
 40
0.7826237921249391
 40
1.482623792124902
 40
1.873935688187327
 40
2.265247584249841
 40
2.656559480312355
 40
3.047871376374723
 40
4.097871376374735
 40
4.489183272437052
 40
4.88049516849961
 40
5.271807064562162
 40
5.271807064562162
 40
5.271807064562162
 40
5.271807064562162
 10
661.9261210295348
 20
-26.04243257573571
 30
0.0
 10
661.9824058711811
 20
-26.16007230909012
 30
0.0
 10
662.094975554474
 20
-26.39535177579888
 30
0.0
 10
662.354799243614
 20
-26.81895074711316
 30
0.0
 10
662.3548767315782
 20
-27.36593336564281
 30
0.0
 10
662.0948456032078
 20
-27.78946972582874
 30
0.0
 10
661.9266065362989
 20
-28.14260124970947
 30
0.0
 10
661.7554544288053
 20
-28.49472072974741
 30
0.0
 10
661.4476808671651
 20
-29.02298014815998
 30
0.0
 10
661.4472840799176
 20
-29.71203037201955
 30
0.0
 10
661.7558980504342
 20
-30.23994151437056
 30
0.0
 10
661.9249267743098
 20
-30.59305534107696
 30
0.0
 10
662.0423896111264
 20
-30.82597349751611
 30
0.0
 10
662.101121029535
 20
-30.94243257573568
 30
0.0
 11
661.9261210295348
 21
-26.04243257573571
 31
0.0
 11
662.101121029535
 21
-26.39243257573574
 31
0.0
 11
662.2761210295347
 21
-26.74243257573571
 31
0.0
 11
662.2761210295347
 21
-27.44243257573567
 31
0.0
 11
662.101121029535
 21
-27.79243257573571
 31
0.0
 11
661.9261210295348
 21
-28.14243257573568
 31
0.0
 11
661.7511210295345
 21
-28.49243257573564
 31
0.0
 11
661.5761210295349
 21
-28.84243257573567
 31
0.0
 11
661.5761210295349
 21
-29.89243257573568
 31
0.0
 11
661.7511210295345
 21
-30.24243257573566
 31
0.0
 11
661.9261210295348
 21
-30.59243257573567
 31
0.0
 11
662.101121029535
 21
-30.94243257573568
 31
0.0
  0
LINE
  5
464B
330
17
100
AcDbEntity
  8
0
100
AcDbLine
 10
654.9573472142457
 20
-28.55980578931755
 30
0.0
 11
660.8397599647521
 21
-28.55980578931755
 31
0.0
  0
LINE
  5
464C
330
17
100
AcDbEntity
  8
0
100
AcDbLine
 10
654.9573472142459
 20
-27.55980578931753
 30
0.0
 11
661.3513746297069
 21
-27.55980578931753
 31
0.0
  0
LINE
  5
464D
330
17
100
AcDbEntity
  8
0
100
AcDbLine
 10
679.4719507135592
 20
-27.55980578931753
 30
0.0
 11
679.4719507135592
 21
-29.55980578931755
 31
0.0
  0
LINE
  5
464E
330
17
100
AcDbEntity
  8
0
100
AcDbLine
 10
662.2263746297069
 20
-27.55980578931753
 30
0.0
 11
679.4719507135591
 21
-27.55980578931753
 31
0.0
  0
LINE
  5
464F
330
17
100
AcDbEntity
  8
0
100
AcDbLine
 10
661.4918691153455
 20
-29.55980578931755
 30
0.0
 11
679.4719507135592
 21
-29.55980578931755
 31
0.0
  0
LINE
  5
4650
330
17
100
AcDbEntity
  8
0
100
AcDbLine
 10
661.7147599647521
 20
-28.55980578931755
 30
0.0
 11
679.4719507135592
 21
-28.55980578931755
 31
0.0
  0
POINT
  5
4651
330
17
100
AcDbEntity
  8
0
100
AcDbPoint
 10
679.4719507135591
 20
-27.55980578931753
 30
0.0
  0
POINT
  5
4652
330
17
100
AcDbEntity
  8
0
100
AcDbPoint
 10
679.4719507135592
 20
-28.05980578931754
 30
0.0
  0
POINT
  5
4653
330
17
100
AcDbEntity
  8
0
100
AcDbPoint
 10
679.4719507135591
 20
-29.55980578931755
 30
0.0
  0
POINT
  5
4654
330
17
100
AcDbEntity
  8
0
100
AcDbPoint
 10
679.4719507135592
 20
-29.05980578931755
 30
0.0
  0
LINE
  5
4655
330
17
100
AcDbEntity
  8
0
100
AcDbLine
 10
679.4719507135592
 20
-29.30980578931754
 30
0.0
 11
686.4719507135593
 21
-29.30980578931754
 31
0.0
  0
LINE
  5
4656
330
17
100
AcDbEntity
  8
0
100
AcDbLine
 10
679.4719507135592
 20
-28.80980578931753
 30
0.0
 11
686.4719507135593
 21
-28.80980578931753
 31
0.0
  0
LINE
  5
4657
330
17
100
AcDbEntity
  8
0
100
AcDbLine
 10
679.4719507135592
 20
-28.30980578931755
 30
0.0
 11
686.4719507135593
 21
-28.30980578931755
 31
0.0
  0
LINE
  5
4658
330
17
100
AcDbEntity
  8
0
100
AcDbLine
 10
679.4719507135592
 20
-27.80980578931755
 30
0.0
 11
686.4719507135593
 21
-27.80980578931755
 31
0.0
  0
DIMENSION
  5
4659
330
17
100
AcDbEntity
  8
Z_OM_DIM
100
AcDbDimension
  2
*D11
 10
686.4719507135593
 20
-49.18294155492469
 30
0.0
 11
670.4646489639023
 21
-47.30794155492469
 31
0.0
 70
    32
  1
180 - 200
 71
     5
 42
32.01460349931392
  3
CatalogDxf
100
AcDbAlignedDimension
 13
654.4573472142453
 23
-36.05980578931755
 33
0.0
 14
686.4719507135593
 24
-29.30980578931754
 34
0.0
100
AcDbRotatedDimension
  0
LINE
  5
467F
330
17
100
AcDbEntity
  8
0
100
AcDbLine
 10
660.6168691153457
 20
-29.55980578931767
 30
0.0
 11
654.9573472142455
 21
-29.55980578931767
 31
0.0
  0
LINE
  5
4682
330
17
100
AcDbEntity
  8
0
100
AcDbLine
 10
654.4573472142452
 20
-36.05980578931755
 30
0.0
 11
654.4573472142452
 21
-21.05980578931755
 31
0.0
  0
SPLINE
  5
4693
330
17
100
AcDbEntity
  8
additional
 48
0.5
100
AcDbSpline
210
0.0
220
0.0
230
1.0
 70
     8
 71
     3
 72
    18
 73
    14
 74
    12
 42
0.0000000001
 43
0.0000000001
 44
0.0000000001
 40
0.0
 40
0.0
 40
0.0
 40
0.0
 40
0.3913118960625776
 40
0.7826237921249391
 40
1.482623792124899
 40
1.873935688187336
 40
2.265247584249851
 40
2.656559480312365
 40
3.047871376374726
 40
4.097871376374738
 40
4.489183272437048
 40
4.880495168499613
 40
5.271807064562165
 40
5.271807064562165
 40
5.271807064562165
 40
5.271807064562165
 10
665.5461820444389
 20
-91.24921568936368
 30
0.0
 10
665.6024668860854
 20
-91.36685542271809
 30
0.0
 10
665.7150365693781
 20
-91.60213488942686
 30
0.0
 10
665.9748602585184
 20
-92.02573386074114
 30
0.0
 10
665.9749377464826
 20
-92.57271647927082
 30
0.0
 10
665.714906618112
 20
-92.99625283945673
 30
0.0
 10
665.5466675512029
 20
-93.34938436333747
 30
0.0
 10
665.3755154437095
 20
-93.70150384337538
 30
0.0
 10
665.0677418820694
 20
-94.22976326178797
 30
0.0
 10
665.0673450948218
 20
-94.91881348564753
 30
0.0
 10
665.3759590653383
 20
-95.4467246279985
 30
0.0
 10
665.544987789214
 20
-95.79983845470493
 30
0.0
 10
665.6624506260308
 20
-96.03275661114409
 30
0.0
 10
665.7211820444391
 20
-96.14921568936367
 30
0.0
 11
665.5461820444389
 21
-91.24921568936368
 31
0.0
 11
665.7211820444391
 21
-91.59921568936372
 31
0.0
 11
665.896182044439
 21
-91.94921568936369
 31
0.0
 11
665.896182044439
 21
-92.64921568936363
 31
0.0
 11
665.7211820444391
 21
-92.99921568936369
 31
0.0
 11
665.5461820444389
 21
-93.34921568936366
 31
0.0
 11
665.3711820444388
 21
-93.69921568936362
 31
0.0
 11
665.196182044439
 21
-94.04921568936364
 31
0.0
 11
665.196182044439
 21
-95.09921568936366
 31
0.0
 11
665.3711820444388
 21
-95.44921568936363
 31
0.0
 11
665.5461820444389
 21
-95.79921568936365
 31
0.0
 11
665.7211820444391
 21
-96.14921568936367
 31
0.0
  0
MTEXT
  5
48C6
330
17
100
AcDbEntity
  8
Z_OM_DIM
100
AcDbMText
 10
654.321535126425
 20
-104.7023780412995
 30
0.0
 40
2.5
 41
13.27354813316583
 71
     7
 72
     1
  1
2-M3
  7
CatalogDxf
 73
     1
 44
1.0
1001
ACAD
1000
MTEXTBEGIN
1070
    73
1070
     1
1070
    44
1040
1.0
1070
    74
1070
     0
1000
MTEXTEND
  0
LEADER
  5
48C7
330
17
100
AcDbEntity
  8
Z_OM_DIM
100
AcDbLeader
  3
ISO-25
 76
     3
 10
646.9878695957564
 20
-92.20734689843546
 30
0.0
 10
653.1495530160681
 20
-105.3528266333403
 30
0.0
 10
664.5478201773617
 20
-105.3528266333403
 30
0.0
1001
ACAD
1000
DSTYLE
1002
{
1070
   341
1005
977
1070
   147
1040
0.625
1070
    77
1070
     0
1002
}
  0
MTEXT
  5
48D5
330
17
100
AcDbEntity
  8
Z_OM_DIM
100
AcDbMText
 10
674.8171350229478
 20
-18.82117751245543
 30
0.0
 40
2.5
 41
42.8494883882687
 71
     7
 72
     1
  1
UL1007 AWG24 white
  7
CatalogDxf
 73
     1
 44
1.0
1001
ACAD
1000
ACAD_MTEXT_DEFINED_HEIGHT_BEGIN
1070
    46
1040
2.500000000000005
1000
ACAD_MTEXT_DEFINED_HEIGHT_END
1000
MTEXTBEGIN
1070
    73
1070
     1
1070
    44
1040
1.0
1070
    74
1070
     0
1000
MTEXTEND
  0
LEADER
  5
48D6
330
17
100
AcDbEntity
  8
Z_OM_DIM
100
AcDbLeader
  3
ISO-25
 76
     3
 10
668.6989708077624
 20
-27.55980578931753
 30
0.0
 10
674.2530255291882
 20
-19.44617751245543
 30
0.0
 10
715.6113156013064
 20
-19.44617751245543
 30
0.0
1001
ACAD
1000
DSTYLE
1002
{
1070
   341
1005
977
1070
   147
1040
0.625
1070
    77
1070
     0
1002
}
  0
DIMENSION
  5
497C
330
17
100
AcDbEntity
  8
Z_OM_DIM
100
AcDbDimension
  2
*D12
 10
632.4573472142454
 20
-70.97518870200895
 30
0.0
 11
628.2250756154849
 21
-68.32453375381004
 31
0.0
 70
   160
 71
     5
 42
8.700000000000159
  3
CatalogDxf
100
AcDbAlignedDimension
 13
623.7573472142452
 23
-78.55980578931755
 33
0.0
 14
632.4573472142454
 24
-79.05980578931755
 34
0.0
100
AcDbRotatedDimension
1001
ACAD
1000
DSTYLE
1002
{
1070
   279
1070
     2
1002
}
  0
MTEXT
  5
4A2D
330
17
100
AcDbEntity
  8
Z_OM_DIM
100
AcDbMText
 10
606.7879457184146
 20
-98.78378923829616
 30
0.0
 40
2.5
 41
6.808843718410123
 71
     7
 72
     1
  1
%%c2
  7
CatalogDxf
 73
     1
 44
1.0
1001
ACAD
1000
MTEXTBEGIN
1070
    73
1070
     1
1070
    44
1040
1.0
1070
    74
1070
     0
1000
MTEXTEND
  0
LEADER
  5
4A2E
330
17
100
AcDbEntity
  8
Z_OM_DIM
100
AcDbLeader
  3
ISO-25
 76
     3
 10
616.9740183685743
 20
-87.5036863742309
 30
0.0
 10
612.1617061932288
 20
-99.5025026993202
 30
0.0
 10
605.7961565226257
 20
-99.50250269932027
 30
0.0
211
-1.0
221
-0.0000000000000109
231
0.0
1001
ACAD
1000
DSTYLE
1002
{
1070
   341
1005
977
1070
   147
1040
0.625
1070
    77
1070
     0
1002
}
  0
ENDSEC
  0
SECTION
  2
OBJECTS
  0
DICTIONARY
  5
C
330
0
100
AcDbDictionary
281
     1
  3
ACAD_2007HEADERVARS_RT
350
46D1
  3
ACAD_COLOR
350
3D57
  3
ACAD_GROUP
350
D
  3
ACAD_LAYOUT
350
3D5A
  3
ACAD_MATERIAL
350
3D42
  3
ACAD_MLINESTYLE
350
1A
  3
ACAD_PLOTSETTINGS
350
957
  3
ACAD_PLOTSTYLENAME
350
3D40
  3
ACAD_TABLESTYLE
350
3D58
  3
ACAD_VISUALSTYLE
350
3D46
  3
ACADDIM
350
1BB8
  3
ACDBHEADERROUNDTRIPXREC
350
4A53
  3
AcDbVariableDictionary
350
4116
  3
DWGPROPS
350
4A52
1001
ACAD
1000
TREAT_AS_HARD
1070
     0
  0
DICTIONARY
  5
46B0
330
8
100
AcDbDictionary
280
     1
281
     1
  3
ACAD_XREC_ROUNDTRIP
360
46D5
  0
DICTIONARY
  5
3DBA
330
2
100
AcDbDictionary
280
     1
281
     1
  3
ACAD_LAYERFILTERS
360
421C
  3
ACAD_LAYERSTATES
360
3DBB
  3
ACLYDICTIONARY
360
421B
  0
DICTIONARY
  5
46D6
330
E
100
AcDbDictionary
280
     1
281
     1
  3
ACAD_XREC_ROUNDTRIP
360
46D7
  0
DICTIONARY
  5
46D8
330
27
100
AcDbDictionary
280
     1
281
     1
  3
ACAD_XREC_ROUNDTRIP
360
46D9
  0
DICTIONARY
  5
46DA
330
2B
100
AcDbDictionary
280
     1
281
     1
  3
ACAD_XREC_ROUNDTRIP
360
46DB
  0
DICTIONARY
  5
46E4
330
3DB5
100
AcDbDictionary
280
     1
281
     1
  3
ACAD_XREC_ROUNDTRIP
360
46E5
  0
DICTIONARY
  5
1808
330
17
100
AcDbDictionary
280
     1
281
     1
  3
ACAD_LAYOUTSELFREF
360
3D3B
  3
ACAD_SORTENTS
360
4681
1001
ACAD
1000
TREAT_AS_HARD
1070
     1
  0
DICTIONARY
  5
1806
330
14
100
AcDbDictionary
280
     1
281
     1
  3
ACAD_LAYOUTSELFREF
360
3D3A
1001
ACAD
1000
TREAT_AS_HARD
1070
     1
  0
DICTIONARY
  5
46D1
102
{ACAD_REACTORS
330
C
102
}
330
C
100
AcDbDictionary
281
     1
  3
DIMLTEX1
350
46D3
  3
DIMLTEX2
350
46D4
  3
DIMLTYPE
350
46D2
  0
DICTIONARY
  5
3D57
102
{ACAD_REACTORS
330
C
102
}
330
C
100
AcDbDictionary
281
     1
  0
DICTIONARY
  5
D
102
{ACAD_REACTORS
330
C
102
}
330
C
100
AcDbDictionary
281
     1
1001
ACAD
1000
TREAT_AS_HARD
1070
     0
  0
DICTIONARY
  5
3D5A
102
{ACAD_REACTORS
330
C
102
}
330
C
100
AcDbDictionary
281
     1
  3
Model
350
3D5B
  3
レイアウト1
350
3D5C
  0
DICTIONARY
  5
3D42
102
{ACAD_REACTORS
330
C
102
}
330
C
100
AcDbDictionary
281
     1
  3
ByBlock
350
3D44
  3
ByLayer
350
3D43
  3
Global
350
3D45
  0
DICTIONARY
  5
1A
102
{ACAD_REACTORS
330
C
102
}
330
C
100
AcDbDictionary
281
     1
  3
STANDARD
350
1B
1001
ACAD
1000
TREAT_AS_HARD
1070
     0
  0
DICTIONARY
  5
957
102
{ACAD_REACTORS
330
C
102
}
330
C
100
AcDbDictionary
281
     1
1001
ACAD
1000
TREAT_AS_HARD
1070
     0
  0
ACDBDICTIONARYWDFLT
  5
3D40
102
{ACAD_REACTORS
330
C
102
}
330
C
100
AcDbDictionary
281
     1
  3
Normal
350
3D41
100
AcDbDictionaryWithDefault
340
3D41
  0
DICTIONARY
  5
3D58
102
{ACAD_REACTORS
330
C
102
}
330
C
100
AcDbDictionary
281
     1
  3
Standard
350
3D59
  0
DICTIONARY
  5
3D46
102
{ACAD_REACTORS
330
C
102
}
330
C
100
AcDbDictionary
281
     1
  3
2dWireframe
350
3D4C
  3
3D Hidden
350
3D4E
  3
3dWireframe
350
3D4D
  3
Basic
350
3D4B
  3
Brighten
350
3D52
  3
ColorChange
350
3D56
  3
Conceptual
350
3D4F
  3
Dim
350
3D51
  3
Facepattern
350
3D55
  3
Flat
350
3D47
  3
FlatWithEdges
350
3D48
  3
Gouraud
350
3D49
  3
GouraudWithEdges
350
3D4A
  3
Linepattern
350
3D54
  3
Realistic
350
3D50
  3
Thicken
350
3D53
  0
XRECORD
  5
1BB8
102
{ACAD_REACTORS
330
C
102
}
330
C
100
AcDbXrecord
280
     1
 90
   990106
  3

 60
     0
 61
     0
 62
     4
 63
     4
 64
     1
 65
     0
 66
     0
 67
     2
 68
     1
 69
     0
 70
     0
 71
     0
 72
     0
 40
32.42059833719873
170
     2
340
0
  0
DICTIONARY
  5
4A53
102
{ACAD_REACTORS
330
C
102
}
330
C
100
AcDbDictionary
281
     1
  0
DICTIONARY
  5
4116
102
{ACAD_REACTORS
330
C
102
}
330
C
100
AcDbDictionary
281
     1
  3
CTABLESTYLE
350
4117
  3
DIMASSOC
350
4A4F
  3
PROJECTNAME
350
4A50
  0
XRECORD
  5
4A52
102
{ACAD_REACTORS
330
C
102
}
330
C
100
AcDbXrecord
280
     1
  1
DWGPROPS COOKIE
  2

  3

  4

  6

  7

  8
mitsuhara
  9

300
=
301
=
302
=
303
=
304
=
305
=
306
=
307
=
308
=
309
=
 40
0.5706313541666667
 41
2455090.761732894
 42
2455678.565018299
  1

 90
        0
  0
XRECORD
  5
46D5
102
{ACAD_REACTORS
330
46B0
102
}
330
46B0
100
AcDbXrecord
280
     1
102
VTR_0.000_0.000_1.000_1.000_VISUALSTYLE
340
3D4C
102
VTR_0.000_0.000_1.000_1.000_GRIDDISPLAY
 70
     3
102
VTR_0.000_0.000_1.000_1.000_GRIDMAJOR
 70
     5
102
VTR_0.000_0.000_1.000_1.000_DEFAULTLIGHTING
280
     1
102
VTR_0.000_0.000_1.000_1.000_DEFAULTLIGHTINGTYPE
 70
     1
102
VTR_0.000_0.000_1.000_1.000_BRIGHTNESS
141
0.0
102
VTR_0.000_0.000_1.000_1.000_CONTRAST
142
0.0
  0
DICTIONARY
  5
421C
102
{ACAD_REACTORS
330
3DBA
102
}
330
3DBA
100
AcDbDictionary
281
     1
  0
DICTIONARY
  5
3DBB
102
{ACAD_REACTORS
330
3DBA
102
}
330
3DBA
100
AcDbDictionary
281
     1
  0
DICTIONARY
  5
421B
102
{ACAD_REACTORS
330
3DBA
102
}
330
3DBA
100
AcDbDictionary
281
     1
1001
ACAD
1000
<All
  0
XRECORD
  5
46D7
102
{ACAD_REACTORS
330
46D6
102
}
330
46D6
100
AcDbXrecord
280
     1
102
MATERIAL
340
3D45
  0
XRECORD
  5
46D9
102
{ACAD_REACTORS
330
46D8
102
}
330
46D8
100
AcDbXrecord
280
     1
102
MATERIAL
340
3D45
  0
XRECORD
  5
46DB
102
{ACAD_REACTORS
330
46DA
102
}
330
46DA
100
AcDbXrecord
280
     1
102
MATERIAL
340
3D45
  0
XRECORD
  5
46E5
102
{ACAD_REACTORS
330
46E4
102
}
330
46E4
100
AcDbXrecord
280
     1
102
MATERIAL
340
3D45
  0
XRECORD
  5
3D3B
102
{ACAD_REACTORS
330
1808
102
}
330
1808
100
AcDbXrecord
280
     1
340
17
  0
SORTENTSTABLE
  5
4681
102
{ACAD_REACTORS
330
1808
102
}
330
1808
100
AcDbSortentsTable
330
17
331
4650
  5
4652
331
43DB
  5
43DD
331
4365
  5
4365
331
439C
  5
439E
331
4658
  5
467F
331
43E3
  5
43E5
331
436D
  5
436E
331
43AC
  5
43AE
331
4375
  5
4377
331
43EB
  5
43ED
331
43B4
  5
43B6
331
43BC
  5
43BE
331
437D
  5
437F
331
43F3
  5
43F5
331
4385
  5
4387
331
43C4
  5
43C6
331
446A
  5
44A2
331
43CC
  5
43CE
331
438D
  5
438F
331
43D4
  5
43D6
331
4395
  5
4397
331
4649
  5
464B
331
43DC
  5
43DE
331
4366
  5
4366
331
439D
  5
439F
331
44A2
  5
44BD
331
4651
  5
4653
331
43E4
  5
43E7
331
436E
  5
436F
331
4659
  5
4680
331
43EC
  5
43EE
331
4376
  5
4378
331
43AD
  5
43AF
331
43B5
  5
43B7
331
43F4
  5
43F6
331
437E
  5
4380
331
43BD
  5
43BF
331
4386
  5
4388
331
43C5
  5
43C7
331
43CD
  5
43CF
331
438E
  5
4390
331
4396
  5
4398
331
43D5
  5
43D7
331
464A
  5
464C
331
43DD
  5
43DF
331
439E
  5
43A0
331
4652
  5
4654
331
436F
  5
4371
331
4130
  5
4130
331
43ED
  5
43EF
331
4377
  5
4379
331
43AE
  5
43B0
331
43B6
  5
43B8
331
43F5
  5
43F7
331
437F
  5
4381
331
43BE
  5
43C0
331
4682
  5
4368
331
44CB
  5
4649
331
4387
  5
4389
331
43C6
  5
43C8
331
43CE
  5
43D0
331
438F
  5
4391
331
4415
  5
444E
331
43D6
  5
43D8
331
4397
  5
4399
331
464B
  5
464D
331
43DE
  5
43E0
331
4368
  5
4369
331
439F
  5
43A1
331
4653
  5
4655
331
4370
  5
4372
331
43A7
  5
43A9
331
43EE
  5
43F0
331
43AF
  5
43B1
331
43B7
  5
43B9
331
4378
  5
437A
331
43F6
  5
43F8
331
4380
  5
4382
331
43BF
  5
43C1
331
445D
  5
4495
331
43C7
  5
43C9
331
4388
  5
438A
331
4406
  5
4441
331
4390
  5
4392
331
43CF
  5
43D1
331
4495
  5
44BC
331
43D7
  5
43D9
331
464C
  5
464E
331
4398
  5
439A
331
43DF
  5
43E1
331
4369
  5
436A
331
43A0
  5
43A2
331
4654
  5
4656
331
43E7
  5
43E9
331
4371
  5
4373
331
43A8
  5
43AA
331
43EF
  5
43F1
331
43B0
  5
43B2
331
4379
  5
437B
331
43B8
  5
43BA
331
43F7
  5
43F9
331
4381
  5
4383
331
43C0
  5
43C2
331
4389
  5
438B
331
42AA
  5
42AA
331
43C8
  5
43CA
331
43D0
  5
43D2
331
4391
  5
4393
331
464D
  5
464F
331
43D8
  5
43DA
331
4399
  5
439B
331
43A1
  5
43A3
331
436A
  5
436B
331
43E0
  5
43E2
331
4655
  5
4657
331
4372
  5
4374
331
43A9
  5
43AB
331
43B1
  5
43B3
331
43F0
  5
43F2
331
437A
  5
437C
331
43B9
  5
43BB
331
44BE
  5
4648
331
43F8
  5
4406
331
4382
  5
4384
331
43C1
  5
43C3
331
43C9
  5
43CB
331
438A
  5
438C
331
4392
  5
4394
331
43D1
  5
43D3
331
464E
  5
4650
331
439A
  5
439C
331
43D9
  5
43DB
331
4656
  5
4658
331
43E1
  5
43E3
331
436B
  5
436C
331
43A2
  5
43A7
331
43E9
  5
43EB
331
4373
  5
4375
331
43AA
  5
43AC
331
43B2
  5
43B4
331
4450
  5
446A
331
43BA
  5
43BC
331
437B
  5
437D
331
43F1
  5
43F3
331
43F9
  5
4415
331
4383
  5
4385
331
43C2
  5
43C4
331
43CA
  5
43CC
331
438B
  5
438D
331
43D2
  5
43D4
331
4393
  5
4395
331
464F
  5
4651
331
43DA
  5
43DC
331
439B
  5
439D
331
4657
  5
4659
331
4441
  5
444F
331
43A3
  5
43A8
331
436C
  5
436D
331
43E2
  5
43E4
331
43EA
  5
43EC
331
4374
  5
4376
331
43AB
  5
43AD
331
43B3
  5
43B5
331
467F
  5
4682
331
43F2
  5
43F4
331
437C
  5
437E
331
43BB
  5
43BD
331
4384
  5
4386
331
43C3
  5
43C5
331
43CB
  5
43CD
331
438C
  5
438E
331
4648
  5
464A
331
4394
  5
4396
331
43D3
  5
43D5
  0
XRECORD
  5
3D3A
102
{ACAD_REACTORS
330
1806
102
}
330
1806
100
AcDbXrecord
280
     1
340
14
  0
XRECORD
  5
46D3
102
{ACAD_REACTORS
330
46D1
102
}
330
46D1
100
AcDbXrecord
280
     1
340
12
  0
XRECORD
  5
46D4
102
{ACAD_REACTORS
330
46D1
102
}
330
46D1
100
AcDbXrecord
280
     1
340
12
  0
XRECORD
  5
46D2
102
{ACAD_REACTORS
330
46D1
102
}
330
46D1
100
AcDbXrecord
280
     1
340
12
  0
LAYOUT
  5
3D5B
102
{ACAD_XDICTIONARY
360
4A54
102
}
102
{ACAD_REACTORS
330
3D5A
102
}
330
3D5A
100
AcDbPlotSettings
  1

  2
none_device
  4
Letter_(8.50_x_11.00_Inches)
  6

 40
6.349999904632568
 41
6.349999904632568
 42
6.350006103515625
 43
6.350006103515625
 44
215.8999938964844
 45
279.3999938964844
 46
23.54660056696066
 47
-45.31214602951583
 48
0.0
 49
0.0
140
0.0
141
0.0
142
1.0
143
28.77820000000001
 70
 11940
 72
     0
 73
     1
 74
     0
  7
monochrome.ctb
 75
     0
147
0.0347485249251169
148
-11643.77969116295
149
4047.315332369262
100
AcDbLayout
  1
Model
 70
     1
 71
     0
 10
0.0
 20
0.0
 11
12.0
 21
9.0
 12
0.0
 22
0.0
 32
0.0
 14
0.0
 24
0.0
 34
0.0
 15
0.0
 25
0.0
 35
0.0
146
0.0
 13
0.0
 23
0.0
 33
0.0
 16
1.0
 26
0.0
 36
0.0
 17
0.0
 27
1.0
 37
0.0
 76
     0
330
17
1001
ACAD_PSEXT
1000
なし
1000
なし
1000
適切ではありません
1000
新しいプロッタ環境設定名を選択しない限り、レイアウトは印刷されません。
1070
     0
  0
LAYOUT
  5
3D5C
102
{ACAD_XDICTIONARY
360
4A56
102
}
102
{ACAD_REACTORS
330
3D5A
102
}
330
3D5A
100
AcDbPlotSettings
  1

  2
Microsoft XPS Document Writer
  4

  6

 40
0.0
 41
0.0
 42
0.0
 43
0.0
 44
0.0
 45
0.0
 46
0.0
 47
0.0
 48
0.0
 49
0.0
140
0.0
141
0.0
142
1.0
143
1.0
 70
   688
 72
     0
 73
     0
 74
     5
  7
monochrome.ctb
 75
    16
147
1.0
148
0.0
149
0.0
100
AcDbLayout
  1
レイアウト1
 70
     1
 71
     1
 10
0.0
 20
0.0
 11
12.0
 21
9.0
 12
0.0
 22
0.0
 32
0.0
 14
1.000000000000000E+20
 24
1.000000000000000E+20
 34
1.000000000000000E+20
 15
-1.000000000000000E+20
 25
-1.000000000000000E+20
 35
-1.000000000000000E+20
146
0.0
 13
0.0
 23
0.0
 33
0.0
 16
1.0
 26
0.0
 36
0.0
 17
0.0
 27
1.0
 37
0.0
 76
     0
330
14
  0
MATERIAL
  5
3D44
102
{ACAD_XDICTIONARY
360
46DE
102
}
102
{ACAD_REACTORS
330
3D42
102
}
330
3D42
100
AcDbMaterial
  1
ByBlock
  0
MATERIAL
  5
3D43
102
{ACAD_XDICTIONARY
360
46DC
102
}
102
{ACAD_REACTORS
330
3D42
102
}
330
3D42
100
AcDbMaterial
  1
ByLayer
  0
MATERIAL
  5
3D45
102
{ACAD_XDICTIONARY
360
46E0
102
}
102
{ACAD_REACTORS
330
3D42
102
}
330
3D42
100
AcDbMaterial
  1
Global
  0
MLINESTYLE
  5
1B
102
{ACAD_REACTORS
330
1A
102
}
330
1A
100
AcDbMlineStyle
  2
STANDARD
 70
     0
  3

 62
   256
 51
90.0
 52
90.0
 71
     2
 49
0.5
 62
   256
  6
BYLAYER
 49
-0.5
 62
   256
  6
BYLAYER
  0
ACDBPLACEHOLDER
  5
3D41
102
{ACAD_REACTORS
330
3D40
102
}
330
3D40
  0
TABLESTYLE
  5
3D59
102
{ACAD_XDICTIONARY
360
46E2
102
}
102
{ACAD_REACTORS
330
3D58
102
}
330
3D58
100
AcDbTableStyle
  3
Standard
 70
     0
 71
     0
 40
0.06
 41
0.06
280
     0
281
     0
  7
STANDARD
140
0.18
170
     2
 62
     0
 63
     7
283
     0
274
    -2
284
     1
 64
     0
275
    -2
285
     1
 65
     0
276
    -2
286
     1
 66
     0
277
    -2
287
     1
 67
     0
278
    -2
288
     1
 68
     0
279
    -2
289
     1
 69
     0
  7
STANDARD
140
0.25
170
     5
 62
     0
 63
     7
283
     0
274
    -2
284
     1
 64
     0
275
    -2
285
     1
 65
     0
276
    -2
286
     1
 66
     0
277
    -2
287
     1
 67
     0
278
    -2
288
     1
 68
     0
279
    -2
289
     1
 69
     0
  7
STANDARD
140
0.18
170
     5
 62
     0
 63
     7
283
     0
274
    -2
284
     1
 64
     0
275
    -2
285
     1
 65
     0
276
    -2
286
     1
 66
     0
277
    -2
287
     1
 67
     0
278
    -2
288
     1
 68
     0
279
    -2
289
     1
 69
     0
  0
ACAD_PROXY_OBJECT
  5
3D4C
102
{ACAD_REACTORS
330
3D46
102
}
330
3D46
100
AcDbProxyObject
 90
      499
 91
      503
 95
  2555929
 70
     0
 93
      598
310
430C9915DA5C99599C985B59401049028333333333333E3BF0000000000000FB023FFFFFF0802405048070000C3008000000C800405A000000320014050640A01C00030C010500920280D0
 94
        0
1001
ACAD
1000
AcDbSavedByObjectVersion
1070
     0
1000
AcDbSavedByObjectVersion
1070
     0
1000
AcDbSavedByObjectVersion
1070
     0
1000
AcDbSavedByObjectVersion
1070
     0
1000
AcDbSavedByObjectVersion
1070
     0
1000
AcDbSavedByObjectVersion
1070
     0
1000
AcDbSavedByObjectVersion
1070
     0
1000
AcRTDxfName
1000
VISUALSTYLE
  0
ACAD_PROXY_OBJECT
  5
3D4E
102
{ACAD_REACTORS
330
3D46
102
}
330
3D46
100
AcDbProxyObject
 90
      499
 91
      503
 95
  2555929
 70
     0
 93
      662
310
428CD108121A5919195B8010640502408333333333333E3BF0000000000000FB023FFFFFF0802409028070000C3008000000C8004080000000000004440A000000320014050640A01C00030C010300920280D0
 94
        0
1001
ACAD
1000
AcDbSavedByObjectVersion
1070
     0
1000
AcDbSavedByObjectVersion
1070
     0
1000
AcDbSavedByObjectVersion
1070
     0
1000
AcDbSavedByObjectVersion
1070
     0
1000
AcDbSavedByObjectVersion
1070
     0
1000
AcDbSavedByObjectVersion
1070
     0
1000
AcDbSavedByObjectVersion
1070
     0
1000
AcRTDxfName
1000
VISUALSTYLE
  0
ACAD_PROXY_OBJECT
  5
3D4D
102
{ACAD_REACTORS
330
3D46
102
}
330
3D46
100
AcDbProxyObject
 90
      499
 91
      503
 95
  2555929
 70
     0
 93
      598
310
430CD915DA5C99599C985B59401059028333333333333E3BF0000000000000FB023FFFFFF0802405048070000C3008000000C800405A000000320014050640A01C00030C010500920280D3
 94
        0
1001
ACAD
1000
AcDbSavedByObjectVersion
1070
     0
1000
AcDbSavedByObjectVersion
1070
     0
1000
AcDbSavedByObjectVersion
1070
     0
1000
AcDbSavedByObjectVersion
1070
     0
1000
AcDbSavedByObjectVersion
1070
     0
1000
AcDbSavedByObjectVersion
1070
     0
1000
AcDbSavedByObjectVersion
1070
     0
1000
AcRTDxfName
1000
VISUALSTYLE
  0
ACAD_PROXY_OBJECT
  5
3D4B
102
{ACAD_REACTORS
330
3D46
102
}
330
3D46
100
AcDbProxyObject
 90
      499
 91
      503
 95
  2555929
 70
     0
 93
      558
310
4190985CDA58C0107406404333333333333E3BF0000000000000FB023FFFFFF08029048070000C3008000000C80040542201C00030C014050640A01C00030C010500920280D6
 94
        0
1001
ACAD
1000
AcDbSavedByObjectVersion
1070
     0
1000
AcDbSavedByObjectVersion
1070
     0
1000
AcDbSavedByObjectVersion
1070
     0
1000
AcDbSavedByObjectVersion
1070
     0
1000
AcDbSavedByObjectVersion
1070
     0
1000
AcDbSavedByObjectVersion
1070
     0
1000
AcDbSavedByObjectVersion
1070
     0
1000
AcRTDxfName
1000
VISUALSTYLE
  0
ACAD_PROXY_OBJECT
  5
3D52
102
{ACAD_REACTORS
330
3D46
102
}
330
3D46
100
AcDbProxyObject
 90
      499
 91
      503
 95
  2555929
 70
     0
 93
      598
310
42509C9A59DA1D195B8010C409028333333333333E3BF0000000000000FB023FFFFFF0802405048070000C3008000000C80040542201C00030C014050640A01C00030C010500920280A657
 94
        0
1001
ACAD
1000
AcDbSavedByObjectVersion
1070
     0
1000
AcDbSavedByObjectVersion
1070
     0
1000
AcDbSavedByObjectVersion
1070
     0
1000
AcDbSavedByObjectVersion
1070
     0
1000
AcDbSavedByObjectVersion
1070
     0
1000
AcDbSavedByObjectVersion
1070
     0
1000
AcDbSavedByObjectVersion
1070
     0
1000
AcRTDxfName
1000
VISUALSTYLE
  0
ACAD_PROXY_OBJECT
  5
3D56
102
{ACAD_REACTORS
330
3D46
102
}
330
3D46
100
AcDbProxyObject
 90
      499
 91
      503
 95
  2555929
 70
     0
 93
      622
310
4310DBDB1BDC90DA185B99D9401104090240C333333333333E3BF0000000000000FB0220202030802405048070000C3008000000C800405422202020308014050640A01C00030C010500920280D7
 94
        0
1001
ACAD
1000
AcDbSavedByObjectVersion
1070
     0
1000
AcDbSavedByObjectVersion
1070
     0
1000
AcDbSavedByObjectVersion
1070
     0
1000
AcDbSavedByObjectVersion
1070
     0
1000
AcDbSavedByObjectVersion
1070
     0
1000
AcDbSavedByObjectVersion
1070
     0
1000
AcDbSavedByObjectVersion
1070
     0
1000
AcRTDxfName
1000
VISUALSTYLE
  0
ACAD_PROXY_OBJECT
  5
3D4F
102
{ACAD_REACTORS
330
3D46
102
}
330
3D46
100
AcDbProxyObject
 90
      499
 91
      503
 95
  2555929
 70
     0
 93
      670
310
42D0DBDB98D95C1D1D585B0010940D028333333333333E3BF0000000000000FB023FFFFFF0802409028070000C3008000000C800404000000000000444042201C00030C014050640A01C00030C010300920280D0
 94
        0
1001
ACAD
1000
AcDbSavedByObjectVersion
1070
     0
1000
AcDbSavedByObjectVersion
1070
     0
1000
AcDbSavedByObjectVersion
1070
     0
1000
AcDbSavedByObjectVersion
1070
     0
1000
AcDbSavedByObjectVersion
1070
     0
1000
AcDbSavedByObjectVersion
1070
     0
1000
AcDbSavedByObjectVersion
1070
     0
1000
AcRTDxfName
1000
VISUALSTYLE
  0
ACAD_PROXY_OBJECT
  5
3D51
102
{ACAD_REACTORS
330
3D46
102
}
330
3D46
100
AcDbProxyObject
 90
      499
 91
      503
 95
  2555929
 70
     0
 93
      582
310
41111A5B4010B409028333333333333E3BF0000000000000FB023FFFFFF0802405048070000C3008000000C80040542201C00030C014050640A01C00030C01050092028099DFFFFFF4
 94
        0
1001
ACAD
1000
AcDbSavedByObjectVersion
1070
     0
1000
AcDbSavedByObjectVersion
1070
     0
1000
AcDbSavedByObjectVersion
1070
     0
1000
AcDbSavedByObjectVersion
1070
     0
1000
AcDbSavedByObjectVersion
1070
     0
1000
AcDbSavedByObjectVersion
1070
     0
1000
AcDbSavedByObjectVersion
1070
     0
1000
AcRTDxfName
1000
VISUALSTYLE
  0
ACAD_PROXY_OBJECT
  5
3D55
102
{ACAD_REACTORS
330
3D46
102
}
330
3D46
100
AcDbProxyObject
 90
      499
 91
      503
 95
  2555929
 70
     0
 93
      614
310
43119858D95C185D1D195C9B8010F409028333333333333E3BF0000000000000FB023FFFFFF0802405048070000C3008000000C80040542201C00030C014050640A01C00030C010500920280D4
 94
        0
1001
ACAD
1000
AcDbSavedByObjectVersion
1070
     0
1000
AcDbSavedByObjectVersion
1070
     0
1000
AcDbSavedByObjectVersion
1070
     0
1000
AcDbSavedByObjectVersion
1070
     0
1000
AcDbSavedByObjectVersion
1070
     0
1000
AcDbSavedByObjectVersion
1070
     0
1000
AcDbSavedByObjectVersion
1070
     0
1000
AcRTDxfName
1000
VISUALSTYLE
  0
ACAD_PROXY_OBJECT
  5
3D47
102
{ACAD_REACTORS
330
3D46
102
}
330
3D46
100
AcDbProxyObject
 90
      499
 91
      503
 95
  2555929
 70
     0
 93
      558
310
41519B185D00240901404333333333333E3BF0000000000000F9023FFFFFF0801029048070000C3008000000C80040542201C00030C014050640A01C00030C010500920286D4
 94
        0
1001
ACAD
1000
AcDbSavedByObjectVersion
1070
     0
1000
AcDbSavedByObjectVersion
1070
     0
1000
AcDbSavedByObjectVersion
1070
     0
1000
AcDbSavedByObjectVersion
1070
     0
1000
AcDbSavedByObjectVersion
1070
     0
1000
AcDbSavedByObjectVersion
1070
     0
1000
AcDbSavedByObjectVersion
1070
     0
1000
AcRTDxfName
1000
VISUALSTYLE
  0
ACAD_PROXY_OBJECT
  5
3D48
102
{ACAD_REACTORS
330
3D46
102
}
330
3D46
100
AcDbProxyObject
 90
      499
 91
      503
 95
  2555929
 70
     0
 93
      638
310
43919B185D15DA5D1A115919D95CC010140901404333333333333E3BF0000000000000F9023FFFFFF080102405048070000C3008000000C800405A000000320014050640A01C00030C010500920286D4
 94
        0
1001
ACAD
1000
AcDbSavedByObjectVersion
1070
     0
1000
AcDbSavedByObjectVersion
1070
     0
1000
AcDbSavedByObjectVersion
1070
     0
1000
AcDbSavedByObjectVersion
1070
     0
1000
AcDbSavedByObjectVersion
1070
     0
1000
AcDbSavedByObjectVersion
1070
     0
1000
AcDbSavedByObjectVersion
1070
     0
1000
AcRTDxfName
1000
VISUALSTYLE
  0
ACAD_PROXY_OBJECT
  5
3D49
102
{ACAD_REACTORS
330
3D46
102
}
330
3D46
100
AcDbProxyObject
 90
      499
 91
      503
 95
  2555929
 70
     0
 93
      582
310
4211DBDD5C985D590010240902404333333333333E3BF0000000000000F9023FFFFFF0801029048070000C3008000000C800405A01C00030C014050640A01C00030C010500920286D4
 94
        0
1001
ACAD
1000
AcDbSavedByObjectVersion
1070
     0
1000
AcDbSavedByObjectVersion
1070
     0
1000
AcDbSavedByObjectVersion
1070
     0
1000
AcDbSavedByObjectVersion
1070
     0
1000
AcDbSavedByObjectVersion
1070
     0
1000
AcDbSavedByObjectVersion
1070
     0
1000
AcDbSavedByObjectVersion
1070
     0
1000
AcRTDxfName
1000
VISUALSTYLE
  0
ACAD_PROXY_OBJECT
  5
3D4A
102
{ACAD_REACTORS
330
3D46
102
}
330
3D46
100
AcDbProxyObject
 90
      499
 91
      503
 95
  2555929
 70
     0
 93
      662
310
4451DBDD5C985D5915DA5D1A115919D95CC010340902404333333333333E3BF0000000000000F9023FFFFFF080102405048070000C3008000000C800405A000000320014050640A01C00030C010500920286D4
 94
        0
1001
ACAD
1000
AcDbSavedByObjectVersion
1070
     0
1000
AcDbSavedByObjectVersion
1070
     0
1000
AcDbSavedByObjectVersion
1070
     0
1000
AcDbSavedByObjectVersion
1070
     0
1000
AcDbSavedByObjectVersion
1070
     0
1000
AcDbSavedByObjectVersion
1070
     0
1000
AcDbSavedByObjectVersion
1070
     0
1000
AcRTDxfName
1000
VISUALSTYLE
  0
ACAD_PROXY_OBJECT
  5
3D54
102
{ACAD_REACTORS
330
3D46
102
}
330
3D46
100
AcDbProxyObject
 90
      499
 91
      503
 95
  2555929
 70
     0
 93
      614
310
43131A5B995C185D1D195C9B8010E409028333333333333E3BF0000000000000FB023FFFFFF0802405048070000C3008000000C80041D42201C00030C014050640A01C00030C010500920E80D5
 94
        0
1001
ACAD
1000
AcDbSavedByObjectVersion
1070
     0
1000
AcDbSavedByObjectVersion
1070
     0
1000
AcDbSavedByObjectVersion
1070
     0
1000
AcDbSavedByObjectVersion
1070
     0
1000
AcDbSavedByObjectVersion
1070
     0
1000
AcDbSavedByObjectVersion
1070
     0
1000
AcDbSavedByObjectVersion
1070
     0
1000
AcRTDxfName
1000
VISUALSTYLE
  0
ACAD_PROXY_OBJECT
  5
3D50
102
{ACAD_REACTORS
330
3D46
102
}
330
3D46
100
AcDbProxyObject
 90
      499
 91
      503
 95
  2555929
 70
     0
 93
      590
310
429499585B1A5CDD1A58C0108409028333333333333E3BF0000000000000FB023FFFFFF08024068070000C3008000000C8004054221E1E1E308014050640A01C00030C010500920286D0
 94
        0
1001
ACAD
1000
AcDbSavedByObjectVersion
1070
     0
1000
AcDbSavedByObjectVersion
1070
     0
1000
AcDbSavedByObjectVersion
1070
     0
1000
AcDbSavedByObjectVersion
1070
     0
1000
AcDbSavedByObjectVersion
1070
     0
1000
AcDbSavedByObjectVersion
1070
     0
1000
AcDbSavedByObjectVersion
1070
     0
1000
AcRTDxfName
1000
VISUALSTYLE
  0
ACAD_PROXY_OBJECT
  5
3D53
102
{ACAD_REACTORS
330
3D46
102
}
330
3D46
100
AcDbProxyObject
 90
      499
 91
      503
 95
  2555929
 70
     0
 93
      582
310
42151A1A58DAD95B8010D409028333333333333E3BF0000000000000FB023FFFFFF0802405048070000C3008000000C80040543201C00030C014050640A01C00030C010500920280D4
 94
        0
1001
ACAD
1000
AcDbSavedByObjectVersion
1070
     0
1000
AcDbSavedByObjectVersion
1070
     0
1000
AcDbSavedByObjectVersion
1070
     0
1000
AcDbSavedByObjectVersion
1070
     0
1000
AcDbSavedByObjectVersion
1070
     0
1000
AcDbSavedByObjectVersion
1070
     0
1000
AcDbSavedByObjectVersion
1070
     0
1000
AcRTDxfName
1000
VISUALSTYLE
  0
DICTIONARYVAR
  5
4117
102
{ACAD_REACTORS
330
4116
102
}
330
4116
100
DictionaryVariables
280
     0
  1
STANDARD
  0
DICTIONARYVAR
  5
4A4F
102
{ACAD_REACTORS
330
4116
102
}
330
4116
100
DictionaryVariables
280
     0
  1
1
  0
DICTIONARYVAR
  5
4A50
102
{ACAD_REACTORS
330
4116
102
}
330
4116
100
DictionaryVariables
280
     0
  1

  0
DICTIONARY
  5
4A54
330
3D5B
100
AcDbDictionary
280
     1
281
     1
  3
ACAD_XREC_ROUNDTRIP
360
4A55
  0
DICTIONARY
  5
4A56
330
3D5C
100
AcDbDictionary
280
     1
281
     1
  3
ACAD_XREC_ROUNDTRIP
360
4A57
  0
DICTIONARY
  5
46DE
330
3D44
100
AcDbDictionary
280
     1
281
     1
  3
ACAD_XREC_ROUNDTRIP
360
46DF
  0
DICTIONARY
  5
46DC
330
3D43
100
AcDbDictionary
280
     1
281
     1
  3
ACAD_XREC_ROUNDTRIP
360
46DD
  0
DICTIONARY
  5
46E0
330
3D45
100
AcDbDictionary
280
     1
281
     1
  3
ACAD_XREC_ROUNDTRIP
360
46E1
  0
DICTIONARY
  5
46E2
330
3D59
100
AcDbDictionary
280
     1
281
     1
  3
ACAD_XREC_ROUNDTRIP
360
46E3
  0
XRECORD
  5
4A55
102
{ACAD_REACTORS
330
4A54
102
}
330
4A54
100
AcDbXrecord
280
     1
102
SHADEPLOT
 70
     0
102
SHADEPLOTRESLEVEL
 70
     2
102
SHADEPLOTCUSTOMDPI
 70
   300
  0
XRECORD
  5
4A57
102
{ACAD_REACTORS
330
4A56
102
}
330
4A56
100
AcDbXrecord
280
     1
102
SHADEPLOT
 70
     0
102
SHADEPLOTRESLEVEL
 70
     2
102
SHADEPLOTCUSTOMDPI
 70
   300
  0
XRECORD
  5
46DF
102
{ACAD_REACTORS
330
46DE
102
}
330
46DE
100
AcDbXrecord
280
     1
102
MATERIAL
148
0.0
149
0.0
149
0.0
 93
        0
 94
       63
282
     0
 72
     1
 77
     1
171
     1
175
     1
179
     1
273
     0
  0
XRECORD
  5
46DD
102
{ACAD_REACTORS
330
46DC
102
}
330
46DC
100
AcDbXrecord
280
     1
102
MATERIAL
148
0.0
149
0.0
149
0.0
 93
        0
 94
       63
282
     0
 72
     1
 77
     1
171
     1
175
     1
179
     1
273
     0
  0
XRECORD
  5
46E1
102
{ACAD_REACTORS
330
46E0
102
}
330
46E0
100
AcDbXrecord
280
     1
102
MATERIAL
148
0.0
149
0.0
149
0.0
 93
        0
 94
       63
282
     0
 72
     1
 77
     1
171
     1
175
     1
179
     1
273
     0
  0
XRECORD
  5
46E3
102
{ACAD_REACTORS
330
46E2
102
}
330
46E2
100
AcDbXrecord
280
     1
102
ACAD_ROUNDTRIP_PRE2007_TABLESTYLE
 90
      512
 91
        0
  1

 92
      512
 93
        0
  2

 94
      512
 95
        0
  3

  0
ENDSEC
  0
EOF
