  0
SECTION
  2
HEADER
  9
$ACADVER
  1
AC1018
  9
$ACADMAINTVER
 70
    39
  9
$DWGCODEPAGE
  3
ANSI_932
  9
$LASTSAVEDBY
  1
yakata
  9
$INSBASE
 10
0.0
 20
0.0
 30
0.0
  9
$EXTMIN
 10
534.4018086324902
 20
-140.7473815513037
 30
0.0
  9
$EXTMAX
 10
720.9011157621329
 20
-10.27677521265844
 30
1.0
  9
$LIMMIN
 10
0.0
 20
0.0
  9
$LIMMAX
 10
12.0
 20
9.0
  9
$ORTHOMODE
 70
     1
  9
$REGENMODE
 70
     1
  9
$FILLMODE
 70
     1
  9
$QTEXTMODE
 70
     0
  9
$MIRRTEXT
 70
     1
  9
$LTSCALE
 40
0.5
  9
$ATTMODE
 70
     1
  9
$TEXTSIZE
 40
2.5
  9
$TRACEWID
 40
0.05
  9
$TEXTSTYLE
  7
CatalogDxf
  9
$CLAYER
  8
Z_OM_DIM
  9
$CELTYPE
  6
BYLAYER
  9
$CECOLOR
 62
   256
  9
$CELTSCALE
 40
1.0
  9
$DISPSILH
 70
     0
  9
$DIMSCALE
 40
1.0
  9
$DIMASZ
 40
2.5
  9
$DIMEXO
 40
0.625
  9
$DIMDLI
 40
3.75
  9
$DIMRND
 40
0.0
  9
$DIMDLE
 40
0.0
  9
$DIMEXE
 40
1.25
  9
$DIMTP
 40
0.0
  9
$DIMTM
 40
0.0
  9
$DIMTXT
 40
2.5
  9
$DIMCEN
 40
2.5
  9
$DIMTSZ
 40
0.0
  9
$DIMTOL
 70
     0
  9
$DIMLIM
 70
     0
  9
$DIMTIH
 70
     0
  9
$DIMTOH
 70
     0
  9
$DIMSE1
 70
     0
  9
$DIMSE2
 70
     0
  9
$DIMTAD
 70
     1
  9
$DIMZIN
 70
     8
  9
$DIMBLK
  1
OPEN30
  9
$DIMASO
 70
     1
  9
$DIMSHO
 70
     1
  9
$DIMPOST
  1

  9
$DIMAPOST
  1

  9
$DIMALT
 70
     0
  9
$DIMALTD
 70
     3
  9
$DIMALTF
 40
0.03937007874016
  9
$DIMLFAC
 40
1.0
  9
$DIMTOFL
 70
     1
  9
$DIMTVP
 40
0.0
  9
$DIMTIX
 70
     0
  9
$DIMSOXD
 70
     0
  9
$DIMSAH
 70
     0
  9
$DIMBLK1
  1

  9
$DIMBLK2
  1

  9
$DIMSTYLE
  2
CatalogDxf
  9
$DIMCLRD
 70
   256
  9
$DIMCLRE
 70
   256
  9
$DIMCLRT
 70
   256
  9
$DIMTFAC
 40
1.0
  9
$DIMGAP
 40
0.625
  9
$DIMJUST
 70
     0
  9
$DIMSD1
 70
     0
  9
$DIMSD2
 70
     0
  9
$DIMTOLJ
 70
     0
  9
$DIMTZIN
 70
     8
  9
$DIMALTZ
 70
     0
  9
$DIMALTTZ
 70
     0
  9
$DIMUPT
 70
     0
  9
$DIMDEC
 70
     1
  9
$DIMTDEC
 70
     1
  9
$DIMALTU
 70
     2
  9
$DIMALTTD
 70
     3
  9
$DIMTXSTY
  7
CatalogDxf
  9
$DIMAUNIT
 70
     0
  9
$DIMADEC
 70
     0
  9
$DIMALTRND
 40
0.0
  9
$DIMAZIN
 70
     0
  9
$DIMDSEP
 70
    46
  9
$DIMATFIT
 70
     3
  9
$DIMFRAC
 70
     0
  9
$DIMLDRBLK
  1
OPEN30
  9
$DIMLUNIT
 70
     2
  9
$DIMLWD
 70
    -1
  9
$DIMLWE
 70
    -1
  9
$DIMTMOVE
 70
     0
  9
$LUNITS
 70
     2
  9
$LUPREC
 70
     2
  9
$SKETCHINC
 40
0.1
  9
$FILLETRAD
 40
0.0
  9
$AUNITS
 70
     0
  9
$AUPREC
 70
     2
  9
$MENU
  1
acad
  9
$ELEVATION
 40
0.0
  9
$PELEVATION
 40
0.0
  9
$THICKNESS
 40
0.0
  9
$LIMCHECK
 70
     0
  9
$CHAMFERA
 40
0.0
  9
$CHAMFERB
 40
0.0
  9
$CHAMFERC
 40
0.0
  9
$CHAMFERD
 40
0.0
  9
$SKPOLY
 70
     0
  9
$TDCREATE
 40
2455090.761732894
  9
$TDUCREATE
 40
2455090.386732893
  9
$TDUPDATE
 40
2456561.436216644
  9
$TDUUPDATE
 40
2456561.061216644
  9
$TDINDWG
 40
0.6629291667
  9
$TDUSRTIMER
 40
0.6629244676
  9
$USRTIMER
 70
     1
  9
$ANGBASE
 50
0.0
  9
$ANGDIR
 70
     0
  9
$PDMODE
 70
     0
  9
$PDSIZE
 40
0.0
  9
$PLINEWID
 40
0.0
  9
$SPLFRAME
 70
     0
  9
$SPLINETYPE
 70
     6
  9
$SPLINESEGS
 70
     8
  9
$HANDSEED
  5
4F1E
  9
$SURFTAB1
 70
     6
  9
$SURFTAB2
 70
     6
  9
$SURFTYPE
 70
     6
  9
$SURFU
 70
     6
  9
$SURFV
 70
     6
  9
$UCSBASE
  2

  9
$UCSNAME
  2

  9
$UCSORG
 10
0.0
 20
0.0
 30
0.0
  9
$UCSXDIR
 10
1.0
 20
0.0
 30
0.0
  9
$UCSYDIR
 10
0.0
 20
1.0
 30
0.0
  9
$UCSORTHOREF
  2

  9
$UCSORTHOVIEW
 70
     1
  9
$UCSORGTOP
 10
0.0
 20
0.0
 30
0.0
  9
$UCSORGBOTTOM
 10
0.0
 20
0.0
 30
0.0
  9
$UCSORGLEFT
 10
0.0
 20
0.0
 30
0.0
  9
$UCSORGRIGHT
 10
0.0
 20
0.0
 30
0.0
  9
$UCSORGFRONT
 10
0.0
 20
0.0
 30
0.0
  9
$UCSORGBACK
 10
0.0
 20
0.0
 30
0.0
  9
$PUCSBASE
  2

  9
$PUCSNAME
  2

  9
$PUCSORG
 10
0.0
 20
0.0
 30
0.0
  9
$PUCSXDIR
 10
1.0
 20
0.0
 30
0.0
  9
$PUCSYDIR
 10
0.0
 20
1.0
 30
0.0
  9
$PUCSORTHOREF
  2

  9
$PUCSORTHOVIEW
 70
     0
  9
$PUCSORGTOP
 10
0.0
 20
0.0
 30
0.0
  9
$PUCSORGBOTTOM
 10
0.0
 20
0.0
 30
0.0
  9
$PUCSORGLEFT
 10
0.0
 20
0.0
 30
0.0
  9
$PUCSORGRIGHT
 10
0.0
 20
0.0
 30
0.0
  9
$PUCSORGFRONT
 10
0.0
 20
0.0
 30
0.0
  9
$PUCSORGBACK
 10
0.0
 20
0.0
 30
0.0
  9
$USERI1
 70
     0
  9
$USERI2
 70
     0
  9
$USERI3
 70
     0
  9
$USERI4
 70
     0
  9
$USERI5
 70
     0
  9
$USERR1
 40
0.0
  9
$USERR2
 40
0.0
  9
$USERR3
 40
0.0
  9
$USERR4
 40
0.0
  9
$USERR5
 40
0.0
  9
$WORLDVIEW
 70
     1
  9
$SHADEDGE
 70
     3
  9
$SHADEDIF
 70
    70
  9
$TILEMODE
 70
     1
  9
$MAXACTVP
 70
    16
  9
$PINSBASE
 10
0.0
 20
0.0
 30
0.0
  9
$PLIMCHECK
 70
     0
  9
$PEXTMIN
 10
1.000000000000000E+20
 20
1.000000000000000E+20
 30
1.000000000000000E+20
  9
$PEXTMAX
 10
-1.000000000000000E+20
 20
-1.000000000000000E+20
 30
-1.000000000000000E+20
  9
$PLIMMIN
 10
0.0
 20
0.0
  9
$PLIMMAX
 10
12.0
 20
9.0
  9
$UNITMODE
 70
     0
  9
$VISRETAIN
 70
     0
  9
$PLINEGEN
 70
     0
  9
$PSLTSCALE
 70
     1
  9
$TREEDEPTH
 70
  3020
  9
$CMLSTYLE
  2
STANDARD
  9
$CMLJUST
 70
     0
  9
$CMLSCALE
 40
1.0
  9
$PROXYGRAPHICS
 70
     1
  9
$MEASUREMENT
 70
     0
  9
$CELWEIGHT
370
    -1
  9
$ENDCAPS
280
     0
  9
$JOINSTYLE
280
     0
  9
$LWDISPLAY
290
     0
  9
$INSUNITS
 70
     0
  9
$HYPERLINKBASE
  1

  9
$STYLESHEET
  1
MONOCHROME.CTB
  9
$XEDIT
290
     1
  9
$CEPSNTYPE
380
     0
  9
$PSTYLEMODE
290
     1
  9
$FINGERPRINTGUID
  2
{AFC0AA2D-B3CD-48CF-B830-EF9C44F122D3}
  9
$VERSIONGUID
  2
{8CDBFFFA-1ACE-4A6D-91C8-E3EA14341025}
  9
$EXTNAMES
290
     1
  9
$PSVPSCALE
 40
0.0
  9
$OLESTARTUP
290
     0
  9
$SORTENTS
280
   127
  9
$INDEXCTL
280
     0
  9
$HIDETEXT
280
     0
  9
$XCLIPFRAME
290
     0
  9
$HALOGAP
280
     0
  9
$OBSCOLOR
 70
   257
  9
$OBSLTYPE
280
     0
  9
$INTERSECTIONDISPLAY
280
     0
  9
$INTERSECTIONCOLOR
 70
   257
  9
$DIMASSOC
280
     1
  9
$PROJECTNAME
  1

  0
ENDSEC
  0
SECTION
  2
CLASSES
  0
CLASS
  1
ACDBDICTIONARYWDFLT
  2
AcDbDictionaryWithDefault
  3
ObjectDBX Classes
 90
        0
 91
        1
280
     0
281
     0
  0
CLASS
  1
DICTIONARYVAR
  2
AcDbDictionaryVar
  3
ObjectDBX Classes
 90
        0
 91
        7
280
     0
281
     0
  0
CLASS
  1
MATERIAL
  2
AcDbMaterial
  3
ObjectDBX Classes
 90
        0
 91
        3
280
     0
281
     0
  0
CLASS
  1
VISUALSTYLE
  2
AcDbVisualStyle
  3
ObjectDBX Classes
 90
     4095
 91
       16
280
     0
281
     0
  0
CLASS
  1
TABLESTYLE
  2
AcDbTableStyle
  3
ObjectDBX Classes
 90
     2047
 91
        1
280
     0
281
     0
  0
CLASS
  1
DIMASSOC
  2
AcDbDimAssoc
  3
"AcDbDimAssoc|Product Desc:     AcDim ARX App For Dimension|Company:          Autodesk, Inc.|WEB Address:      www.autodesk.com"
 90
        0
 91
        0
280
     0
281
     0
  0
CLASS
  1
ACDBPLACEHOLDER
  2
AcDbPlaceHolder
  3
ObjectDBX Classes
 90
        0
 91
        1
280
     0
281
     0
  0
CLASS
  1
LAYOUT
  2
AcDbLayout
  3
ObjectDBX Classes
 90
        0
 91
        2
280
     0
281
     0
  0
CLASS
  1
SCALE
  2
AcDbScale
  3
ObjectDBX Classes
 90
     1153
 91
       33
280
     0
281
     0
  0
CLASS
  1
MLEADERSTYLE
  2
AcDbMLeaderStyle
  3
ACDB_MLEADERSTYLE_CLASS
 90
     4095
 91
        1
280
     0
281
     0
  0
CLASS
  1
CELLSTYLEMAP
  2
AcDbCellStyleMap
  3
ObjectDBX Classes
 90
     1152
 91
        1
280
     0
281
     0
  0
CLASS
  1
SORTENTSTABLE
  2
AcDbSortentsTable
  3
ObjectDBX Classes
 90
        0
 91
        1
280
     0
281
     0
  0
ENDSEC
  0
SECTION
  2
TABLES
  0
TABLE
  2
VPORT
  5
8
330
0
100
AcDbSymbolTable
 70
     2
  0
VPORT
  5
4F1D
330
8
100
AcDbSymbolTableRecord
100
AcDbViewportTableRecord
  2
*Active
 70
     0
 10
0.0
 20
0.0
 11
1.0
 21
1.0
 12
623.9344031913756
 22
-72.34402974349845
 13
0.0
 23
0.0
 14
1.0
 24
1.0
 15
0.0
 25
0.0
 16
0.0
 26
0.0
 36
1.0
 17
0.0
 27
0.0
 37
0.0
 40
160.290980268715
 41
2.138497652582159
 42
50.0
 43
0.0
 44
0.0
 50
0.0
 51
0.0
 71
     0
 72
   100
 73
     1
 74
     1
 75
     0
 76
     0
 77
     0
 78
     0
281
     0
 65
     1
110
0.0
120
0.0
130
0.0
111
1.0
121
0.0
131
0.0
112
0.0
122
1.0
132
0.0
 79
     0
146
0.0
  0
ENDTAB
  0
TABLE
  2
LTYPE
  5
5
330
0
100
AcDbSymbolTable
 70
     4
  0
LTYPE
  5
11
330
5
100
AcDbSymbolTableRecord
100
AcDbLinetypeTableRecord
  2
BYBLOCK
 70
     0
  3

 72
    65
 73
     0
 40
0.0
  0
LTYPE
  5
12
330
5
100
AcDbSymbolTableRecord
100
AcDbLinetypeTableRecord
  2
BYLAYER
 70
     0
  3

 72
    65
 73
     0
 40
0.0
  0
LTYPE
  5
13
330
5
100
AcDbSymbolTableRecord
100
AcDbLinetypeTableRecord
  2
CONTINUOUS
 70
     0
  3
Solid line
 72
    65
 73
     0
 40
0.0
  0
LTYPE
  5
3DB3
330
5
100
AcDbSymbolTableRecord
100
AcDbLinetypeTableRecord
  2
CENTER2
 70
     0
  3
Center (.5x) ___ _ ___ _ ___ _ ___ _ ___ _ ___
 72
    65
 73
     4
 40
28.575
 49
19.05
 74
     0
 49
-3.174999999999998
 74
     0
 49
3.174999999999998
 74
     0
 49
-3.174999999999998
 74
     0
  0
LTYPE
  5
3DB4
330
5
100
AcDbSymbolTableRecord
100
AcDbLinetypeTableRecord
  2
HIDDEN2
 70
     0
  3
Hidden (.5x) _ _ _ _ _ _ _ _ _ _ _ _ _ _ _ _ _
 72
    65
 73
     2
 40
4.762499999999998
 49
3.174999999999998
 74
     0
 49
-1.587499999999999
 74
     0
  0
LTYPE
  5
4D70
330
5
100
AcDbSymbolTableRecord
100
AcDbLinetypeTableRecord
  2
DOT
 70
     0
  3
Dot . . . . . . . . . . . . . . . . . . . . . .
 72
    65
 73
     2
 40
0.25
 49
0.0
 74
     0
 49
-0.25
 74
     0
  0
ENDTAB
  0
TABLE
  2
LAYER
  5
2
102
{ACAD_XDICTIONARY
360
3DBA
102
}
330
0
100
AcDbSymbolTable
 70
     5
  0
LAYER
  5
E
102
{ACAD_XDICTIONARY
360
4DD0
102
}
330
2
100
AcDbSymbolTableRecord
100
AcDbLayerTableRecord
  2
0
 70
     0
 62
     7
  6
CONTINUOUS
370
    -3
390
3D41
  0
LAYER
  5
27
102
{ACAD_XDICTIONARY
360
4DD2
102
}
330
2
100
AcDbSymbolTableRecord
100
AcDbLayerTableRecord
  2
Z_OM_DIM
 70
     0
 62
     4
  6
CONTINUOUS
370
    -3
390
3D41
  0
LAYER
  5
2B
330
2
100
AcDbSymbolTableRecord
100
AcDbLayerTableRecord
  2
DEFPOINTS
 70
     0
 62
     7
  6
CONTINUOUS
290
     0
370
    -3
390
3D41
  0
LAYER
  5
3DB5
102
{ACAD_XDICTIONARY
360
4DD4
102
}
330
2
100
AcDbSymbolTableRecord
100
AcDbLayerTableRecord
  2
additional
 70
     0
 62
    50
  6
CONTINUOUS
370
    -3
390
3D41
1001
AcAecLayerStandard
1000

1000

  0
LAYER
  5
4E3D
330
2
100
AcDbSymbolTableRecord
100
AcDbLayerTableRecord
  2
OBJECTS1
 70
     0
 62
     7
  6
CONTINUOUS
370
    35
390
3D41
  0
ENDTAB
  0
TABLE
  2
STYLE
  5
3
330
0
100
AcDbSymbolTable
 70
     3
  0
STYLE
  5
F
330
3
100
AcDbSymbolTableRecord
100
AcDbTextStyleTableRecord
  2
STANDARD
 70
     0
 40
0.0
 41
1.08
 50
0.0
 71
     0
 42
3.0
  3
txt.shx
  4
bigfont.shx
  0
STYLE
  5
3DB6
330
3
100
AcDbSymbolTableRecord
100
AcDbTextStyleTableRecord
  2
CatalogDxf
 70
     0
 40
0.0
 41
1.0
 50
0.0
 71
     0
 42
2.5
  3
txt.shx
  4
bigfont.shx
  0
STYLE
  5
4196
330
3
100
AcDbSymbolTableRecord
100
AcDbTextStyleTableRecord
  2

 70
     1
 40
0.0
 41
1.0
 50
0.0
 71
     0
 42
3.0
  3
ltypeshp.shx
  4

  0
ENDTAB
  0
TABLE
  2
VIEW
  5
6
330
0
100
AcDbSymbolTable
 70
     0
  0
ENDTAB
  0
TABLE
  2
UCS
  5
7
330
0
100
AcDbSymbolTable
 70
     0
  0
ENDTAB
  0
TABLE
  2
APPID
  5
9
330
0
100
AcDbSymbolTable
 70
    10
  0
APPID
  5
10
330
9
100
AcDbSymbolTableRecord
100
AcDbRegAppTableRecord
  2
ACAD
 70
     0
  0
APPID
  5
3D5E
330
9
100
AcDbSymbolTableRecord
100
AcDbRegAppTableRecord
  2
ACAD_PSEXT
 70
     0
  0
APPID
  5
3DB9
330
9
100
AcDbSymbolTableRecord
100
AcDbRegAppTableRecord
  2
AcAecLayerStandard
 70
     0
  0
APPID
  5
41A3
330
9
100
AcDbSymbolTableRecord
100
AcDbRegAppTableRecord
  2
ACAD_DSTYLE_DIM_LINETYPE
 70
     0
  0
APPID
  5
41A4
330
9
100
AcDbSymbolTableRecord
100
AcDbRegAppTableRecord
  2
ACAD_DSTYLE_DIM_EXT1_LINETYPE
 70
     0
  0
APPID
  5
41A5
330
9
100
AcDbSymbolTableRecord
100
AcDbRegAppTableRecord
  2
ACAD_DSTYLE_DIM_EXT2_LINETYPE
 70
     0
  0
APPID
  5
4928
330
9
100
AcDbSymbolTableRecord
100
AcDbRegAppTableRecord
  2
ACAD_DSTYLE_DIMTEXT_FILL
 70
     0
  0
APPID
  5
4C73
330
9
100
AcDbSymbolTableRecord
100
AcDbRegAppTableRecord
  2
ACAD_MLEADERVER
 70
     0
  0
APPID
  5
4DBE
330
9
100
AcDbSymbolTableRecord
100
AcDbRegAppTableRecord
  2
ACAD_EXEMPT_FROM_CAD_STANDARDS
 70
     0
  0
APPID
  5
4DCF
330
9
100
AcDbSymbolTableRecord
100
AcDbRegAppTableRecord
  2
ACAD_NAV_VCDISPLAY
 70
     0
  0
ENDTAB
  0
TABLE
  2
DIMSTYLE
  5
A
330
0
100
AcDbSymbolTable
 70
     4
100
AcDbDimStyleTable
 71
     2
340
3DB8
340
30
  0
DIMSTYLE
105
30
330
A
100
AcDbSymbolTableRecord
100
AcDbDimStyleTableRecord
  2
STANDARD
 70
     0
 41
6.0
 42
1.0
 43
16.0
 44
3.0
 73
     0
 74
     0
 77
     1
 78
     8
140
4.4
141
10.0
147
1.6
172
     1
176
   256
177
   256
178
   256
340
F
341
977
342
977
  0
DIMSTYLE
105
3DB8
102
{ACAD_REACTORS
330
43FD
330
440A
330
4420
330
442F
330
443C
330
4449
330
4458
330
4568
330
458F
330
459E
330
45EB
330
45F8
102
}
330
A
100
AcDbSymbolTableRecord
100
AcDbDimStyleTableRecord
  2
CatalogDxf
 70
     0
 41
2.5
 42
0.625
 43
3.75
 44
1.25
 73
     0
 74
     0
 77
     1
 78
     8
140
2.5
141
2.5
143
0.03937007874016
147
0.625
171
     3
172
     1
176
   256
177
   256
178
   256
271
     1
272
     1
274
     3
283
     0
284
     8
340
3DB6
341
977
342
977
371
    -1
372
    -1
1001
ACAD_DSTYLE_DIM_LINETYPE
1070
   380
1005
12
1001
ACAD_DSTYLE_DIM_EXT1_LINETYPE
1070
   381
1005
12
1001
ACAD_DSTYLE_DIM_EXT2_LINETYPE
1070
   382
1005
12
  0
DIMSTYLE
105
42BF
330
A
100
AcDbSymbolTableRecord
100
AcDbDimStyleTableRecord
  2
ISO-25
 70
     0
 41
2.5
 42
0.625
 43
3.75
 44
1.25
 73
     0
 74
     0
 77
     1
 78
     8
140
2.5
141
2.5
143
0.03937007874016
147
0.625
171
     3
172
     1
271
     2
272
     2
274
     3
278
    44
283
     0
284
     8
340
F
  0
DIMSTYLE
105
4E3E
330
A
100
AcDbSymbolTableRecord
100
AcDbDimStyleTableRecord
  2
TAKAHA
 70
     0
 40
0.0
 41
2.5
 42
0.63
 43
6.0
 44
1.0
 73
     0
 74
     0
 77
     1
 78
     8
 79
     2
140
2.5
141
0.0
143
0.0394
144
0.5
147
0.63
171
     4
172
     1
173
     1
176
   256
177
   256
178
     2
179
     4
271
     3
272
     3
273
     8
274
     4
289
     0
340
F
341
4E37
343
4E37
344
4E37
371
    -1
372
    -1
  0
ENDTAB
  0
TABLE
  2
BLOCK_RECORD
  5
1
330
0
100
AcDbSymbolTable
 70
    20
  0
BLOCK_RECORD
  5
17
102
{ACAD_XDICTIONARY
360
1808
102
}
330
1
100
AcDbSymbolTableRecord
100
AcDbBlockTableRecord
  2
*MODEL_SPACE
340
3D5B
  0
BLOCK_RECORD
  5
14
102
{ACAD_XDICTIONARY
360
1806
102
}
330
1
100
AcDbSymbolTableRecord
100
AcDbBlockTableRecord
  2
*PAPER_SPACE
340
3D5C
  0
BLOCK_RECORD
  5
977
330
1
100
AcDbSymbolTableRecord
100
AcDbBlockTableRecord
  2
_OPEN30
340
0
102
{BLKREFS
331
4CF5
331
4CF6
331
4CFE
331
4CFF
331
4D09
331
4D0A
331
4D12
331
4D13
331
4D1B
331
4D1C
331
4D5F
331
4D60
331
4D68
331
4D69
331
4E4C
331
4E4D
331
4E72
331
4E8D
331
4EAC
331
4EAD
331
4EB7
331
4EB8
331
4ECE
331
4ECF
331
4EE3
331
4EE4
331
4F0C
331
4F0D
331
4F17
331
4F18
102
}
  0
BLOCK_RECORD
  5
43FE
330
1
100
AcDbSymbolTableRecord
100
AcDbBlockTableRecord
  2
*D1
340
0
  0
BLOCK_RECORD
  5
440B
330
1
100
AcDbSymbolTableRecord
100
AcDbBlockTableRecord
  2
*D2
340
0
  0
BLOCK_RECORD
  5
4421
330
1
100
AcDbSymbolTableRecord
100
AcDbBlockTableRecord
  2
*D3
340
0
  0
BLOCK_RECORD
  5
4430
330
1
100
AcDbSymbolTableRecord
100
AcDbBlockTableRecord
  2
*D4
340
0
  0
BLOCK_RECORD
  5
443D
330
1
100
AcDbSymbolTableRecord
100
AcDbBlockTableRecord
  2
*D5
340
0
  0
BLOCK_RECORD
  5
444A
330
1
100
AcDbSymbolTableRecord
100
AcDbBlockTableRecord
  2
*D6
340
0
  0
BLOCK_RECORD
  5
4459
330
1
100
AcDbSymbolTableRecord
100
AcDbBlockTableRecord
  2
*D7
340
0
  0
BLOCK_RECORD
  5
44AE
330
1
100
AcDbSymbolTableRecord
100
AcDbBlockTableRecord
  2
_DotSmall
340
0
102
{BLKREFS
331
4E73
331
4E8C
102
}
  0
BLOCK_RECORD
  5
4569
330
1
100
AcDbSymbolTableRecord
100
AcDbBlockTableRecord
  2
*D9
340
0
  0
BLOCK_RECORD
  5
4590
330
1
100
AcDbSymbolTableRecord
100
AcDbBlockTableRecord
  2
*D10
340
0
  0
BLOCK_RECORD
  5
459F
330
1
100
AcDbSymbolTableRecord
100
AcDbBlockTableRecord
  2
*D11
340
0
  0
BLOCK_RECORD
  5
45EC
330
1
100
AcDbSymbolTableRecord
100
AcDbBlockTableRecord
  2
*D12
340
0
  0
BLOCK_RECORD
  5
45F9
330
1
100
AcDbSymbolTableRecord
100
AcDbBlockTableRecord
  2
*D13
340
0
  0
BLOCK_RECORD
  5
4DEE
330
1
100
AcDbSymbolTableRecord
100
AcDbBlockTableRecord
  2
*D14
340
0
  0
BLOCK_RECORD
  5
4DFD
330
1
100
AcDbSymbolTableRecord
100
AcDbBlockTableRecord
  2
*D15
340
0
  0
BLOCK_RECORD
  5
4E37
330
1
100
AcDbSymbolTableRecord
100
AcDbBlockTableRecord
  2
_OPEN
340
0
  0
BLOCK_RECORD
  5
4EEA
330
1
100
AcDbSymbolTableRecord
100
AcDbBlockTableRecord
  2
*D18
340
0
  0
BLOCK_RECORD
  5
4EF9
330
1
100
AcDbSymbolTableRecord
100
AcDbBlockTableRecord
  2
*D19
340
0
  0
ENDTAB
  0
ENDSEC
  0
SECTION
  2
BLOCKS
  0
BLOCK
  5
2E
330
17
100
AcDbEntity
  8
0
100
AcDbBlockBegin
  2
*MODEL_SPACE
 70
     0
 10
0.0
 20
0.0
 30
0.0
  3
*MODEL_SPACE
  1

  0
ENDBLK
  5
2F
330
17
100
AcDbEntity
  8
0
100
AcDbBlockEnd
  0
BLOCK
  5
2C
330
14
100
AcDbEntity
 67
     1
  8
0
100
AcDbBlockBegin
  2
*PAPER_SPACE
 70
     0
 10
0.0
 20
0.0
 30
0.0
  3
*PAPER_SPACE
  1

  0
ENDBLK
  5
2D
330
14
100
AcDbEntity
 67
     1
  8
0
100
AcDbBlockEnd
  0
BLOCK
  5
97B
330
977
100
AcDbEntity
  8
0
100
AcDbBlockBegin
  2
_OPEN30
 70
     0
 10
0.0
 20
0.0
 30
0.0
  3
_OPEN30
  1

  0
LINE
  5
978
330
977
100
AcDbEntity
  8
0
  6
ByBlock
 62
     0
100
AcDbLine
 10
-1.0
 20
0.26794919
 30
0.0
 11
0.0
 21
0.0
 31
0.0
  0
LINE
  5
979
330
977
100
AcDbEntity
  8
0
  6
ByBlock
 62
     0
100
AcDbLine
 10
0.0
 20
0.0
 30
0.0
 11
-1.0
 21
-0.26794919
 31
0.0
  0
LINE
  5
97A
330
977
100
AcDbEntity
  8
0
  6
ByBlock
 62
     0
100
AcDbLine
 10
0.0
 20
0.0
 30
0.0
 11
-1.0
 21
0.0
 31
0.0
  0
ENDBLK
  5
97C
330
977
100
AcDbEntity
  8
0
100
AcDbBlockEnd
  0
BLOCK
  5
4408
330
43FE
100
AcDbEntity
  8
0
100
AcDbBlockBegin
  2
*D1
 70
     1
 10
0.0
 20
0.0
 30
0.0
  3
*D1
  1

  0
LINE
  5
4CF2
330
43FE
100
AcDbEntity
  8
Z_OM_DIM
100
AcDbLine
 10
620.2754632797217
 20
-36.6848659665549
 30
0.0
 11
620.2754632797217
 21
-47.82161582953659
 31
0.0
  0
LINE
  5
4CF3
330
43FE
100
AcDbEntity
  8
Z_OM_DIM
100
AcDbLine
 10
640.3754632797219
 20
-35.63486596655471
 30
0.0
 11
640.3754632797219
 21
-47.82161582953659
 31
0.0
  0
LINE
  5
4CF4
330
43FE
100
AcDbEntity
  8
Z_OM_DIM
100
AcDbLine
 10
622.7754632797217
 20
-46.57161582953659
 30
0.0
 11
637.8754632797217
 21
-46.57161582953659
 31
0.0
  0
INSERT
  5
4CF5
330
43FE
100
AcDbEntity
  8
Z_OM_DIM
100
AcDbBlockReference
  2
_OPEN30
 10
620.2754632797217
 20
-46.57161582953659
 30
0.0
 41
2.5
 42
2.5
 43
2.5
 50
180.0
  0
INSERT
  5
4CF6
330
43FE
100
AcDbEntity
  8
Z_OM_DIM
100
AcDbBlockReference
  2
_OPEN30
 10
640.3754632797219
 20
-46.57161582953659
 30
0.0
 41
2.5
 42
2.5
 43
2.5
  0
MTEXT
  5
4CF7
330
43FE
100
AcDbEntity
  8
Z_OM_DIM
100
AcDbMText
 10
630.3254632797217
 20
-44.69661582953659
 30
0.0
 40
2.5
 41
0.0
 71
     5
 72
     1
  1
20.1
  7
CatalogDxf
 73
     1
 44
1.0
1001
ACAD
1000
MTEXTBEGIN
1070
    73
1070
     1
1070
    44
1040
1.0
1070
    74
1070
     0
1000
MTEXTEND
  0
POINT
  5
4CF8
330
43FE
100
AcDbEntity
  8
DEFPOINTS
 62
     0
100
AcDbPoint
 10
620.2754632797217
 20
-36.0598659665549
 30
0.0
  0
POINT
  5
4CF9
330
43FE
100
AcDbEntity
  8
DEFPOINTS
 62
     0
100
AcDbPoint
 10
640.3754632797219
 20
-35.00986596655471
 30
0.0
  0
POINT
  5
4CFA
330
43FE
100
AcDbEntity
  8
DEFPOINTS
 62
     0
100
AcDbPoint
 10
640.3754632797219
 20
-46.57161582953659
 30
0.0
  0
ENDBLK
  5
4409
330
43FE
100
AcDbEntity
  8
0
100
AcDbBlockEnd
  0
BLOCK
  5
4415
330
440B
100
AcDbEntity
  8
0
100
AcDbBlockBegin
  2
*D2
 70
     1
 10
0.0
 20
0.0
 30
0.0
  3
*D2
  1

  0
LINE
  5
4CFB
330
440B
100
AcDbEntity
  8
Z_OM_DIM
100
AcDbLine
 10
640.3754632797219
 20
-35.63486596655471
 30
0.0
 11
640.3754632797219
 21
-47.82161582953659
 31
0.0
  0
LINE
  5
4CFC
330
440B
100
AcDbEntity
  8
Z_OM_DIM
100
AcDbLine
 10
688.8198391091258
 20
-24.18486596655467
 30
0.0
 11
688.8198391091258
 21
-47.82161582953659
 31
0.0
  0
LINE
  5
4CFD
330
440B
100
AcDbEntity
  8
Z_OM_DIM
100
AcDbLine
 10
642.8754632797217
 20
-46.57161582953659
 30
0.0
 11
686.3198391091257
 21
-46.57161582953659
 31
0.0
  0
INSERT
  5
4CFE
330
440B
100
AcDbEntity
  8
Z_OM_DIM
100
AcDbBlockReference
  2
_OPEN30
 10
640.3754632797219
 20
-46.57161582953659
 30
0.0
 41
2.5
 42
2.5
 43
2.5
 50
180.0
  0
INSERT
  5
4CFF
330
440B
100
AcDbEntity
  8
Z_OM_DIM
100
AcDbBlockReference
  2
_OPEN30
 10
688.8198391091258
 20
-46.57161582953659
 30
0.0
 41
2.5
 42
2.5
 43
2.5
  0
MTEXT
  5
4D00
330
440B
100
AcDbEntity
  8
Z_OM_DIM
100
AcDbMText
 10
664.5976511944239
 20
-44.69661582953659
 30
0.0
 40
2.5
 41
0.0
 71
     5
 72
     1
  1
180 - 200
  7
CatalogDxf
 73
     1
 44
1.0
1001
ACAD
1000
MTEXTBEGIN
1070
    73
1070
     1
1070
    44
1040
1.0
1070
    74
1070
     0
1000
MTEXTEND
  0
POINT
  5
4D01
330
440B
100
AcDbEntity
  8
DEFPOINTS
 62
     0
100
AcDbPoint
 10
640.3754632797219
 20
-35.00986596655471
 30
0.0
  0
POINT
  5
4D02
330
440B
100
AcDbEntity
  8
DEFPOINTS
 62
     0
100
AcDbPoint
 10
688.8198391091258
 20
-23.55986596655467
 30
0.0
  0
POINT
  5
4D03
330
440B
100
AcDbEntity
  8
DEFPOINTS
 62
     0
100
AcDbPoint
 10
688.8198391091258
 20
-46.57161582953659
 30
0.0
  0
ENDBLK
  5
4416
330
440B
100
AcDbEntity
  8
0
100
AcDbBlockEnd
  0
BLOCK
  5
442D
330
4421
100
AcDbEntity
  8
0
100
AcDbBlockBegin
  2
*D3
 70
     1
 10
0.0
 20
0.0
 30
0.0
  3
*D3
  1

  0
LINE
  5
4D04
330
4421
100
AcDbEntity
  8
Z_OM_DIM
100
AcDbLine
 10
620.2754632797217
 20
-93.64965464186616
 30
0.0
 11
620.2754632797217
 21
-104.8158424147959
 31
0.0
  0
LINE
  5
4D05
330
4421
100
AcDbEntity
  8
Z_OM_DIM
100
AcDbLine
 10
626.2754632797217
 20
-92.71848657670489
 30
0.0
 11
626.2754632797217
 21
-104.8158424147959
 31
0.0
  0
LINE
  5
4D06
330
4421
100
AcDbEntity
  8
Z_OM_DIM
100
AcDbLine
 10
617.7754632797217
 20
-103.5658424147959
 30
0.0
 11
615.2754632797218
 21
-103.5658424147959
 31
0.0
  0
LINE
  5
4D07
330
4421
100
AcDbEntity
  8
Z_OM_DIM
100
AcDbLine
 10
628.7754632797217
 20
-103.5658424147959
 30
0.0
 11
631.2754632797217
 21
-103.5658424147959
 31
0.0
  0
LINE
  5
4D08
330
4421
100
AcDbEntity
  8
Z_OM_DIM
100
AcDbLine
 10
620.2754632797217
 20
-103.5658424147959
 30
0.0
 11
626.2754632797217
 21
-103.5658424147959
 31
0.0
  0
INSERT
  5
4D09
330
4421
100
AcDbEntity
  8
Z_OM_DIM
100
AcDbBlockReference
  2
_OPEN30
 10
620.2754632797217
 20
-103.5658424147959
 30
0.0
 41
2.5
 42
2.5
 43
2.5
  0
INSERT
  5
4D0A
330
4421
100
AcDbEntity
  8
Z_OM_DIM
100
AcDbBlockReference
  2
_OPEN30
 10
626.2754632797217
 20
-103.5658424147959
 30
0.0
 41
2.5
 42
2.5
 43
2.5
 50
180.0
  0
MTEXT
  5
4D0B
330
4421
100
AcDbEntity
  8
Z_OM_DIM
100
AcDbMText
 10
623.2754632797217
 20
-101.6908424147959
 30
0.0
 40
2.5
 41
0.0
 71
     5
 72
     1
  1
6
  7
CatalogDxf
 73
     1
 44
1.0
1001
ACAD
1000
MTEXTBEGIN
1070
    73
1070
     1
1070
    44
1040
1.0
1070
    74
1070
     0
1000
MTEXTEND
  0
POINT
  5
4D0C
330
4421
100
AcDbEntity
  8
DEFPOINTS
 62
     0
100
AcDbPoint
 10
620.2754632797217
 20
-93.02465464186616
 30
0.0
  0
POINT
  5
4D0D
330
4421
100
AcDbEntity
  8
DEFPOINTS
 62
     0
100
AcDbPoint
 10
626.2754632797217
 20
-92.09348657670489
 30
0.0
  0
POINT
  5
4D0E
330
4421
100
AcDbEntity
  8
DEFPOINTS
 62
     0
100
AcDbPoint
 10
626.2754632797217
 20
-103.5658424147959
 30
0.0
  0
ENDBLK
  5
442E
330
4421
100
AcDbEntity
  8
0
100
AcDbBlockEnd
  0
BLOCK
  5
443A
330
4430
100
AcDbEntity
  8
0
100
AcDbBlockBegin
  2
*D4
 70
     1
 10
0.0
 20
0.0
 30
0.0
  3
*D4
  1

  0
LINE
  5
4D0F
330
4430
100
AcDbEntity
  8
Z_OM_DIM
100
AcDbLine
 10
626.2754632797217
 20
-92.71848657670489
 30
0.0
 11
626.2754632797217
 21
-104.8158424147959
 31
0.0
  0
LINE
  5
4D10
330
4430
100
AcDbEntity
  8
Z_OM_DIM
100
AcDbLine
 10
636.2754632797217
 20
-86.00927153106102
 30
0.0
 11
636.2754632797217
 21
-104.8158424147959
 31
0.0
  0
LINE
  5
4D11
330
4430
100
AcDbEntity
  8
Z_OM_DIM
100
AcDbLine
 10
628.7754632797217
 20
-103.5658424147959
 30
0.0
 11
633.7754632797217
 21
-103.5658424147959
 31
0.0
  0
INSERT
  5
4D12
330
4430
100
AcDbEntity
  8
Z_OM_DIM
100
AcDbBlockReference
  2
_OPEN30
 10
626.2754632797217
 20
-103.5658424147959
 30
0.0
 41
2.5
 42
2.5
 43
2.5
 50
180.0
  0
INSERT
  5
4D13
330
4430
100
AcDbEntity
  8
Z_OM_DIM
100
AcDbBlockReference
  2
_OPEN30
 10
636.2754632797217
 20
-103.5658424147959
 30
0.0
 41
2.5
 42
2.5
 43
2.5
  0
MTEXT
  5
4D14
330
4430
100
AcDbEntity
  8
Z_OM_DIM
100
AcDbMText
 10
631.2754632797217
 20
-101.6908424147959
 30
0.0
 40
2.5
 41
0.0
 71
     5
 72
     1
  1
10
  7
CatalogDxf
 73
     1
 44
1.0
1001
ACAD
1000
MTEXTBEGIN
1070
    73
1070
     1
1070
    44
1040
1.0
1070
    74
1070
     0
1000
MTEXTEND
  0
POINT
  5
4D15
330
4430
100
AcDbEntity
  8
DEFPOINTS
 62
     0
100
AcDbPoint
 10
626.2754632797217
 20
-92.09348657670489
 30
0.0
  0
POINT
  5
4D16
330
4430
100
AcDbEntity
  8
DEFPOINTS
 62
     0
100
AcDbPoint
 10
636.2754632797217
 20
-85.38427153106102
 30
0.0
  0
POINT
  5
4D17
330
4430
100
AcDbEntity
  8
DEFPOINTS
 62
     0
100
AcDbPoint
 10
636.2754632797217
 20
-103.5658424147959
 30
0.0
  0
ENDBLK
  5
443B
330
4430
100
AcDbEntity
  8
0
100
AcDbBlockEnd
  0
BLOCK
  5
4447
330
443D
100
AcDbEntity
  8
0
100
AcDbBlockBegin
  2
*D5
 70
     1
 10
0.0
 20
0.0
 30
0.0
  3
*D5
  1

  0
LINE
  5
4D18
330
443D
100
AcDbEntity
  8
Z_OM_DIM
100
AcDbLine
 10
639.4682921741885
 20
-83.02465464186616
 30
0.0
 11
657.0881616606897
 21
-83.02465464186616
 31
0.0
  0
LINE
  5
4D19
330
443D
100
AcDbEntity
  8
Z_OM_DIM
100
AcDbLine
 10
629.3613663790457
 20
-90.02465464186617
 30
0.0
 11
657.0881616606897
 21
-90.02465464186617
 31
0.0
  0
LINE
  5
4D1A
330
443D
100
AcDbEntity
  8
Z_OM_DIM
100
AcDbLine
 10
655.8381616606898
 20
-85.52465464186616
 30
0.0
 11
655.8381616606898
 21
-87.52465464186617
 31
0.0
  0
INSERT
  5
4D1B
330
443D
100
AcDbEntity
  8
Z_OM_DIM
100
AcDbBlockReference
  2
_OPEN30
 10
655.8381616606898
 20
-83.02465464186616
 30
0.0
 41
2.5
 42
2.5
 43
2.5
 50
90.0
  0
INSERT
  5
4D1C
330
443D
100
AcDbEntity
  8
Z_OM_DIM
100
AcDbBlockReference
  2
_OPEN30
 10
655.8381616606898
 20
-90.02465464186617
 30
0.0
 41
2.5
 42
2.5
 43
2.5
 50
270.0
  0
MTEXT
  5
4D1D
330
443D
100
AcDbEntity
  8
Z_OM_DIM
100
AcDbMText
 10
653.9631616606897
 20
-86.52465464186605
 30
0.0
 40
2.5
 41
0.0
 71
     5
 72
     1
  1
7
  7
CatalogDxf
 11
0.0000000000000001
 21
1.0
 31
0.0
 73
     1
 44
1.0
1001
ACAD
1000
MTEXTBEGIN
1070
    73
1070
     1
1070
    44
1040
1.0
1070
    74
1070
     0
1000
MTEXTEND
  0
POINT
  5
4D1E
330
443D
100
AcDbEntity
  8
DEFPOINTS
 62
     0
100
AcDbPoint
 10
638.8432921741885
 20
-83.02465464186616
 30
0.0
  0
POINT
  5
4D1F
330
443D
100
AcDbEntity
  8
DEFPOINTS
 62
     0
100
AcDbPoint
 10
628.7363663790459
 20
-90.02465464186617
 30
0.0
  0
POINT
  5
4D20
330
443D
100
AcDbEntity
  8
DEFPOINTS
 62
     0
100
AcDbPoint
 10
655.8381616606898
 20
-90.02465464186617
 30
0.0
  0
ENDBLK
  5
4448
330
443D
100
AcDbEntity
  8
0
100
AcDbBlockEnd
  0
BLOCK
  5
4456
330
444A
100
AcDbEntity
  8
0
100
AcDbBlockBegin
  2
*D6
 70
     1
 10
0.0
 20
0.0
 30
0.0
  3
*D6
  1

  0
LINE
  5
4E6A
330
444A
100
AcDbEntity
  8
Z_OM_DIM
100
AcDbLine
 10
619.9304632797218
 20
-83.50715464186622
 30
0.0
 11
619.9304632797218
 21
-71.83380508840309
 31
0.0
  0
LINE
  5
4E6B
330
444A
100
AcDbEntity
  8
Z_OM_DIM
100
AcDbLine
 10
618.4504632797218
 20
-83.99965464186603
 30
0.0
 11
618.4504632797218
 21
-71.83380508840309
 31
0.0
  0
LINE
  5
4E6C
330
444A
100
AcDbEntity
  8
Z_OM_DIM
100
AcDbLine
 10
622.4304632797218
 20
-73.08380508840309
 30
0.0
 11
624.9304632797218
 21
-73.08380508840309
 31
0.0
  0
LINE
  5
4E6D
330
444A
100
AcDbEntity
  8
Z_OM_DIM
100
AcDbLine
 10
618.4504632797218
 20
-73.08380508840309
 30
0.0
 11
615.9504632797218
 21
-73.08380508840309
 31
0.0
  0
LINE
  5
4E6E
330
444A
100
AcDbEntity
  8
Z_OM_DIM
100
AcDbLine
 10
634.4336316376841
 20
-73.08380508840309
 30
0.0
 11
619.9304632797218
 21
-73.08380508840309
 31
0.0
  0
MTEXT
  5
4E6F
330
444A
100
AcDbEntity
  8
Z_OM_DIM
100
AcDbMText
 10
630.4752983043507
 20
-71.20880508840309
 30
0.0
 40
2.5
 41
0.0
 71
     5
 72
     1
  1
1.45
  7
CatalogDxf
 73
     1
 44
1.0
  0
LINE
  5
4E70
330
444A
100
AcDbEntity
  8
Z_OM_DIM
100
AcDbLine
 10
619.9304632797218
 20
-73.08380508840309
 30
0.0
 11
618.4504632797218
 21
-73.08380508840309
 31
0.0
  0
LINE
  5
4E71
330
444A
100
AcDbEntity
  8
Z_OM_DIM
100
AcDbLine
 10
619.9304632797218
 20
-73.08380508840309
 30
0.0
 11
618.4504632797218
 21
-73.08380508840309
 31
0.0
  0
INSERT
  5
4E72
330
444A
100
AcDbEntity
  8
Z_OM_DIM
100
AcDbBlockReference
  2
_OPEN30
 10
619.9304632797218
 20
-73.08380508840309
 30
0.0
 41
2.5
 42
2.5
 43
2.5
 50
180.0
  0
INSERT
  5
4E73
330
444A
100
AcDbEntity
  8
Z_OM_DIM
100
AcDbBlockReference
  2
_DotSmall
 10
618.4504632797218
 20
-73.08380508840309
 30
0.0
 41
2.5
 42
2.5
 43
2.5
  0
POINT
  5
4E74
330
444A
100
AcDbEntity
  8
DEFPOINTS
 62
     0
100
AcDbPoint
 10
619.9304632797218
 20
-84.13215464186622
 30
0.0
  0
POINT
  5
4E75
330
444A
100
AcDbEntity
  8
DEFPOINTS
 62
     0
100
AcDbPoint
 10
618.4504632797218
 20
-84.62465464186603
 30
0.0
  0
POINT
  5
4E76
330
444A
100
AcDbEntity
  8
DEFPOINTS
 62
     0
100
AcDbPoint
 10
618.4504632797218
 20
-73.08380508840309
 30
0.0
  0
ENDBLK
  5
4457
330
444A
100
AcDbEntity
  8
0
100
AcDbBlockEnd
  0
BLOCK
  5
4468
330
4459
100
AcDbEntity
  8
0
100
AcDbBlockBegin
  2
*D7
 70
     1
 10
0.0
 20
0.0
 30
0.0
  3
*D7
  1

  0
LINE
  5
4E84
330
4459
100
AcDbEntity
  8
Z_OM_DIM
100
AcDbLine
 10
618.4504632797218
 20
-83.99965464186603
 30
0.0
 11
618.4504632797218
 21
-71.83380508840309
 31
0.0
  0
LINE
  5
4E85
330
4459
100
AcDbEntity
  8
Z_OM_DIM
100
AcDbLine
 10
617.4504632797216
 20
-83.89965464186616
 30
0.0
 11
617.4504632797216
 21
-71.83380508840309
 31
0.0
  0
LINE
  5
4E86
330
4459
100
AcDbEntity
  8
Z_OM_DIM
100
AcDbLine
 10
618.4504632797218
 20
-73.08380508840309
 30
0.0
 11
620.9504632797218
 21
-73.08380508840309
 31
0.0
  0
LINE
  5
4E87
330
4459
100
AcDbEntity
  8
Z_OM_DIM
100
AcDbLine
 10
614.9504632797215
 20
-73.08380508840309
 30
0.0
 11
612.4504632797216
 21
-73.08380508840309
 31
0.0
  0
LINE
  5
4E88
330
4459
100
AcDbEntity
  8
Z_OM_DIM
100
AcDbLine
 10
609.3519296006517
 20
-73.08380508840309
 30
0.0
 11
617.4504632797216
 21
-73.08380508840309
 31
0.0
  0
MTEXT
  5
4E89
330
4459
100
AcDbEntity
  8
Z_OM_DIM
100
AcDbMText
 10
610.3935962673183
 20
-71.20880508840309
 30
0.0
 40
2.5
 41
0.0
 71
     5
 72
     1
  1
1
  7
CatalogDxf
 73
     1
 44
1.0
  0
LINE
  5
4E8A
330
4459
100
AcDbEntity
  8
Z_OM_DIM
100
AcDbLine
 10
618.4504632797218
 20
-73.08380508840309
 30
0.0
 11
617.4504632797216
 21
-73.08380508840309
 31
0.0
  0
LINE
  5
4E8B
330
4459
100
AcDbEntity
  8
Z_OM_DIM
100
AcDbLine
 10
618.4504632797218
 20
-73.08380508840309
 30
0.0
 11
617.4504632797216
 21
-73.08380508840309
 31
0.0
  0
INSERT
  5
4E8C
330
4459
100
AcDbEntity
  8
Z_OM_DIM
100
AcDbBlockReference
  2
_DotSmall
 10
618.4504632797218
 20
-73.08380508840309
 30
0.0
 41
2.5
 42
2.5
 43
2.5
 50
180.0
  0
INSERT
  5
4E8D
330
4459
100
AcDbEntity
  8
Z_OM_DIM
100
AcDbBlockReference
  2
_OPEN30
 10
617.4504632797216
 20
-73.08380508840309
 30
0.0
 41
2.5
 42
2.5
 43
2.5
  0
POINT
  5
4E8E
330
4459
100
AcDbEntity
  8
DEFPOINTS
 62
     0
100
AcDbPoint
 10
618.4504632797218
 20
-84.62465464186603
 30
0.0
  0
POINT
  5
4E8F
330
4459
100
AcDbEntity
  8
DEFPOINTS
 62
     0
100
AcDbPoint
 10
617.4504632797216
 20
-84.52465464186616
 30
0.0
  0
POINT
  5
4E90
330
4459
100
AcDbEntity
  8
DEFPOINTS
 62
     0
100
AcDbPoint
 10
617.4504632797216
 20
-73.08380508840309
 30
0.0
  0
ENDBLK
  5
4469
330
4459
100
AcDbEntity
  8
0
100
AcDbBlockEnd
  0
BLOCK
  5
44B0
330
44AE
100
AcDbEntity
  8
0
100
AcDbBlockBegin
  2
_DotSmall
 70
     0
 10
0.0
 20
0.0
 30
0.0
  3
_DotSmall
  1

  0
LWPOLYLINE
  5
44AF
330
44AE
100
AcDbEntity
  8
0
  6
ByBlock
 62
     0
100
AcDbPolyline
 90
        2
 70
     1
 43
0.5
 10
-0.0625
 20
0.0
 42
1.0
 10
0.0625
 20
0.0
 42
1.0
  0
ENDBLK
  5
44B1
330
44AE
100
AcDbEntity
  8
0
100
AcDbBlockEnd
  0
BLOCK
  5
4576
330
4569
100
AcDbEntity
  8
0
100
AcDbBlockBegin
  2
*D9
 70
     1
 10
0.0
 20
0.0
 30
0.0
  3
*D9
  1

  0
LINE
  5
4EC8
330
4569
100
AcDbEntity
  8
Z_OM_DIM
100
AcDbLine
 10
619.4054632797217
 20
-84.03215464186605
 30
0.0
 11
597.4703272321212
 21
-84.03215464186603
 31
0.0
  0
LINE
  5
4EC9
330
4569
100
AcDbEntity
  8
Z_OM_DIM
100
AcDbLine
 10
619.4054632797217
 20
-89.0171546418662
 30
0.0
 11
597.4703272321212
 21
-89.0171546418662
 31
0.0
  0
LINE
  5
4ECA
330
4569
100
AcDbEntity
  8
Z_OM_DIM
100
AcDbLine
 10
598.7203272321212
 20
-81.53215464186603
 30
0.0
 11
598.7203272321212
 21
-79.03215464186603
 31
0.0
  0
LINE
  5
4ECB
330
4569
100
AcDbEntity
  8
Z_OM_DIM
100
AcDbLine
 10
598.7203272321212
 20
-91.5171546418662
 30
0.0
 11
598.7203272321212
 21
-94.0171546418662
 31
0.0
  0
MTEXT
  5
4ECC
330
4569
100
AcDbEntity
  8
Z_OM_DIM
100
AcDbMText
 10
596.7810475677232
 20
-86.51796645020452
 30
0.0
 40
2.5
 41
0.0
 71
     5
 72
     1
  1
%%c5
  7
CatalogDxf
 11
0.0000000000000001
 21
1.0
 31
0.0
 73
     1
 44
1.0
  0
LINE
  5
4ECD
330
4569
100
AcDbEntity
  8
Z_OM_DIM
100
AcDbLine
 10
598.7203272321212
 20
-84.03215464186603
 30
0.0
 11
598.7203272321212
 21
-89.0171546418662
 31
0.0
  0
INSERT
  5
4ECE
330
4569
100
AcDbEntity
  8
Z_OM_DIM
100
AcDbBlockReference
  2
_OPEN30
 10
598.7203272321212
 20
-84.03215464186603
 30
0.0
 41
2.5
 42
2.5
 43
2.5
 50
270.0
  0
INSERT
  5
4ECF
330
4569
100
AcDbEntity
  8
Z_OM_DIM
100
AcDbBlockReference
  2
_OPEN30
 10
598.7203272321212
 20
-89.0171546418662
 30
0.0
 41
2.5
 42
2.5
 43
2.5
 50
90.0
  0
POINT
  5
4ED0
330
4569
100
AcDbEntity
  8
DEFPOINTS
 62
     0
100
AcDbPoint
 10
620.0304632797217
 20
-84.03215464186605
 30
0.0
  0
POINT
  5
4ED1
330
4569
100
AcDbEntity
  8
DEFPOINTS
 62
     0
100
AcDbPoint
 10
620.0304632797217
 20
-89.0171546418662
 30
0.0
  0
POINT
  5
4ED2
330
4569
100
AcDbEntity
  8
DEFPOINTS
 62
     0
100
AcDbPoint
 10
598.7203272321212
 20
-89.0171546418662
 30
0.0
  0
ENDBLK
  5
4577
330
4569
100
AcDbEntity
  8
0
100
AcDbBlockEnd
  0
BLOCK
  5
459C
330
4590
100
AcDbEntity
  8
0
100
AcDbBlockBegin
  2
*D10
 70
     1
 10
0.0
 20
0.0
 30
0.0
  3
*D10
  1

  0
LINE
  5
4EB2
330
4590
100
AcDbEntity
  8
Z_OM_DIM
100
AcDbLine
 10
616.8254632797215
 20
-84.52465464186616
 30
0.0
 11
602.0408857112483
 21
-84.52465464186614
 31
0.0
  0
LINE
  5
4EB3
330
4590
100
AcDbEntity
  8
Z_OM_DIM
100
AcDbLine
 10
616.8254632797215
 20
-88.52465464186614
 30
0.0
 11
602.0408857112483
 21
-88.52465464186613
 31
0.0
  0
LINE
  5
4EB4
330
4590
100
AcDbEntity
  8
Z_OM_DIM
100
AcDbLine
 10
603.2908857112484
 20
-91.02465464186613
 30
0.0
 11
603.2908857112484
 21
-93.52465464186613
 31
0.0
  0
LINE
  5
4EB5
330
4590
100
AcDbEntity
  8
Z_OM_DIM
100
AcDbLine
 10
603.2908857112484
 20
-82.02465464186614
 30
0.0
 11
603.2908857112484
 21
-74.10798797519948
 31
0.0
  0
LINE
  5
4EB6
330
4590
100
AcDbEntity
  8
Z_OM_DIM
100
AcDbLine
 10
603.2908857112484
 20
-88.52465464186613
 30
0.0
 11
603.2908857112484
 21
-84.52465464186614
 31
0.0
  0
INSERT
  5
4EB7
330
4590
100
AcDbEntity
  8
Z_OM_DIM
100
AcDbBlockReference
  2
_OPEN30
 10
603.2908857112484
 20
-88.52465464186613
 30
0.0
 41
2.5
 42
2.5
 43
2.5
 50
90.0
  0
INSERT
  5
4EB8
330
4590
100
AcDbEntity
  8
Z_OM_DIM
100
AcDbBlockReference
  2
_OPEN30
 10
603.2908857112484
 20
-84.52465464186614
 30
0.0
 41
2.5
 42
2.5
 43
2.5
 50
270.0
  0
MTEXT
  5
4EB9
330
4590
100
AcDbEntity
  8
Z_OM_DIM
100
AcDbMText
 10
601.4158857112484
 20
-76.81632130853273
 30
0.0
 40
2.5
 41
0.0
 71
     5
 72
     1
  1
%%c4
  7
CatalogDxf
 11
0.0000000000000001
 21
1.0
 31
0.0
 73
     1
 44
1.0
  0
POINT
  5
4EBA
330
4590
100
AcDbEntity
  8
DEFPOINTS
 62
     0
100
AcDbPoint
 10
617.4504632797216
 20
-84.52465464186616
 30
0.0
  0
POINT
  5
4EBB
330
4590
100
AcDbEntity
  8
DEFPOINTS
 62
     0
100
AcDbPoint
 10
617.4504632797216
 20
-88.52465464186614
 30
0.0
  0
POINT
  5
4EBC
330
4590
100
AcDbEntity
  8
DEFPOINTS
 62
     0
100
AcDbPoint
 10
603.2908857112484
 20
-88.52465464186613
 30
0.0
  0
ENDBLK
  5
459D
330
4590
100
AcDbEntity
  8
0
100
AcDbBlockEnd
  0
BLOCK
  5
45AC
330
459F
100
AcDbEntity
  8
0
100
AcDbBlockBegin
  2
*D11
 70
     1
 10
0.0
 20
0.0
 30
0.0
  3
*D11
  1

  0
LINE
  5
4EA7
330
459F
100
AcDbEntity
  8
Z_OM_DIM
100
AcDbLine
 10
617.8254632797219
 20
-85.54965464186627
 30
0.0
 11
606.5253952559214
 21
-85.54965464186627
 31
0.0
  0
LINE
  5
4EA8
330
459F
100
AcDbEntity
  8
Z_OM_DIM
100
AcDbLine
 10
617.8254632797219
 20
-87.49965464186606
 30
0.0
 11
606.5253952559214
 21
-87.49965464186606
 31
0.0
  0
LINE
  5
4EA9
330
459F
100
AcDbEntity
  8
Z_OM_DIM
100
AcDbLine
 10
607.7753952559215
 20
-89.99965464186606
 30
0.0
 11
607.7753952559215
 21
-92.49965464186606
 31
0.0
  0
LINE
  5
4EAA
330
459F
100
AcDbEntity
  8
Z_OM_DIM
100
AcDbLine
 10
607.7753952559215
 20
-83.04965464186627
 30
0.0
 11
607.7753952559215
 21
-75.13298797519957
 31
0.0
  0
LINE
  5
4EAB
330
459F
100
AcDbEntity
  8
Z_OM_DIM
100
AcDbLine
 10
607.7753952559215
 20
-87.49965464186606
 30
0.0
 11
607.7753952559215
 21
-85.54965464186627
 31
0.0
  0
INSERT
  5
4EAC
330
459F
100
AcDbEntity
  8
Z_OM_DIM
100
AcDbBlockReference
  2
_OPEN30
 10
607.7753952559215
 20
-87.49965464186606
 30
0.0
 41
2.5
 42
2.5
 43
2.5
 50
90.0
  0
INSERT
  5
4EAD
330
459F
100
AcDbEntity
  8
Z_OM_DIM
100
AcDbBlockReference
  2
_OPEN30
 10
607.7753952559215
 20
-85.54965464186627
 30
0.0
 41
2.5
 42
2.5
 43
2.5
 50
270.0
  0
MTEXT
  5
4EAE
330
459F
100
AcDbEntity
  8
Z_OM_DIM
100
AcDbMText
 10
605.9003952559215
 20
-77.84132130853283
 30
0.0
 40
2.5
 41
0.0
 71
     5
 72
     1
  1
%%c2
  7
CatalogDxf
 11
0.0000000000000001
 21
1.0
 31
0.0
 73
     1
 44
1.0
  0
POINT
  5
4EAF
330
459F
100
AcDbEntity
  8
DEFPOINTS
 62
     0
100
AcDbPoint
 10
618.4504632797219
 20
-85.54965464186627
 30
0.0
  0
POINT
  5
4EB0
330
459F
100
AcDbEntity
  8
DEFPOINTS
 62
     0
100
AcDbPoint
 10
618.4504632797219
 20
-87.49965464186606
 30
0.0
  0
POINT
  5
4EB1
330
459F
100
AcDbEntity
  8
DEFPOINTS
 62
     0
100
AcDbPoint
 10
607.7753952559215
 20
-87.49965464186606
 30
0.0
  0
ENDBLK
  5
45AD
330
459F
100
AcDbEntity
  8
0
100
AcDbBlockEnd
  0
BLOCK
  5
45F6
330
45EC
100
AcDbEntity
  8
0
100
AcDbBlockBegin
  2
*D12
 70
     1
 10
0.0
 20
0.0
 30
0.0
  3
*D12
  1

  0
LINE
  5
4D5C
330
45EC
100
AcDbEntity
  8
Z_OM_DIM
100
AcDbLine
 10
563.9742174574502
 20
-93.64965464186639
 30
0.0
 11
563.9742174574502
 21
-104.8158424147959
 31
0.0
  0
LINE
  5
4D5D
330
45EC
100
AcDbEntity
  8
Z_OM_DIM
100
AcDbLine
 10
579.9742174574504
 20
-93.64965464186639
 30
0.0
 11
579.9742174574504
 21
-104.8158424147959
 31
0.0
  0
LINE
  5
4D5E
330
45EC
100
AcDbEntity
  8
Z_OM_DIM
100
AcDbLine
 10
566.4742174574501
 20
-103.5658424147959
 30
0.0
 11
577.4742174574504
 21
-103.5658424147959
 31
0.0
  0
INSERT
  5
4D5F
330
45EC
100
AcDbEntity
  8
Z_OM_DIM
100
AcDbBlockReference
  2
_OPEN30
 10
563.9742174574502
 20
-103.5658424147959
 30
0.0
 41
2.5
 42
2.5
 43
2.5
 50
180.0
  0
INSERT
  5
4D60
330
45EC
100
AcDbEntity
  8
Z_OM_DIM
100
AcDbBlockReference
  2
_OPEN30
 10
579.9742174574504
 20
-103.5658424147959
 30
0.0
 41
2.5
 42
2.5
 43
2.5
  0
MTEXT
  5
4D61
330
45EC
100
AcDbEntity
  8
Z_OM_DIM
100
AcDbMText
 10
571.9742174574502
 20
-101.6908424147959
 30
0.0
 40
2.5
 41
0.0
 71
     5
 72
     1
  1
16
  7
CatalogDxf
 73
     1
 44
1.0
1001
ACAD
1000
MTEXTBEGIN
1070
    73
1070
     1
1070
    44
1040
1.0
1070
    74
1070
     0
1000
MTEXTEND
  0
POINT
  5
4D62
330
45EC
100
AcDbEntity
  8
DEFPOINTS
 62
     0
100
AcDbPoint
 10
563.9742174574502
 20
-93.02465464186639
 30
0.0
  0
POINT
  5
4D63
330
45EC
100
AcDbEntity
  8
DEFPOINTS
 62
     0
100
AcDbPoint
 10
579.9742174574504
 20
-93.02465464186639
 30
0.0
  0
POINT
  5
4D64
330
45EC
100
AcDbEntity
  8
DEFPOINTS
 62
     0
100
AcDbPoint
 10
579.9742174574504
 20
-103.5658424147959
 30
0.0
  0
ENDBLK
  5
45F7
330
45EC
100
AcDbEntity
  8
0
100
AcDbBlockEnd
  0
BLOCK
  5
4603
330
45F9
100
AcDbEntity
  8
0
100
AcDbBlockBegin
  2
*D13
 70
     1
 10
0.0
 20
0.0
 30
0.0
  3
*D13
  1

  0
LINE
  5
4D65
330
45F9
100
AcDbEntity
  8
Z_OM_DIM
100
AcDbLine
 10
563.3492174574501
 20
-80.0246546418664
 30
0.0
 11
552.0680330760772
 21
-80.0246546418664
 31
0.0
  0
LINE
  5
4D66
330
45F9
100
AcDbEntity
  8
Z_OM_DIM
100
AcDbLine
 10
563.3492174574501
 20
-93.02465464186639
 30
0.0
 11
552.0680330760772
 21
-93.02465464186639
 31
0.0
  0
LINE
  5
4D67
330
45F9
100
AcDbEntity
  8
Z_OM_DIM
100
AcDbLine
 10
553.3180330760772
 20
-82.5246546418664
 30
0.0
 11
553.3180330760772
 21
-90.52465464186639
 31
0.0
  0
INSERT
  5
4D68
330
45F9
100
AcDbEntity
  8
Z_OM_DIM
100
AcDbBlockReference
  2
_OPEN30
 10
553.3180330760772
 20
-80.0246546418664
 30
0.0
 41
2.5
 42
2.5
 43
2.5
 50
90.0
  0
INSERT
  5
4D69
330
45F9
100
AcDbEntity
  8
Z_OM_DIM
100
AcDbBlockReference
  2
_OPEN30
 10
553.3180330760772
 20
-93.02465464186639
 30
0.0
 41
2.5
 42
2.5
 43
2.5
 50
270.0
  0
MTEXT
  5
4D6A
330
45F9
100
AcDbEntity
  8
Z_OM_DIM
100
AcDbMText
 10
551.4430330760772
 20
-86.52465464186631
 30
0.0
 40
2.5
 41
0.0
 71
     5
 72
     1
  1
13
  7
CatalogDxf
 11
0.0000000000000001
 21
1.0
 31
0.0
 73
     1
 44
1.0
1001
ACAD
1000
MTEXTBEGIN
1070
    73
1070
     1
1070
    44
1040
1.0
1070
    74
1070
     0
1000
MTEXTEND
  0
POINT
  5
4D6B
330
45F9
100
AcDbEntity
  8
DEFPOINTS
 62
     0
100
AcDbPoint
 10
563.9742174574502
 20
-80.0246546418664
 30
0.0
  0
POINT
  5
4D6C
330
45F9
100
AcDbEntity
  8
DEFPOINTS
 62
     0
100
AcDbPoint
 10
563.9742174574502
 20
-93.02465464186639
 30
0.0
  0
POINT
  5
4D6D
330
45F9
100
AcDbEntity
  8
DEFPOINTS
 62
     0
100
AcDbPoint
 10
553.3180330760772
 20
-93.02465464186639
 30
0.0
  0
ENDBLK
  5
4604
330
45F9
100
AcDbEntity
  8
0
100
AcDbBlockEnd
  0
BLOCK
  5
4DFA
330
4DEE
100
AcDbEntity
  8
0
100
AcDbBlockBegin
  2
*D14
 70
     1
 10
0.0
 20
0.0
 30
0.0
  3
*D14
  1

  0
LINE
  5
4EDE
330
4DEE
100
AcDbEntity
  8
additional
100
AcDbLine
 10
620.975463279722
 20
-89.64215464186622
 30
0.0
 11
620.975463279722
 21
-97.97778529807033
 31
0.0
  0
LINE
  5
4EDF
330
4DEE
100
AcDbEntity
  8
additional
100
AcDbLine
 10
617.4504632797216
 20
-89.14965464186613
 30
0.0
 11
617.4504632797216
 21
-97.97778529807033
 31
0.0
  0
LINE
  5
4EE0
330
4DEE
100
AcDbEntity
  8
additional
100
AcDbLine
 10
623.475463279722
 20
-96.72778529807033
 30
0.0
 11
625.9754632797219
 21
-96.72778529807033
 31
0.0
  0
LINE
  5
4EE1
330
4DEE
100
AcDbEntity
  8
additional
100
AcDbLine
 10
614.9504632797215
 20
-96.72778529807033
 30
0.0
 11
601.2004632797215
 21
-96.72778529807033
 31
0.0
  0
LINE
  5
4EE2
330
4DEE
100
AcDbEntity
  8
additional
100
AcDbLine
 10
620.975463279722
 20
-96.72778529807033
 30
0.0
 11
617.4504632797216
 21
-96.72778529807033
 31
0.0
  0
INSERT
  5
4EE3
330
4DEE
100
AcDbEntity
  8
additional
100
AcDbBlockReference
  2
_OPEN30
 10
620.975463279722
 20
-96.72778529807033
 30
0.0
 41
2.5
 42
2.5
 43
2.5
 50
180.0
  0
INSERT
  5
4EE4
330
4DEE
100
AcDbEntity
  8
additional
100
AcDbBlockReference
  2
_OPEN30
 10
617.4504632797216
 20
-96.72778529807033
 30
0.0
 41
2.5
 42
2.5
 43
2.5
  0
MTEXT
  5
4EE5
330
4DEE
100
AcDbEntity
  8
additional
100
AcDbMText
 10
606.8254632797215
 20
-94.85278529807033
 30
0.0
 40
2.5
 41
0.0
 71
     5
 72
     1
  1
3.525
  7
CatalogDxf
 73
     1
 44
1.0
  0
POINT
  5
4EE6
330
4DEE
100
AcDbEntity
  8
DEFPOINTS
 62
     0
100
AcDbPoint
 10
620.975463279722
 20
-89.01715464186622
 30
0.0
  0
POINT
  5
4EE7
330
4DEE
100
AcDbEntity
  8
DEFPOINTS
 62
     0
100
AcDbPoint
 10
617.4504632797216
 20
-88.52465464186613
 30
0.0
  0
POINT
  5
4EE8
330
4DEE
100
AcDbEntity
  8
DEFPOINTS
 62
     0
100
AcDbPoint
 10
617.4504632797216
 20
-96.72778529807033
 30
0.0
  0
ENDBLK
  5
4DFB
330
4DEE
100
AcDbEntity
  8
0
100
AcDbBlockEnd
  0
BLOCK
  5
4E09
330
4DFD
100
AcDbEntity
  8
0
100
AcDbBlockBegin
  2
*D15
 70
     1
 10
0.0
 20
0.0
 30
0.0
  3
*D15
  1

  0
LINE
  5
4E47
330
4DFD
100
AcDbEntity
  8
additional
100
AcDbLine
 10
620.9754632797219
 20
-31.17736596655467
 30
0.0
 11
620.9754632797219
 21
-34.79686627333314
 31
0.0
  0
LINE
  5
4E48
330
4DFD
100
AcDbEntity
  8
additional
100
AcDbLine
 10
617.4504632797219
 20
-30.68486596655466
 30
0.0
 11
617.4504632797219
 21
-34.79686627333314
 31
0.0
  0
LINE
  5
4E49
330
4DFD
100
AcDbEntity
  8
additional
100
AcDbLine
 10
623.4754632797219
 20
-33.54686627333314
 30
0.0
 11
625.9754632797219
 21
-33.54686627333314
 31
0.0
  0
LINE
  5
4E4A
330
4DFD
100
AcDbEntity
  8
additional
100
AcDbLine
 10
614.9504632797219
 20
-33.54686627333314
 30
0.0
 11
601.2004632797219
 21
-33.54686627333314
 31
0.0
  0
LINE
  5
4E4B
330
4DFD
100
AcDbEntity
  8
additional
100
AcDbLine
 10
620.9754632797219
 20
-33.54686627333314
 30
0.0
 11
617.4504632797219
 21
-33.54686627333314
 31
0.0
  0
INSERT
  5
4E4C
330
4DFD
100
AcDbEntity
  8
additional
100
AcDbBlockReference
  2
_OPEN30
 10
620.9754632797219
 20
-33.54686627333314
 30
0.0
 41
2.5
 42
2.5
 43
2.5
 50
180.0
  0
INSERT
  5
4E4D
330
4DFD
100
AcDbEntity
  8
additional
100
AcDbBlockReference
  2
_OPEN30
 10
617.4504632797219
 20
-33.54686627333314
 30
0.0
 41
2.5
 42
2.5
 43
2.5
  0
MTEXT
  5
4E4E
330
4DFD
100
AcDbEntity
  8
additional
100
AcDbMText
 10
606.8254632797219
 20
-31.67186627333314
 30
0.0
 40
2.5
 41
0.0
 71
     5
 72
     1
  1
3.525
  7
CatalogDxf
 73
     1
 44
1.0
  0
POINT
  5
4E4F
330
4DFD
100
AcDbEntity
  8
DEFPOINTS
 62
     0
100
AcDbPoint
 10
620.9754632797219
 20
-30.55236596655467
 30
0.0
  0
POINT
  5
4E50
330
4DFD
100
AcDbEntity
  8
DEFPOINTS
 62
     0
100
AcDbPoint
 10
617.4504632797219
 20
-30.05986596655466
 30
0.0
  0
POINT
  5
4E51
330
4DFD
100
AcDbEntity
  8
DEFPOINTS
 62
     0
100
AcDbPoint
 10
617.4504632797219
 20
-33.54686627333314
 30
0.0
  0
ENDBLK
  5
4E0A
330
4DFD
100
AcDbEntity
  8
0
100
AcDbBlockEnd
  0
BLOCK
  5
4E38
330
4E37
100
AcDbEntity
  8
0
100
AcDbBlockBegin
  2
_OPEN
 70
     0
 10
0.0
 20
0.0
 30
0.0
  3
_OPEN
  1

  0
LINE
  5
4E39
330
4E37
100
AcDbEntity
  8
0
  6
ByBlock
 62
     0
100
AcDbLine
 10
-1.0
 20
0.1666666666666666
 30
0.0
 11
0.0
 21
0.0
 31
0.0
  0
LINE
  5
4E3A
330
4E37
100
AcDbEntity
  8
0
  6
ByBlock
 62
     0
100
AcDbLine
 10
0.0
 20
0.0
 30
0.0
 11
-1.0
 21
-0.1666666666666666
 31
0.0
  0
LINE
  5
4E3B
330
4E37
100
AcDbEntity
  8
0
  6
ByBlock
 62
     0
100
AcDbLine
 10
0.0
 20
0.0
 30
0.0
 11
-1.0
 21
0.0
 31
0.0
  0
ENDBLK
  5
4E3C
330
4E37
100
AcDbEntity
  8
0
100
AcDbBlockEnd
  0
BLOCK
  5
4EF6
330
4EEA
100
AcDbEntity
  8
0
100
AcDbBlockBegin
  2
*D18
 70
     1
 10
0.0
 20
0.0
 30
0.0
  3
*D18
  1

  0
LINE
  5
4F12
330
4EEA
100
AcDbEntity
  8
Z_OM_DIM
100
AcDbLine
 10
620.9754632797219
 20
-31.17736596655474
 30
0.0
 11
620.9754632797219
 21
-33.20013718188824
 31
0.0
  0
LINE
  5
4F13
330
4EEA
100
AcDbEntity
  8
Z_OM_DIM
100
AcDbLine
 10
617.4504632797219
 20
-30.68486596655474
 30
0.0
 11
617.4504632797219
 21
-33.20013718188824
 31
0.0
  0
LINE
  5
4F14
330
4EEA
100
AcDbEntity
  8
Z_OM_DIM
100
AcDbLine
 10
623.4754632797219
 20
-31.95013718188824
 30
0.0
 11
625.9754632797219
 21
-31.95013718188824
 31
0.0
  0
LINE
  5
4F15
330
4EEA
100
AcDbEntity
  8
Z_OM_DIM
100
AcDbLine
 10
614.9504632797219
 20
-31.95013718188824
 30
0.0
 11
601.2004632797219
 21
-31.95013718188824
 31
0.0
  0
LINE
  5
4F16
330
4EEA
100
AcDbEntity
  8
Z_OM_DIM
100
AcDbLine
 10
620.9754632797219
 20
-31.95013718188824
 30
0.0
 11
617.4504632797219
 21
-31.95013718188824
 31
0.0
  0
INSERT
  5
4F17
330
4EEA
100
AcDbEntity
  8
Z_OM_DIM
100
AcDbBlockReference
  2
_OPEN30
 10
620.9754632797219
 20
-31.95013718188824
 30
0.0
 41
2.5
 42
2.5
 43
2.5
 50
180.0
  0
INSERT
  5
4F18
330
4EEA
100
AcDbEntity
  8
Z_OM_DIM
100
AcDbBlockReference
  2
_OPEN30
 10
617.4504632797219
 20
-31.95013718188824
 30
0.0
 41
2.5
 42
2.5
 43
2.5
  0
MTEXT
  5
4F19
330
4EEA
100
AcDbEntity
  8
Z_OM_DIM
100
AcDbMText
 10
606.8254632797219
 20
-30.07513718188824
 30
0.0
 40
2.5
 41
0.0
 71
     5
 72
     1
  1
3.525
  7
CatalogDxf
 73
     1
 44
1.0
  0
POINT
  5
4F1A
330
4EEA
100
AcDbEntity
  8
DEFPOINTS
 62
     0
100
AcDbPoint
 10
620.9754632797219
 20
-30.55236596655474
 30
0.0
  0
POINT
  5
4F1B
330
4EEA
100
AcDbEntity
  8
DEFPOINTS
 62
     0
100
AcDbPoint
 10
617.4504632797219
 20
-30.05986596655474
 30
0.0
  0
POINT
  5
4F1C
330
4EEA
100
AcDbEntity
  8
DEFPOINTS
 62
     0
100
AcDbPoint
 10
617.4504632797219
 20
-31.95013718188824
 30
0.0
  0
ENDBLK
  5
4EF7
330
4EEA
100
AcDbEntity
  8
0
100
AcDbBlockEnd
  0
BLOCK
  5
4F05
330
4EF9
100
AcDbEntity
  8
0
100
AcDbBlockBegin
  2
*D19
 70
     1
 10
0.0
 20
0.0
 30
0.0
  3
*D19
  1

  0
LINE
  5
4F07
330
4EF9
100
AcDbEntity
  8
Z_OM_DIM
100
AcDbLine
 10
620.9754632797219
 20
-89.64215464186622
 30
0.0
 11
620.9754632797219
 21
-96.62110807202026
 31
0.0
  0
LINE
  5
4F08
330
4EF9
100
AcDbEntity
  8
Z_OM_DIM
100
AcDbLine
 10
617.4504632797216
 20
-89.14965464186613
 30
0.0
 11
617.4504632797216
 21
-96.62110807202026
 31
0.0
  0
LINE
  5
4F09
330
4EF9
100
AcDbEntity
  8
Z_OM_DIM
100
AcDbLine
 10
623.4754632797219
 20
-95.37110807202026
 30
0.0
 11
625.9754632797219
 21
-95.37110807202026
 31
0.0
  0
LINE
  5
4F0A
330
4EF9
100
AcDbEntity
  8
Z_OM_DIM
100
AcDbLine
 10
614.9504632797215
 20
-95.37110807202026
 30
0.0
 11
601.2004632797215
 21
-95.37110807202026
 31
0.0
  0
LINE
  5
4F0B
330
4EF9
100
AcDbEntity
  8
Z_OM_DIM
100
AcDbLine
 10
620.9754632797219
 20
-95.37110807202026
 30
0.0
 11
617.4504632797216
 21
-95.37110807202026
 31
0.0
  0
INSERT
  5
4F0C
330
4EF9
100
AcDbEntity
  8
Z_OM_DIM
100
AcDbBlockReference
  2
_OPEN30
 10
620.9754632797219
 20
-95.37110807202026
 30
0.0
 41
2.5
 42
2.5
 43
2.5
 50
180.0
  0
INSERT
  5
4F0D
330
4EF9
100
AcDbEntity
  8
Z_OM_DIM
100
AcDbBlockReference
  2
_OPEN30
 10
617.4504632797216
 20
-95.37110807202026
 30
0.0
 41
2.5
 42
2.5
 43
2.5
  0
MTEXT
  5
4F0E
330
4EF9
100
AcDbEntity
  8
Z_OM_DIM
100
AcDbMText
 10
606.8254632797215
 20
-93.49610807202026
 30
0.0
 40
2.5
 41
0.0
 71
     5
 72
     1
  1
3.525
  7
CatalogDxf
 73
     1
 44
1.0
  0
POINT
  5
4F0F
330
4EF9
100
AcDbEntity
  8
DEFPOINTS
 62
     0
100
AcDbPoint
 10
620.9754632797219
 20
-89.01715464186622
 30
0.0
  0
POINT
  5
4F10
330
4EF9
100
AcDbEntity
  8
DEFPOINTS
 62
     0
100
AcDbPoint
 10
617.4504632797216
 20
-88.52465464186613
 30
0.0
  0
POINT
  5
4F11
330
4EF9
100
AcDbEntity
  8
DEFPOINTS
 62
     0
100
AcDbPoint
 10
617.4504632797216
 20
-95.37110807202026
 30
0.0
  0
ENDBLK
  5
4F06
330
4EF9
100
AcDbEntity
  8
0
100
AcDbBlockEnd
  0
ENDSEC
  0
SECTION
  2
ENTITIES
  0
MTEXT
  5
4130
330
17
100
AcDbEntity
  8
Z_OM_DIM
100
AcDbMText
 10
662.501115762133
 20
-132.7473815513037
 30
0.0
 40
3.0
 41
93.92693936784551
 71
     1
 72
     5
  1
TAKAHA KIKO Co., Ltd\PCAD DRAWING No. CA0520
  7
CatalogDxf
 73
     1
 44
1.0
1001
ACAD
1000
MTEXTBEGIN
1070
    73
1070
     1
1070
    44
1040
1.0
1070
    74
1070
     0
1000
MTEXTEND
  0
MTEXT
  5
42AA
330
17
100
AcDbEntity
  8
Z_OM_DIM
100
AcDbMText
 10
534.4018086324902
 20
-10.27677521265844
 30
0.0
 40
3.0
 41
47.03999999999999
 71
     1
 72
     1
  1
Adsorbed position
  7
CatalogDxf
 73
     1
 44
1.0
1001
ACAD
1000
MTEXTBEGIN
1070
    73
1070
     1
1070
    44
1040
1.0
1070
    74
1070
     0
1000
MTEXTEND
  0
LINE
  5
434E
330
17
100
AcDbEntity
  8
0
100
AcDbLine
 10
620.2754632797217
 20
-36.0598659665549
 30
0.0
 11
620.2754632797217
 21
-35.05986596655489
 31
0.0
  0
LINE
  5
434F
330
17
100
AcDbEntity
  8
0
100
AcDbLine
 10
620.2754632797217
 20
-35.05986596655489
 30
0.0
 11
639.3754632797217
 21
-35.05986596655489
 31
0.0
  0
LINE
  5
4350
330
17
100
AcDbEntity
  8
0
100
AcDbLine
 10
639.3754632797217
 20
-35.05986596655489
 30
0.0
 11
639.3754632797217
 21
-23.80986596655467
 31
0.0
  0
LINE
  5
4351
330
17
100
AcDbEntity
  8
0
100
AcDbLine
 10
639.3754632797217
 20
-21.05986596655467
 30
0.0
 11
620.2754632797217
 21
-21.05986596655467
 31
0.0
  0
LINE
  5
4352
330
17
100
AcDbEntity
  8
0
100
AcDbLine
 10
620.2754632797217
 20
-21.05986596655467
 30
0.0
 11
620.2754632797217
 21
-20.05986596655467
 31
0.0
  0
LINE
  5
4353
330
17
100
AcDbEntity
  8
0
100
AcDbLine
 10
620.2754632797217
 20
-20.05986596655467
 30
0.0
 11
639.3754632797217
 21
-20.05986596655467
 31
0.0
  0
LINE
  5
4354
330
17
100
AcDbEntity
  8
0
100
AcDbLine
 10
640.3754632797219
 20
-21.05986596655467
 30
0.0
 11
640.3754632797219
 21
-21.80986596655467
 31
0.0
  0
LINE
  5
4355
330
17
100
AcDbEntity
  8
0
100
AcDbLine
 10
639.3754632797217
 20
-36.0598659665549
 30
0.0
 11
620.2754632797217
 21
-36.0598659665549
 31
0.0
  0
ARC
  5
4356
330
17
100
AcDbEntity
  8
0
100
AcDbCircle
 10
639.3754632797217
 20
-35.05986596655489
 30
0.0
 40
1.0
100
AcDbArc
 50
270.0
 51
0.0
  0
ARC
  5
4357
330
17
100
AcDbEntity
  8
0
100
AcDbCircle
 10
639.3754632797217
 20
-21.05986596655467
 30
0.0
 40
1.0
100
AcDbArc
 50
0.0
 51
90.0
  0
LINE
  5
4358
330
17
100
AcDbEntity
  8
additional
100
AcDbLine
 10
626.2754632797217
 20
-23.09671409642797
 30
0.0
 11
626.2754632797217
 21
-18.05986596655444
 31
0.0
  0
LINE
  5
4359
330
17
100
AcDbEntity
  8
additional
100
AcDbLine
 10
636.2754632797217
 20
-23.09671409642797
 30
0.0
 11
636.2754632797217
 21
-18.05986596655444
 31
0.0
  0
LINE
  5
435A
330
17
100
AcDbEntity
  8
0
100
AcDbLine
 10
640.3754632797219
 20
-24.05986596655467
 30
0.0
 11
639.3754632797217
 21
-24.05986596655467
 31
0.0
  0
LINE
  5
435B
330
17
100
AcDbEntity
  8
0
100
AcDbLine
 10
639.1754632797217
 20
-20.05986596655467
 30
0.0
 11
639.1754632797219
 21
-21.05986596655467
 31
0.0
  0
LINE
  5
435C
330
17
100
AcDbEntity
  8
0
100
AcDbLine
 10
620.9754632797219
 20
-21.05986596655467
 30
0.0
 11
620.9754632797219
 21
-35.05986596655489
 31
0.0
  0
LINE
  5
435D
330
17
100
AcDbEntity
  8
0
100
AcDbLine
 10
622.5754632797217
 20
-35.05986596655489
 30
0.0
 11
622.5754632797217
 21
-21.05986596655467
 31
0.0
  0
LINE
  5
435E
330
17
100
AcDbEntity
  8
0
 48
0.5
100
AcDbLine
 10
639.3754632797217
 20
-30.60236596655469
 30
0.0
 11
639.3754632797217
 21
-25.51736596655465
 31
0.0
  0
LINE
  5
435F
330
17
100
AcDbEntity
  8
0
100
AcDbLine
 10
640.6754632797217
 20
-29.52736596655464
 30
0.0
 11
640.6754632797217
 21
-26.5923659665547
 31
0.0
  0
LINE
  5
4360
330
17
100
AcDbEntity
  8
0
 48
0.5
100
AcDbLine
 10
640.6754632797217
 20
-26.5923659665547
 30
0.0
 11
640.3754632797219
 21
-26.5923659665547
 31
0.0
  0
LINE
  5
4361
330
17
100
AcDbEntity
  8
0
 48
0.5
100
AcDbLine
 10
640.6754632797217
 20
-29.52736596655464
 30
0.0
 11
640.3754632797219
 21
-29.52736596655464
 31
0.0
  0
LINE
  5
4362
330
17
100
AcDbEntity
  8
0
100
AcDbLine
 10
619.930463279722
 20
-30.45236596655472
 30
0.0
 11
619.930463279722
 21
-25.66736596655476
 31
0.0
  0
LINE
  5
4363
330
17
100
AcDbEntity
  8
0
100
AcDbLine
 10
619.930463279722
 20
-27.08486596655477
 30
0.0
 11
618.450463279722
 21
-27.08486596655477
 31
0.0
  0
LINE
  5
4364
330
17
100
AcDbEntity
  8
0
100
AcDbLine
 10
619.930463279722
 20
-29.03486596655471
 30
0.0
 11
618.450463279722
 21
-29.03486596655471
 31
0.0
  0
LINE
  5
4365
330
17
100
AcDbEntity
  8
0
100
AcDbLine
 10
617.4504632797219
 20
-26.05986596655474
 30
0.0
 11
618.3504632797221
 21
-26.05986596655474
 31
0.0
  0
LINE
  5
4366
330
17
100
AcDbEntity
  8
0
100
AcDbLine
 10
618.450463279722
 20
-26.15986596655471
 30
0.0
 11
618.450463279722
 21
-29.95986596655477
 31
0.0
  0
LINE
  5
4367
330
17
100
AcDbEntity
  8
0
100
AcDbLine
 10
618.3504632797221
 20
-30.05986596655474
 30
0.0
 11
617.4504632797219
 21
-30.05986596655474
 31
0.0
  0
LINE
  5
4368
330
17
100
AcDbEntity
  8
0
100
AcDbLine
 10
617.4504632797219
 20
-30.05986596655474
 30
0.0
 11
617.4504632797219
 21
-26.05986596655474
 31
0.0
  0
LINE
  5
4369
330
17
100
AcDbEntity
  8
0
100
AcDbLine
 10
620.030463279722
 20
-25.56736596655473
 30
0.0
 11
619.930463279722
 21
-25.66736596655476
 31
0.0
  0
LINE
  5
436A
330
17
100
AcDbEntity
  8
0
100
AcDbLine
 10
618.450463279722
 20
-26.15986596655471
 30
0.0
 11
618.3504632797221
 21
-26.05986596655474
 31
0.0
  0
LINE
  5
436B
330
17
100
AcDbEntity
  8
0
100
AcDbLine
 10
618.450463279722
 20
-29.95986596655477
 30
0.0
 11
618.3504632797221
 21
-30.05986596655474
 31
0.0
  0
LINE
  5
436C
330
17
100
AcDbEntity
  8
0
100
AcDbLine
 10
619.930463279722
 20
-30.45236596655472
 30
0.0
 11
620.030463279722
 21
-30.55236596655474
 31
0.0
  0
LINE
  5
436E
330
17
100
AcDbEntity
  8
0
 48
0.5
100
AcDbLine
 10
620.9754632797218
 20
-25.56736596655472
 30
0.0
 11
620.030463279722
 21
-25.56736596655473
 31
0.0
  0
LINE
  5
436F
330
17
100
AcDbEntity
  8
0
 48
0.5
100
AcDbLine
 10
620.030463279722
 20
-30.55236596655474
 30
0.0
 11
620.9754632797218
 21
-30.55236596655474
 31
0.0
  0
LINE
  5
4370
330
17
100
AcDbEntity
  8
0
100
AcDbLine
 10
638.0754632797215
 20
-34.25986596655472
 30
0.0
 11
623.3254632797216
 21
-34.25986596655472
 31
0.0
  0
LINE
  5
4371
330
17
100
AcDbEntity
  8
0
 48
0.5
100
AcDbLine
 10
638.0754632797215
 20
-23.80986596655467
 30
0.0
 11
652.0859903654841
 21
-23.80986596655467
 31
0.0
  0
LINE
  5
4372
330
17
100
AcDbEntity
  8
0
 48
0.5
100
AcDbLine
 10
638.0754632797215
 20
-22.80986596655467
 30
0.0
 11
652.3749041690042
 21
-22.80986596655467
 31
0.0
  0
LINE
  5
4373
330
17
100
AcDbEntity
  8
0
 48
0.5
100
AcDbLine
 10
638.0754632797215
 20
-21.80986596655467
 30
0.0
 11
652.8848349782442
 21
-21.80986596655467
 31
0.0
  0
LINE
  5
4374
330
17
100
AcDbEntity
  8
0
 48
0.5
100
AcDbLine
 10
681.8198391091259
 20
-21.80986596655467
 30
0.0
 11
681.8198391091259
 21
-23.80986596655467
 31
0.0
  0
LINE
  5
4375
330
17
100
AcDbEntity
  8
0
100
AcDbLine
 10
640.3754632797219
 20
-23.80986596655467
 30
0.0
 11
640.3754632797219
 21
-35.05986596655489
 31
0.0
  0
LINE
  5
4376
330
17
100
AcDbEntity
  8
0
 48
0.5
100
AcDbLine
 10
638.0754632797215
 20
-35.00986596655471
 30
0.0
 11
638.0754632797215
 21
-31.10986596655462
 31
0.0
  0
LINE
  5
4377
330
17
100
AcDbEntity
  8
0
 48
0.5
100
AcDbLine
 10
639.3754632797217
 20
-35.00986596655471
 30
0.0
 11
639.3754632797217
 21
-23.80986596655467
 31
0.0
  0
LINE
  5
4378
330
17
100
AcDbEntity
  8
0
 48
0.5
100
AcDbLine
 10
638.0754632797215
 20
-35.00986596655471
 30
0.0
 11
639.3754632797217
 21
-35.00986596655471
 31
0.0
  0
LINE
  5
4379
330
17
100
AcDbEntity
  8
0
 48
0.5
100
AcDbLine
 10
638.0754632797215
 20
-31.10986596655462
 30
0.0
 11
638.0754632797215
 21
-21.10986596655462
 31
0.0
  0
LINE
  5
437A
330
17
100
AcDbEntity
  8
0
 48
0.5
100
AcDbLine
 10
638.0754632797215
 20
-21.10986596655462
 30
0.0
 11
639.3754632797217
 21
-21.10986596655462
 31
0.0
  0
POINT
  5
437B
330
17
100
AcDbEntity
  8
0
 48
0.5
100
AcDbPoint
 10
638.0754632797215
 20
-21.10986596655462
 30
0.0
  0
LINE
  5
437C
330
17
100
AcDbEntity
  8
0
 48
0.5
100
AcDbLine
 10
622.6254632797218
 20
-35.00986596655471
 30
0.0
 11
622.6254632797218
 21
-31.05986596655467
 31
0.0
  0
LINE
  5
437D
330
17
100
AcDbEntity
  8
0
 48
0.5
100
AcDbLine
 10
623.3254632797216
 20
-35.00986596655471
 30
0.0
 11
623.3254632797216
 21
-31.10986596655462
 31
0.0
  0
LINE
  5
437E
330
17
100
AcDbEntity
  8
0
 48
0.5
100
AcDbLine
 10
622.6254632797218
 20
-35.00986596655471
 30
0.0
 11
623.3254632797216
 21
-35.00986596655471
 31
0.0
  0
LINE
  5
437F
330
17
100
AcDbEntity
  8
0
 48
0.5
100
AcDbLine
 10
622.6254632797218
 20
-31.05986596655467
 30
0.0
 11
622.6254632797218
 21
-21.10986596655462
 31
0.0
  0
LINE
  5
4380
330
17
100
AcDbEntity
  8
0
 48
0.5
100
AcDbLine
 10
623.3254632797216
 20
-31.10986596655462
 30
0.0
 11
623.3254632797216
 21
-21.10986596655462
 31
0.0
  0
LINE
  5
4381
330
17
100
AcDbEntity
  8
0
 48
0.5
100
AcDbLine
 10
622.6254632797218
 20
-21.10986596655462
 30
0.0
 11
623.3254632797216
 21
-21.10986596655462
 31
0.0
  0
POINT
  5
4382
330
17
100
AcDbEntity
  8
0
 48
0.5
100
AcDbPoint
 10
623.3254632797216
 20
-21.10986596655462
 30
0.0
  0
POINT
  5
4383
330
17
100
AcDbEntity
  8
0
 48
0.5
100
AcDbPoint
 10
622.6254632797218
 20
-21.10986596655462
 30
0.0
  0
LINE
  5
4384
330
17
100
AcDbEntity
  8
0
 48
0.5
100
AcDbLine
 10
639.3754632797217
 20
-21.80986596655467
 30
0.0
 11
639.3754632797217
 21
-21.10986596655462
 31
0.0
  0
LINE
  5
4385
330
17
100
AcDbEntity
  8
0
100
AcDbLine
 10
639.3754632797217
 20
-21.80986596655467
 30
0.0
 11
639.3754632797217
 21
-21.05986596655467
 31
0.0
  0
SPLINE
  5
4386
330
17
100
AcDbEntity
  8
additional
 48
0.5
100
AcDbSpline
210
0.0
220
0.0
230
1.0
 70
     8
 71
     3
 72
    18
 73
    14
 74
    12
 42
0.0000000001
 43
0.0000000001
 44
0.0000000001
 40
0.0
 40
0.0
 40
0.0
 40
0.0
 40
0.4472135955000184
 40
0.8944271909998683
 40
1.694427190999819
 40
2.141640786499878
 40
2.588854381999887
 40
3.03606797749975
 40
3.48328157299981
 40
4.683281572999848
 40
5.13049516849971
 40
5.57770876399977
 40
6.024922359499569
 40
6.024922359499569
 40
6.024922359499569
 40
6.024922359499569
 10
652.5958235044927
 20
-19.97093572711506
 30
0.0
 10
652.660149037803
 20
-20.105381136663
 30
0.0
 10
652.788800104423
 20
-20.37427195575883
 30
0.0
 10
653.0857414634408
 20
-20.858385065832
 30
0.0
 10
653.0858300211138
 20
-21.48350805843756
 30
0.0
 10
652.7886515886901
 20
-21.96754961293555
 30
0.0
 10
652.596378369366
 20
-22.3711284973709
 30
0.0
 10
652.4007759608021
 20
-22.77355076027149
 30
0.0
 10
652.0490347474982
 20
-23.3772758098855
 30
0.0
 10
652.0485812763585
 20
-24.16476178001124
 30
0.0
 10
652.4012829569492
 20
-24.76808879984051
 30
0.0
 10
652.5944586413786
 20
-25.17164745893368
 30
0.0
 10
652.7287018834546
 20
-25.43783963772123
 30
0.0
 10
652.7958235044926
 20
-25.57093572711497
 30
0.0
 11
652.5958235044927
 21
-19.97093572711506
 31
0.0
 11
652.7958235044926
 21
-20.37093572711516
 31
0.0
 11
652.9958235044927
 21
-20.77093572711502
 31
0.0
 11
652.9958235044927
 21
-21.57093572711497
 31
0.0
 11
652.7958235044926
 21
-21.97093572711506
 31
0.0
 11
652.5958235044927
 21
-22.37093572711515
 31
0.0
 11
652.3958235044927
 21
-22.77093572711502
 31
0.0
 11
652.1958235044926
 21
-23.17093572711511
 31
0.0
 11
652.1958235044926
 21
-24.37093572711515
 31
0.0
 11
652.3958235044927
 21
-24.77093572711502
 31
0.0
 11
652.5958235044927
 21
-25.17093572711511
 31
0.0
 11
652.7958235044926
 21
-25.57093572711497
 31
0.0
  0
SPLINE
  5
4387
330
17
100
AcDbEntity
  8
additional
 48
0.5
100
AcDbSpline
210
0.0
220
0.0
230
1.0
 70
     8
 71
     3
 72
    18
 73
    14
 74
    12
 42
0.0000000001
 43
0.0000000001
 44
0.0000000001
 40
0.0
 40
0.0
 40
0.0
 40
0.0
 40
0.4472135955000184
 40
0.8944271909998683
 40
1.694427190999819
 40
2.141640786499878
 40
2.588854381999887
 40
3.03606797749975
 40
3.48328157299981
 40
4.683281572999848
 40
5.13049516849971
 40
5.57770876399977
 40
6.024922359499569
 40
6.024922359499569
 40
6.024922359499569
 40
6.024922359499569
 10
653.5958235044927
 20
-19.97093572711506
 30
0.0
 10
653.6601490378028
 20
-20.105381136663
 30
0.0
 10
653.7888001044229
 20
-20.37427195575883
 30
0.0
 10
654.0857414634408
 20
-20.858385065832
 30
0.0
 10
654.0858300211139
 20
-21.48350805843756
 30
0.0
 10
653.7886515886902
 20
-21.96754961293555
 30
0.0
 10
653.5963783693659
 20
-22.3711284973709
 30
0.0
 10
653.400775960802
 20
-22.77355076027149
 30
0.0
 10
653.0490347474982
 20
-23.3772758098855
 30
0.0
 10
653.0485812763586
 20
-24.16476178001124
 30
0.0
 10
653.4012829569491
 20
-24.76808879984051
 30
0.0
 10
653.5944586413786
 20
-25.17164745893368
 30
0.0
 10
653.7287018834546
 20
-25.43783963772123
 30
0.0
 10
653.7958235044926
 20
-25.57093572711497
 30
0.0
 11
653.5958235044927
 21
-19.97093572711506
 31
0.0
 11
653.7958235044926
 21
-20.37093572711516
 31
0.0
 11
653.9958235044927
 21
-20.77093572711502
 31
0.0
 11
653.9958235044927
 21
-21.57093572711497
 31
0.0
 11
653.7958235044926
 21
-21.97093572711506
 31
0.0
 11
653.5958235044927
 21
-22.37093572711515
 31
0.0
 11
653.3958235044926
 21
-22.77093572711502
 31
0.0
 11
653.1958235044926
 21
-23.17093572711511
 31
0.0
 11
653.1958235044926
 21
-24.37093572711515
 31
0.0
 11
653.3958235044926
 21
-24.77093572711502
 31
0.0
 11
653.5958235044927
 21
-25.17093572711511
 31
0.0
 11
653.7958235044926
 21
-25.57093572711497
 31
0.0
  0
LINE
  5
4388
330
17
100
AcDbEntity
  8
0
 48
0.5
100
AcDbLine
 10
653.0859903654841
 20
-23.80986596655467
 30
0.0
 11
681.8198391091259
 21
-23.80986596655467
 31
0.0
  0
LINE
  5
4389
330
17
100
AcDbEntity
  8
0
 48
0.5
100
AcDbLine
 10
653.8848349782442
 20
-21.80986596655467
 30
0.0
 11
681.8198391091259
 21
-21.80986596655467
 31
0.0
  0
LINE
  5
438A
330
17
100
AcDbEntity
  8
0
 48
0.5
100
AcDbLine
 10
579.9742174574504
 20
-93.02465464186639
 30
0.0
 11
579.9742174574504
 21
-80.0246546418664
 31
0.0
  0
LINE
  5
438B
330
17
100
AcDbEntity
  8
0
 48
0.5
100
AcDbLine
 10
579.9742174574504
 20
-80.0246546418664
 30
0.0
 11
563.9742174574502
 21
-80.0246546418664
 31
0.0
  0
LINE
  5
438C
330
17
100
AcDbEntity
  8
0
 48
0.5
100
AcDbLine
 10
563.9742174574502
 20
-80.0246546418664
 30
0.0
 11
563.9742174574502
 21
-93.02465464186639
 31
0.0
  0
LINE
  5
438D
330
17
100
AcDbEntity
  8
0
 48
0.5
100
AcDbLine
 10
563.9742174574502
 20
-93.02465464186639
 30
0.0
 11
579.9742174574504
 21
-93.02465464186639
 31
0.0
  0
LINE
  5
438E
330
17
100
AcDbEntity
  8
additional
  6
CENTER2
 48
0.5
100
AcDbLine
 10
571.9742174574502
 20
-96.02465464186639
 30
0.0
 11
571.9742174574502
 21
-76.52465464186652
 31
0.0
  0
LINE
  5
438F
330
17
100
AcDbEntity
  8
additional
  6
CENTER2
 48
0.5
100
AcDbLine
 10
582.9742174574509
 20
-86.52465464186638
 30
0.0
 11
560.9742174574502
 21
-86.52465464186652
 31
0.0
  0
LINE
  5
4390
330
17
100
AcDbEntity
  8
0
 48
0.5
100
AcDbLine
 10
575.2242174574518
 20
-79.52465464186651
 30
0.0
 11
568.72421745745
 21
-79.52465464186639
 31
0.0
  0
LINE
  5
4391
330
17
100
AcDbEntity
  8
0
100
AcDbLine
 10
563.9742174574502
 20
-83.47465464186644
 30
0.0
 11
564.9742174574509
 21
-83.47465464186644
 31
0.0
  0
LINE
  5
4392
330
17
100
AcDbEntity
  8
0
100
AcDbLine
 10
564.9742174574509
 20
-83.47465464186644
 30
0.0
 11
564.9742174574509
 21
-80.0246546418664
 31
0.0
  0
LINE
  5
4393
330
17
100
AcDbEntity
  8
0
100
AcDbLine
 10
563.9742174574482
 20
-89.57465464186567
 30
0.0
 11
564.9742174574481
 21
-89.57465464186645
 31
0.0
  0
LINE
  5
4394
330
17
100
AcDbEntity
  8
0
100
AcDbLine
 10
564.9742174574481
 20
-89.57465464186645
 30
0.0
 11
564.9742174574452
 21
-93.02465464186651
 31
0.0
  0
LINE
  5
4395
330
17
100
AcDbEntity
  8
0
100
AcDbLine
 10
579.974217457451
 20
-83.47465464186644
 30
0.0
 11
578.9742174574509
 21
-83.47465464186644
 31
0.0
  0
LINE
  5
4396
330
17
100
AcDbEntity
  8
0
100
AcDbLine
 10
578.9742174574509
 20
-83.47465464186644
 30
0.0
 11
578.9742174574509
 21
-80.0246546418664
 31
0.0
  0
LINE
  5
4397
330
17
100
AcDbEntity
  8
0
100
AcDbLine
 10
579.9742174574535
 20
-89.57465464186567
 30
0.0
 11
578.9742174574532
 21
-89.57465464186645
 31
0.0
  0
LINE
  5
4398
330
17
100
AcDbEntity
  8
0
100
AcDbLine
 10
578.9742174574532
 20
-89.57465464186645
 30
0.0
 11
578.974217457456
 21
-93.02465464186651
 31
0.0
  0
CIRCLE
  5
4399
330
17
100
AcDbEntity
  8
0
100
AcDbCircle
 10
571.9742174574502
 20
-86.52465464186638
 30
0.0
 40
2.0
  0
CIRCLE
  5
439A
330
17
100
AcDbEntity
  8
0
100
AcDbCircle
 10
571.9742174574502
 20
-86.52465464186638
 30
0.0
 40
2.492500000000061
  0
CIRCLE
  5
439B
330
17
100
AcDbEntity
  8
0
100
AcDbCircle
 10
571.9742174574502
 20
-86.52465464186638
 30
0.0
 40
3.0625
  0
LINE
  5
439C
330
17
100
AcDbEntity
  8
additional
  6
CENTER2
 48
0.5
100
AcDbLine
 10
614.0754632797217
 20
-28.05986596655444
 30
0.0
 11
643.6754632797217
 21
-28.05986596655467
 31
0.0
  0
LINE
  5
439D
330
17
100
AcDbEntity
  8
0
100
AcDbLine
 10
565.7742174574504
 20
-80.0246546418664
 30
0.0
 11
568.72421745745
 21
-79.52465464186639
 31
0.0
  0
LINE
  5
439E
330
17
100
AcDbEntity
  8
additional
100
AcDbLine
 10
567.0110655873242
 20
-90.02465464186775
 30
0.0
 11
561.9742174574503
 21
-90.02465464186775
 31
0.0
  0
LINE
  5
439F
330
17
100
AcDbEntity
  8
additional
100
AcDbLine
 10
567.0110655873242
 20
-83.02465464186651
 30
0.0
 11
561.9742174574503
 21
-83.02465464186639
 31
0.0
  0
LINE
  5
43A0
330
17
100
AcDbEntity
  8
additional
100
AcDbLine
 10
626.2754632797217
 20
-33.02301783668136
 30
0.0
 11
626.2754632797217
 21
-38.0598659665549
 31
0.0
  0
LINE
  5
43A1
330
17
100
AcDbEntity
  8
additional
100
AcDbLine
 10
636.2754632797217
 20
-33.02301783668136
 30
0.0
 11
636.2754632797217
 21
-38.0598659665549
 31
0.0
  0
LINE
  5
43A2
330
17
100
AcDbEntity
  8
additional
100
AcDbLine
 10
576.9373693275772
 20
-90.02465464186775
 30
0.0
 11
581.974217457451
 21
-90.02465464186775
 31
0.0
  0
LINE
  5
43A3
330
17
100
AcDbEntity
  8
additional
100
AcDbLine
 10
576.9373693275772
 20
-83.02465464186651
 30
0.0
 11
581.974217457451
 21
-83.02465464186639
 31
0.0
  0
LINE
  5
43A4
330
17
100
AcDbEntity
  8
0
100
AcDbLine
 10
638.0754632797215
 20
-21.85986596655417
 30
0.0
 11
623.3254632797216
 21
-21.85986596655417
 31
0.0
  0
LINE
  5
43A5
330
17
100
AcDbEntity
  8
0
100
AcDbLine
 10
578.1742174574512
 20
-80.0246546418664
 30
0.0
 11
575.2242174574512
 21
-79.52465464186639
 31
0.0
  0
POINT
  5
43A6
330
17
100
AcDbEntity
  8
0
100
AcDbPoint
 10
681.8198391091259
 20
-21.80986596655467
 30
0.0
  0
POINT
  5
43A7
330
17
100
AcDbEntity
  8
0
100
AcDbPoint
 10
681.8198391091259
 20
-22.30986596655467
 30
0.0
  0
POINT
  5
43A8
330
17
100
AcDbEntity
  8
0
100
AcDbPoint
 10
681.8198391091259
 20
-23.80986596655467
 30
0.0
  0
LINE
  5
43A9
330
17
100
AcDbEntity
  8
0
100
AcDbLine
 10
681.8198391091259
 20
-23.55986596655467
 30
0.0
 11
688.8198391091258
 21
-23.55986596655467
 31
0.0
  0
LINE
  5
43AA
330
17
100
AcDbEntity
  8
0
100
AcDbLine
 10
681.8198391091259
 20
-23.05986596655467
 30
0.0
 11
688.8198391091258
 21
-23.05986596655467
 31
0.0
  0
POINT
  5
43AB
330
17
100
AcDbEntity
  8
0
100
AcDbPoint
 10
681.8198391091259
 20
-23.80986596655467
 30
0.0
  0
POINT
  5
43AC
330
17
100
AcDbEntity
  8
0
100
AcDbPoint
 10
681.8198391091259
 20
-23.30986596655467
 30
0.0
  0
LINE
  5
43AD
330
17
100
AcDbEntity
  8
0
100
AcDbLine
 10
620.2754632797217
 20
-93.02465464186616
 30
0.0
 11
620.2754632797217
 21
-89.57465464186611
 31
0.0
  0
LINE
  5
43AE
330
17
100
AcDbEntity
  8
0
100
AcDbLine
 10
620.2754632797217
 20
-89.57465464186611
 30
0.0
 11
622.5754632797217
 21
-89.57465464186611
 31
0.0
  0
LINE
  5
43AF
330
17
100
AcDbEntity
  8
0
100
AcDbLine
 10
622.5754632797217
 20
-89.57465464186611
 30
0.0
 11
622.5754632797217
 21
-83.47465464186621
 31
0.0
  0
LINE
  5
43B0
330
17
100
AcDbEntity
  8
0
100
AcDbLine
 10
622.5754632797217
 20
-83.47465464186621
 30
0.0
 11
620.2754632797217
 21
-83.47465464186621
 31
0.0
  0
LINE
  5
43B1
330
17
100
AcDbEntity
  8
0
100
AcDbLine
 10
620.2754632797217
 20
-83.47465464186621
 30
0.0
 11
620.2754632797217
 21
-80.02465464186617
 31
0.0
  0
LINE
  5
43B2
330
17
100
AcDbEntity
  8
0
100
AcDbLine
 10
620.2754632797217
 20
-80.02465464186617
 30
0.0
 11
640.3754632797219
 21
-80.02465464186617
 31
0.0
  0
LINE
  5
43B3
330
17
100
AcDbEntity
  8
0
100
AcDbLine
 10
640.3754632797219
 20
-80.02465464186617
 30
0.0
 11
640.3754632797219
 21
-93.02465464186616
 31
0.0
  0
LINE
  5
43B4
330
17
100
AcDbEntity
  8
0
100
AcDbLine
 10
640.3754632797219
 20
-93.02465464186616
 30
0.0
 11
620.2754632797217
 21
-93.02465464186616
 31
0.0
  0
LINE
  5
43B5
330
17
100
AcDbEntity
  8
additional
 48
0.5
100
AcDbLine
 10
626.2754632797217
 20
-92.09348657670489
 30
0.0
 11
626.2754632797217
 21
-87.62378916136038
 31
0.0
  0
LINE
  5
43B6
330
17
100
AcDbEntity
  8
additional
 48
0.5
100
AcDbLine
 10
636.2754632797217
 20
-85.38427153106102
 30
0.0
 11
636.2754632797217
 21
-80.93750336471314
 31
0.0
  0
LINE
  5
43B7
330
17
100
AcDbEntity
  8
additional
 48
0.5
100
AcDbLine
 10
633.9110712013011
 20
-83.02465464186616
 30
0.0
 11
638.8432921741885
 21
-83.02465464186616
 31
0.0
  0
LINE
  5
43B8
330
17
100
AcDbEntity
  8
additional
 48
0.5
100
AcDbLine
 10
623.9721869465308
 20
-90.02465464186617
 30
0.0
 11
628.7363663790459
 21
-90.02465464186617
 31
0.0
  0
LINE
  5
43B9
330
17
100
AcDbEntity
  8
0
 48
0.5
100
AcDbLine
 10
640.3754632797219
 20
-81.52465464186636
 30
0.0
 11
652.0816013649096
 21
-81.52465464186628
 31
0.0
  0
LINE
  5
43BA
330
17
100
AcDbEntity
  8
0
 48
0.5
100
AcDbLine
 10
640.3754632797219
 20
-80.52465464186637
 30
0.0
 11
652.5645774850104
 21
-80.52465464186623
 31
0.0
  0
SPLINE
  5
43BB
330
17
100
AcDbEntity
  8
additional
 48
0.5
100
AcDbSpline
210
0.0
220
0.0
230
1.0
 70
     8
 71
     3
 72
    18
 73
    14
 74
    12
 42
0.0000000001
 43
0.0000000001
 44
0.0000000001
 40
0.0
 40
0.0
 40
0.0
 40
0.0
 40
0.447213595499958
 40
0.8944271909997635
 40
1.694427190999661
 40
2.141640786499593
 40
2.588854381999551
 40
3.036067977499534
 40
3.483281572999568
 40
4.683281572999501
 40
5.130495168499459
 40
5.577708763999519
 40
6.024922359499387
 40
6.024922359499387
 40
6.024922359499387
 40
6.024922359499387
 10
652.5174865186792
 20
-78.22246617046244
 30
0.0
 10
652.5818120519893
 20
-78.35691158001032
 30
0.0
 10
652.7104631186095
 20
-78.62580239910602
 30
0.0
 10
653.0074044776267
 20
-79.1099155091795
 30
0.0
 10
653.0074930352999
 20
-79.73503850178471
 30
0.0
 10
652.7103146028768
 20
-80.21908005628302
 30
0.0
 10
652.5180413835523
 20
-80.62265894071813
 30
0.0
 10
652.3224389749885
 20
-81.0250812036188
 30
0.0
 10
651.9706977616846
 20
-81.62880625323282
 30
0.0
 10
651.9702442905449
 20
-82.4162922233585
 30
0.0
 10
652.3229459711359
 20
-83.01961924318785
 30
0.0
 10
652.5161216555649
 20
-83.42317790228106
 30
0.0
 10
652.6503648976413
 20
-83.68937008106859
 30
0.0
 10
652.7174865186792
 20
-83.82246617046233
 30
0.0
 11
652.5174865186792
 21
-78.22246617046244
 31
0.0
 11
652.7174865186792
 21
-78.62246617046242
 31
0.0
 11
652.917486518679
 21
-79.02246617046239
 31
0.0
 11
652.917486518679
 21
-79.82246617046229
 31
0.0
 11
652.7174865186792
 21
-80.2224661704624
 31
0.0
 11
652.5174865186792
 21
-80.62246617046239
 31
0.0
 11
652.3174865186791
 21
-81.02246617046239
 31
0.0
 11
652.1174865186791
 21
-81.42246617046245
 31
0.0
 11
652.1174865186791
 21
-82.62246617046239
 31
0.0
 11
652.3174865186791
 21
-83.02246617046236
 31
0.0
 11
652.5174865186792
 21
-83.42246617046246
 31
0.0
 11
652.7174865186792
 21
-83.82246617046233
 31
0.0
  0
LINE
  5
43BC
330
17
100
AcDbEntity
  8
0
 48
0.5
100
AcDbLine
 10
620.9754632797219
 20
-83.47465464186621
 30
0.0
 11
620.9754632797219
 21
-89.57465464186611
 31
0.0
  0
LINE
  5
43BD
330
17
100
AcDbEntity
  8
0
100
AcDbLine
 10
640.6754632797217
 20
-87.99215464186588
 30
0.0
 11
640.6754632797217
 21
-85.05715464186597
 31
0.0
  0
LINE
  5
43BE
330
17
100
AcDbEntity
  8
0
 48
0.5
100
AcDbLine
 10
640.6754632797217
 20
-85.05715464186597
 30
0.0
 11
640.3754632797219
 21
-85.05715464186597
 31
0.0
  0
LINE
  5
43BF
330
17
100
AcDbEntity
  8
0
 48
0.5
100
AcDbLine
 10
640.6754632797217
 20
-87.99215464186588
 30
0.0
 11
640.3754632797219
 21
-87.99215464186588
 31
0.0
  0
LINE
  5
43C0
330
17
100
AcDbEntity
  8
0
100
AcDbLine
 10
619.9304632797218
 20
-88.91715464186606
 30
0.0
 11
619.9304632797218
 21
-84.13215464186622
 31
0.0
  0
LINE
  5
43C1
330
17
100
AcDbEntity
  8
0
100
AcDbLine
 10
619.9304632797218
 20
-85.54965464186626
 30
0.0
 11
618.4504632797218
 21
-85.54965464186626
 31
0.0
  0
LINE
  5
43C2
330
17
100
AcDbEntity
  8
0
100
AcDbLine
 10
619.9304632797218
 20
-87.49965464186605
 30
0.0
 11
618.4504632797218
 21
-87.49965464186605
 31
0.0
  0
LINE
  5
43C3
330
17
100
AcDbEntity
  8
0
100
AcDbLine
 10
617.4504632797216
 20
-84.52465464186614
 30
0.0
 11
618.3504632797218
 21
-84.52465464186614
 31
0.0
  0
LINE
  5
43C4
330
17
100
AcDbEntity
  8
0
100
AcDbLine
 10
618.4504632797218
 20
-84.62465464186603
 30
0.0
 11
618.4504632797218
 21
-88.42465464186622
 31
0.0
  0
LINE
  5
43C5
330
17
100
AcDbEntity
  8
0
100
AcDbLine
 10
618.3504632797218
 20
-88.52465464186613
 30
0.0
 11
617.4504632797216
 21
-88.52465464186613
 31
0.0
  0
LINE
  5
43C6
330
17
100
AcDbEntity
  8
0
100
AcDbLine
 10
617.4504632797216
 20
-88.52465464186613
 30
0.0
 11
617.4504632797216
 21
-84.52465464186614
 31
0.0
  0
LINE
  5
43C7
330
17
100
AcDbEntity
  8
0
100
AcDbLine
 10
572.0242174574504
 20
-83.98215464186623
 30
0.0
 11
571.9242174574502
 21
-84.08215464186641
 31
0.0
  0
LINE
  5
43C8
330
17
100
AcDbEntity
  8
0
100
AcDbLine
 10
618.4504632797218
 20
-84.62465464186603
 30
0.0
 11
618.3504632797218
 21
-84.52465464186614
 31
0.0
  0
LINE
  5
43C9
330
17
100
AcDbEntity
  8
0
100
AcDbLine
 10
618.4504632797218
 20
-88.42465464186622
 30
0.0
 11
618.3504632797218
 21
-88.52465464186613
 31
0.0
  0
LINE
  5
43CA
330
17
100
AcDbEntity
  8
0
100
AcDbLine
 10
619.9304632797218
 20
-88.91715464186606
 30
0.0
 11
620.0304632797217
 21
-89.0171546418662
 31
0.0
  0
LINE
  5
43CB
330
17
100
AcDbEntity
  8
0
 48
0.5
100
AcDbLine
 10
620.9754632797219
 20
-84.03215464186606
 30
0.0
 11
620.0304632797217
 21
-84.03215464186605
 31
0.0
  0
LINE
  5
43CC
330
17
100
AcDbEntity
  8
0
 48
0.5
100
AcDbLine
 10
620.0304632797217
 20
-89.0171546418662
 30
0.0
 11
620.9754632797219
 21
-89.01715464186622
 31
0.0
  0
LINE
  5
43CD
330
17
100
AcDbEntity
  8
additional
  6
CENTER2
 48
0.5
100
AcDbLine
 10
614.0754632797217
 20
-86.52465464186617
 30
0.0
 11
643.6754632797217
 21
-86.52465464186628
 31
0.0
  0
LINE
  5
43CE
330
17
100
AcDbEntity
  8
0
100
AcDbLine
 10
635.1254632797219
 20
-79.52465464186636
 30
0.0
 11
626.2754632797217
 21
-79.52465464186636
 31
0.0
  0
LINE
  5
43CF
330
17
100
AcDbEntity
  8
0
100
AcDbLine
 10
638.0754632797219
 20
-80.02465464186636
 30
0.0
 11
635.1254632797219
 21
-79.52465464186636
 31
0.0
  0
LINE
  5
43D0
330
17
100
AcDbEntity
  8
0
100
AcDbLine
 10
623.3254632797219
 20
-80.02465464186636
 30
0.0
 11
626.275463279722
 21
-79.52465464186636
 31
0.0
  0
CIRCLE
  5
43D1
330
17
100
AcDbEntity
  8
additional
  6
HIDDEN2
 48
0.5
100
AcDbCircle
 10
626.2754632797217
 20
-90.02465464186617
 30
0.0
 40
1.0
  0
CIRCLE
  5
43D2
330
17
100
AcDbEntity
  8
0
 48
0.5
100
AcDbCircle
 10
626.2754632797217
 20
-90.02465464186617
 30
0.0
 40
0.8
  0
CIRCLE
  5
43D3
330
17
100
AcDbEntity
  8
additional
  6
HIDDEN2
 48
0.5
100
AcDbCircle
 10
636.2754632797217
 20
-83.02465464186616
 30
0.0
 40
1.0
  0
CIRCLE
  5
43D4
330
17
100
AcDbEntity
  8
0
 48
0.5
100
AcDbCircle
 10
636.2754632797217
 20
-83.02465464186616
 30
0.0
 40
0.8
  0
LINE
  5
43D5
330
17
100
AcDbEntity
  8
0
100
AcDbLine
 10
653.3749041690042
 20
-22.80986596655467
 30
0.0
 11
681.8198391091259
 21
-22.80986596655467
 31
0.0
  0
LINE
  5
43D6
330
17
100
AcDbEntity
  8
0
100
AcDbLine
 10
681.8198391091259
 20
-22.55986596655467
 30
0.0
 11
688.8198391091258
 21
-22.55986596655467
 31
0.0
  0
LINE
  5
43D7
330
17
100
AcDbEntity
  8
0
100
AcDbLine
 10
681.8198391091259
 20
-22.05986596655467
 30
0.0
 11
688.8198391091258
 21
-22.05986596655467
 31
0.0
  0
DIMENSION
  5
43FD
330
17
100
AcDbEntity
  8
Z_OM_DIM
100
AcDbDimension
  2
*D1
 10
640.3754632797219
 20
-46.57161582953659
 30
0.0
 11
630.3254632797217
 21
-44.69661582953659
 31
0.0
 70
    32
 71
     5
 42
20.10000000000013
  3
CatalogDxf
100
AcDbAlignedDimension
 13
620.2754632797217
 23
-36.0598659665549
 33
0.0
 14
640.3754632797219
 24
-35.00986596655471
 34
0.0
100
AcDbRotatedDimension
  0
DIMENSION
  5
440A
330
17
100
AcDbEntity
  8
Z_OM_DIM
100
AcDbDimension
  2
*D2
 10
688.8198391091258
 20
-46.57161582953659
 30
0.0
 11
664.5976511944239
 21
-44.69661582953659
 31
0.0
 70
    32
  1
180 - 200
 71
     5
 42
48.44437582940395
  3
CatalogDxf
100
AcDbAlignedDimension
 13
640.3754632797219
 23
-35.00986596655471
 33
0.0
 14
688.8198391091258
 24
-23.55986596655467
 34
0.0
100
AcDbRotatedDimension
1001
ACAD
1000
DSTYLE
1002
{
1070
   279
1070
     1
1002
}
  0
DIMENSION
  5
4420
330
17
100
AcDbEntity
  8
Z_OM_DIM
100
AcDbDimension
  2
*D3
 10
626.2754632797217
 20
-103.5658424147959
 30
0.0
 11
623.2754632797217
 21
-101.6908424147959
 31
0.0
 70
    32
 71
     5
 42
6.0
  3
CatalogDxf
100
AcDbAlignedDimension
 13
620.2754632797217
 23
-93.02465464186616
 33
0.0
 14
626.2754632797217
 24
-92.09348657670489
 34
0.0
100
AcDbRotatedDimension
  0
DIMENSION
  5
442F
330
17
100
AcDbEntity
  8
Z_OM_DIM
100
AcDbDimension
  2
*D4
 10
636.2754632797217
 20
-103.5658424147959
 30
0.0
 11
631.2754632797217
 21
-101.6908424147959
 31
0.0
 70
    32
 71
     5
 42
10.0
  3
CatalogDxf
100
AcDbAlignedDimension
 13
626.2754632797217
 23
-92.09348657670489
 33
0.0
 14
636.2754632797217
 24
-85.38427153106102
 34
0.0
100
AcDbRotatedDimension
1001
ACAD
1000
DSTYLE
1002
{
1070
   279
1070
     1
1002
}
  0
DIMENSION
  5
443C
330
17
100
AcDbEntity
  8
Z_OM_DIM
100
AcDbDimension
  2
*D5
 10
655.8381616606898
 20
-90.02465464186617
 30
0.0
 11
653.9631616606897
 21
-86.52465464186605
 31
0.0
 70
    32
 71
     5
 42
7.0
  3
CatalogDxf
100
AcDbAlignedDimension
 13
638.8432921741885
 23
-83.02465464186616
 33
0.0
 14
628.7363663790459
 24
-90.02465464186617
 34
0.0
 50
90.0
100
AcDbRotatedDimension
  0
DIMENSION
  5
4449
330
17
100
AcDbEntity
  8
Z_OM_DIM
100
AcDbDimension
  2
*D6
 10
618.4504632797218
 20
-73.08380508840309
 30
0.0
 11
630.4752983043507
 21
-72.33601605345967
 31
0.0
 70
   160
  1
1.45
 71
     5
 42
1.480000000000018
  3
CatalogDxf
100
AcDbAlignedDimension
 13
619.9304632797218
 23
-84.13215464186622
 33
0.0
 14
618.4504632797218
 24
-84.62465464186603
 34
0.0
100
AcDbRotatedDimension
1001
ACAD
1000
DSTYLE
1002
{
1070
   343
1005
977
1070
   342
1005
0
1070
   173
1070
     1
1070
   344
1005
44AE
1070
   279
1070
     1
1002
}
  0
DIMENSION
  5
4458
330
17
100
AcDbEntity
  8
Z_OM_DIM
100
AcDbDimension
  2
*D7
 10
617.4504632797216
 20
-73.08380508840309
 30
0.0
 11
610.3935962673183
 21
-73.50399735502128
 31
0.0
 70
   160
 71
     5
 42
1.000000000000227
  3
CatalogDxf
100
AcDbAlignedDimension
 13
618.4504632797218
 23
-84.62465464186603
 33
0.0
 14
617.4504632797216
 24
-84.52465464186616
 34
0.0
100
AcDbRotatedDimension
1001
ACAD
1000
DSTYLE
1002
{
1070
   343
1005
44AE
1070
   342
1005
0
1070
   173
1070
     1
1070
   344
1005
977
1070
   279
1070
     1
1002
}
  0
DIMENSION
  5
4568
330
17
100
AcDbEntity
  8
Z_OM_DIM
100
AcDbDimension
  2
*D9
 10
598.7203272321212
 20
-89.0171546418662
 30
0.0
 11
596.7810475677232
 21
-86.51796645020452
 31
0.0
 70
   160
  1
%%c5
 71
     5
 42
4.985000000000169
  3
CatalogDxf
100
AcDbAlignedDimension
 13
620.0304632797217
 23
-84.03215464186605
 33
0.0
 14
620.0304632797217
 24
-89.0171546418662
 34
0.0
 50
90.0
100
AcDbRotatedDimension
1001
ACAD
1000
DSTYLE
1002
{
1070
   279
1070
     2
1002
}
  0
DIMENSION
  5
458F
330
17
100
AcDbEntity
  8
Z_OM_DIM
100
AcDbDimension
  2
*D10
 10
603.2908857112484
 20
-88.52465464186613
 30
0.0
 11
603.2908857112484
 21
-76.81632130853273
 31
0.0
 70
   160
  1
%%c4
 71
     5
 42
3.999999999999985
  3
CatalogDxf
100
AcDbAlignedDimension
 13
617.4504632797216
 23
-84.52465464186616
 33
0.0
 14
617.4504632797216
 24
-88.52465464186614
 34
0.0
 50
90.0
100
AcDbRotatedDimension
  0
DIMENSION
  5
459E
330
17
100
AcDbEntity
  8
Z_OM_DIM
100
AcDbDimension
  2
*D11
 10
607.7753952559215
 20
-87.49965464186606
 30
0.0
 11
607.7753952559215
 21
-77.84132130853283
 31
0.0
 70
   160
  1
%%c2
 71
     5
 42
1.949999999999789
  3
CatalogDxf
100
AcDbAlignedDimension
 13
618.4504632797219
 23
-85.54965464186627
 33
0.0
 14
618.4504632797219
 24
-87.49965464186606
 34
0.0
 50
90.0
100
AcDbRotatedDimension
  0
DIMENSION
  5
45EB
330
17
100
AcDbEntity
  8
Z_OM_DIM
100
AcDbDimension
  2
*D12
 10
579.9742174574504
 20
-103.5658424147959
 30
0.0
 11
571.9742174574502
 21
-101.6908424147959
 31
0.0
 70
    32
 71
     5
 42
16.00000000000022
  3
CatalogDxf
100
AcDbAlignedDimension
 13
563.9742174574502
 23
-93.02465464186639
 33
0.0
 14
579.9742174574504
 24
-93.02465464186639
 34
0.0
100
AcDbRotatedDimension
  0
DIMENSION
  5
45F8
330
17
100
AcDbEntity
  8
Z_OM_DIM
100
AcDbDimension
  2
*D13
 10
553.3180330760772
 20
-93.02465464186639
 30
0.0
 11
551.4430330760772
 21
-86.52465464186631
 31
0.0
 70
    32
 71
     5
 42
12.99999999999998
  3
CatalogDxf
100
AcDbAlignedDimension
 13
563.9742174574502
 23
-80.0246546418664
 33
0.0
 14
563.9742174574502
 24
-93.02465464186639
 34
0.0
 50
90.0
100
AcDbRotatedDimension
  0
MTEXT
  5
4606
330
17
100
AcDbEntity
  8
Z_OM_DIM
100
AcDbMText
 10
646.5856016165672
 20
-71.05936288301399
 30
0.0
 40
2.5
 41
24.59745643537657
 71
     7
 72
     1
  1
2-M2\Pboth faces
  7
CatalogDxf
 73
     1
 44
1.0
1001
ACAD
1000
MTEXTBEGIN
1070
    73
1070
     1
1070
    44
1040
1.0
1070
    74
1070
     0
1000
MTEXTEND
  0
MTEXT
  5
4906
330
17
100
AcDbEntity
  8
Z_OM_DIM
100
AcDbMText
 10
669.9418521736292
 20
-13.47586336021197
 30
0.0
 40
2.5
 41
40.63163980488332
 71
     7
 72
     1
  1
UL1007 AWG24 white
  7
CatalogDxf
 73
     1
 44
1.0
1001
ACAD
1000
MTEXTBEGIN
1070
    73
1070
     1
1070
    44
1040
1.0
1070
    74
1070
     0
1000
MTEXTEND
1000
ACAD_MTEXT_DEFINED_HEIGHT_BEGIN
1070
    46
1040
2.500000000000003
1000
ACAD_MTEXT_DEFINED_HEIGHT_END
  0
LEADER
  5
4AC5
330
17
100
AcDbEntity
  8
Z_OM_DIM
100
AcDbLeader
  3
ISO-25
 76
     3
 10
663.4982117486605
 20
-21.80986596655467
 30
0.0
 10
667.1598940964842
 20
-14.10086336021197
 30
0.0
 10
710.9084689658279
 20
-14.10086336021197
 30
0.0
1001
ACAD
1000
DSTYLE
1002
{
1070
   341
1005
977
1070
   147
1040
0.625
1070
    77
1070
     0
1002
}
  0
LEADER
  5
4ACC
330
17
100
AcDbEntity
  8
Z_OM_DIM
100
AcDbLeader
  3
ISO-25
 76
     3
 10
636.6909943017171
 20
-82.34103634942567
 30
0.0
 10
645.6019101977338
 20
-67.68108369496246
 30
0.0
 10
670.5481964065802
 20
-67.68108369496246
 30
0.0
1001
ACAD
1000
DSTYLE
1002
{
1070
   341
1005
977
1070
   147
1040
0.625
1070
    77
1070
     0
1002
}
  0
LINE
  5
4DC4
330
17
100
AcDbEntity
  8
0
100
AcDbLine
 10
619.9304632797218
 20
-84.13215464186622
 30
0.0
 11
620.0304632797217
 21
-84.03215464186605
 31
0.0
  0
ENDSEC
  0
SECTION
  2
OBJECTS
  0
DICTIONARY
  5
C
330
0
100
AcDbDictionary
281
     1
  3
ACAD_2007HEADERVARS_RT
350
4DDE
  3
ACAD_COLOR
350
3D57
  3
ACAD_GROUP
350
D
  3
ACAD_LAYOUT
350
3D5A
  3
ACAD_MATERIAL
350
3D42
  3
ACAD_MLEADERSTYLE
350
4C71
  3
ACAD_MLINESTYLE
350
1A
  3
ACAD_PLOTSETTINGS
350
957
  3
ACAD_PLOTSTYLENAME
350
3D40
  3
ACAD_SCALELIST
350
4C4F
  3
ACAD_TABLESTYLE
350
3D58
  3
ACAD_VISUALSTYLE
350
3D46
  3
ACADDIM
350
1BB8
  3
ACDB_RECOMPOSE_DATA
350
4DDC
  3
AcDbVariableDictionary
350
4116
1001
ACAD
1000
TREAT_AS_HARD
1070
     0
  0
DICTIONARY
  5
3DBA
330
2
100
AcDbDictionary
280
     1
281
     1
  3
ACAD_LAYERFILTERS
360
421C
  3
ACAD_LAYERSTATES
360
3DBB
  3
ACLYDICTIONARY
360
421B
  0
DICTIONARY
  5
4DD0
330
E
100
AcDbDictionary
280
     1
281
     1
  3
ADSK_XREC_LAYER_RECONCILED
360
4DD1
  0
DICTIONARY
  5
4DD2
330
27
100
AcDbDictionary
280
     1
281
     1
  3
ADSK_XREC_LAYER_RECONCILED
360
4DD3
  0
DICTIONARY
  5
4DD4
330
3DB5
100
AcDbDictionary
280
     1
281
     1
  3
ADSK_XREC_LAYER_RECONCILED
360
4DD5
  0
DICTIONARY
  5
1808
330
17
100
AcDbDictionary
280
     1
281
     1
  3
ACAD_LAYOUTSELFREF
360
3D3B
1001
ACAD
1000
TREAT_AS_HARD
1070
     1
  0
DICTIONARY
  5
1806
330
14
100
AcDbDictionary
280
     1
281
     1
  3
ACAD_LAYOUTSELFREF
360
3D3A
1001
ACAD
1000
TREAT_AS_HARD
1070
     1
  0
DICTIONARY
  5
4DDE
102
{ACAD_REACTORS
330
C
102
}
330
C
100
AcDbDictionary
281
     1
  3
DIMLTEX1
350
4DE0
  3
DIMLTEX2
350
4DE1
  3
DIMLTYPE
350
4DDF
  0
DICTIONARY
  5
3D57
102
{ACAD_REACTORS
330
C
102
}
330
C
100
AcDbDictionary
281
     1
  0
DICTIONARY
  5
D
102
{ACAD_REACTORS
330
C
102
}
330
C
100
AcDbDictionary
281
     1
1001
ACAD
1000
TREAT_AS_HARD
1070
     0
  0
DICTIONARY
  5
3D5A
102
{ACAD_REACTORS
330
C
102
}
330
C
100
AcDbDictionary
281
     1
  3
Model
350
3D5B
  3
レイアウト1
350
3D5C
  0
DICTIONARY
  5
3D42
102
{ACAD_REACTORS
330
C
102
}
330
C
100
AcDbDictionary
281
     1
  3
ByBlock
350
3D44
  3
ByLayer
350
3D43
  3
Global
350
3D45
  0
DICTIONARY
  5
4C71
102
{ACAD_REACTORS
330
C
102
}
330
C
100
AcDbDictionary
281
     1
  3
Standard
350
4C72
  0
DICTIONARY
  5
1A
102
{ACAD_REACTORS
330
C
102
}
330
C
100
AcDbDictionary
281
     1
  3
STANDARD
350
1B
1001
ACAD
1000
TREAT_AS_HARD
1070
     0
  0
DICTIONARY
  5
957
102
{ACAD_REACTORS
330
C
102
}
330
C
100
AcDbDictionary
281
     1
1001
ACAD
1000
TREAT_AS_HARD
1070
     0
  0
ACDBDICTIONARYWDFLT
  5
3D40
102
{ACAD_REACTORS
330
C
102
}
330
C
100
AcDbDictionary
281
     1
  3
Normal
350
3D41
100
AcDbDictionaryWithDefault
340
3D41
  0
DICTIONARY
  5
4C4F
102
{ACAD_REACTORS
330
C
102
}
330
C
100
AcDbDictionary
281
     1
  3
A0
350
4C50
  3
A1
350
4C51
  3
A2
350
4C52
  3
A3
350
4C53
  3
A4
350
4C54
  3
A5
350
4C55
  3
A6
350
4C56
  3
A7
350
4C57
  3
A8
350
4C58
  3
A9
350
4C59
  3
B0
350
4C5A
  3
B1
350
4C5B
  3
B2
350
4C5C
  3
B3
350
4C5D
  3
B4
350
4C5E
  3
B5
350
4C5F
  3
B6
350
4C60
  3
B7
350
4C61
  3
B8
350
4C62
  3
B9
350
4C63
  3
C0
350
4C64
  3
C1
350
4C65
  3
C2
350
4C66
  3
C3
350
4C67
  3
C4
350
4C68
  3
C5
350
4C69
  3
C6
350
4C6A
  3
C7
350
4C6B
  3
C8
350
4C6C
  3
C9
350
4C6D
  3
D0
350
4C6E
  3
D1
350
4C6F
  3
D2
350
4C70
  0
DICTIONARY
  5
3D58
102
{ACAD_REACTORS
330
C
102
}
330
C
100
AcDbDictionary
281
     1
  3
Standard
350
3D59
  0
DICTIONARY
  5
3D46
102
{ACAD_REACTORS
330
C
102
}
330
C
100
AcDbDictionary
281
     1
  3
2dWireframe
350
3D4C
  3
3D Hidden
350
3D4E
  3
3dWireframe
350
3D4D
  3
Basic
350
3D4B
  3
Brighten
350
3D52
  3
ColorChange
350
3D56
  3
Conceptual
350
3D4F
  3
Dim
350
3D51
  3
Facepattern
350
3D55
  3
Flat
350
3D47
  3
FlatWithEdges
350
3D48
  3
Gouraud
350
3D49
  3
GouraudWithEdges
350
3D4A
  3
Linepattern
350
3D54
  3
Realistic
350
3D50
  3
Thicken
350
3D53
  0
XRECORD
  5
1BB8
102
{ACAD_REACTORS
330
C
102
}
330
C
100
AcDbXrecord
280
     1
 90
   990106
  3

 60
     0
 61
     0
 62
     4
 63
     4
 64
     1
 65
     0
 66
     0
 67
     2
 68
     1
 69
     0
 70
     0
 71
     0
 72
     0
 40
26.92143375821649
170
     2
340
4606
  0
XRECORD
  5
4DDC
102
{ACAD_REACTORS
330
C
102
}
330
C
100
AcDbXrecord
280
     1
 90
        1
330
3D59
  0
DICTIONARY
  5
4116
102
{ACAD_REACTORS
330
C
102
}
330
C
100
AcDbDictionary
281
     1
  3
CANNOSCALE
350
4DD7
  3
CMLEADERSTYLE
350
4DD6
  3
CTABLESTYLE
350
4117
  3
DIMASSOC
350
4C44
  3
INDEXCTL
350
4DD9
  3
PROJECTNAME
350
4C45
  3
SORTENTS
350
4DD8
  0
DICTIONARY
  5
421C
102
{ACAD_REACTORS
330
3DBA
102
}
330
3DBA
100
AcDbDictionary
281
     1
  0
DICTIONARY
  5
3DBB
102
{ACAD_REACTORS
330
3DBA
102
}
330
3DBA
100
AcDbDictionary
281
     1
  0
DICTIONARY
  5
421B
102
{ACAD_REACTORS
330
3DBA
102
}
330
3DBA
100
AcDbDictionary
281
     1
1001
ACAD
1000
<All
  0
XRECORD
  5
4DD1
102
{ACAD_REACTORS
330
4DD0
102
}
330
4DD0
100
AcDbXrecord
280
     1
290
     1
  0
XRECORD
  5
4DD3
102
{ACAD_REACTORS
330
4DD2
102
}
330
4DD2
100
AcDbXrecord
280
     1
290
     1
  0
XRECORD
  5
4DD5
102
{ACAD_REACTORS
330
4DD4
102
}
330
4DD4
100
AcDbXrecord
280
     1
290
     1
  0
XRECORD
  5
3D3B
102
{ACAD_REACTORS
330
1808
102
}
330
1808
100
AcDbXrecord
280
     1
340
17
  0
XRECORD
  5
3D3A
102
{ACAD_REACTORS
330
1806
102
}
330
1806
100
AcDbXrecord
280
     1
340
14
  0
XRECORD
  5
4DE0
102
{ACAD_REACTORS
330
4DDE
102
}
330
4DDE
100
AcDbXrecord
280
     1
340
12
  0
XRECORD
  5
4DE1
102
{ACAD_REACTORS
330
4DDE
102
}
330
4DDE
100
AcDbXrecord
280
     1
340
12
  0
XRECORD
  5
4DDF
102
{ACAD_REACTORS
330
4DDE
102
}
330
4DDE
100
AcDbXrecord
280
     1
340
12
  0
LAYOUT
  5
3D5B
102
{ACAD_REACTORS
330
3D5A
102
}
330
3D5A
100
AcDbPlotSettings
  1

  2
none_device
  4
Letter_(8.50_x_11.00_Inches)
  6

 40
6.349999904632567
 41
6.349999904632567
 42
6.350006103515625
 43
6.350006103515625
 44
215.8999938964844
 45
279.3999938964844
 46
26.39824506399069
 47
-38.29586415560628
 48
0.0
 49
0.0
140
0.0
141
0.0
142
1.0
143
23.15718
 70
 11940
 72
     0
 73
     1
 74
     0
  7
monochrome.ctb
 75
     0
147
0.0431831509708868
 76
     0
 77
     2
 78
   300
148
-12514.03484393139
149
3662.93497722834
100
AcDbLayout
  1
Model
 70
     1
 71
     0
 10
0.0
 20
0.0
 11
12.0
 21
9.0
 12
0.0
 22
0.0
 32
0.0
 14
0.0
 24
0.0
 34
0.0
 15
0.0
 25
0.0
 35
0.0
146
0.0
 13
0.0
 23
0.0
 33
0.0
 16
1.0
 26
0.0
 36
0.0
 17
0.0
 27
1.0
 37
0.0
 76
     0
330
17
331
4C46
1001
ACAD_PSEXT
1000
なし
1000
なし
1000
適切ではありません
1000
新しいプロッタ環境設定名を選択しない限り、レイアウトは印刷されません。
1070
     0
  0
LAYOUT
  5
3D5C
102
{ACAD_REACTORS
330
3D5A
102
}
330
3D5A
100
AcDbPlotSettings
  1

  2
Microsoft XPS Document Writer
  4

  6

 40
0.0
 41
0.0
 42
0.0
 43
0.0
 44
0.0
 45
0.0
 46
0.0
 47
0.0
 48
0.0
 49
0.0
140
0.0
141
0.0
142
1.0
143
1.0
 70
   688
 72
     0
 73
     0
 74
     5
  7
monochrome.ctb
 75
    16
147
1.0
 76
     0
 77
     2
 78
   300
148
0.0
149
0.0
100
AcDbLayout
  1
レイアウト1
 70
     1
 71
     1
 10
0.0
 20
0.0
 11
12.0
 21
9.0
 12
0.0
 22
0.0
 32
0.0
 14
1.000000000000000E+20
 24
1.000000000000000E+20
 34
1.000000000000000E+20
 15
-1.000000000000000E+20
 25
-1.000000000000000E+20
 35
-1.000000000000000E+20
146
0.0
 13
0.0
 23
0.0
 33
0.0
 16
1.0
 26
0.0
 36
0.0
 17
0.0
 27
1.0
 37
0.0
 76
     0
330
14
  0
MATERIAL
  5
3D44
102
{ACAD_XDICTIONARY
360
491A
102
}
102
{ACAD_REACTORS
330
3D42
102
}
330
3D42
100
AcDbMaterial
  1
ByBlock
  0
MATERIAL
  5
3D43
102
{ACAD_XDICTIONARY
360
4918
102
}
102
{ACAD_REACTORS
330
3D42
102
}
330
3D42
100
AcDbMaterial
  1
ByLayer
  0
MATERIAL
  5
3D45
102
{ACAD_XDICTIONARY
360
491C
102
}
102
{ACAD_REACTORS
330
3D42
102
}
330
3D42
100
AcDbMaterial
  1
Global
  0
ACAD_PROXY_OBJECT
  5
4C72
102
{ACAD_REACTORS
330
4C71
102
}
330
4C71
100
AcDbProxyObject
 90
      499
 91
      509
 95
  1310743
 70
     1
100
AcDbMLeaderStyle
170
     2
171
     1
172
     0
 90
        2
 40
0.0
 41
0.0
173
     1
 91
-1056964608
340
11
 92
       -2
290
     1
 42
0.09
291
     1
 43
0.36
  3
Standard
 44
0.18
300

342
F
174
     1
178
     6
175
     1
176
     0
 93
-1056964608
 45
0.18
292
     0
297
     0
 46
0.18
 94
-1056964608
 47
1.0
 49
1.0
140
1.0
293
     1
141
0.0
294
     1
177
     0
142
1.0
295
     0
296
     0
143
0.125
1001
ACAD_MLEADERVER
1070
     2
  0
MLINESTYLE
  5
1B
102
{ACAD_REACTORS
330
1A
102
}
330
1A
100
AcDbMlineStyle
  2
STANDARD
 70
     0
  3

 62
   256
 51
90.0
 52
90.0
 71
     2
 49
0.5
 62
   256
  6
BYLAYER
 49
-0.5
 62
   256
  6
BYLAYER
  0
ACDBPLACEHOLDER
  5
3D41
102
{ACAD_REACTORS
330
3D40
102
}
330
3D40
  0
ACAD_PROXY_OBJECT
  5
4C50
102
{ACAD_REACTORS
330
4C4F
102
}
330
4C4F
100
AcDbProxyObject
 90
      499
 91
      508
 95
  1310743
 70
     1
100
AcDbScale
 70
     0
300
1:1
140
1.0
141
1.0
290
     1
  0
ACAD_PROXY_OBJECT
  5
4C51
102
{ACAD_REACTORS
330
4C4F
102
}
330
4C4F
100
AcDbProxyObject
 90
      499
 91
      508
 95
  1310743
 70
     1
100
AcDbScale
 70
     0
300
1:2
140
1.0
141
2.0
290
     0
  0
ACAD_PROXY_OBJECT
  5
4C52
102
{ACAD_REACTORS
330
4C4F
102
}
330
4C4F
100
AcDbProxyObject
 90
      499
 91
      508
 95
  1310743
 70
     1
100
AcDbScale
 70
     0
300
1:4
140
1.0
141
4.0
290
     0
  0
ACAD_PROXY_OBJECT
  5
4C53
102
{ACAD_REACTORS
330
4C4F
102
}
330
4C4F
100
AcDbProxyObject
 90
      499
 91
      508
 95
  1310743
 70
     1
100
AcDbScale
 70
     0
300
1:5
140
1.0
141
5.0
290
     0
  0
ACAD_PROXY_OBJECT
  5
4C54
102
{ACAD_REACTORS
330
4C4F
102
}
330
4C4F
100
AcDbProxyObject
 90
      499
 91
      508
 95
  1310743
 70
     1
100
AcDbScale
 70
     0
300
1:8
140
1.0
141
8.0
290
     0
  0
ACAD_PROXY_OBJECT
  5
4C55
102
{ACAD_REACTORS
330
4C4F
102
}
330
4C4F
100
AcDbProxyObject
 90
      499
 91
      508
 95
  1310743
 70
     1
100
AcDbScale
 70
     0
300
1:10
140
1.0
141
10.0
290
     0
  0
ACAD_PROXY_OBJECT
  5
4C56
102
{ACAD_REACTORS
330
4C4F
102
}
330
4C4F
100
AcDbProxyObject
 90
      499
 91
      508
 95
  1310743
 70
     1
100
AcDbScale
 70
     0
300
1:16
140
1.0
141
16.0
290
     0
  0
ACAD_PROXY_OBJECT
  5
4C57
102
{ACAD_REACTORS
330
4C4F
102
}
330
4C4F
100
AcDbProxyObject
 90
      499
 91
      508
 95
  1310743
 70
     1
100
AcDbScale
 70
     0
300
1:20
140
1.0
141
20.0
290
     0
  0
ACAD_PROXY_OBJECT
  5
4C58
102
{ACAD_REACTORS
330
4C4F
102
}
330
4C4F
100
AcDbProxyObject
 90
      499
 91
      508
 95
  1310743
 70
     1
100
AcDbScale
 70
     0
300
1:30
140
1.0
141
30.0
290
     0
  0
ACAD_PROXY_OBJECT
  5
4C59
102
{ACAD_REACTORS
330
4C4F
102
}
330
4C4F
100
AcDbProxyObject
 90
      499
 91
      508
 95
  1310743
 70
     1
100
AcDbScale
 70
     0
300
1:40
140
1.0
141
40.0
290
     0
  0
ACAD_PROXY_OBJECT
  5
4C5A
102
{ACAD_REACTORS
330
4C4F
102
}
330
4C4F
100
AcDbProxyObject
 90
      499
 91
      508
 95
  1310743
 70
     1
100
AcDbScale
 70
     0
300
1:50
140
1.0
141
50.0
290
     0
  0
ACAD_PROXY_OBJECT
  5
4C5B
102
{ACAD_REACTORS
330
4C4F
102
}
330
4C4F
100
AcDbProxyObject
 90
      499
 91
      508
 95
  1310743
 70
     1
100
AcDbScale
 70
     0
300
1:100
140
1.0
141
100.0
290
     0
  0
ACAD_PROXY_OBJECT
  5
4C5C
102
{ACAD_REACTORS
330
4C4F
102
}
330
4C4F
100
AcDbProxyObject
 90
      499
 91
      508
 95
  1310743
 70
     1
100
AcDbScale
 70
     0
300
2:1
140
2.0
141
1.0
290
     0
  0
ACAD_PROXY_OBJECT
  5
4C5D
102
{ACAD_REACTORS
330
4C4F
102
}
330
4C4F
100
AcDbProxyObject
 90
      499
 91
      508
 95
  1310743
 70
     1
100
AcDbScale
 70
     0
300
4:1
140
4.0
141
1.0
290
     0
  0
ACAD_PROXY_OBJECT
  5
4C5E
102
{ACAD_REACTORS
330
4C4F
102
}
330
4C4F
100
AcDbProxyObject
 90
      499
 91
      508
 95
  1310743
 70
     1
100
AcDbScale
 70
     0
300
8:1
140
8.0
141
1.0
290
     0
  0
ACAD_PROXY_OBJECT
  5
4C5F
102
{ACAD_REACTORS
330
4C4F
102
}
330
4C4F
100
AcDbProxyObject
 90
      499
 91
      508
 95
  1310743
 70
     1
100
AcDbScale
 70
     0
300
10:1
140
10.0
141
1.0
290
     0
  0
ACAD_PROXY_OBJECT
  5
4C60
102
{ACAD_REACTORS
330
4C4F
102
}
330
4C4F
100
AcDbProxyObject
 90
      499
 91
      508
 95
  1310743
 70
     1
100
AcDbScale
 70
     0
300
100:1
140
100.0
141
1.0
290
     0
  0
ACAD_PROXY_OBJECT
  5
4C61
102
{ACAD_REACTORS
330
4C4F
102
}
330
4C4F
100
AcDbProxyObject
 90
      499
 91
      508
 95
  1310743
 70
     1
100
AcDbScale
 70
     0
300
1/128" = 1'-0"
140
0.0078125
141
12.0
290
     0
  0
ACAD_PROXY_OBJECT
  5
4C62
102
{ACAD_REACTORS
330
4C4F
102
}
330
4C4F
100
AcDbProxyObject
 90
      499
 91
      508
 95
  1310743
 70
     1
100
AcDbScale
 70
     0
300
1/64" = 1'-0"
140
0.015625
141
12.0
290
     0
  0
ACAD_PROXY_OBJECT
  5
4C63
102
{ACAD_REACTORS
330
4C4F
102
}
330
4C4F
100
AcDbProxyObject
 90
      499
 91
      508
 95
  1310743
 70
     1
100
AcDbScale
 70
     0
300
1/32" = 1'-0"
140
0.03125
141
12.0
290
     0
  0
ACAD_PROXY_OBJECT
  5
4C64
102
{ACAD_REACTORS
330
4C4F
102
}
330
4C4F
100
AcDbProxyObject
 90
      499
 91
      508
 95
  1310743
 70
     1
100
AcDbScale
 70
     0
300
1/16" = 1'-0"
140
0.0625
141
12.0
290
     0
  0
ACAD_PROXY_OBJECT
  5
4C65
102
{ACAD_REACTORS
330
4C4F
102
}
330
4C4F
100
AcDbProxyObject
 90
      499
 91
      508
 95
  1310743
 70
     1
100
AcDbScale
 70
     0
300
3/32" = 1'-0"
140
0.09375
141
12.0
290
     0
  0
ACAD_PROXY_OBJECT
  5
4C66
102
{ACAD_REACTORS
330
4C4F
102
}
330
4C4F
100
AcDbProxyObject
 90
      499
 91
      508
 95
  1310743
 70
     1
100
AcDbScale
 70
     0
300
1/8" = 1'-0"
140
0.125
141
12.0
290
     0
  0
ACAD_PROXY_OBJECT
  5
4C67
102
{ACAD_REACTORS
330
4C4F
102
}
330
4C4F
100
AcDbProxyObject
 90
      499
 91
      508
 95
  1310743
 70
     1
100
AcDbScale
 70
     0
300
3/16" = 1'-0"
140
0.1875
141
12.0
290
     0
  0
ACAD_PROXY_OBJECT
  5
4C68
102
{ACAD_REACTORS
330
4C4F
102
}
330
4C4F
100
AcDbProxyObject
 90
      499
 91
      508
 95
  1310743
 70
     1
100
AcDbScale
 70
     0
300
1/4" = 1'-0"
140
0.25
141
12.0
290
     0
  0
ACAD_PROXY_OBJECT
  5
4C69
102
{ACAD_REACTORS
330
4C4F
102
}
330
4C4F
100
AcDbProxyObject
 90
      499
 91
      508
 95
  1310743
 70
     1
100
AcDbScale
 70
     0
300
3/8" = 1'-0"
140
0.375
141
12.0
290
     0
  0
ACAD_PROXY_OBJECT
  5
4C6A
102
{ACAD_REACTORS
330
4C4F
102
}
330
4C4F
100
AcDbProxyObject
 90
      499
 91
      508
 95
  1310743
 70
     1
100
AcDbScale
 70
     0
300
1/2" = 1'-0"
140
0.5
141
12.0
290
     0
  0
ACAD_PROXY_OBJECT
  5
4C6B
102
{ACAD_REACTORS
330
4C4F
102
}
330
4C4F
100
AcDbProxyObject
 90
      499
 91
      508
 95
  1310743
 70
     1
100
AcDbScale
 70
     0
300
3/4" = 1'-0"
140
0.75
141
12.0
290
     0
  0
ACAD_PROXY_OBJECT
  5
4C6C
102
{ACAD_REACTORS
330
4C4F
102
}
330
4C4F
100
AcDbProxyObject
 90
      499
 91
      508
 95
  1310743
 70
     1
100
AcDbScale
 70
     0
300
1" = 1'-0"
140
1.0
141
12.0
290
     0
  0
ACAD_PROXY_OBJECT
  5
4C6D
102
{ACAD_REACTORS
330
4C4F
102
}
330
4C4F
100
AcDbProxyObject
 90
      499
 91
      508
 95
  1310743
 70
     1
100
AcDbScale
 70
     0
300
1-1/2" = 1'-0"
140
1.5
141
12.0
290
     0
  0
ACAD_PROXY_OBJECT
  5
4C6E
102
{ACAD_REACTORS
330
4C4F
102
}
330
4C4F
100
AcDbProxyObject
 90
      499
 91
      508
 95
  1310743
 70
     1
100
AcDbScale
 70
     0
300
3" = 1'-0"
140
3.0
141
12.0
290
     0
  0
ACAD_PROXY_OBJECT
  5
4C6F
102
{ACAD_REACTORS
330
4C4F
102
}
330
4C4F
100
AcDbProxyObject
 90
      499
 91
      508
 95
  1310743
 70
     1
100
AcDbScale
 70
     0
300
6" = 1'-0"
140
6.0
141
12.0
290
     0
  0
ACAD_PROXY_OBJECT
  5
4C70
102
{ACAD_REACTORS
330
4C4F
102
}
330
4C4F
100
AcDbProxyObject
 90
      499
 91
      508
 95
  1310743
 70
     1
100
AcDbScale
 70
     0
300
1'-0" = 1'-0"
140
12.0
141
12.0
290
     0
  0
TABLESTYLE
  5
3D59
102
{ACAD_XDICTIONARY
360
4DDA
102
}
102
{ACAD_REACTORS
330
3D58
102
}
330
3D58
100
AcDbTableStyle
  3
Standard
 70
     0
 71
     0
 40
0.06
 41
0.06
280
     0
281
     0
  7
STANDARD
140
0.18
170
     2
 62
     0
 63
     7
283
     0
274
    -2
284
     1
 64
     0
275
    -2
285
     1
 65
     0
276
    -2
286
     1
 66
     0
277
    -2
287
     1
 67
     0
278
    -2
288
     1
 68
     0
279
    -2
289
     1
 69
     0
  7
STANDARD
140
0.25
170
     5
 62
     0
 63
     7
283
     0
274
    -2
284
     1
 64
     0
275
    -2
285
     1
 65
     0
276
    -2
286
     1
 66
     0
277
    -2
287
     1
 67
     0
278
    -2
288
     1
 68
     0
279
    -2
289
     1
 69
     0
  7
STANDARD
140
0.18
170
     5
 62
     0
 63
     7
283
     0
274
    -2
284
     1
 64
     0
275
    -2
285
     1
 65
     0
276
    -2
286
     1
 66
     0
277
    -2
287
     1
 67
     0
278
    -2
288
     1
 68
     0
279
    -2
289
     1
 69
     0
  0
ACAD_PROXY_OBJECT
  5
3D4C
102
{ACAD_REACTORS
330
3D46
102
}
330
3D46
100
AcDbProxyObject
 90
      499
 91
      503
 95
  1310743
 70
     1
100
AcDbVisualStyle
  2
2dWireframe
 70
     4
 71
     0
 72
     2
 73
     0
 90
        0
 40
-0.6
 41
-30.0
 62
     5
 63
     7
 74
     1
 91
        4
 64
     7
 65
   257
 75
     1
175
     1
 42
1.0
 92
        0
 66
   257
 43
1.0
 76
     1
 77
     6
 78
     2
 67
     7
 79
     5
170
     0
171
     0
290
     0
174
     0
 93
        1
 44
0.0
173
     0
291
     0
 45
0.0
1001
ACAD
1000
AcDbSavedByObjectVersion
1070
     0
1000
AcDbSavedByObjectVersion
1070
     0
1000
AcDbSavedByObjectVersion
1070
     0
1000
AcDbSavedByObjectVersion
1070
     0
1000
AcDbSavedByObjectVersion
1070
     0
1000
AcDbSavedByObjectVersion
1070
     0
1000
AcDbSavedByObjectVersion
1070
     0
1000
AcDbSavedByObjectVersion
1070
     0
1000
AcDbSavedByObjectVersion
1070
     0
  0
ACAD_PROXY_OBJECT
  5
3D4E
102
{ACAD_REACTORS
330
3D46
102
}
330
3D46
100
AcDbProxyObject
 90
      499
 91
      503
 95
  1310743
 70
     1
100
AcDbVisualStyle
  2
3D Hidden
 70
     6
 71
     1
 72
     2
 73
     2
 90
        0
 40
-0.6
 41
-30.0
 62
     5
 63
     7
 74
     2
 91
        2
 64
     7
 65
   257
 75
     2
175
     1
 42
40.0
 92
        0
 66
   257
 43
1.0
 76
     1
 77
     6
 78
     2
 67
     7
 79
     3
170
     0
171
     0
290
     0
174
     0
 93
        1
 44
0.0
173
     0
291
     0
 45
0.0
1001
ACAD
1000
AcDbSavedByObjectVersion
1070
     0
1000
AcDbSavedByObjectVersion
1070
     0
1000
AcDbSavedByObjectVersion
1070
     0
1000
AcDbSavedByObjectVersion
1070
     0
1000
AcDbSavedByObjectVersion
1070
     0
1000
AcDbSavedByObjectVersion
1070
     0
1000
AcDbSavedByObjectVersion
1070
     0
1000
AcDbSavedByObjectVersion
1070
     0
1000
AcDbSavedByObjectVersion
1070
     0
  0
ACAD_PROXY_OBJECT
  5
3D4D
102
{ACAD_REACTORS
330
3D46
102
}
330
3D46
100
AcDbProxyObject
 90
      499
 91
      503
 95
  1310743
 70
     1
100
AcDbVisualStyle
  2
3dWireframe
 70
     5
 71
     0
 72
     2
 73
     0
 90
        0
 40
-0.6
 41
-30.0
 62
     5
 63
     7
 74
     1
 91
        4
 64
     7
 65
   257
 75
     1
175
     1
 42
1.0
 92
        0
 66
   257
 43
1.0
 76
     1
 77
     6
 78
     2
 67
     7
 79
     5
170
     0
171
     0
290
     0
174
     0
 93
        1
 44
0.0
173
     0
291
     0
 45
0.0
1001
ACAD
1000
AcDbSavedByObjectVersion
1070
     0
1000
AcDbSavedByObjectVersion
1070
     0
1000
AcDbSavedByObjectVersion
1070
     0
1000
AcDbSavedByObjectVersion
1070
     0
1000
AcDbSavedByObjectVersion
1070
     0
1000
AcDbSavedByObjectVersion
1070
     0
1000
AcDbSavedByObjectVersion
1070
     0
1000
AcDbSavedByObjectVersion
1070
     0
1000
AcDbSavedByObjectVersion
1070
     0
  0
ACAD_PROXY_OBJECT
  5
3D4B
102
{ACAD_REACTORS
330
3D46
102
}
330
3D46
100
AcDbProxyObject
 90
      499
 91
      503
 95
  1310743
 70
     1
100
AcDbVisualStyle
  2
Basic
 70
     7
 71
     1
 72
     0
 73
     1
 90
        0
 40
-0.6
 41
-30.0
 62
     5
 63
     7
 74
     0
 91
        4
 64
     7
 65
   257
 75
     1
175
     1
 42
1.0
 92
        8
 66
     7
 43
1.0
 76
     1
 77
     6
 78
     2
 67
     7
 79
     5
170
     0
171
     0
290
     0
174
     0
 93
        1
 44
0.0
173
     0
291
     1
 45
0.0
1001
ACAD
1000
AcDbSavedByObjectVersion
1070
     0
1000
AcDbSavedByObjectVersion
1070
     0
1000
AcDbSavedByObjectVersion
1070
     0
1000
AcDbSavedByObjectVersion
1070
     0
1000
AcDbSavedByObjectVersion
1070
     0
1000
AcDbSavedByObjectVersion
1070
     0
1000
AcDbSavedByObjectVersion
1070
     0
1000
AcDbSavedByObjectVersion
1070
     0
1000
AcDbSavedByObjectVersion
1070
     0
  0
ACAD_PROXY_OBJECT
  5
3D52
102
{ACAD_REACTORS
330
3D46
102
}
330
3D46
100
AcDbProxyObject
 90
      499
 91
      503
 95
  1310743
 70
     1
100
AcDbVisualStyle
  2
Brighten
 70
    12
 71
     2
 72
     2
 73
     0
 90
        0
 40
-0.6
 41
-30.0
 62
     5
 63
     7
 74
     1
 91
        4
 64
     7
 65
   257
 75
     1
175
     1
 42
1.0
 92
        8
 66
     7
 43
1.0
 76
     1
 77
     6
 78
     2
 67
     7
 79
     5
170
     0
171
     0
290
     0
174
     0
 93
        1
 44
50.0
173
     0
291
     1
 45
0.0
1001
ACAD
1000
AcDbSavedByObjectVersion
1070
     0
1000
AcDbSavedByObjectVersion
1070
     0
1000
AcDbSavedByObjectVersion
1070
     0
1000
AcDbSavedByObjectVersion
1070
     0
1000
AcDbSavedByObjectVersion
1070
     0
1000
AcDbSavedByObjectVersion
1070
     0
1000
AcDbSavedByObjectVersion
1070
     0
1000
AcDbSavedByObjectVersion
1070
     0
1000
AcDbSavedByObjectVersion
1070
     0
  0
ACAD_PROXY_OBJECT
  5
3D56
102
{ACAD_REACTORS
330
3D46
102
}
330
3D46
100
AcDbProxyObject
 90
      499
 91
      503
 95
  1310743
 70
     1
100
AcDbVisualStyle
  2
ColorChange
 70
    16
 71
     2
 72
     2
 73
     3
 90
        0
 40
-0.6
 41
-30.0
 62
     5
 63
     8
 74
     1
 91
        4
 64
     7
 65
   257
 75
     1
175
     1
 42
1.0
 92
        8
 66
     8
 43
1.0
 76
     1
 77
     6
 78
     2
 67
     7
 79
     5
170
     0
171
     0
290
     0
174
     0
 93
        1
 44
0.0
173
     0
291
     1
 45
0.0
1001
ACAD
1000
AcDbSavedByObjectVersion
1070
     0
1000
AcDbSavedByObjectVersion
1070
     0
1000
AcDbSavedByObjectVersion
1070
     0
1000
AcDbSavedByObjectVersion
1070
     0
1000
AcDbSavedByObjectVersion
1070
     0
1000
AcDbSavedByObjectVersion
1070
     0
1000
AcDbSavedByObjectVersion
1070
     0
1000
AcDbSavedByObjectVersion
1070
     0
1000
AcDbSavedByObjectVersion
1070
     0
  0
ACAD_PROXY_OBJECT
  5
3D4F
102
{ACAD_REACTORS
330
3D46
102
}
330
3D46
100
AcDbProxyObject
 90
      499
 91
      503
 95
  1310743
 70
     1
100
AcDbVisualStyle
  2
Conceptual
 70
     9
 71
     3
 72
     2
 73
     0
 90
        0
 40
-0.6
 41
-30.0
 62
     5
 63
     7
 74
     2
 91
        2
 64
     7
 65
   257
 75
     1
175
     1
 42
40.0
 92
        8
 66
     7
 43
1.0
 76
     1
 77
     6
 78
     2
 67
     7
 79
     3
170
     0
171
     0
290
     0
174
     0
 93
        1
 44
0.0
173
     0
291
     0
 45
0.0
1001
ACAD
1000
AcDbSavedByObjectVersion
1070
     0
1000
AcDbSavedByObjectVersion
1070
     0
1000
AcDbSavedByObjectVersion
1070
     0
1000
AcDbSavedByObjectVersion
1070
     0
1000
AcDbSavedByObjectVersion
1070
     0
1000
AcDbSavedByObjectVersion
1070
     0
1000
AcDbSavedByObjectVersion
1070
     0
1000
AcDbSavedByObjectVersion
1070
     0
1000
AcDbSavedByObjectVersion
1070
     0
  0
ACAD_PROXY_OBJECT
  5
3D51
102
{ACAD_REACTORS
330
3D46
102
}
330
3D46
100
AcDbProxyObject
 90
      499
 91
      503
 95
  1310743
 70
     1
100
AcDbVisualStyle
  2
Dim
 70
    11
 71
     2
 72
     2
 73
     0
 90
        0
 40
-0.6
 41
-30.0
 62
     5
 63
     7
 74
     1
 91
        4
 64
     7
 65
   257
 75
     1
175
     1
 42
1.0
 92
        8
 66
     7
 43
1.0
 76
     1
 77
     6
 78
     2
 67
     7
 79
     5
170
     0
171
     0
290
     0
174
     0
 93
        1
 44
-50.0
173
     0
291
     1
 45
0.0
1001
ACAD
1000
AcDbSavedByObjectVersion
1070
     0
1000
AcDbSavedByObjectVersion
1070
     0
1000
AcDbSavedByObjectVersion
1070
     0
1000
AcDbSavedByObjectVersion
1070
     0
1000
AcDbSavedByObjectVersion
1070
     0
1000
AcDbSavedByObjectVersion
1070
     0
1000
AcDbSavedByObjectVersion
1070
     0
1000
AcDbSavedByObjectVersion
1070
     0
1000
AcDbSavedByObjectVersion
1070
     0
  0
ACAD_PROXY_OBJECT
  5
3D55
102
{ACAD_REACTORS
330
3D46
102
}
330
3D46
100
AcDbProxyObject
 90
      499
 91
      503
 95
  1310743
 70
     1
100
AcDbVisualStyle
  2
Facepattern
 70
    15
 71
     2
 72
     2
 73
     0
 90
        0
 40
-0.6
 41
-30.0
 62
     5
 63
     7
 74
     1
 91
        4
 64
     7
 65
   257
 75
     1
175
     1
 42
1.0
 92
        8
 66
     7
 43
1.0
 76
     1
 77
     6
 78
     2
 67
     7
 79
     5
170
     0
171
     0
290
     0
174
     0
 93
        1
 44
0.0
173
     0
291
     1
 45
0.0
1001
ACAD
1000
AcDbSavedByObjectVersion
1070
     0
1000
AcDbSavedByObjectVersion
1070
     0
1000
AcDbSavedByObjectVersion
1070
     0
1000
AcDbSavedByObjectVersion
1070
     0
1000
AcDbSavedByObjectVersion
1070
     0
1000
AcDbSavedByObjectVersion
1070
     0
1000
AcDbSavedByObjectVersion
1070
     0
1000
AcDbSavedByObjectVersion
1070
     0
1000
AcDbSavedByObjectVersion
1070
     0
  0
ACAD_PROXY_OBJECT
  5
3D47
102
{ACAD_REACTORS
330
3D46
102
}
330
3D46
100
AcDbProxyObject
 90
      499
 91
      503
 95
  1310743
 70
     1
100
AcDbVisualStyle
  2
Flat
 70
     0
 71
     2
 72
     1
 73
     1
 90
        2
 40
-0.6
 41
30.0
 62
     5
 63
     7
 74
     0
 91
        4
 64
     7
 65
   257
 75
     1
175
     1
 42
1.0
 92
        8
 66
     7
 43
1.0
 76
     1
 77
     6
 78
     2
 67
     7
 79
     5
170
     0
171
     0
290
     0
174
     0
 93
       13
 44
0.0
173
     0
291
     1
 45
0.0
1001
ACAD
1000
AcDbSavedByObjectVersion
1070
     0
1000
AcDbSavedByObjectVersion
1070
     0
1000
AcDbSavedByObjectVersion
1070
     0
1000
AcDbSavedByObjectVersion
1070
     0
1000
AcDbSavedByObjectVersion
1070
     0
1000
AcDbSavedByObjectVersion
1070
     0
1000
AcDbSavedByObjectVersion
1070
     0
1000
AcDbSavedByObjectVersion
1070
     0
1000
AcDbSavedByObjectVersion
1070
     0
  0
ACAD_PROXY_OBJECT
  5
3D48
102
{ACAD_REACTORS
330
3D46
102
}
330
3D46
100
AcDbProxyObject
 90
      499
 91
      503
 95
  1310743
 70
     1
100
AcDbVisualStyle
  2
FlatWithEdges
 70
     1
 71
     2
 72
     1
 73
     1
 90
        2
 40
-0.6
 41
30.0
 62
     5
 63
     7
 74
     1
 91
        4
 64
     7
 65
   257
 75
     1
175
     1
 42
1.0
 92
        0
 66
   257
 43
1.0
 76
     1
 77
     6
 78
     2
 67
     7
 79
     5
170
     0
171
     0
290
     0
174
     0
 93
       13
 44
0.0
173
     0
291
     1
 45
0.0
1001
ACAD
1000
AcDbSavedByObjectVersion
1070
     0
1000
AcDbSavedByObjectVersion
1070
     0
1000
AcDbSavedByObjectVersion
1070
     0
1000
AcDbSavedByObjectVersion
1070
     0
1000
AcDbSavedByObjectVersion
1070
     0
1000
AcDbSavedByObjectVersion
1070
     0
1000
AcDbSavedByObjectVersion
1070
     0
1000
AcDbSavedByObjectVersion
1070
     0
1000
AcDbSavedByObjectVersion
1070
     0
  0
ACAD_PROXY_OBJECT
  5
3D49
102
{ACAD_REACTORS
330
3D46
102
}
330
3D46
100
AcDbProxyObject
 90
      499
 91
      503
 95
  1310743
 70
     1
100
AcDbVisualStyle
  2
Gouraud
 70
     2
 71
     2
 72
     2
 73
     1
 90
        2
 40
-0.6
 41
30.0
 62
     5
 63
     7
 74
     0
 91
        4
 64
     7
 65
   257
 75
     1
175
     1
 42
1.0
 92
        0
 66
     7
 43
1.0
 76
     1
 77
     6
 78
     2
 67
     7
 79
     5
170
     0
171
     0
290
     0
174
     0
 93
       13
 44
0.0
173
     0
291
     1
 45
0.0
1001
ACAD
1000
AcDbSavedByObjectVersion
1070
     0
1000
AcDbSavedByObjectVersion
1070
     0
1000
AcDbSavedByObjectVersion
1070
     0
1000
AcDbSavedByObjectVersion
1070
     0
1000
AcDbSavedByObjectVersion
1070
     0
1000
AcDbSavedByObjectVersion
1070
     0
1000
AcDbSavedByObjectVersion
1070
     0
1000
AcDbSavedByObjectVersion
1070
     0
1000
AcDbSavedByObjectVersion
1070
     0
  0
ACAD_PROXY_OBJECT
  5
3D4A
102
{ACAD_REACTORS
330
3D46
102
}
330
3D46
100
AcDbProxyObject
 90
      499
 91
      503
 95
  1310743
 70
     1
100
AcDbVisualStyle
  2
GouraudWithEdges
 70
     3
 71
     2
 72
     2
 73
     1
 90
        2
 40
-0.6
 41
30.0
 62
     5
 63
     7
 74
     1
 91
        4
 64
     7
 65
   257
 75
     1
175
     1
 42
1.0
 92
        0
 66
   257
 43
1.0
 76
     1
 77
     6
 78
     2
 67
     7
 79
     5
170
     0
171
     0
290
     0
174
     0
 93
       13
 44
0.0
173
     0
291
     1
 45
0.0
1001
ACAD
1000
AcDbSavedByObjectVersion
1070
     0
1000
AcDbSavedByObjectVersion
1070
     0
1000
AcDbSavedByObjectVersion
1070
     0
1000
AcDbSavedByObjectVersion
1070
     0
1000
AcDbSavedByObjectVersion
1070
     0
1000
AcDbSavedByObjectVersion
1070
     0
1000
AcDbSavedByObjectVersion
1070
     0
1000
AcDbSavedByObjectVersion
1070
     0
1000
AcDbSavedByObjectVersion
1070
     0
  0
ACAD_PROXY_OBJECT
  5
3D54
102
{ACAD_REACTORS
330
3D46
102
}
330
3D46
100
AcDbProxyObject
 90
      499
 91
      503
 95
  1310743
 70
     1
100
AcDbVisualStyle
  2
Linepattern
 70
    14
 71
     2
 72
     2
 73
     0
 90
        0
 40
-0.6
 41
-30.0
 62
     5
 63
     7
 74
     1
 91
        4
 64
     7
 65
   257
 75
     7
175
     7
 42
1.0
 92
        8
 66
     7
 43
1.0
 76
     1
 77
     6
 78
     2
 67
     7
 79
     5
170
     0
171
     0
290
     0
174
     0
 93
        1
 44
0.0
173
     0
291
     1
 45
0.0
1001
ACAD
1000
AcDbSavedByObjectVersion
1070
     0
1000
AcDbSavedByObjectVersion
1070
     0
1000
AcDbSavedByObjectVersion
1070
     0
1000
AcDbSavedByObjectVersion
1070
     0
1000
AcDbSavedByObjectVersion
1070
     0
1000
AcDbSavedByObjectVersion
1070
     0
1000
AcDbSavedByObjectVersion
1070
     0
1000
AcDbSavedByObjectVersion
1070
     0
1000
AcDbSavedByObjectVersion
1070
     0
  0
ACAD_PROXY_OBJECT
  5
3D50
102
{ACAD_REACTORS
330
3D46
102
}
330
3D46
100
AcDbProxyObject
 90
      499
 91
      503
 95
  1310743
 70
     1
100
AcDbVisualStyle
  2
Realistic
 70
     8
 71
     2
 72
     2
 73
     0
 90
        0
 40
-0.6
 41
-30.0
 62
     5
 63
     7
 74
     1
 91
        0
 64
     7
 65
   257
 75
     1
175
     1
 42
1.0
 92
        8
 66
     8
 43
1.0
 76
     1
 77
     6
 78
     2
 67
     7
 79
     5
170
     0
171
     0
290
     0
174
     0
 93
       13
 44
0.0
173
     0
291
     0
 45
0.0
1001
ACAD
1000
AcDbSavedByObjectVersion
1070
     0
1000
AcDbSavedByObjectVersion
1070
     0
1000
AcDbSavedByObjectVersion
1070
     0
1000
AcDbSavedByObjectVersion
1070
     0
1000
AcDbSavedByObjectVersion
1070
     0
1000
AcDbSavedByObjectVersion
1070
     0
1000
AcDbSavedByObjectVersion
1070
     0
1000
AcDbSavedByObjectVersion
1070
     0
1000
AcDbSavedByObjectVersion
1070
     0
  0
ACAD_PROXY_OBJECT
  5
3D53
102
{ACAD_REACTORS
330
3D46
102
}
330
3D46
100
AcDbProxyObject
 90
      499
 91
      503
 95
  1310743
 70
     1
100
AcDbVisualStyle
  2
Thicken
 70
    13
 71
     2
 72
     2
 73
     0
 90
        0
 40
-0.6
 41
-30.0
 62
     5
 63
     7
 74
     1
 91
        4
 64
     7
 65
   257
 75
     1
175
     1
 42
1.0
 92
       12
 66
     7
 43
1.0
 76
     1
 77
     6
 78
     2
 67
     7
 79
     5
170
     0
171
     0
290
     0
174
     0
 93
        1
 44
0.0
173
     0
291
     1
 45
0.0
1001
ACAD
1000
AcDbSavedByObjectVersion
1070
     0
1000
AcDbSavedByObjectVersion
1070
     0
1000
AcDbSavedByObjectVersion
1070
     0
1000
AcDbSavedByObjectVersion
1070
     0
1000
AcDbSavedByObjectVersion
1070
     0
1000
AcDbSavedByObjectVersion
1070
     0
1000
AcDbSavedByObjectVersion
1070
     0
1000
AcDbSavedByObjectVersion
1070
     0
1000
AcDbSavedByObjectVersion
1070
     0
  0
DICTIONARYVAR
  5
4DD7
102
{ACAD_REACTORS
330
4116
102
}
330
4116
100
DictionaryVariables
280
     0
  1
1:1
  0
DICTIONARYVAR
  5
4DD6
102
{ACAD_REACTORS
330
4116
102
}
330
4116
100
DictionaryVariables
280
     0
  1
STANDARD
  0
DICTIONARYVAR
  5
4117
102
{ACAD_REACTORS
330
4116
102
}
330
4116
100
DictionaryVariables
280
     0
  1
STANDARD
  0
DICTIONARYVAR
  5
4C44
102
{ACAD_REACTORS
330
4116
102
}
330
4116
100
DictionaryVariables
280
     0
  1
1
  0
DICTIONARYVAR
  5
4DD9
102
{ACAD_REACTORS
330
4116
102
}
330
4116
100
DictionaryVariables
280
     0
  1
0
  0
DICTIONARYVAR
  5
4C45
102
{ACAD_REACTORS
330
4116
102
}
330
4116
100
DictionaryVariables
280
     0
  1

  0
DICTIONARYVAR
  5
4DD8
102
{ACAD_REACTORS
330
4116
102
}
330
4116
100
DictionaryVariables
280
     0
  1
127
  0
DICTIONARY
  5
491A
330
3D44
100
AcDbDictionary
280
     1
281
     1
  3
ACAD_XREC_ROUNDTRIP
360
491B
  0
DICTIONARY
  5
4918
330
3D43
100
AcDbDictionary
280
     1
281
     1
  3
ACAD_XREC_ROUNDTRIP
360
4919
  0
DICTIONARY
  5
491C
330
3D45
100
AcDbDictionary
280
     1
281
     1
  3
ACAD_XREC_ROUNDTRIP
360
491D
  0
DICTIONARY
  5
4DDA
330
3D59
100
AcDbDictionary
280
     1
281
     1
  3
ACAD_ROUNDTRIP_2008_TABLESTYLE_CELLSTYLEMAP
360
4DDB
  3
ACAD_XREC_ROUNDTRIP
360
4DE2
  0
XRECORD
  5
491B
102
{ACAD_REACTORS
330
491A
102
}
330
491A
100
AcDbXrecord
280
     1
102
MATERIAL
148
0.0
149
0.0
149
0.0
 93
        0
 94
      127
282
     0
 72
     1
 77
     1
171
     1
175
     1
179
     1
273
     0
  0
XRECORD
  5
4919
102
{ACAD_REACTORS
330
4918
102
}
330
4918
100
AcDbXrecord
280
     1
102
MATERIAL
148
0.0
149
0.0
149
0.0
 93
        0
 94
      127
282
     0
 72
     1
 77
     1
171
     1
175
     1
179
     1
273
     0
  0
XRECORD
  5
491D
102
{ACAD_REACTORS
330
491C
102
}
330
491C
100
AcDbXrecord
280
     1
102
MATERIAL
148
0.0
149
0.0
149
0.0
 93
        0
 94
      127
282
     0
 72
     1
 77
     1
171
     1
175
     1
179
     1
273
     0
  0
ACAD_PROXY_OBJECT
  5
4DDB
102
{ACAD_REACTORS
330
4DDA
102
}
330
4DDA
100
AcDbProxyObject
 90
      499
 91
      510
 95
  1310743
 70
     1
100
AcDbCellStyleMap
 90
        3
300
CELLSTYLE
  1
TABLEFORMAT_BEGIN
 90
        5
170
     1
 91
        0
 92
    32768
 62
   257
 93
        1
300
CONTENTFORMAT
  1
CONTENTFORMAT_BEGIN
 90
        0
 91
        0
 92
      512
 93
        0
300

 40
0.0
140
1.0
 94
        5
 62
     0
340
F
144
0.25
309
CONTENTFORMAT_END
171
     0
 94
        6
 95
        1
302
GRIDFORMAT
  1
GRIDFORMAT_BEGIN
 90
        0
 91
        1
 62
     0
 92
       -2
340
0
 93
        0
 40
0.045
309
GRIDFORMAT_END
 95
        2
302
GRIDFORMAT
  1
GRIDFORMAT_BEGIN
 90
        0
 91
        1
 62
     0
 92
       -2
340
0
 93
        0
 40
0.045
309
GRIDFORMAT_END
 95
        4
302
GRIDFORMAT
  1
GRIDFORMAT_BEGIN
 90
        0
 91
        1
 62
     0
 92
       -2
340
0
 93
        0
 40
0.045
309
GRIDFORMAT_END
 95
        8
302
GRIDFORMAT
  1
GRIDFORMAT_BEGIN
 90
        0
 91
        1
 62
     0
 92
       -2
340
0
 93
        0
 40
0.045
309
GRIDFORMAT_END
 95
       16
302
GRIDFORMAT
  1
GRIDFORMAT_BEGIN
 90
        0
 91
        1
 62
     0
 92
       -2
340
0
 93
        0
 40
0.045
309
GRIDFORMAT_END
 95
       32
302
GRIDFORMAT
  1
GRIDFORMAT_BEGIN
 90
        0
 91
        1
 62
     0
 92
       -2
340
0
 93
        0
 40
0.045
309
GRIDFORMAT_END
309
TABLEFORMAT_END
  1
CELLSTYLE_BEGIN
 90
        1
 91
        1
300
_TITLE
309
CELLSTYLE_END
300
CELLSTYLE
  1
TABLEFORMAT_BEGIN
 90
        5
170
     1
 91
        0
 92
        0
 62
   257
 93
        1
300
CONTENTFORMAT
  1
CONTENTFORMAT_BEGIN
 90
        0
 91
        0
 92
      512
 93
        0
300

 40
0.0
140
1.0
 94
        5
 62
     0
340
F
144
0.18
309
CONTENTFORMAT_END
171
     0
 94
        6
 95
        1
302
GRIDFORMAT
  1
GRIDFORMAT_BEGIN
 90
        0
 91
        1
 62
     0
 92
       -2
340
0
 93
        0
 40
0.045
309
GRIDFORMAT_END
 95
        2
302
GRIDFORMAT
  1
GRIDFORMAT_BEGIN
 90
        0
 91
        1
 62
     0
 92
       -2
340
0
 93
        0
 40
0.045
309
GRIDFORMAT_END
 95
        4
302
GRIDFORMAT
  1
GRIDFORMAT_BEGIN
 90
        0
 91
        1
 62
     0
 92
       -2
340
0
 93
        0
 40
0.045
309
GRIDFORMAT_END
 95
        8
302
GRIDFORMAT
  1
GRIDFORMAT_BEGIN
 90
        0
 91
        1
 62
     0
 92
       -2
340
0
 93
        0
 40
0.045
309
GRIDFORMAT_END
 95
       16
302
GRIDFORMAT
  1
GRIDFORMAT_BEGIN
 90
        0
 91
        1
 62
     0
 92
       -2
340
0
 93
        0
 40
0.045
309
GRIDFORMAT_END
 95
       32
302
GRIDFORMAT
  1
GRIDFORMAT_BEGIN
 90
        0
 91
        1
 62
     0
 92
       -2
340
0
 93
        0
 40
0.045
309
GRIDFORMAT_END
309
TABLEFORMAT_END
  1
CELLSTYLE_BEGIN
 90
        2
 91
        1
300
_HEADER
309
CELLSTYLE_END
300
CELLSTYLE
  1
TABLEFORMAT_BEGIN
 90
        5
170
     1
 91
        0
 92
        0
 62
   257
 93
        1
300
CONTENTFORMAT
  1
CONTENTFORMAT_BEGIN
 90
        0
 91
        0
 92
      512
 93
        0
300

 40
0.0
140
1.0
 94
        2
 62
     0
340
F
144
0.18
309
CONTENTFORMAT_END
171
     0
 94
        6
 95
        1
302
GRIDFORMAT
  1
GRIDFORMAT_BEGIN
 90
        0
 91
        1
 62
     0
 92
       -2
340
0
 93
        0
 40
0.045
309
GRIDFORMAT_END
 95
        2
302
GRIDFORMAT
  1
GRIDFORMAT_BEGIN
 90
        0
 91
        1
 62
     0
 92
       -2
340
0
 93
        0
 40
0.045
309
GRIDFORMAT_END
 95
        4
302
GRIDFORMAT
  1
GRIDFORMAT_BEGIN
 90
        0
 91
        1
 62
     0
 92
       -2
340
0
 93
        0
 40
0.045
309
GRIDFORMAT_END
 95
        8
302
GRIDFORMAT
  1
GRIDFORMAT_BEGIN
 90
        0
 91
        1
 62
     0
 92
       -2
340
0
 93
        0
 40
0.045
309
GRIDFORMAT_END
 95
       16
302
GRIDFORMAT
  1
GRIDFORMAT_BEGIN
 90
        0
 91
        1
 62
     0
 92
       -2
340
0
 93
        0
 40
0.045
309
GRIDFORMAT_END
 95
       32
302
GRIDFORMAT
  1
GRIDFORMAT_BEGIN
 90
        0
 91
        1
 62
     0
 92
       -2
340
0
 93
        0
 40
0.045
309
GRIDFORMAT_END
309
TABLEFORMAT_END
  1
CELLSTYLE_BEGIN
 90
        3
 91
        2
300
_DATA
309
CELLSTYLE_END
  0
XRECORD
  5
4DE2
102
{ACAD_REACTORS
330
4DDA
102
}
330
4DDA
100
AcDbXrecord
280
     1
102
ACAD_ROUNDTRIP_PRE2007_TABLESTYLE
 90
      512
 91
        0
  1

 92
      512
 93
        0
  2

 94
      512
 95
        0
  3

  0
ENDSEC
  0
EOF
