  0
SECTION
  2
HEADER
  9
$ACADVER
  1
AC1015
  9
$ACADMAINTVER
 70
    20
  9
$DWGCODEPAGE
  3
ANSI_932
  9
$INSBASE
 10
0.0
 20
0.0
 30
0.0
  9
$EXTMIN
 10
517.1354952427482
 20
-116.9556013997712
 30
-0.0000000349181948
  9
$EXTMAX
 10
689.8679612970509
 20
-1.513302563500985
 30
0.0000000814935746
  9
$LIMMIN
 10
0.0
 20
0.0
  9
$LIMMAX
 10
12.0
 20
9.0
  9
$ORTHOMODE
 70
     1
  9
$REGENMODE
 70
     1
  9
$FILLMODE
 70
     1
  9
$QTEXTMODE
 70
     0
  9
$MIRRTEXT
 70
     1
  9
$LTSCALE
 40
0.5
  9
$ATTMODE
 70
     1
  9
$TEXTSIZE
 40
2.5
  9
$TRACEWID
 40
0.05
  9
$TEXTSTYLE
  7
CatalogDxf
  9
$CLAYER
  8
0
  9
$CELTYPE
  6
BYLAYER
  9
$CECOLOR
 62
   256
  9
$CELTSCALE
 40
1.0
  9
$DISPSILH
 70
     0
  9
$DIMSCALE
 40
1.0
  9
$DIMASZ
 40
2.5
  9
$DIMEXO
 40
0.625
  9
$DIMDLI
 40
3.75
  9
$DIMRND
 40
0.0
  9
$DIMDLE
 40
0.0
  9
$DIMEXE
 40
1.25
  9
$DIMTP
 40
0.0
  9
$DIMTM
 40
0.0
  9
$DIMTXT
 40
2.5
  9
$DIMCEN
 40
2.5
  9
$DIMTSZ
 40
0.0
  9
$DIMTOL
 70
     0
  9
$DIMLIM
 70
     0
  9
$DIMTIH
 70
     0
  9
$DIMTOH
 70
     0
  9
$DIMSE1
 70
     0
  9
$DIMSE2
 70
     0
  9
$DIMTAD
 70
     1
  9
$DIMZIN
 70
     8
  9
$DIMBLK
  1
OPEN30
  9
$DIMASO
 70
     1
  9
$DIMSHO
 70
     1
  9
$DIMPOST
  1

  9
$DIMAPOST
  1

  9
$DIMALT
 70
     0
  9
$DIMALTD
 70
     3
  9
$DIMALTF
 40
0.03937007874016
  9
$DIMLFAC
 40
1.0
  9
$DIMTOFL
 70
     1
  9
$DIMTVP
 40
0.0
  9
$DIMTIX
 70
     0
  9
$DIMSOXD
 70
     0
  9
$DIMSAH
 70
     0
  9
$DIMBLK1
  1

  9
$DIMBLK2
  1

  9
$DIMSTYLE
  2
CatalogDxf
  9
$DIMCLRD
 70
   256
  9
$DIMCLRE
 70
   256
  9
$DIMCLRT
 70
   256
  9
$DIMTFAC
 40
1.0
  9
$DIMGAP
 40
0.625
  9
$DIMJUST
 70
     0
  9
$DIMSD1
 70
     0
  9
$DIMSD2
 70
     0
  9
$DIMTOLJ
 70
     0
  9
$DIMTZIN
 70
     8
  9
$DIMALTZ
 70
     0
  9
$DIMALTTZ
 70
     0
  9
$DIMUPT
 70
     0
  9
$DIMDEC
 70
     1
  9
$DIMTDEC
 70
     1
  9
$DIMALTU
 70
     2
  9
$DIMALTTD
 70
     3
  9
$DIMTXSTY
  7
CatalogDxf
  9
$DIMAUNIT
 70
     0
  9
$DIMADEC
 70
     0
  9
$DIMALTRND
 40
0.0
  9
$DIMAZIN
 70
     0
  9
$DIMDSEP
 70
    46
  9
$DIMATFIT
 70
     3
  9
$DIMFRAC
 70
     0
  9
$DIMLDRBLK
  1
OPEN30
  9
$DIMLUNIT
 70
     2
  9
$DIMLWD
 70
    -1
  9
$DIMLWE
 70
    -1
  9
$DIMTMOVE
 70
     0
  9
$LUNITS
 70
     2
  9
$LUPREC
 70
     2
  9
$SKETCHINC
 40
0.1
  9
$FILLETRAD
 40
0.0
  9
$AUNITS
 70
     0
  9
$AUPREC
 70
     2
  9
$MENU
  1
acad
  9
$ELEVATION
 40
0.0
  9
$PELEVATION
 40
0.0
  9
$THICKNESS
 40
0.0
  9
$LIMCHECK
 70
     0
  9
$CHAMFERA
 40
0.0
  9
$CHAMFERB
 40
0.0
  9
$CHAMFERC
 40
0.0
  9
$CHAMFERD
 40
0.0
  9
$SKPOLY
 70
     0
  9
$TDCREATE
 40
2455090.761732894
  9
$TDUCREATE
 40
2455090.386732893
  9
$TDUPDATE
 40
2455678.691132211
  9
$TDUUPDATE
 40
2455678.316132211
  9
$TDINDWG
 40
0.6554596759
  9
$TDUSRTIMER
 40
0.6554537153
  9
$USRTIMER
 70
     1
  9
$ANGBASE
 50
0.0
  9
$ANGDIR
 70
     0
  9
$PDMODE
 70
     0
  9
$PDSIZE
 40
0.0
  9
$PLINEWID
 40
0.0
  9
$SPLFRAME
 70
     0
  9
$SPLINETYPE
 70
     6
  9
$SPLINESEGS
 70
     8
  9
$HANDSEED
  5
5CCD
  9
$SURFTAB1
 70
     6
  9
$SURFTAB2
 70
     6
  9
$SURFTYPE
 70
     6
  9
$SURFU
 70
     6
  9
$SURFV
 70
     6
  9
$UCSBASE
  2

  9
$UCSNAME
  2

  9
$UCSORG
 10
0.0
 20
0.0
 30
0.0
  9
$UCSXDIR
 10
1.0
 20
0.0
 30
0.0
  9
$UCSYDIR
 10
0.0
 20
1.0
 30
0.0
  9
$UCSORTHOREF
  2

  9
$UCSORTHOVIEW
 70
     1
  9
$UCSORGTOP
 10
0.0
 20
0.0
 30
0.0
  9
$UCSORGBOTTOM
 10
0.0
 20
0.0
 30
0.0
  9
$UCSORGLEFT
 10
0.0
 20
0.0
 30
0.0
  9
$UCSORGRIGHT
 10
0.0
 20
0.0
 30
0.0
  9
$UCSORGFRONT
 10
0.0
 20
0.0
 30
0.0
  9
$UCSORGBACK
 10
0.0
 20
0.0
 30
0.0
  9
$PUCSBASE
  2

  9
$PUCSNAME
  2

  9
$PUCSORG
 10
0.0
 20
0.0
 30
0.0
  9
$PUCSXDIR
 10
1.0
 20
0.0
 30
0.0
  9
$PUCSYDIR
 10
0.0
 20
1.0
 30
0.0
  9
$PUCSORTHOREF
  2

  9
$PUCSORTHOVIEW
 70
     0
  9
$PUCSORGTOP
 10
0.0
 20
0.0
 30
0.0
  9
$PUCSORGBOTTOM
 10
0.0
 20
0.0
 30
0.0
  9
$PUCSORGLEFT
 10
0.0
 20
0.0
 30
0.0
  9
$PUCSORGRIGHT
 10
0.0
 20
0.0
 30
0.0
  9
$PUCSORGFRONT
 10
0.0
 20
0.0
 30
0.0
  9
$PUCSORGBACK
 10
0.0
 20
0.0
 30
0.0
  9
$USERI1
 70
     0
  9
$USERI2
 70
     0
  9
$USERI3
 70
     0
  9
$USERI4
 70
     0
  9
$USERI5
 70
     0
  9
$USERR1
 40
0.0
  9
$USERR2
 40
0.0
  9
$USERR3
 40
0.0
  9
$USERR4
 40
0.0
  9
$USERR5
 40
0.0
  9
$WORLDVIEW
 70
     1
  9
$SHADEDGE
 70
     3
  9
$SHADEDIF
 70
    70
  9
$TILEMODE
 70
     1
  9
$MAXACTVP
 70
    16
  9
$PINSBASE
 10
0.0
 20
0.0
 30
0.0
  9
$PLIMCHECK
 70
     0
  9
$PEXTMIN
 10
1.000000000000000E+20
 20
1.000000000000000E+20
 30
1.000000000000000E+20
  9
$PEXTMAX
 10
-1.000000000000000E+20
 20
-1.000000000000000E+20
 30
-1.000000000000000E+20
  9
$PLIMMIN
 10
0.0
 20
0.0
  9
$PLIMMAX
 10
12.0
 20
9.0
  9
$UNITMODE
 70
     0
  9
$VISRETAIN
 70
     0
  9
$PLINEGEN
 70
     0
  9
$PSLTSCALE
 70
     1
  9
$TREEDEPTH
 70
  3020
  9
$CMLSTYLE
  2
STANDARD
  9
$CMLJUST
 70
     0
  9
$CMLSCALE
 40
1.0
  9
$PROXYGRAPHICS
 70
     1
  9
$MEASUREMENT
 70
     0
  9
$CELWEIGHT
370
    -1
  9
$ENDCAPS
280
     0
  9
$JOINSTYLE
280
     0
  9
$LWDISPLAY
290
     0
  9
$INSUNITS
 70
     0
  9
$HYPERLINKBASE
  1

  9
$STYLESHEET
  1
monochrome.ctb
  9
$XEDIT
290
     1
  9
$CEPSNTYPE
380
     0
  9
$PSTYLEMODE
290
     1
  9
$FINGERPRINTGUID
  2
{AFC0AA2D-B3CD-48CF-B830-EF9C44F122D3}
  9
$VERSIONGUID
  2
{6DD6E23D-9DFD-4D27-8B8B-AD7FB1140728}
  9
$EXTNAMES
290
     1
  9
$PSVPSCALE
 40
0.0
  9
$OLESTARTUP
290
     0
  0
ENDSEC
  0
SECTION
  2
CLASSES
  0
CLASS
  1
ACDBDICTIONARYWDFLT
  2
AcDbDictionaryWithDefault
  3
ObjectDBX Classes
 90
        0
280
     0
281
     0
  0
CLASS
  1
DICTIONARYVAR
  2
AcDbDictionaryVar
  3
ObjectDBX Classes
 90
        0
280
     0
281
     0
  0
CLASS
  1
MATERIAL
  2
AcDbMaterial
  3
ObjectDBX Classes
 90
        0
280
     0
281
     0
  0
CLASS
  1
VISUALSTYLE
  2
AcDbVisualStyle
  3
ObjectDBX Classes
 90
     4095
280
     0
281
     0
  0
CLASS
  1
TABLESTYLE
  2
AcDbTableStyle
  3
ObjectDBX Classes
 90
     2047
280
     0
281
     0
  0
CLASS
  1
DIMASSOC
  2
AcDbDimAssoc
  3
"AcDbDimAssoc|Product Desc:     AcDim ARX App For Dimension|Company:          Autodesk, Inc.|WEB Address:      www.autodesk.com"
 90
        0
280
     0
281
     0
  0
CLASS
  1
SORTENTSTABLE
  2
AcDbSortentsTable
  3
ObjectDBX Classes
 90
        0
280
     0
281
     0
  0
CLASS
  1
ACDBPLACEHOLDER
  2
AcDbPlaceHolder
  3
ObjectDBX Classes
 90
        0
280
     0
281
     0
  0
CLASS
  1
LAYOUT
  2
AcDbLayout
  3
ObjectDBX Classes
 90
        0
280
     0
281
     0
  0
ENDSEC
  0
SECTION
  2
TABLES
  0
TABLE
  2
VPORT
  5
8
102
{ACAD_XDICTIONARY
360
477D
102
}
330
0
100
AcDbSymbolTable
 70
    25
  0
VPORT
  5
5CC6
330
8
100
AcDbSymbolTableRecord
100
AcDbViewportTableRecord
  2
*Active
 70
     0
 10
0.0
 20
0.0
 11
1.0
 21
1.0
 12
621.5504286785298
 22
-53.32851591481222
 13
0.0
 23
0.0
 14
1.0
 24
1.0
 15
0.0
 25
0.0
 16
0.0
 26
0.0
 36
1.0
 17
0.0
 27
0.0
 37
0.0
 40
167.2432839671412
 41
2.211165048543689
 42
50.0
 43
0.0
 44
0.0
 50
0.0
 51
0.0
 71
     0
 72
   100
 73
     1
 74
     1
 75
     0
 76
     0
 77
     0
 78
     0
281
     0
 65
     1
110
0.0
120
0.0
130
0.0
111
1.0
121
0.0
131
0.0
112
0.0
122
1.0
132
0.0
 79
     0
146
0.0
  0
ENDTAB
  0
TABLE
  2
LTYPE
  5
5
330
0
100
AcDbSymbolTable
 70
     6
  0
LTYPE
  5
11
330
5
100
AcDbSymbolTableRecord
100
AcDbLinetypeTableRecord
  2
BYBLOCK
 70
     0
  3

 72
    65
 73
     0
 40
0.0
  0
LTYPE
  5
12
330
5
100
AcDbSymbolTableRecord
100
AcDbLinetypeTableRecord
  2
BYLAYER
 70
     0
  3

 72
    65
 73
     0
 40
0.0
  0
LTYPE
  5
13
330
5
100
AcDbSymbolTableRecord
100
AcDbLinetypeTableRecord
  2
CONTINUOUS
 70
     0
  3
Solid line
 72
    65
 73
     0
 40
0.0
  0
LTYPE
  5
1D
330
5
100
AcDbSymbolTableRecord
100
AcDbLinetypeTableRecord
  2
CENTER
 70
     0
  3
____ _ ____ _ ____ _ ____ _ ____ _ ____ _ ____ 
 72
    65
 73
     4
 40
2.0
 49
1.25
 74
     0
 49
-0.25
 74
     0
 49
0.25
 74
     0
 49
-0.25
 74
     0
  0
LTYPE
  5
1E
330
5
100
AcDbSymbolTableRecord
100
AcDbLinetypeTableRecord
  2
PHANTOM
 70
     0
  3
______  __  __  ______  __  __  ______  __  __ 
 72
    65
 73
     6
 40
2.5
 49
1.25
 74
     0
 49
-0.25
 74
     0
 49
0.25
 74
     0
 49
-0.25
 74
     0
 49
0.25
 74
     0
 49
-0.25
 74
     0
  0
LTYPE
  5
1F
330
5
100
AcDbSymbolTableRecord
100
AcDbLinetypeTableRecord
  2
DASHED
 70
     0
  3
__ __ __ __ __ __ __ __ __ __ __ __ __ __ __ __
 72
    65
 73
     2
 40
0.75
 49
0.5
 74
     0
 49
-0.25
 74
     0
  0
LTYPE
  5
3DB3
330
5
100
AcDbSymbolTableRecord
100
AcDbLinetypeTableRecord
  2
CENTER2
 70
     0
  3
Center (.5x) ___ _ ___ _ ___ _ ___ _ ___ _ ___
 72
    65
 73
     4
 40
28.575
 49
19.05
 74
     0
 49
-3.174999999999998
 74
     0
 49
3.174999999999998
 74
     0
 49
-3.174999999999998
 74
     0
  0
LTYPE
  5
3DB4
330
5
100
AcDbSymbolTableRecord
100
AcDbLinetypeTableRecord
  2
HIDDEN2
 70
     0
  3
Hidden (.5x) _ _ _ _ _ _ _ _ _ _ _ _ _ _ _ _ _
 72
    65
 73
     2
 40
4.762499999999998
 49
3.174999999999998
 74
     0
 49
-1.587499999999999
 74
     0
  0
ENDTAB
  0
TABLE
  2
LAYER
  5
2
102
{ACAD_XDICTIONARY
360
3DBA
102
}
330
0
100
AcDbSymbolTable
 70
     6
  0
LAYER
  5
E
102
{ACAD_XDICTIONARY
360
47AD
102
}
330
2
100
AcDbSymbolTableRecord
100
AcDbLayerTableRecord
  2
0
 70
     0
 62
     7
  6
CONTINUOUS
370
    -3
390
3D41
  0
LAYER
  5
27
102
{ACAD_XDICTIONARY
360
47AF
102
}
330
2
100
AcDbSymbolTableRecord
100
AcDbLayerTableRecord
  2
Z_OM_DIM
 70
     0
 62
     4
  6
CONTINUOUS
370
    -3
390
3D41
  0
LAYER
  5
2B
102
{ACAD_XDICTIONARY
360
47B1
102
}
330
2
100
AcDbSymbolTableRecord
100
AcDbLayerTableRecord
  2
DEFPOINTS
 70
     0
 62
     7
  6
CONTINUOUS
290
     0
370
    -3
390
3D41
  0
LAYER
  5
3DB5
102
{ACAD_XDICTIONARY
360
47BB
102
}
330
2
100
AcDbSymbolTableRecord
100
AcDbLayerTableRecord
  2
additional
 70
     0
 62
    50
  6
CONTINUOUS
370
    -3
390
3D41
1001
AcAecLayerStandard
1000

1000

  0
ENDTAB
  0
TABLE
  2
STYLE
  5
3
330
0
100
AcDbSymbolTable
 70
     9
  0
STYLE
  5
F
330
3
100
AcDbSymbolTableRecord
100
AcDbTextStyleTableRecord
  2
STANDARD
 70
     0
 40
0.0
 41
1.08
 50
0.0
 71
     0
 42
3.0
  3
txt.shx
  4
bigfont.shx
  0
STYLE
  5
3DB6
330
3
100
AcDbSymbolTableRecord
100
AcDbTextStyleTableRecord
  2
CatalogDxf
 70
     0
 40
0.0
 41
1.0
 50
0.0
 71
     0
 42
2.5
  3
txt.shx
  4
bigfont.shx
  0
STYLE
  5
4196
330
3
100
AcDbSymbolTableRecord
100
AcDbTextStyleTableRecord
  2

 70
     1
 40
0.0
 41
1.0
 50
0.0
 71
     0
 42
3.0
  3
ltypeshp.shx
  4

  0
STYLE
  5
4FF0
330
3
100
AcDbSymbolTableRecord
100
AcDbTextStyleTableRecord
  2
イラストレーター
 70
     0
 40
2.5
 41
1.0
 50
0.0
 71
     0
 42
2.5
  3
HGRSMP.TTF
  4

1001
ACAD
1000
HGMaruGothicMPRO
1071
    32818
  0
ENDTAB
  0
TABLE
  2
VIEW
  5
6
330
0
100
AcDbSymbolTable
 70
     0
  0
ENDTAB
  0
TABLE
  2
UCS
  5
7
330
0
100
AcDbSymbolTable
 70
     0
  0
ENDTAB
  0
TABLE
  2
APPID
  5
9
330
0
100
AcDbSymbolTable
 70
     7
  0
APPID
  5
10
330
9
100
AcDbSymbolTableRecord
100
AcDbRegAppTableRecord
  2
ACAD
 70
     0
  0
APPID
  5
3D5E
330
9
100
AcDbSymbolTableRecord
100
AcDbRegAppTableRecord
  2
ACAD_PSEXT
 70
     0
  0
APPID
  5
3DB9
330
9
100
AcDbSymbolTableRecord
100
AcDbRegAppTableRecord
  2
AcAecLayerStandard
 70
     0
  0
APPID
  5
41A3
330
9
100
AcDbSymbolTableRecord
100
AcDbRegAppTableRecord
  2
ACAD_DSTYLE_DIM_LINETYPE
 70
     0
  0
APPID
  5
41A4
330
9
100
AcDbSymbolTableRecord
100
AcDbRegAppTableRecord
  2
ACAD_DSTYLE_DIM_EXT1_LINETYPE
 70
     0
  0
APPID
  5
41A5
330
9
100
AcDbSymbolTableRecord
100
AcDbRegAppTableRecord
  2
ACAD_DSTYLE_DIM_EXT2_LINETYPE
 70
     0
  0
APPID
  5
47D5
330
9
100
AcDbSymbolTableRecord
100
AcDbRegAppTableRecord
  2
ACAD_DSTYLE_DIMTEXT_FILL
 70
     0
  0
ENDTAB
  0
TABLE
  2
DIMSTYLE
  5
A
330
0
100
AcDbSymbolTable
 70
    10
100
AcDbDimStyleTable
 71
     3
340
3DB8
340
30
340
3DB7
  0
DIMSTYLE
105
30
330
A
100
AcDbSymbolTableRecord
100
AcDbDimStyleTableRecord
  2
STANDARD
 70
     0
 41
6.0
 42
1.0
 43
16.0
 44
3.0
 73
     0
 74
     0
 77
     1
 78
     8
140
4.4
141
10.0
147
1.6
172
     1
176
   256
177
   256
178
   256
340
F
341
977
342
977
  0
DIMSTYLE
105
3DB7
330
A
100
AcDbSymbolTableRecord
100
AcDbDimStyleTableRecord
  2
ISO-25
 70
     0
 41
2.5
 42
0.625
 43
3.75
 44
1.25
 73
     0
 74
     0
 77
     1
 78
     8
140
2.5
141
2.5
143
0.03937007874016
147
0.625
171
     3
172
     1
178
   256
271
     1
272
     1
274
     3
278
    44
283
     0
284
     8
340
F
  0
DIMSTYLE
105
3DB8
102
{ACAD_REACTORS
330
407E
330
407F
330
534E
330
534A
330
5346
330
5345
330
5313
330
5305
330
5312
330
5315
330
5314
330
52AB
330
52AA
330
5317
330
593E
102
}
330
A
100
AcDbSymbolTableRecord
100
AcDbDimStyleTableRecord
  2
CatalogDxf
 70
     0
 41
2.5
 42
0.625
 43
3.75
 44
1.25
 73
     0
 74
     0
 77
     1
 78
     8
140
2.5
141
2.5
143
0.03937007874016
147
0.625
171
     3
172
     1
176
   256
177
   256
178
   256
271
     1
272
     1
274
     3
283
     0
284
     8
340
3DB6
341
977
342
977
371
    -1
372
    -1
1001
ACAD_DSTYLE_DIM_LINETYPE
1070
   380
1005
12
1001
ACAD_DSTYLE_DIM_EXT1_LINETYPE
1070
   381
1005
12
1001
ACAD_DSTYLE_DIM_EXT2_LINETYPE
1070
   382
1005
12
  0
DIMSTYLE
105
4FF1
330
A
100
AcDbSymbolTableRecord
100
AcDbDimStyleTableRecord
  2
TAKAHA
 70
     0
 40
0.0
 41
2.5
 42
0.63
 43
6.0
 44
1.0
 73
     0
 74
     0
 77
     1
 78
     8
 79
     2
140
2.5
141
0.0
143
0.0394
144
0.5
147
0.63
171
     4
172
     1
173
     1
176
   256
177
   256
178
     2
179
     4
271
     3
272
     3
273
     8
274
     4
289
     0
340
F
341
4FDC
343
4FDC
344
4FDC
371
    -1
372
    -1
  0
DIMSTYLE
105
4FF2
330
A
100
AcDbSymbolTableRecord
100
AcDbDimStyleTableRecord
  2
ｲﾗｽﾄ 0.5
 70
     0
 41
2.5
 42
1.0
 43
8.0
 44
1.0
 48
0.000000001
 73
     0
 74
     0
 77
     1
 78
     8
140
2.5
141
0.0
143
0.0394
144
0.5
147
1.0
171
     4
172
     1
173
     1
179
     3
271
     1
272
     1
273
     8
274
     4
284
     8
289
     0
340
4FF0
341
4FDC
343
4FDC
344
4FDC
371
    25
372
    25
  0
ENDTAB
  0
TABLE
  2
BLOCK_RECORD
  5
1
330
0
100
AcDbSymbolTable
 70
    50
  0
BLOCK_RECORD
  5
17
102
{ACAD_XDICTIONARY
360
1808
102
}
330
1
100
AcDbSymbolTableRecord
100
AcDbBlockTableRecord
  2
*MODEL_SPACE
340
3D5B
  0
BLOCK_RECORD
  5
14
102
{ACAD_XDICTIONARY
360
1806
102
}
330
1
100
AcDbSymbolTableRecord
100
AcDbBlockTableRecord
  2
*PAPER_SPACE
340
3D5C
  0
BLOCK_RECORD
  5
977
330
1
100
AcDbSymbolTableRecord
100
AcDbBlockTableRecord
  2
_OPEN30
340
0
102
{BLKREFS
331
583E
331
583F
331
5847
331
5848
331
5850
331
5851
331
585B
331
585C
331
5864
331
5865
331
586F
331
5870
331
5878
331
5879
331
588C
331
588D
331
5897
331
5898
331
58A2
331
58A3
331
58AB
331
58AC
331
5926
331
5927
331
5A9C
331
5A9D
331
5B1D
331
5B1E
331
5B26
331
5B27
331
5B31
331
5B32
331
5B4E
331
5B4F
331
5B7A
331
5B7B
331
5BEB
331
5BF6
331
5C2E
331
5C2F
331
5C37
331
5C38
331
5C40
331
5C41
331
5C61
331
5C62
102
}
  0
BLOCK_RECORD
  5
40A4
330
1
100
AcDbSymbolTableRecord
100
AcDbBlockTableRecord
  2
*D1
340
0
  0
BLOCK_RECORD
  5
40B0
330
1
100
AcDbSymbolTableRecord
100
AcDbBlockTableRecord
  2
*D2
340
0
  0
BLOCK_RECORD
  5
40BC
330
1
100
AcDbSymbolTableRecord
100
AcDbBlockTableRecord
  2
*D3
340
0
  0
BLOCK_RECORD
  5
40C8
330
1
100
AcDbSymbolTableRecord
100
AcDbBlockTableRecord
  2
*D4
340
0
  0
BLOCK_RECORD
  5
40D6
330
1
100
AcDbSymbolTableRecord
100
AcDbBlockTableRecord
  2
*D5
340
0
  0
BLOCK_RECORD
  5
40E2
330
1
100
AcDbSymbolTableRecord
100
AcDbBlockTableRecord
  2
*D6
340
0
  0
BLOCK_RECORD
  5
40F0
330
1
100
AcDbSymbolTableRecord
100
AcDbBlockTableRecord
  2
*D7
340
0
  0
BLOCK_RECORD
  5
40FC
330
1
100
AcDbSymbolTableRecord
100
AcDbBlockTableRecord
  2
*D8
340
0
  0
BLOCK_RECORD
  5
4108
330
1
100
AcDbSymbolTableRecord
100
AcDbBlockTableRecord
  2
*D9
340
0
  0
BLOCK_RECORD
  5
4991
330
1
100
AcDbSymbolTableRecord
100
AcDbBlockTableRecord
  2
*D10
340
0
  0
BLOCK_RECORD
  5
4AB2
330
1
100
AcDbSymbolTableRecord
100
AcDbBlockTableRecord
  2
*D11
340
0
  0
BLOCK_RECORD
  5
4FDC
330
1
100
AcDbSymbolTableRecord
100
AcDbBlockTableRecord
  2
_OPEN
340
0
102
{BLKREFS
331
5181
331
5182
331
518D
331
518E
331
5199
331
519A
331
51A5
331
51A6
331
51B1
331
51B2
331
51C0
331
51CE
331
51F1
331
51F2
331
51D9
331
51DA
331
51E4
331
5169
331
516A
331
5175
331
5176
102
}
  0
BLOCK_RECORD
  5
50C0
102
{ACAD_XDICTIONARY
360
50C5
102
}
330
1
100
AcDbSymbolTableRecord
100
AcDbBlockTableRecord
  2
A$C7D437A46
340
0
  0
BLOCK_RECORD
  5
50C9
102
{ACAD_XDICTIONARY
360
50CE
102
}
330
1
100
AcDbSymbolTableRecord
100
AcDbBlockTableRecord
  2
A$C4B3765E4
340
0
  0
BLOCK_RECORD
  5
50D9
102
{ACAD_XDICTIONARY
360
50DD
102
}
330
1
100
AcDbSymbolTableRecord
100
AcDbBlockTableRecord
  2
A$C4C4E4789
340
0
  0
BLOCK_RECORD
  5
515C
330
1
100
AcDbSymbolTableRecord
100
AcDbBlockTableRecord
  2
_DOTSMALL
340
0
102
{BLKREFS
331
51BF
331
51CD
331
5BEA
331
5BF5
102
}
  0
BLOCK_RECORD
  5
5160
330
1
100
AcDbSymbolTableRecord
100
AcDbBlockTableRecord
  2
_NONE
340
0
  0
BLOCK_RECORD
  5
5164
330
1
100
AcDbSymbolTableRecord
100
AcDbBlockTableRecord
  2
*D18
340
0
  0
BLOCK_RECORD
  5
5170
330
1
100
AcDbSymbolTableRecord
100
AcDbBlockTableRecord
  2
*D19
340
0
  0
BLOCK_RECORD
  5
517C
330
1
100
AcDbSymbolTableRecord
100
AcDbBlockTableRecord
  2
*D20
340
0
  0
BLOCK_RECORD
  5
5188
330
1
100
AcDbSymbolTableRecord
100
AcDbBlockTableRecord
  2
*D21
340
0
  0
BLOCK_RECORD
  5
5194
330
1
100
AcDbSymbolTableRecord
100
AcDbBlockTableRecord
  2
*D22
340
0
  0
BLOCK_RECORD
  5
51A0
330
1
100
AcDbSymbolTableRecord
100
AcDbBlockTableRecord
  2
*D23
340
0
  0
BLOCK_RECORD
  5
51AC
330
1
100
AcDbSymbolTableRecord
100
AcDbBlockTableRecord
  2
*D24
340
0
  0
BLOCK_RECORD
  5
51B8
330
1
100
AcDbSymbolTableRecord
100
AcDbBlockTableRecord
  2
*D25
340
0
  0
BLOCK_RECORD
  5
51C6
330
1
100
AcDbSymbolTableRecord
100
AcDbBlockTableRecord
  2
*D26
340
0
  0
BLOCK_RECORD
  5
51D4
330
1
100
AcDbSymbolTableRecord
100
AcDbBlockTableRecord
  2
*D27
340
0
  0
BLOCK_RECORD
  5
51E0
330
1
100
AcDbSymbolTableRecord
100
AcDbBlockTableRecord
  2
*D28
340
0
  0
BLOCK_RECORD
  5
51EA
330
1
100
AcDbSymbolTableRecord
100
AcDbBlockTableRecord
  2
*D29
340
0
  0
BLOCK_RECORD
  5
5354
330
1
100
AcDbSymbolTableRecord
100
AcDbBlockTableRecord
  2
*D31
340
0
  0
BLOCK_RECORD
  5
5360
330
1
100
AcDbSymbolTableRecord
100
AcDbBlockTableRecord
  2
*D32
340
0
  0
BLOCK_RECORD
  5
536C
330
1
100
AcDbSymbolTableRecord
100
AcDbBlockTableRecord
  2
*D33
340
0
  0
BLOCK_RECORD
  5
5378
330
1
100
AcDbSymbolTableRecord
100
AcDbBlockTableRecord
  2
*D34
340
0
  0
BLOCK_RECORD
  5
5384
330
1
100
AcDbSymbolTableRecord
100
AcDbBlockTableRecord
  2
*D35
340
0
  0
BLOCK_RECORD
  5
5390
330
1
100
AcDbSymbolTableRecord
100
AcDbBlockTableRecord
  2
*D36
340
0
  0
BLOCK_RECORD
  5
539E
330
1
100
AcDbSymbolTableRecord
100
AcDbBlockTableRecord
  2
*D37
340
0
  0
BLOCK_RECORD
  5
53AC
330
1
100
AcDbSymbolTableRecord
100
AcDbBlockTableRecord
  2
*D38
340
0
  0
BLOCK_RECORD
  5
53B8
330
1
100
AcDbSymbolTableRecord
100
AcDbBlockTableRecord
  2
*D39
340
0
  0
BLOCK_RECORD
  5
53C2
330
1
100
AcDbSymbolTableRecord
100
AcDbBlockTableRecord
  2
*D40
340
0
  0
BLOCK_RECORD
  5
53CE
330
1
100
AcDbSymbolTableRecord
100
AcDbBlockTableRecord
  2
*D41
340
0
  0
BLOCK_RECORD
  5
541D
330
1
100
AcDbSymbolTableRecord
100
AcDbBlockTableRecord
  2
*D42
340
0
  0
BLOCK_RECORD
  5
5943
330
1
100
AcDbSymbolTableRecord
100
AcDbBlockTableRecord
  2
*D43
340
0
  0
ENDTAB
  0
ENDSEC
  0
SECTION
  2
BLOCKS
  0
BLOCK
  5
2E
330
17
100
AcDbEntity
  8
0
100
AcDbBlockBegin
  2
*MODEL_SPACE
 70
     0
 10
0.0
 20
0.0
 30
0.0
  3
*MODEL_SPACE
  1

  0
ENDBLK
  5
2F
330
17
100
AcDbEntity
  8
0
100
AcDbBlockEnd
  0
BLOCK
  5
2C
330
14
100
AcDbEntity
 67
     1
  8
0
100
AcDbBlockBegin
  2
*PAPER_SPACE
 70
     0
 10
0.0
 20
0.0
 30
0.0
  3
*PAPER_SPACE
  1

  0
ENDBLK
  5
2D
330
14
100
AcDbEntity
 67
     1
  8
0
100
AcDbBlockEnd
  0
BLOCK
  5
97B
330
977
100
AcDbEntity
  8
0
100
AcDbBlockBegin
  2
_OPEN30
 70
     0
 10
0.0
 20
0.0
 30
0.0
  3
_OPEN30
  1

  0
LINE
  5
978
330
977
100
AcDbEntity
  8
0
  6
ByBlock
 62
     0
100
AcDbLine
 10
-1.0
 20
0.26794919
 30
0.0
 11
0.0
 21
0.0
 31
0.0
  0
LINE
  5
979
330
977
100
AcDbEntity
  8
0
  6
ByBlock
 62
     0
100
AcDbLine
 10
0.0
 20
0.0
 30
0.0
 11
-1.0
 21
-0.26794919
 31
0.0
  0
LINE
  5
97A
330
977
100
AcDbEntity
  8
0
  6
ByBlock
 62
     0
100
AcDbLine
 10
0.0
 20
0.0
 30
0.0
 11
-1.0
 21
0.0
 31
0.0
  0
ENDBLK
  5
97C
330
977
100
AcDbEntity
  8
0
100
AcDbBlockEnd
  0
BLOCK
  5
40AE
330
40A4
100
AcDbEntity
  8
0
100
AcDbBlockBegin
  2
*D1
 70
     1
 10
0.0
 20
0.0
 30
0.0
  3
*D1
  1

  0
LINE
  5
583B
330
40A4
100
AcDbEntity
  8
Z_OM_DIM
100
AcDbLine
 10
817.3502157593208
 20
-20.59530651427869
 30
0.0
 11
817.3502157593208
 21
-31.72152402872533
 31
0.0
  0
LINE
  5
583C
330
40A4
100
AcDbEntity
  8
Z_OM_DIM
100
AcDbLine
 10
838.6502157593207
 20
-19.59530651427869
 30
0.0
 11
838.6502157593207
 21
-31.72152402872533
 31
0.0
  0
LINE
  5
583D
330
40A4
100
AcDbEntity
  8
Z_OM_DIM
100
AcDbLine
 10
819.8502157593207
 20
-30.47152402872533
 30
0.0
 11
836.1502157593207
 21
-30.47152402872533
 31
0.0
  0
INSERT
  5
583E
330
40A4
100
AcDbEntity
  8
Z_OM_DIM
100
AcDbBlockReference
  2
_OPEN30
 10
817.3502157593208
 20
-30.47152402872533
 30
0.0
 41
2.5
 42
2.5
 43
2.5
 50
180.0
  0
INSERT
  5
583F
330
40A4
100
AcDbEntity
  8
Z_OM_DIM
100
AcDbBlockReference
  2
_OPEN30
 10
838.6502157593207
 20
-30.47152402872533
 30
0.0
 41
2.5
 42
2.5
 43
2.5
  0
MTEXT
  5
5840
330
40A4
100
AcDbEntity
  8
Z_OM_DIM
100
AcDbMText
 10
828.0002157593207
 20
-28.59652402872533
 30
0.0
 40
2.5
 41
0.0
 71
     5
 72
     1
  1
21.3
  7
CatalogDxf
 73
     1
 44
1.0
1001
ACAD
1000
MTEXTBEGIN
1070
    73
1070
     1
1070
    44
1040
1.0
1070
    74
1070
     0
1000
MTEXTEND
  0
POINT
  5
5841
330
40A4
100
AcDbEntity
  8
DEFPOINTS
 62
     0
100
AcDbPoint
 10
817.3502157593208
 20
-19.97030651427869
 30
0.0
  0
POINT
  5
5842
330
40A4
100
AcDbEntity
  8
DEFPOINTS
 62
     0
100
AcDbPoint
 10
838.6502157593207
 20
-18.97030651427869
 30
0.0
  0
POINT
  5
5843
330
40A4
100
AcDbEntity
  8
DEFPOINTS
 62
     0
100
AcDbPoint
 10
838.6502157593207
 20
-30.47152402872533
 30
0.0
  0
ENDBLK
  5
40AF
330
40A4
100
AcDbEntity
  8
0
100
AcDbBlockEnd
  0
BLOCK
  5
40BA
330
40B0
100
AcDbEntity
  8
0
100
AcDbBlockBegin
  2
*D2
 70
     1
 10
0.0
 20
0.0
 30
0.0
  3
*D2
  1

  0
LINE
  5
5844
330
40B0
100
AcDbEntity
  8
Z_OM_DIM
100
AcDbLine
 10
834.8502157593207
 20
-66.17820004579455
 30
0.0
 11
834.8502157593207
 21
-53.90031990502855
 31
0.0
  0
LINE
  5
5845
330
40B0
100
AcDbEntity
  8
Z_OM_DIM
100
AcDbLine
 10
813.8752157593208
 20
-66.83201130645073
 30
0.0
 11
813.8752157593208
 21
-53.90031990502855
 31
0.0
  0
LINE
  5
5846
330
40B0
100
AcDbEntity
  8
Z_OM_DIM
100
AcDbLine
 10
832.3502157593207
 20
-55.15031990502855
 30
0.0
 11
816.3752157593208
 21
-55.15031990502855
 31
0.0
  0
INSERT
  5
5847
330
40B0
100
AcDbEntity
  8
Z_OM_DIM
100
AcDbBlockReference
  2
_OPEN30
 10
834.8502157593207
 20
-55.15031990502855
 30
0.0
 41
2.5
 42
2.5
 43
2.5
  0
INSERT
  5
5848
330
40B0
100
AcDbEntity
  8
Z_OM_DIM
100
AcDbBlockReference
  2
_OPEN30
 10
813.8752157593208
 20
-55.15031990502855
 30
0.0
 41
2.5
 42
2.5
 43
2.5
 50
180.0
  0
MTEXT
  5
5849
330
40B0
100
AcDbEntity
  8
Z_OM_DIM
100
AcDbMText
 10
824.3627157593207
 20
-53.27531990502855
 30
0.0
 40
2.5
 41
0.0
 71
     5
 72
     1
  1
21
  7
CatalogDxf
 73
     1
 44
1.0
1001
ACAD
1000
MTEXTBEGIN
1070
    73
1070
     1
1070
    44
1040
1.0
1070
    74
1070
     0
1000
MTEXTEND
  0
POINT
  5
584A
330
40B0
100
AcDbEntity
  8
DEFPOINTS
 62
     0
100
AcDbPoint
 10
834.8502157593207
 20
-66.80320004579455
 30
0.0
  0
POINT
  5
584B
330
40B0
100
AcDbEntity
  8
DEFPOINTS
 62
     0
100
AcDbPoint
 10
813.8752157593208
 20
-67.45701130645073
 30
0.0
  0
POINT
  5
584C
330
40B0
100
AcDbEntity
  8
DEFPOINTS
 62
     0
100
AcDbPoint
 10
813.8752157593208
 20
-55.15031990502855
 30
0.0
  0
ENDBLK
  5
40BB
330
40B0
100
AcDbEntity
  8
0
100
AcDbBlockEnd
  0
BLOCK
  5
40C6
330
40BC
100
AcDbEntity
  8
0
100
AcDbBlockBegin
  2
*D3
 70
     1
 10
0.0
 20
0.0
 30
0.0
  3
*D3
  1

  0
LINE
  5
584D
330
40BC
100
AcDbEntity
  8
Z_OM_DIM
100
AcDbLine
 10
834.8502157593202
 20
-71.8519156281475
 30
0.0
 11
834.8502157593202
 21
-87.21375293911616
 31
0.0
  0
LINE
  5
584E
330
40BC
100
AcDbEntity
  8
Z_OM_DIM
100
AcDbLine
 10
827.8502157593207
 20
-74.85191562814752
 30
0.0
 11
827.8502157593207
 21
-87.21375293911616
 31
0.0
  0
LINE
  5
584F
330
40BC
100
AcDbEntity
  8
Z_OM_DIM
100
AcDbLine
 10
832.3502157593201
 20
-85.96375293911616
 30
0.0
 11
830.3502157593207
 21
-85.96375293911616
 31
0.0
  0
INSERT
  5
5850
330
40BC
100
AcDbEntity
  8
Z_OM_DIM
100
AcDbBlockReference
  2
_OPEN30
 10
834.8502157593202
 20
-85.96375293911616
 30
0.0
 41
2.5
 42
2.5
 43
2.5
  0
INSERT
  5
5851
330
40BC
100
AcDbEntity
  8
Z_OM_DIM
100
AcDbBlockReference
  2
_OPEN30
 10
827.8502157593207
 20
-85.96375293911616
 30
0.0
 41
2.5
 42
2.5
 43
2.5
 50
180.0
  0
MTEXT
  5
5852
330
40BC
100
AcDbEntity
  8
Z_OM_DIM
100
AcDbMText
 10
831.3502157593203
 20
-84.08875293911616
 30
0.0
 40
2.5
 41
0.0
 71
     5
 72
     1
  1
7
  7
CatalogDxf
 73
     1
 44
1.0
1001
ACAD
1000
MTEXTBEGIN
1070
    73
1070
     1
1070
    44
1040
1.0
1070
    74
1070
     0
1000
MTEXTEND
  0
POINT
  5
5853
330
40BC
100
AcDbEntity
  8
DEFPOINTS
 62
     0
100
AcDbPoint
 10
834.8502157593202
 20
-71.2269156281475
 30
0.0
  0
POINT
  5
5854
330
40BC
100
AcDbEntity
  8
DEFPOINTS
 62
     0
100
AcDbPoint
 10
827.8502157593207
 20
-74.22691562814752
 30
0.0
  0
POINT
  5
5855
330
40BC
100
AcDbEntity
  8
DEFPOINTS
 62
     0
100
AcDbPoint
 10
827.8502157593207
 20
-85.96375293911616
 30
0.0
  0
ENDBLK
  5
40C7
330
40BC
100
AcDbEntity
  8
0
100
AcDbBlockEnd
  0
BLOCK
  5
40D4
330
40C8
100
AcDbEntity
  8
0
100
AcDbBlockBegin
  2
*D4
 70
     1
 10
0.0
 20
0.0
 30
0.0
  3
*D4
  1

  0
LINE
  5
5856
330
40C8
100
AcDbEntity
  8
Z_OM_DIM
100
AcDbLine
 10
827.8502157593207
 20
-74.85191562814752
 30
0.0
 11
827.8502157593207
 21
-87.21375293911616
 31
0.0
  0
LINE
  5
5857
330
40C8
100
AcDbEntity
  8
Z_OM_DIM
100
AcDbLine
 10
821.8502157593206
 20
-68.85191562814751
 30
0.0
 11
821.8502157593206
 21
-87.21375293911616
 31
0.0
  0
LINE
  5
5858
330
40C8
100
AcDbEntity
  8
Z_OM_DIM
100
AcDbLine
 10
830.3502157593207
 20
-85.96375293911616
 30
0.0
 11
832.8502157593208
 21
-85.96375293911616
 31
0.0
  0
LINE
  5
5859
330
40C8
100
AcDbEntity
  8
Z_OM_DIM
100
AcDbLine
 10
819.3502157593206
 20
-85.96375293911616
 30
0.0
 11
816.8502157593206
 21
-85.96375293911616
 31
0.0
  0
LINE
  5
585A
330
40C8
100
AcDbEntity
  8
Z_OM_DIM
100
AcDbLine
 10
827.8502157593207
 20
-85.96375293911616
 30
0.0
 11
821.8502157593206
 21
-85.96375293911616
 31
0.0
  0
INSERT
  5
585B
330
40C8
100
AcDbEntity
  8
Z_OM_DIM
100
AcDbBlockReference
  2
_OPEN30
 10
827.8502157593207
 20
-85.96375293911616
 30
0.0
 41
2.5
 42
2.5
 43
2.5
 50
180.0
  0
INSERT
  5
585C
330
40C8
100
AcDbEntity
  8
Z_OM_DIM
100
AcDbBlockReference
  2
_OPEN30
 10
821.8502157593206
 20
-85.96375293911616
 30
0.0
 41
2.5
 42
2.5
 43
2.5
  0
MTEXT
  5
585D
330
40C8
100
AcDbEntity
  8
Z_OM_DIM
100
AcDbMText
 10
824.8502157593206
 20
-84.08875293911616
 30
0.0
 40
2.5
 41
0.0
 71
     5
 72
     1
  1
6
  7
CatalogDxf
 73
     1
 44
1.0
1001
ACAD
1000
MTEXTBEGIN
1070
    73
1070
     1
1070
    44
1040
1.0
1070
    74
1070
     0
1000
MTEXTEND
  0
POINT
  5
585E
330
40C8
100
AcDbEntity
  8
DEFPOINTS
 62
     0
100
AcDbPoint
 10
827.8502157593207
 20
-74.22691562814752
 30
0.0
  0
POINT
  5
585F
330
40C8
100
AcDbEntity
  8
DEFPOINTS
 62
     0
100
AcDbPoint
 10
821.8502157593206
 20
-68.22691562814751
 30
0.0
  0
POINT
  5
5860
330
40C8
100
AcDbEntity
  8
DEFPOINTS
 62
     0
100
AcDbPoint
 10
821.8502157593206
 20
-85.96375293911616
 30
0.0
  0
ENDBLK
  5
40D5
330
40C8
100
AcDbEntity
  8
0
100
AcDbBlockEnd
  0
BLOCK
  5
40E0
330
40D6
100
AcDbEntity
  8
0
100
AcDbBlockBegin
  2
*D5
 70
     1
 10
0.0
 20
0.0
 30
0.0
  3
*D5
  1

  0
LINE
  5
5861
330
40D6
100
AcDbEntity
  8
Z_OM_DIM
100
AcDbLine
 10
839.2752157593207
 20
-64.25451130645076
 30
0.0
 11
858.9510620506024
 21
-64.25451130645076
 31
0.0
  0
LINE
  5
5862
330
40D6
100
AcDbEntity
  8
Z_OM_DIM
100
AcDbLine
 10
839.2752157593207
 20
-74.05451130645069
 30
0.0
 11
858.9510620506024
 21
-74.05451130645069
 31
0.0
  0
LINE
  5
5863
330
40D6
100
AcDbEntity
  8
Z_OM_DIM
100
AcDbLine
 10
857.7010620506023
 20
-66.75451130645076
 30
0.0
 11
857.7010620506023
 21
-71.55451130645069
 31
0.0
  0
INSERT
  5
5864
330
40D6
100
AcDbEntity
  8
Z_OM_DIM
100
AcDbBlockReference
  2
_OPEN30
 10
857.7010620506023
 20
-64.25451130645076
 30
0.0
 41
2.5
 42
2.5
 43
2.5
 50
90.0
  0
INSERT
  5
5865
330
40D6
100
AcDbEntity
  8
Z_OM_DIM
100
AcDbBlockReference
  2
_OPEN30
 10
857.7010620506023
 20
-74.05451130645069
 30
0.0
 41
2.5
 42
2.5
 43
2.5
 50
270.0
  0
MTEXT
  5
5866
330
40D6
100
AcDbEntity
  8
Z_OM_DIM
100
AcDbMText
 10
855.8260620506024
 20
-69.1545113064506
 30
0.0
 40
2.5
 41
0.0
 71
     5
 72
     1
  1
9.8
  7
CatalogDxf
 11
0.0000000000000001
 21
1.0
 31
0.0
 73
     1
 44
1.0
1001
ACAD
1000
MTEXTBEGIN
1070
    73
1070
     1
1070
    44
1040
1.0
1070
    74
1070
     0
1000
MTEXTEND
  0
POINT
  5
5867
330
40D6
100
AcDbEntity
  8
DEFPOINTS
 62
     0
100
AcDbPoint
 10
838.6502157593207
 20
-64.25451130645076
 30
0.0
  0
POINT
  5
5868
330
40D6
100
AcDbEntity
  8
DEFPOINTS
 62
     0
100
AcDbPoint
 10
838.6502157593207
 20
-74.05451130645069
 30
0.0
  0
POINT
  5
5869
330
40D6
100
AcDbEntity
  8
DEFPOINTS
 62
     0
100
AcDbPoint
 10
857.7010620506023
 20
-74.05451130645069
 30
0.0
  0
ENDBLK
  5
40E1
330
40D6
100
AcDbEntity
  8
0
100
AcDbBlockEnd
  0
BLOCK
  5
40EE
330
40E2
100
AcDbEntity
  8
0
100
AcDbBlockBegin
  2
*D6
 70
     1
 10
0.0
 20
0.0
 30
0.0
  3
*D6
  1

  0
LINE
  5
586A
330
40E2
100
AcDbEntity
  8
Z_OM_DIM
100
AcDbLine
 10
824.7956980832544
 20
-66.15451130645069
 30
0.0
 11
853.4583504690196
 21
-66.15451130645069
 31
0.0
  0
LINE
  5
586B
330
40E2
100
AcDbEntity
  8
Z_OM_DIM
100
AcDbLine
 10
830.7956980832544
 20
-72.15451130645068
 30
0.0
 11
853.4583504690196
 21
-72.15451130645068
 31
0.0
  0
LINE
  5
586C
330
40E2
100
AcDbEntity
  8
Z_OM_DIM
100
AcDbLine
 10
852.2083504690195
 20
-63.6545113064507
 30
0.0
 11
852.2083504690195
 21
-61.1545113064507
 31
0.0
  0
LINE
  5
586D
330
40E2
100
AcDbEntity
  8
Z_OM_DIM
100
AcDbLine
 10
852.2083504690195
 20
-74.65451130645068
 30
0.0
 11
852.2083504690195
 21
-77.15451130645068
 31
0.0
  0
LINE
  5
586E
330
40E2
100
AcDbEntity
  8
Z_OM_DIM
100
AcDbLine
 10
852.2083504690195
 20
-66.15451130645069
 30
0.0
 11
852.2083504690195
 21
-72.15451130645068
 31
0.0
  0
INSERT
  5
586F
330
40E2
100
AcDbEntity
  8
Z_OM_DIM
100
AcDbBlockReference
  2
_OPEN30
 10
852.2083504690195
 20
-66.15451130645069
 30
0.0
 41
2.5
 42
2.5
 43
2.5
 50
270.0
  0
INSERT
  5
5870
330
40E2
100
AcDbEntity
  8
Z_OM_DIM
100
AcDbBlockReference
  2
_OPEN30
 10
852.2083504690195
 20
-72.15451130645068
 30
0.0
 41
2.5
 42
2.5
 43
2.5
 50
90.0
  0
MTEXT
  5
5871
330
40E2
100
AcDbEntity
  8
Z_OM_DIM
100
AcDbMText
 10
850.3333504690196
 20
-69.15451130645056
 30
0.0
 40
2.5
 41
0.0
 71
     5
 72
     1
  1
6
  7
CatalogDxf
 11
0.0000000000000001
 21
1.0
 31
0.0
 73
     1
 44
1.0
1001
ACAD
1000
MTEXTBEGIN
1070
    73
1070
     1
1070
    44
1040
1.0
1070
    74
1070
     0
1000
MTEXTEND
  0
POINT
  5
5872
330
40E2
100
AcDbEntity
  8
DEFPOINTS
 62
     0
100
AcDbPoint
 10
824.1706980832544
 20
-66.15451130645069
 30
0.0
  0
POINT
  5
5873
330
40E2
100
AcDbEntity
  8
DEFPOINTS
 62
     0
100
AcDbPoint
 10
830.1706980832545
 20
-72.15451130645068
 30
0.0
  0
POINT
  5
5874
330
40E2
100
AcDbEntity
  8
DEFPOINTS
 62
     0
100
AcDbPoint
 10
852.2083504690195
 20
-72.15451130645068
 30
0.0
  0
ENDBLK
  5
40EF
330
40E2
100
AcDbEntity
  8
0
100
AcDbBlockEnd
  0
BLOCK
  5
40FA
330
40F0
100
AcDbEntity
  8
0
100
AcDbBlockBegin
  2
*D7
 70
     1
 10
0.0
 20
0.0
 30
0.0
  3
*D7
  1

  0
LINE
  5
5875
330
40F0
100
AcDbEntity
  8
Z_OM_DIM
100
AcDbLine
 10
784.3275670161158
 20
-63.6295113064509
 30
0.0
 11
784.3275670161158
 21
-53.90031990502868
 31
0.0
  0
LINE
  5
5876
330
40F0
100
AcDbEntity
  8
Z_OM_DIM
100
AcDbLine
 10
795.1275670161158
 20
-63.6295113064509
 30
0.0
 11
795.1275670161158
 21
-53.90031990502868
 31
0.0
  0
LINE
  5
5877
330
40F0
100
AcDbEntity
  8
Z_OM_DIM
100
AcDbLine
 10
786.8275670161158
 20
-55.15031990502868
 30
0.0
 11
792.6275670161158
 21
-55.15031990502868
 31
0.0
  0
INSERT
  5
5878
330
40F0
100
AcDbEntity
  8
Z_OM_DIM
100
AcDbBlockReference
  2
_OPEN30
 10
784.3275670161158
 20
-55.15031990502868
 30
0.0
 41
2.5
 42
2.5
 43
2.5
 50
180.0
  0
INSERT
  5
5879
330
40F0
100
AcDbEntity
  8
Z_OM_DIM
100
AcDbBlockReference
  2
_OPEN30
 10
795.1275670161158
 20
-55.15031990502868
 30
0.0
 41
2.5
 42
2.5
 43
2.5
  0
MTEXT
  5
587A
330
40F0
100
AcDbEntity
  8
Z_OM_DIM
100
AcDbMText
 10
789.7275670161158
 20
-53.27531990502868
 30
0.0
 40
2.5
 41
0.0
 71
     5
 72
     1
  1
10.8
  7
CatalogDxf
 73
     1
 44
1.0
1001
ACAD
1000
MTEXTBEGIN
1070
    73
1070
     1
1070
    44
1040
1.0
1070
    74
1070
     0
1000
MTEXTEND
  0
POINT
  5
587B
330
40F0
100
AcDbEntity
  8
DEFPOINTS
 62
     0
100
AcDbPoint
 10
784.3275670161158
 20
-64.2545113064509
 30
0.0
  0
POINT
  5
587C
330
40F0
100
AcDbEntity
  8
DEFPOINTS
 62
     0
100
AcDbPoint
 10
795.1275670161158
 20
-64.2545113064509
 30
0.0
  0
POINT
  5
587D
330
40F0
100
AcDbEntity
  8
DEFPOINTS
 62
     0
100
AcDbPoint
 10
795.1275670161158
 20
-55.15031990502868
 30
0.0
  0
ENDBLK
  5
40FB
330
40F0
100
AcDbEntity
  8
0
100
AcDbBlockEnd
  0
BLOCK
  5
4106
330
40FC
100
AcDbEntity
  8
0
100
AcDbBlockBegin
  2
*D8
 70
     1
 10
0.0
 20
0.0
 30
0.0
  3
*D8
  1

  0
LINE
  5
58A8
330
40FC
100
AcDbEntity
  8
Z_OM_DIM
100
AcDbLine
 10
838.6502157593207
 20
-10.0703065142787
 30
0.0
 11
838.6502157593207
 21
-3.150526083585786
 31
0.0
  0
LINE
  5
58A9
330
40FC
100
AcDbEntity
  8
Z_OM_DIM
100
AcDbLine
 10
875.5366096649741
 20
-10.2578065142787
 30
0.0
 11
875.5366096649741
 21
-3.150526083585786
 31
0.0
  0
LINE
  5
58AA
330
40FC
100
AcDbEntity
  8
Z_OM_DIM
100
AcDbLine
 10
841.1502157593208
 20
-4.400526083585786
 30
0.0
 11
873.036609664974
 21
-4.400526083585786
 31
0.0
  0
INSERT
  5
58AB
330
40FC
100
AcDbEntity
  8
Z_OM_DIM
100
AcDbBlockReference
  2
_OPEN30
 10
838.6502157593207
 20
-4.400526083585786
 30
0.0
 41
2.5
 42
2.5
 43
2.5
 50
180.0
  0
INSERT
  5
58AC
330
40FC
100
AcDbEntity
  8
Z_OM_DIM
100
AcDbBlockReference
  2
_OPEN30
 10
875.5366096649741
 20
-4.400526083585786
 30
0.0
 41
2.5
 42
2.5
 43
2.5
  0
MTEXT
  5
58AD
330
40FC
100
AcDbEntity
  8
Z_OM_DIM
100
AcDbMText
 10
857.0934127121475
 20
-2.525526083585786
 30
0.0
 40
2.5
 41
0.0
 71
     5
 72
     1
  1
180 - 200
  7
CatalogDxf
 73
     1
 44
1.0
1001
ACAD
1000
MTEXTBEGIN
1070
    73
1070
     1
1070
    44
1040
1.0
1070
    74
1070
     0
1000
MTEXTEND
  0
POINT
  5
58AE
330
40FC
100
AcDbEntity
  8
DEFPOINTS
 62
     0
100
AcDbPoint
 10
838.6502157593207
 20
-10.6953065142787
 30
0.0
  0
POINT
  5
58AF
330
40FC
100
AcDbEntity
  8
DEFPOINTS
 62
     0
100
AcDbPoint
 10
875.5366096649741
 20
-10.8828065142787
 30
0.0
  0
POINT
  5
58B0
330
40FC
100
AcDbEntity
  8
DEFPOINTS
 62
     0
100
AcDbPoint
 10
875.5366096649741
 20
-4.400526083585786
 30
0.0
  0
ENDBLK
  5
4107
330
40FC
100
AcDbEntity
  8
0
100
AcDbBlockEnd
  0
BLOCK
  5
4114
330
4108
100
AcDbEntity
  8
0
100
AcDbBlockBegin
  2
*D9
 70
     1
 10
0.0
 20
0.0
 30
0.0
  3
*D9
  1

  0
LINE
  5
5887
330
4108
100
AcDbEntity
  8
Z_OM_DIM
100
AcDbLine
 10
834.8502157593207
 20
-71.8519156281475
 30
0.0
 11
834.8502157593207
 21
-87.21375293911616
 31
0.0
  0
LINE
  5
5888
330
4108
100
AcDbEntity
  8
Z_OM_DIM
100
AcDbLine
 10
838.6502157593207
 20
-74.67951130645069
 30
0.0
 11
838.6502157593207
 21
-87.21375293911616
 31
0.0
  0
LINE
  5
5889
330
4108
100
AcDbEntity
  8
Z_OM_DIM
100
AcDbLine
 10
832.3502157593207
 20
-85.96375293911616
 30
0.0
 11
829.8502157593206
 21
-85.96375293911616
 31
0.0
  0
LINE
  5
588A
330
4108
100
AcDbEntity
  8
Z_OM_DIM
100
AcDbLine
 10
841.1502157593208
 20
-85.96375293911616
 30
0.0
 11
849.9002157593206
 21
-85.96375293911616
 31
0.0
  0
LINE
  5
588B
330
4108
100
AcDbEntity
  8
Z_OM_DIM
100
AcDbLine
 10
834.8502157593207
 20
-85.96375293911616
 30
0.0
 11
838.6502157593207
 21
-85.96375293911616
 31
0.0
  0
INSERT
  5
588C
330
4108
100
AcDbEntity
  8
Z_OM_DIM
100
AcDbBlockReference
  2
_OPEN30
 10
834.8502157593207
 20
-85.96375293911616
 30
0.0
 41
2.5
 42
2.5
 43
2.5
  0
INSERT
  5
588D
330
4108
100
AcDbEntity
  8
Z_OM_DIM
100
AcDbBlockReference
  2
_OPEN30
 10
838.6502157593207
 20
-85.96375293911616
 30
0.0
 41
2.5
 42
2.5
 43
2.5
 50
180.0
  0
MTEXT
  5
588E
330
4108
100
AcDbEntity
  8
Z_OM_DIM
100
AcDbMText
 10
846.7752157593206
 20
-84.08875293911616
 30
0.0
 40
2.5
 41
0.0
 71
     5
 72
     1
  1
3.8
  7
CatalogDxf
 73
     1
 44
1.0
1001
ACAD
1000
MTEXTBEGIN
1070
    73
1070
     1
1070
    44
1040
1.0
1070
    74
1070
     0
1000
MTEXTEND
  0
POINT
  5
588F
330
4108
100
AcDbEntity
  8
DEFPOINTS
 62
     0
100
AcDbPoint
 10
834.8502157593207
 20
-71.2269156281475
 30
0.0
  0
POINT
  5
5890
330
4108
100
AcDbEntity
  8
DEFPOINTS
 62
     0
100
AcDbPoint
 10
838.6502157593207
 20
-74.05451130645069
 30
0.0
  0
POINT
  5
5891
330
4108
100
AcDbEntity
  8
DEFPOINTS
 62
     0
100
AcDbPoint
 10
838.6502157593207
 20
-85.96375293911616
 30
0.0
  0
ENDBLK
  5
4115
330
4108
100
AcDbEntity
  8
0
100
AcDbBlockEnd
  0
BLOCK
  5
499D
330
4991
100
AcDbEntity
  8
0
100
AcDbBlockBegin
  2
*D10
 70
     1
 10
0.0
 20
0.0
 30
0.0
  3
*D10
  1

  0
LINE
  5
5892
330
4991
100
AcDbEntity
  8
Z_OM_DIM
100
AcDbLine
 10
814.2252157593206
 20
-16.0703065142787
 30
0.0
 11
803.7074631323635
 21
-16.0703065142787
 31
0.0
  0
LINE
  5
5893
330
4991
100
AcDbEntity
  8
Z_OM_DIM
100
AcDbLine
 10
814.2252157593206
 20
-13.07030651427871
 30
0.0
 11
803.7074631323635
 21
-13.0703065142787
 31
0.0
  0
LINE
  5
5894
330
4991
100
AcDbEntity
  8
Z_OM_DIM
100
AcDbLine
 10
804.9574631323634
 20
-18.5703065142787
 30
0.0
 11
804.9574631323634
 21
-21.0703065142787
 31
0.0
  0
LINE
  5
5895
330
4991
100
AcDbEntity
  8
Z_OM_DIM
100
AcDbLine
 10
804.9574631323634
 20
-10.5703065142787
 30
0.0
 11
804.9574631323634
 21
-2.653639847612038
 31
0.0
  0
LINE
  5
5896
330
4991
100
AcDbEntity
  8
Z_OM_DIM
100
AcDbLine
 10
804.9574631323634
 20
-16.0703065142787
 30
0.0
 11
804.9574631323634
 21
-13.0703065142787
 31
0.0
  0
INSERT
  5
5897
330
4991
100
AcDbEntity
  8
Z_OM_DIM
100
AcDbBlockReference
  2
_OPEN30
 10
804.9574631323634
 20
-16.0703065142787
 30
0.0
 41
2.5
 42
2.5
 43
2.5
 50
90.0
  0
INSERT
  5
5898
330
4991
100
AcDbEntity
  8
Z_OM_DIM
100
AcDbBlockReference
  2
_OPEN30
 10
804.9574631323634
 20
-13.0703065142787
 30
0.0
 41
2.5
 42
2.5
 43
2.5
 50
270.0
  0
MTEXT
  5
5899
330
4991
100
AcDbEntity
  8
Z_OM_DIM
100
AcDbMText
 10
803.0824631323635
 20
-5.361973180945241
 30
0.0
 40
2.5
 41
0.0
 71
     5
 72
     1
  1
%%c3
  7
CatalogDxf
 11
0.0000000000000001
 21
1.0
 31
0.0
 73
     1
 44
1.0
1001
ACAD
1000
MTEXTBEGIN
1070
    73
1070
     1
1070
    44
1040
1.0
1070
    74
1070
     0
1000
MTEXTEND
  0
POINT
  5
589A
330
4991
100
AcDbEntity
  8
DEFPOINTS
 62
     0
100
AcDbPoint
 10
814.8502157593206
 20
-16.0703065142787
 30
0.0
  0
POINT
  5
589B
330
4991
100
AcDbEntity
  8
DEFPOINTS
 62
     0
100
AcDbPoint
 10
814.8502157593206
 20
-13.07030651427871
 30
0.0
  0
POINT
  5
589C
330
4991
100
AcDbEntity
  8
DEFPOINTS
 62
     0
100
AcDbPoint
 10
804.9574631323634
 20
-13.0703065142787
 30
0.0
  0
ENDBLK
  5
499E
330
4991
100
AcDbEntity
  8
0
100
AcDbBlockEnd
  0
BLOCK
  5
4ABE
330
4AB2
100
AcDbEntity
  8
0
100
AcDbBlockBegin
  2
*D11
 70
     1
 10
0.0
 20
0.0
 30
0.0
  3
*D11
  1

  0
LINE
  5
589D
330
4AB2
100
AcDbEntity
  8
Z_OM_DIM
100
AcDbLine
 10
813.550215759321
 20
-16.56780651427871
 30
0.0
 11
798.1452466705132
 21
-16.5678065142787
 31
0.0
  0
LINE
  5
589E
330
4AB2
100
AcDbEntity
  8
Z_OM_DIM
100
AcDbLine
 10
813.550215759321
 20
-12.57280651427871
 30
0.0
 11
798.1452466705132
 21
-12.5728065142787
 31
0.0
  0
LINE
  5
589F
330
4AB2
100
AcDbEntity
  8
Z_OM_DIM
100
AcDbLine
 10
799.3952466705132
 20
-19.0678065142787
 30
0.0
 11
799.3952466705132
 21
-21.56780651427871
 31
0.0
  0
LINE
  5
58A0
330
4AB2
100
AcDbEntity
  8
Z_OM_DIM
100
AcDbLine
 10
799.3952466705132
 20
-10.0728065142787
 30
0.0
 11
799.3952466705132
 21
-2.156139847612037
 31
0.0
  0
LINE
  5
58A1
330
4AB2
100
AcDbEntity
  8
Z_OM_DIM
100
AcDbLine
 10
799.3952466705132
 20
-16.5678065142787
 30
0.0
 11
799.3952466705132
 21
-12.5728065142787
 31
0.0
  0
INSERT
  5
58A2
330
4AB2
100
AcDbEntity
  8
Z_OM_DIM
100
AcDbBlockReference
  2
_OPEN30
 10
799.3952466705132
 20
-16.5678065142787
 30
0.0
 41
2.5
 42
2.5
 43
2.5
 50
90.0
  0
INSERT
  5
58A3
330
4AB2
100
AcDbEntity
  8
Z_OM_DIM
100
AcDbBlockReference
  2
_OPEN30
 10
799.3952466705132
 20
-12.5728065142787
 30
0.0
 41
2.5
 42
2.5
 43
2.5
 50
270.0
  0
MTEXT
  5
58A4
330
4AB2
100
AcDbEntity
  8
Z_OM_DIM
100
AcDbMText
 10
797.5202466705131
 20
-4.864473180945241
 30
0.0
 40
2.5
 41
0.0
 71
     5
 72
     1
  1
%%c4
  7
CatalogDxf
 11
0.0000000000000001
 21
1.0
 31
0.0
 73
     1
 44
1.0
1001
ACAD
1000
MTEXTBEGIN
1070
    73
1070
     1
1070
    44
1040
1.0
1070
    74
1070
     0
1000
MTEXTEND
  0
POINT
  5
58A5
330
4AB2
100
AcDbEntity
  8
DEFPOINTS
 62
     0
100
AcDbPoint
 10
814.1752157593209
 20
-16.56780651427871
 30
0.0
  0
POINT
  5
58A6
330
4AB2
100
AcDbEntity
  8
DEFPOINTS
 62
     0
100
AcDbPoint
 10
814.1752157593211
 20
-12.57280651427871
 30
0.0
  0
POINT
  5
58A7
330
4AB2
100
AcDbEntity
  8
DEFPOINTS
 62
     0
100
AcDbPoint
 10
799.3952466705132
 20
-12.5728065142787
 30
0.0
  0
ENDBLK
  5
4ABF
330
4AB2
100
AcDbEntity
  8
0
100
AcDbBlockEnd
  0
BLOCK
  5
4FDD
330
4FDC
100
AcDbEntity
  8
0
100
AcDbBlockBegin
  2
_OPEN
 70
     0
 10
0.0
 20
0.0
 30
0.0
  3
_OPEN
  1

  0
LINE
  5
4FDE
330
4FDC
100
AcDbEntity
  8
0
  6
ByBlock
 62
     0
100
AcDbLine
 10
-1.0
 20
0.1666666666666666
 30
0.0
 11
0.0
 21
0.0
 31
0.0
  0
LINE
  5
4FDF
330
4FDC
100
AcDbEntity
  8
0
  6
ByBlock
 62
     0
100
AcDbLine
 10
0.0
 20
0.0
 30
0.0
 11
-1.0
 21
-0.1666666666666666
 31
0.0
  0
LINE
  5
4FE0
330
4FDC
100
AcDbEntity
  8
0
  6
ByBlock
 62
     0
100
AcDbLine
 10
0.0
 20
0.0
 30
0.0
 11
-1.0
 21
0.0
 31
0.0
  0
ENDBLK
  5
4FE1
330
4FDC
100
AcDbEntity
  8
0
100
AcDbBlockEnd
  0
BLOCK
  5
50C7
330
50C0
100
AcDbEntity
  8
0
100
AcDbBlockBegin
  2
A$C7D437A46
 70
     0
 10
0.0
 20
0.0
 30
0.0
  3
A$C7D437A46
  1

  0
LINE
  5
50C1
330
50C0
100
AcDbEntity
  8
0
 62
     0
 48
0.5
370
    -3
100
AcDbLine
 10
0.0
 20
4.148190905103433
 30
0.0
 11
9.538693903707155
 21
4.148190905103433
 31
0.0
  0
LINE
  5
50C2
330
50C0
100
AcDbEntity
  8
0
 62
     0
 48
0.5
370
    -3
100
AcDbLine
 10
0.0
 20
1.034733115410233
 30
0.0
 11
7.741138210717252
 21
1.034733115410233
 31
0.0
  0
LINE
  5
50C3
330
50C0
100
AcDbEntity
  8
0
 62
     0
 48
0.5
370
    -3
100
AcDbLine
 10
0.0
 20
2.598190905103422
 30
0.0
 11
8.643800986463219
 21
2.598190905103422
 31
0.0
  0
LINE
  5
50C4
330
50C0
100
AcDbEntity
  8
0
 62
     0
 48
0.5
370
    -3
100
AcDbLine
 10
10.55830181967891
 20
5.914203619366048
 30
0.0
 11
6.675949934507087
 21
-0.8102270986125006
 31
0.0
  0
ENDBLK
  5
50C8
330
50C0
100
AcDbEntity
  8
0
100
AcDbBlockEnd
  0
BLOCK
  5
50D0
330
50C9
100
AcDbEntity
  8
0
100
AcDbBlockBegin
  2
A$C4B3765E4
 70
     0
 10
0.0
 20
0.0
 30
0.0
  3
A$C4B3765E4
  1

  0
LINE
  5
50CA
330
50C9
100
AcDbEntity
  8
0
 62
     0
 48
0.5
370
    -3
100
AcDbLine
 10
0.0
 20
4.148190905103433
 30
0.0
 11
9.538693903707155
 21
4.148190905103433
 31
0.0
  0
LINE
  5
50CB
330
50C9
100
AcDbEntity
  8
0
 62
     0
 48
0.5
370
    -3
100
AcDbLine
 10
0.0
 20
1.034733115410233
 30
0.0
 11
7.741138210717252
 21
1.034733115410233
 31
0.0
  0
LINE
  5
50CC
330
50C9
100
AcDbEntity
  8
0
 62
     0
 48
0.5
370
    -3
100
AcDbLine
 10
0.0
 20
2.598190905103422
 30
0.0
 11
8.643800986463219
 21
2.598190905103422
 31
0.0
  0
LINE
  5
50CD
330
50C9
100
AcDbEntity
  8
0
 62
     0
 48
0.5
370
    -3
100
AcDbLine
 10
10.55830181967891
 20
5.914203619366048
 30
0.0
 11
6.675949934507087
 21
-0.8102270986125006
 31
0.0
  0
ENDBLK
  5
50D1
330
50C9
100
AcDbEntity
  8
0
100
AcDbBlockEnd
  0
BLOCK
  5
50DF
330
50D9
100
AcDbEntity
  8
0
100
AcDbBlockBegin
  2
A$C4C4E4789
 70
     0
 10
0.0
 20
0.0
 30
0.0
  3
A$C4C4E4789
  1

  0
LINE
  5
50DA
330
50D9
100
AcDbEntity
  8
0
 62
     0
 48
0.5
370
    -3
100
AcDbLine
 10
1.0
 20
3.0
 30
0.0
 11
1.0
 21
-3.0
 31
0.0
  0
LINE
  5
50DB
330
50D9
100
AcDbEntity
  8
0
 62
     0
 48
0.5
370
    -3
100
AcDbLine
 10
1.0
 20
3.0
 30
0.0
 11
0.0
 21
3.0
 31
0.0
  0
LINE
  5
50DC
330
50D9
100
AcDbEntity
  8
0
 62
     0
 48
0.5
370
    -3
100
AcDbLine
 10
1.0
 20
-3.0
 30
0.0
 11
0.0
 21
-3.0
 31
0.0
  0
ENDBLK
  5
50E0
330
50D9
100
AcDbEntity
  8
0
100
AcDbBlockEnd
  0
BLOCK
  5
515D
330
515C
100
AcDbEntity
  8
0
 48
0.5
100
AcDbBlockBegin
  2
_DOTSMALL
 70
     0
 10
0.0
 20
0.0
 30
0.0
  3
_DOTSMALL
  1

  0
LWPOLYLINE
  5
515E
330
515C
100
AcDbEntity
  8
0
  6
ByBlock
 62
     0
 48
0.5
100
AcDbPolyline
 90
        2
 70
     1
 43
0.5
 10
-0.0625
 20
0.0
 42
1.0
 10
0.0625
 20
0.0
 42
1.0
  0
ENDBLK
  5
515F
330
515C
100
AcDbEntity
  8
0
 48
0.5
100
AcDbBlockEnd
  0
BLOCK
  5
5161
330
5160
100
AcDbEntity
  8
0
 48
0.5
100
AcDbBlockBegin
  2
_NONE
 70
     0
 10
0.0
 20
0.0
 30
0.0
  3
_NONE
  1

  0
CIRCLE
  5
5162
330
5160
100
AcDbEntity
  8
0
  6
ByBlock
 62
     0
 48
0.5
100
AcDbCircle
 10
0.0
 20
0.0
 30
0.0
 40
0.25
  0
ENDBLK
  5
5163
330
5160
100
AcDbEntity
  8
0
 48
0.5
100
AcDbBlockEnd
  0
BLOCK
  5
5165
330
5164
100
AcDbEntity
  8
0
 62
     2
100
AcDbBlockBegin
  2
*D18
 70
     1
 10
0.0
 20
0.0
 30
0.0
  3
*D18
  1

  0
LINE
  5
5166
330
5164
100
AcDbEntity
  8
0
 62
     0
370
    25
100
AcDbLine
 10
212.0234906866715
 20
-203.3693157205918
 30
0.0
 11
237.7996655584945
 21
-203.3693157205918
 31
0.0
  0
LINE
  5
5167
330
5164
100
AcDbEntity
  8
0
 62
     0
370
    25
100
AcDbLine
 10
182.1117896521471
 20
-215.3693157205918
 30
0.0
 11
237.7996655584945
 21
-215.3693157205918
 31
0.0
  0
LINE
  5
5168
330
5164
100
AcDbEntity
  8
0
 62
     0
370
    25
100
AcDbLine
 10
236.7996655584946
 20
-205.8693157205918
 30
0.0
 11
236.7996655584946
 21
-212.8693157205918
 31
0.0
  0
INSERT
  5
5169
330
5164
100
AcDbEntity
  8
0
 62
     0
370
    25
100
AcDbBlockReference
  2
_OPEN
 10
236.7996655584946
 20
-203.3693157205918
 30
0.0
 41
2.5
 42
2.5
 43
2.5
 50
90.0
  0
INSERT
  5
516A
330
5164
100
AcDbEntity
  8
0
 62
     0
370
    25
100
AcDbBlockReference
  2
_OPEN
 10
236.7996655584946
 20
-215.3693157205918
 30
0.0
 41
2.5
 42
2.5
 43
2.5
 50
270.0
  0
MTEXT
  5
516B
330
5164
100
AcDbEntity
  8
0
 62
     0
370
    -3
100
AcDbMText
 10
234.4787892698348
 20
-209.3693157205918
 30
0.0
 40
2.5
 41
0.0
 71
     5
 72
     1
  1
\A1;6
  7
イラストレーター
 11
0.0000000000000001
 21
1.0
 31
0.0
 73
     1
 44
1.0
1001
ACAD
1000
MTEXTBEGIN
1070
    73
1070
     1
1070
    44
1040
1.0
1070
    74
1070
     0
1000
MTEXTEND
  0
POINT
  5
516C
330
5164
100
AcDbEntity
  8
DEFPOINTS
 62
     0
100
AcDbPoint
 10
211.0234906866716
 20
-203.3693157205918
 30
0.0
  0
POINT
  5
516D
330
5164
100
AcDbEntity
  8
DEFPOINTS
 62
     0
100
AcDbPoint
 10
181.1117896521471
 20
-215.3693157205918
 30
0.0
  0
POINT
  5
516E
330
5164
100
AcDbEntity
  8
DEFPOINTS
 62
     0
100
AcDbPoint
 10
236.7996655584946
 20
-215.3693157205918
 30
0.0
  0
ENDBLK
  5
516F
330
5164
100
AcDbEntity
  8
0
 62
     2
100
AcDbBlockEnd
  0
BLOCK
  5
5171
330
5170
100
AcDbEntity
  8
0
 62
     2
100
AcDbBlockBegin
  2
*D19
 70
     1
 10
0.0
 20
0.0
 30
0.0
  3
*D19
  1

  0
LINE
  5
5172
330
5170
100
AcDbEntity
  8
0
 62
     0
370
    25
100
AcDbLine
 10
206.2395449633971
 20
-208.9707383120608
 30
0.0
 11
206.2395449633971
 21
-237.4209896915681
 31
0.0
  0
LINE
  5
5173
330
5170
100
AcDbEntity
  8
0
 62
     0
370
    25
100
AcDbLine
 10
176.239544963397
 20
-221.0254640388675
 30
0.0
 11
176.239544963397
 21
-237.4209896915681
 31
0.0
  0
LINE
  5
5174
330
5170
100
AcDbEntity
  8
0
 62
     0
370
    25
100
AcDbLine
 10
203.7395449633971
 20
-236.4209896915681
 30
0.0
 11
178.739544963397
 21
-236.4209896915681
 31
0.0
  0
INSERT
  5
5175
330
5170
100
AcDbEntity
  8
0
 62
     0
370
    25
100
AcDbBlockReference
  2
_OPEN
 10
206.2395449633971
 20
-236.4209896915681
 30
0.0
 41
2.5
 42
2.5
 43
2.5
  0
INSERT
  5
5176
330
5170
100
AcDbEntity
  8
0
 62
     0
370
    25
100
AcDbBlockReference
  2
_OPEN
 10
176.239544963397
 20
-236.4209896915681
 30
0.0
 41
2.5
 42
2.5
 43
2.5
 50
180.0
  0
MTEXT
  5
5177
330
5170
100
AcDbEntity
  8
0
 62
     0
370
    -3
100
AcDbMText
 10
191.2395449633971
 20
-234.1001134029083
 30
0.0
 40
2.5
 41
0.0
 71
     5
 72
     1
  1
\A1;15
  7
イラストレーター
 73
     1
 44
1.0
1001
ACAD
1000
MTEXTBEGIN
1070
    73
1070
     1
1070
    44
1040
1.0
1070
    74
1070
     0
1000
MTEXTEND
  0
POINT
  5
5178
330
5170
100
AcDbEntity
  8
DEFPOINTS
 62
     0
100
AcDbPoint
 10
206.2395449633971
 20
-207.9707383120608
 30
0.0
  0
POINT
  5
5179
330
5170
100
AcDbEntity
  8
DEFPOINTS
 62
     0
100
AcDbPoint
 10
176.239544963397
 20
-220.0254640388676
 30
0.0
  0
POINT
  5
517A
330
5170
100
AcDbEntity
  8
DEFPOINTS
 62
     0
100
AcDbPoint
 10
176.239544963397
 20
-236.4209896915681
 30
0.0
  0
ENDBLK
  5
517B
330
5170
100
AcDbEntity
  8
0
 62
     2
100
AcDbBlockEnd
  0
BLOCK
  5
517D
330
517C
100
AcDbEntity
  8
0
 62
     2
100
AcDbBlockBegin
  2
*D20
 70
     1
 10
0.0
 20
0.0
 30
0.0
  3
*D20
  1

  0
LINE
  5
517E
330
517C
100
AcDbEntity
  8
0
 62
     0
370
    25
100
AcDbLine
 10
147.6395449633971
 20
-205.3693157205919
 30
0.0
 11
128.9190924342506
 21
-205.3693157205919
 31
0.0
  0
LINE
  5
517F
330
517C
100
AcDbEntity
  8
0
 62
     0
370
    25
100
AcDbLine
 10
147.639544963397
 20
-213.3693157205919
 30
0.0
 11
128.9190924342506
 21
-213.3693157205919
 31
0.0
  0
LINE
  5
5180
330
517C
100
AcDbEntity
  8
0
 62
     0
370
    25
100
AcDbLine
 10
129.9190924342506
 20
-207.8693157205919
 30
0.0
 11
129.9190924342506
 21
-210.8693157205919
 31
0.0
  0
INSERT
  5
5181
330
517C
100
AcDbEntity
  8
0
 62
     0
370
    25
100
AcDbBlockReference
  2
_OPEN
 10
129.9190924342506
 20
-205.3693157205919
 30
0.0
 41
2.5
 42
2.5
 43
2.5
 50
90.0
  0
INSERT
  5
5182
330
517C
100
AcDbEntity
  8
0
 62
     0
370
    25
100
AcDbBlockReference
  2
_OPEN
 10
129.9190924342506
 20
-213.3693157205919
 30
0.0
 41
2.5
 42
2.5
 43
2.5
 50
270.0
  0
MTEXT
  5
5183
330
517C
100
AcDbEntity
  8
0
 62
     0
370
    -3
100
AcDbMText
 10
127.4500202693022
 20
-209.3693157205918
 30
0.0
 40
2.5
 41
0.0
 71
     5
 72
     1
  1
\A1;%%c4
  7
イラストレーター
 11
0.0000000000000001
 21
1.0
 31
0.0
 73
     1
 44
1.0
1001
ACAD
1000
MTEXTBEGIN
1070
    73
1070
     1
1070
    44
1040
1.0
1070
    74
1070
     0
1000
MTEXTEND
  0
POINT
  5
5184
330
517C
100
AcDbEntity
  8
DEFPOINTS
 62
     0
100
AcDbPoint
 10
148.639544963397
 20
-205.3693157205919
 30
0.0
  0
POINT
  5
5185
330
517C
100
AcDbEntity
  8
DEFPOINTS
 62
     0
100
AcDbPoint
 10
148.639544963397
 20
-213.3693157205919
 30
0.0
  0
POINT
  5
5186
330
517C
100
AcDbEntity
  8
DEFPOINTS
 62
     0
100
AcDbPoint
 10
129.9190924342506
 20
-213.3693157205919
 30
0.0
  0
ENDBLK
  5
5187
330
517C
100
AcDbEntity
  8
0
 62
     2
100
AcDbBlockEnd
  0
BLOCK
  5
5189
330
5188
100
AcDbEntity
  8
0
 62
     2
100
AcDbBlockBegin
  2
*D21
 70
     1
 10
0.0
 20
0.0
 30
0.0
  3
*D21
  1

  0
LINE
  5
518A
330
5188
100
AcDbEntity
  8
0
 62
     0
370
    25
100
AcDbLine
 10
73.07213818204832
 20
-220.3693157205918
 30
0.0
 11
73.07213818204832
 21
-237.4209896915681
 31
0.0
  0
LINE
  5
518B
330
5188
100
AcDbEntity
  8
0
 62
     0
370
    25
100
AcDbLine
 10
97.07213818204833
 20
-220.3693157205918
 30
0.0
 11
97.07213818204833
 21
-237.4209896915681
 31
0.0
  0
LINE
  5
518C
330
5188
100
AcDbEntity
  8
0
 62
     0
370
    25
100
AcDbLine
 10
75.57213818204832
 20
-236.4209896915681
 30
0.0
 11
94.57213818204833
 21
-236.4209896915681
 31
0.0
  0
INSERT
  5
518D
330
5188
100
AcDbEntity
  8
0
 62
     0
370
    25
100
AcDbBlockReference
  2
_OPEN
 10
73.07213818204832
 20
-236.4209896915681
 30
0.0
 41
2.5
 42
2.5
 43
2.5
 50
180.0
  0
INSERT
  5
518E
330
5188
100
AcDbEntity
  8
0
 62
     0
370
    25
100
AcDbBlockReference
  2
_OPEN
 10
97.07213818204833
 20
-236.4209896915681
 30
0.0
 41
2.5
 42
2.5
 43
2.5
  0
MTEXT
  5
518F
330
5188
100
AcDbEntity
  8
0
 62
     0
370
    -3
100
AcDbMText
 10
85.07213818204832
 20
-234.1001134029083
 30
0.0
 40
2.5
 41
0.0
 71
     5
 72
     1
  1
\A1;12
  7
イラストレーター
 73
     1
 44
1.0
1001
ACAD
1000
MTEXTBEGIN
1070
    73
1070
     1
1070
    44
1040
1.0
1070
    74
1070
     0
1000
MTEXTEND
  0
POINT
  5
5190
330
5188
100
AcDbEntity
  8
DEFPOINTS
 62
     0
100
AcDbPoint
 10
73.07213818204832
 20
-219.3693157205918
 30
0.0
  0
POINT
  5
5191
330
5188
100
AcDbEntity
  8
DEFPOINTS
 62
     0
100
AcDbPoint
 10
97.07213818204833
 20
-219.3693157205918
 30
0.0
  0
POINT
  5
5192
330
5188
100
AcDbEntity
  8
DEFPOINTS
 62
     0
100
AcDbPoint
 10
97.07213818204833
 20
-236.4209896915681
 30
0.0
  0
ENDBLK
  5
5193
330
5188
100
AcDbEntity
  8
0
 62
     2
100
AcDbBlockEnd
  0
BLOCK
  5
5195
330
5194
100
AcDbEntity
  8
0
 62
     2
100
AcDbBlockBegin
  2
*D22
 70
     1
 10
0.0
 20
0.0
 30
0.0
  3
*D22
  1

  0
LINE
  5
5196
330
5194
100
AcDbEntity
  8
0
 62
     0
370
    25
100
AcDbLine
 10
98.07213818204832
 20
-219.3693157205918
 30
0.0
 11
114.7667730618218
 21
-219.3693157205918
 31
0.0
  0
LINE
  5
5197
330
5194
100
AcDbEntity
  8
0
 62
     0
370
    25
100
AcDbLine
 10
98.07213818204832
 20
-199.369315720592
 30
0.0
 11
114.7667730618218
 21
-199.369315720592
 31
0.0
  0
LINE
  5
5198
330
5194
100
AcDbEntity
  8
0
 62
     0
370
    25
100
AcDbLine
 10
113.7667730618218
 20
-216.8693157205918
 30
0.0
 11
113.7667730618218
 21
-201.8693157205921
 31
0.0
  0
INSERT
  5
5199
330
5194
100
AcDbEntity
  8
0
 62
     0
370
    25
100
AcDbBlockReference
  2
_OPEN
 10
113.7667730618218
 20
-219.3693157205918
 30
0.0
 41
2.5
 42
2.5
 43
2.5
 50
270.0
  0
INSERT
  5
519A
330
5194
100
AcDbEntity
  8
0
 62
     0
370
    25
100
AcDbBlockReference
  2
_OPEN
 10
113.7667730618218
 20
-199.369315720592
 30
0.0
 41
2.5
 42
2.5
 43
2.5
 50
90.0
  0
MTEXT
  5
519B
330
5194
100
AcDbEntity
  8
0
 62
     0
370
    -3
100
AcDbMText
 10
111.445896773162
 20
-209.3693157205919
 30
0.0
 40
2.5
 41
0.0
 71
     5
 72
     1
  1
\A1;10
  7
イラストレーター
 11
0.0000000000000001
 21
1.0
 31
0.0
 73
     1
 44
1.0
1001
ACAD
1000
MTEXTBEGIN
1070
    73
1070
     1
1070
    44
1040
1.0
1070
    74
1070
     0
1000
MTEXTEND
  0
POINT
  5
519C
330
5194
100
AcDbEntity
  8
DEFPOINTS
 62
     0
100
AcDbPoint
 10
97.07213818204833
 20
-219.3693157205918
 30
0.0
  0
POINT
  5
519D
330
5194
100
AcDbEntity
  8
DEFPOINTS
 62
     0
100
AcDbPoint
 10
97.07213818204833
 20
-199.369315720592
 30
0.0
  0
POINT
  5
519E
330
5194
100
AcDbEntity
  8
DEFPOINTS
 62
     0
100
AcDbPoint
 10
113.7667730618218
 20
-199.369315720592
 30
0.0
  0
ENDBLK
  5
519F
330
5194
100
AcDbEntity
  8
0
 62
     2
100
AcDbBlockEnd
  0
BLOCK
  5
51A1
330
51A0
100
AcDbEntity
  8
0
 62
     2
100
AcDbBlockBegin
  2
*D23
 70
     1
 10
0.0
 20
0.0
 30
0.0
  3
*D23
  1

  0
LINE
  5
51A2
330
51A0
100
AcDbEntity
  8
0
 62
     0
370
    25
100
AcDbLine
 10
176.239544963397
 20
-221.0254640388675
 30
0.0
 11
176.239544963397
 21
-237.4209896915681
 31
0.0
  0
LINE
  5
51A3
330
51A0
100
AcDbEntity
  8
0
 62
     0
370
    25
100
AcDbLine
 10
164.2395449633971
 20
-220.3693157205918
 30
0.0
 11
164.2395449633971
 21
-237.4209896915681
 31
0.0
  0
LINE
  5
51A4
330
51A0
100
AcDbEntity
  8
0
 62
     0
370
    25
100
AcDbLine
 10
173.739544963397
 20
-236.4209896915681
 30
0.0
 11
166.7395449633971
 21
-236.4209896915681
 31
0.0
  0
INSERT
  5
51A5
330
51A0
100
AcDbEntity
  8
0
 62
     0
370
    25
100
AcDbBlockReference
  2
_OPEN
 10
176.239544963397
 20
-236.4209896915681
 30
0.0
 41
2.5
 42
2.5
 43
2.5
  0
INSERT
  5
51A6
330
51A0
100
AcDbEntity
  8
0
 62
     0
370
    25
100
AcDbBlockReference
  2
_OPEN
 10
164.2395449633971
 20
-236.4209896915681
 30
0.0
 41
2.5
 42
2.5
 43
2.5
 50
180.0
  0
MTEXT
  5
51A7
330
51A0
100
AcDbEntity
  8
0
 62
     0
370
    -3
100
AcDbMText
 10
170.5829300194737
 20
-234.1001134029083
 30
0.0
 40
2.5
 41
0.0
 71
     5
 72
     1
  1
\A1;6
  7
イラストレーター
 73
     1
 44
1.0
1001
ACAD
1000
MTEXTBEGIN
1070
    73
1070
     1
1070
    44
1040
1.0
1070
    74
1070
     0
1000
MTEXTEND
  0
POINT
  5
51A8
330
51A0
100
AcDbEntity
  8
DEFPOINTS
 62
     0
100
AcDbPoint
 10
176.239544963397
 20
-220.0254640388676
 30
0.0
  0
POINT
  5
51A9
330
51A0
100
AcDbEntity
  8
DEFPOINTS
 62
     0
100
AcDbPoint
 10
164.2395449633971
 20
-219.3693157205918
 30
0.0
  0
POINT
  5
51AA
330
51A0
100
AcDbEntity
  8
DEFPOINTS
 62
     0
100
AcDbPoint
 10
164.2395449633971
 20
-236.4209896915681
 30
0.0
  0
ENDBLK
  5
51AB
330
51A0
100
AcDbEntity
  8
0
 62
     2
100
AcDbBlockEnd
  0
BLOCK
  5
51AD
330
51AC
100
AcDbEntity
  8
0
 62
     2
100
AcDbBlockBegin
  2
*D24
 70
     1
 10
0.0
 20
0.0
 30
0.0
  3
*D24
  1

  0
LINE
  5
51AE
330
51AC
100
AcDbEntity
  8
0
 62
     0
370
    25
100
AcDbLine
 10
164.2395449633971
 20
-220.3693157205918
 30
0.0
 11
164.2395449633971
 21
-237.4209896915682
 31
0.0
  0
LINE
  5
51AF
330
51AC
100
AcDbEntity
  8
0
 62
     0
370
    25
100
AcDbLine
 10
152.839544963397
 20
-214.369315720592
 30
0.0
 11
152.839544963397
 21
-237.4209896915682
 31
0.0
  0
LINE
  5
51B0
330
51AC
100
AcDbEntity
  8
0
 62
     0
370
    25
100
AcDbLine
 10
161.7395449633971
 20
-236.4209896915681
 30
0.0
 11
155.339544963397
 21
-236.4209896915681
 31
0.0
  0
INSERT
  5
51B1
330
51AC
100
AcDbEntity
  8
0
 62
     0
370
    25
100
AcDbBlockReference
  2
_OPEN
 10
164.2395449633971
 20
-236.4209896915681
 30
0.0
 41
2.5
 42
2.5
 43
2.5
  0
INSERT
  5
51B2
330
51AC
100
AcDbEntity
  8
0
 62
     0
370
    25
100
AcDbBlockReference
  2
_OPEN
 10
152.839544963397
 20
-236.4209896915681
 30
0.0
 41
2.5
 42
2.5
 43
2.5
 50
180.0
  0
MTEXT
  5
51B3
330
51AC
100
AcDbEntity
  8
0
 62
     0
370
    -3
100
AcDbMText
 10
158.7490036634013
 20
-234.0421237121868
 30
0.0
 40
2.5
 41
0.0
 71
     5
 72
     1
  1
\A1;5.7
  7
イラストレーター
 73
     1
 44
1.0
1001
ACAD
1000
MTEXTBEGIN
1070
    73
1070
     1
1070
    44
1040
1.0
1070
    74
1070
     0
1000
MTEXTEND
  0
POINT
  5
51B4
330
51AC
100
AcDbEntity
  8
DEFPOINTS
 62
     0
100
AcDbPoint
 10
164.2395449633971
 20
-219.3693157205918
 30
0.0
  0
POINT
  5
51B5
330
51AC
100
AcDbEntity
  8
DEFPOINTS
 62
     0
100
AcDbPoint
 10
152.839544963397
 20
-213.3693157205919
 30
0.0
  0
POINT
  5
51B6
330
51AC
100
AcDbEntity
  8
DEFPOINTS
 62
     0
100
AcDbPoint
 10
152.839544963397
 20
-236.4209896915681
 30
0.0
  0
ENDBLK
  5
51B7
330
51AC
100
AcDbEntity
  8
0
 62
     2
100
AcDbBlockEnd
  0
BLOCK
  5
51B9
330
51B8
100
AcDbEntity
  8
0
 62
     2
100
AcDbBlockBegin
  2
*D25
 70
     1
 10
0.0
 20
0.0
 30
0.0
  3
*D25
  1

  0
LINE
  5
51BA
330
51B8
100
AcDbEntity
  8
0
 62
     0
370
    25
100
AcDbLine
 10
150.8395449633971
 20
-204.3693157205917
 30
0.0
 11
150.8395449633971
 21
-187.971099975367
 31
0.0
  0
LINE
  5
51BB
330
51B8
100
AcDbEntity
  8
0
 62
     0
370
    25
100
AcDbLine
 10
152.8395449633971
 20
-204.3693157205917
 30
0.0
 11
152.8395449633971
 21
-187.971099975367
 31
0.0
  0
LINE
  5
51BC
330
51B8
100
AcDbEntity
  8
0
 62
     0
370
    25
100
AcDbLine
 10
150.8395449633971
 20
-188.971099975367
 30
0.0
 11
148.3395449633971
 21
-188.971099975367
 31
0.0
  0
LINE
  5
51BD
330
51B8
100
AcDbEntity
  8
0
 62
     0
370
    25
100
AcDbLine
 10
155.3395449633971
 20
-188.971099975367
 30
0.0
 11
160.8962459943249
 21
-188.971099975367
 31
0.0
  0
LINE
  5
51BE
330
51B8
100
AcDbEntity
  8
0
 62
     0
370
    25
100
AcDbLine
 10
150.8395449633971
 20
-188.971099975367
 30
0.0
 11
152.8395449633971
 21
-188.971099975367
 31
0.0
  0
INSERT
  5
51BF
330
51B8
100
AcDbEntity
  8
0
 62
     0
370
    25
100
AcDbBlockReference
  2
_DOTSMALL
 10
150.8395449633971
 20
-188.971099975367
 30
0.0
 41
2.5
 42
2.5
 43
2.5
  0
INSERT
  5
51C0
330
51B8
100
AcDbEntity
  8
0
 62
     0
370
    25
100
AcDbBlockReference
  2
_OPEN
 10
152.8395449633971
 20
-188.971099975367
 30
0.0
 41
2.5
 42
2.5
 43
2.5
 50
180.0
  0
MTEXT
  5
51C1
330
51B8
100
AcDbEntity
  8
0
 62
     0
370
    -3
100
AcDbMText
 10
159.367895478861
 20
-186.6502236867072
 30
0.0
 40
2.5
 41
0.0
 71
     5
 72
     1
  1
\A1;1
  7
イラストレーター
 73
     1
 44
1.0
1001
ACAD
1000
MTEXTBEGIN
1070
    73
1070
     1
1070
    44
1040
1.0
1070
    74
1070
     0
1000
MTEXTEND
  0
POINT
  5
51C2
330
51B8
100
AcDbEntity
  8
DEFPOINTS
 62
     0
100
AcDbPoint
 10
150.8395449633971
 20
-205.3693157205917
 30
0.0
  0
POINT
  5
51C3
330
51B8
100
AcDbEntity
  8
DEFPOINTS
 62
     0
100
AcDbPoint
 10
152.8395449633971
 20
-205.3693157205917
 30
0.0
  0
POINT
  5
51C4
330
51B8
100
AcDbEntity
  8
DEFPOINTS
 62
     0
100
AcDbPoint
 10
152.8395449633971
 20
-188.971099975367
 30
0.0
  0
ENDBLK
  5
51C5
330
51B8
100
AcDbEntity
  8
0
 62
     2
100
AcDbBlockEnd
  0
BLOCK
  5
51C7
330
51C6
100
AcDbEntity
  8
0
 62
     2
100
AcDbBlockBegin
  2
*D26
 70
     1
 10
0.0
 20
0.0
 30
0.0
  3
*D26
  1

  0
LINE
  5
51C8
330
51C6
100
AcDbEntity
  8
0
 62
     0
370
    25
100
AcDbLine
 10
150.8395449633971
 20
-204.3693157205917
 30
0.0
 11
150.8395449633971
 21
-187.9710999753669
 31
0.0
  0
LINE
  5
51C9
330
51C6
100
AcDbEntity
  8
0
 62
     0
370
    25
100
AcDbLine
 10
148.239544963397
 20
-204.7693157205917
 30
0.0
 11
148.239544963397
 21
-187.9710999753669
 31
0.0
  0
LINE
  5
51CA
330
51C6
100
AcDbEntity
  8
0
 62
     0
370
    25
100
AcDbLine
 10
150.8395449633971
 20
-188.9710999753669
 30
0.0
 11
153.3395449633971
 21
-188.9710999753669
 31
0.0
  0
LINE
  5
51CB
330
51C6
100
AcDbEntity
  8
0
 62
     0
370
    25
100
AcDbLine
 10
145.739544963397
 20
-188.9710999753669
 30
0.0
 11
136.2782047572115
 21
-188.9710999753669
 31
0.0
  0
LINE
  5
51CC
330
51C6
100
AcDbEntity
  8
0
 62
     0
370
    25
100
AcDbLine
 10
150.8395449633971
 20
-188.9710999753669
 30
0.0
 11
148.239544963397
 21
-188.9710999753669
 31
0.0
  0
INSERT
  5
51CD
330
51C6
100
AcDbEntity
  8
0
 62
     0
370
    25
100
AcDbBlockReference
  2
_DOTSMALL
 10
150.8395449633971
 20
-188.9710999753669
 30
0.0
 41
2.5
 42
2.5
 43
2.5
 50
180.0
  0
INSERT
  5
51CE
330
51C6
100
AcDbEntity
  8
0
 62
     0
370
    25
100
AcDbBlockReference
  2
_OPEN
 10
148.239544963397
 20
-188.9710999753669
 30
0.0
 41
2.5
 42
2.5
 43
2.5
  0
MTEXT
  5
51CF
330
51C6
100
AcDbEntity
  8
0
 62
     0
370
    -3
100
AcDbMText
 10
139.7588748603042
 20
-186.5922339959855
 30
0.0
 40
2.5
 41
0.0
 71
     5
 72
     1
  1
\A1;1.3
  7
イラストレーター
 73
     1
 44
1.0
1001
ACAD
1000
MTEXTBEGIN
1070
    73
1070
     1
1070
    44
1040
1.0
1070
    74
1070
     0
1000
MTEXTEND
  0
POINT
  5
51D0
330
51C6
100
AcDbEntity
  8
DEFPOINTS
 62
     0
100
AcDbPoint
 10
150.8395449633971
 20
-205.3693157205917
 30
0.0
  0
POINT
  5
51D1
330
51C6
100
AcDbEntity
  8
DEFPOINTS
 62
     0
100
AcDbPoint
 10
148.239544963397
 20
-205.7693157205918
 30
0.0
  0
POINT
  5
51D2
330
51C6
100
AcDbEntity
  8
DEFPOINTS
 62
     0
100
AcDbPoint
 10
148.239544963397
 20
-188.9710999753669
 30
0.0
  0
ENDBLK
  5
51D3
330
51C6
100
AcDbEntity
  8
0
 62
     2
100
AcDbBlockEnd
  0
BLOCK
  5
51D5
330
51D4
100
AcDbEntity
  8
0
 62
     2
100
AcDbBlockBegin
  2
*D27
 70
     1
 10
0.0
 20
0.0
 30
0.0
  3
*D27
  1

  0
LINE
  5
51D6
330
51D4
100
AcDbEntity
  8
0
 62
     0
370
    25
100
AcDbLine
 10
213.9395449633969
 20
-134.8268201320021
 30
0.0
 11
213.9395449633969
 21
-153.4845719277085
 31
0.0
  0
LINE
  5
51D7
330
51D4
100
AcDbEntity
  8
0
 62
     0
370
    25
100
AcDbLine
 10
164.239544963397
 20
-136.826820132002
 30
0.0
 11
164.239544963397
 21
-153.4845719277085
 31
0.0
  0
LINE
  5
51D8
330
51D4
100
AcDbEntity
  8
0
 62
     0
370
    25
100
AcDbLine
 10
211.439544963397
 20
-152.4845719277085
 30
0.0
 11
166.739544963397
 21
-152.4845719277085
 31
0.0
  0
INSERT
  5
51D9
330
51D4
100
AcDbEntity
  8
0
 62
     0
370
    25
100
AcDbBlockReference
  2
_OPEN
 10
213.9395449633969
 20
-152.4845719277085
 30
0.0
 41
2.5
 42
2.5
 43
2.5
  0
INSERT
  5
51DA
330
51D4
100
AcDbEntity
  8
0
 62
     0
370
    25
100
AcDbBlockReference
  2
_OPEN
 10
164.239544963397
 20
-152.4845719277085
 30
0.0
 41
2.5
 42
2.5
 43
2.5
 50
180.0
  0
MTEXT
  5
51DB
330
51D4
100
AcDbEntity
  8
0
 62
     0
370
    -3
100
AcDbMText
 10
189.089544963397
 20
-150.1057059483271
 30
0.0
 40
2.5
 41
0.0
 71
     5
 72
     1
  1
\A1;24.8
  7
イラストレーター
 73
     1
 44
1.0
1001
ACAD
1000
MTEXTBEGIN
1070
    73
1070
     1
1070
    44
1040
1.0
1070
    74
1070
     0
1000
MTEXTEND
  0
POINT
  5
51DC
330
51D4
100
AcDbEntity
  8
DEFPOINTS
 62
     0
100
AcDbPoint
 10
213.9395449633969
 20
-133.8268201320021
 30
0.0
  0
POINT
  5
51DD
330
51D4
100
AcDbEntity
  8
DEFPOINTS
 62
     0
100
AcDbPoint
 10
164.239544963397
 20
-135.826820132002
 30
0.0
  0
POINT
  5
51DE
330
51D4
100
AcDbEntity
  8
DEFPOINTS
 62
     0
100
AcDbPoint
 10
164.239544963397
 20
-152.4845719277085
 30
0.0
  0
ENDBLK
  5
51DF
330
51D4
100
AcDbEntity
  8
0
 62
     2
100
AcDbBlockEnd
  0
BLOCK
  5
51E1
330
51E0
100
AcDbEntity
  8
0
 62
     2
100
AcDbBlockBegin
  2
*D28
 70
     1
 10
0.0
 20
0.0
 30
0.0
  3
*D28
  1

  0
LINE
  5
51E2
330
51E0
100
AcDbEntity
  8
0
 62
     0
370
    25
100
AcDbLine
 10
213.9395449633969
 20
-137.2284033786147
 30
0.0
 11
213.9395449633969
 21
-153.4845719277085
 31
0.0
  0
LINE
  5
51E3
330
51E0
100
AcDbEntity
  8
0
 62
     0
370
    25
100
AcDbLine
 10
216.439544963397
 20
-152.4845719277085
 30
0.0
 11
240.5961659484812
 21
-152.4845719277085
 31
0.0
  0
INSERT
  5
51E4
330
51E0
100
AcDbEntity
  8
0
 62
     0
370
    25
100
AcDbBlockReference
  2
_OPEN
 10
213.9395449633969
 20
-152.4845719277085
 30
0.0
 41
2.5
 42
2.5
 43
2.5
 50
180.0
  0
MTEXT
  5
51E5
330
51E0
100
AcDbEntity
  8
0
 62
     0
370
    -3
100
AcDbMText
 10
228.5178554559391
 20
-150.0477162576054
 30
0.0
 40
2.5
 41
0.0
 71
     5
 72
     1
  1
\A1;180以上
  7
イラストレーター
 73
     1
 44
1.0
1001
ACAD
1000
MTEXTBEGIN
1070
    73
1070
     1
1070
    44
1040
1.0
1070
    74
1070
     0
1000
MTEXTEND
  0
POINT
  5
51E6
330
51E0
100
AcDbEntity
  8
DEFPOINTS
 62
     0
100
AcDbPoint
 10
213.9395449633969
 20
-136.2284033786147
 30
0.0
  0
POINT
  5
51E7
330
51E0
100
AcDbEntity
  8
DEFPOINTS
 62
     0
100
AcDbPoint
 10
240.5961659484812
 20
-118.6284033786148
 30
0.0
  0
POINT
  5
51E8
330
51E0
100
AcDbEntity
  8
DEFPOINTS
 62
     0
100
AcDbPoint
 10
240.5961659484812
 20
-152.4845719277085
 30
0.0
  0
ENDBLK
  5
51E9
330
51E0
100
AcDbEntity
  8
0
 62
     2
100
AcDbBlockEnd
  0
BLOCK
  5
51EB
330
51EA
100
AcDbEntity
  8
0
 62
     2
100
AcDbBlockBegin
  2
*D29
 70
     1
 10
0.0
 20
0.0
 30
0.0
  3
*D29
  1

  0
LINE
  5
51EC
330
51EA
100
AcDbEntity
  8
0
 62
     0
370
    25
100
AcDbLine
 10
149.839544963397
 20
-211.3693157205919
 30
0.0
 11
135.2914434307704
 21
-211.3693157205919
 31
0.0
  0
LINE
  5
51ED
330
51EA
100
AcDbEntity
  8
0
 62
     0
370
    25
100
AcDbLine
 10
149.839544963397
 20
-207.3693157205919
 30
0.0
 11
135.2914434307704
 21
-207.3693157205919
 31
0.0
  0
LINE
  5
51EE
330
51EA
100
AcDbEntity
  8
0
 62
     0
370
    25
100
AcDbLine
 10
136.2914434307704
 20
-213.8693157205919
 30
0.0
 11
136.2914434307704
 21
-216.3693157205919
 31
0.0
  0
LINE
  5
51EF
330
51EA
100
AcDbEntity
  8
0
 62
     0
370
    25
100
AcDbLine
 10
136.2914434307704
 20
-204.8693157205919
 30
0.0
 11
136.2914434307704
 21
-195.3564291226537
 31
0.0
  0
LINE
  5
51F0
330
51EA
100
AcDbEntity
  8
0
 62
     0
370
    25
100
AcDbLine
 10
136.2914434307704
 20
-211.3693157205919
 30
0.0
 11
136.2914434307704
 21
-207.3693157205919
 31
0.0
  0
INSERT
  5
51F1
330
51EA
100
AcDbEntity
  8
0
 62
     0
370
    25
100
AcDbBlockReference
  2
_OPEN
 10
136.2914434307704
 20
-211.3693157205919
 30
0.0
 41
2.5
 42
2.5
 43
2.5
 50
90.0
  0
INSERT
  5
51F2
330
51EA
100
AcDbEntity
  8
0
 62
     0
370
    25
100
AcDbBlockReference
  2
_OPEN
 10
136.2914434307704
 20
-207.3693157205919
 30
0.0
 41
2.5
 42
2.5
 43
2.5
 50
270.0
  0
MTEXT
  5
51F3
330
51EA
100
AcDbEntity
  8
0
 62
     0
370
    -3
100
AcDbMText
 10
133.822371265822
 20
-198.8628724216228
 30
0.0
 40
2.5
 41
0.0
 71
     5
 72
     1
  1
\A1;%%c2
  7
イラストレーター
 11
0.0000000000000001
 21
1.0
 31
0.0
 73
     1
 44
1.0
1001
ACAD
1000
MTEXTBEGIN
1070
    73
1070
     1
1070
    44
1040
1.0
1070
    74
1070
     0
1000
MTEXTEND
  0
POINT
  5
51F4
330
51EA
100
AcDbEntity
  8
DEFPOINTS
 62
     0
100
AcDbPoint
 10
150.839544963397
 20
-211.3693157205919
 30
0.0
  0
POINT
  5
51F5
330
51EA
100
AcDbEntity
  8
DEFPOINTS
 62
     0
100
AcDbPoint
 10
150.839544963397
 20
-207.3693157205919
 30
0.0
  0
POINT
  5
51F6
330
51EA
100
AcDbEntity
  8
DEFPOINTS
 62
     0
100
AcDbPoint
 10
136.2914434307704
 20
-207.3693157205919
 30
0.0
  0
ENDBLK
  5
51F7
330
51EA
100
AcDbEntity
  8
0
 62
     2
100
AcDbBlockEnd
  0
BLOCK
  5
535E
330
5354
100
AcDbEntity
  8
0
100
AcDbBlockBegin
  2
*D31
 70
     1
 10
0.0
 20
0.0
 30
0.0
  3
*D31
  1

  0
LINE
  5
5B2C
330
5354
100
AcDbEntity
  8
Z_OM_DIM
100
AcDbLine
 10
590.2342528260247
 20
-72.6566670972735
 30
0.0
 11
570.9690589186175
 21
-72.6566670972735
 31
0.0
  0
LINE
  5
5B2D
330
5354
100
AcDbEntity
  8
Z_OM_DIM
100
AcDbLine
 10
590.2342528260247
 20
-76.6566670972735
 30
0.0
 11
570.9690589186175
 21
-76.6566670972735
 31
0.0
  0
LINE
  5
5B2E
330
5354
100
AcDbEntity
  8
Z_OM_DIM
100
AcDbLine
 10
572.2190589186175
 20
-79.1566670972735
 30
0.0
 11
572.2190589186175
 21
-81.6566670972735
 31
0.0
  0
LINE
  5
5B2F
330
5354
100
AcDbEntity
  8
Z_OM_DIM
100
AcDbLine
 10
572.2190589186175
 20
-70.1566670972735
 30
0.0
 11
572.2190589186175
 21
-62.24000043060684
 31
0.0
  0
LINE
  5
5B30
330
5354
100
AcDbEntity
  8
Z_OM_DIM
100
AcDbLine
 10
572.2190589186175
 20
-76.6566670972735
 30
0.0
 11
572.2190589186175
 21
-72.6566670972735
 31
0.0
  0
INSERT
  5
5B31
330
5354
100
AcDbEntity
  8
Z_OM_DIM
100
AcDbBlockReference
  2
_OPEN30
 10
572.2190589186175
 20
-76.6566670972735
 30
0.0
 41
2.5
 42
2.5
 43
2.5
 50
90.0
  0
INSERT
  5
5B32
330
5354
100
AcDbEntity
  8
Z_OM_DIM
100
AcDbBlockReference
  2
_OPEN30
 10
572.2190589186175
 20
-72.6566670972735
 30
0.0
 41
2.5
 42
2.5
 43
2.5
 50
270.0
  0
MTEXT
  5
5B33
330
5354
100
AcDbEntity
  8
Z_OM_DIM
100
AcDbMText
 10
570.3440589186175
 20
-64.94833376394007
 30
0.0
 40
2.5
 41
0.0
 71
     5
 72
     1
  1
%%c4
  7
CatalogDxf
 11
0.0000000000000001
 21
1.0
 31
0.0
 73
     1
 44
1.0
1001
ACAD
1000
MTEXTBEGIN
1070
    73
1070
     1
1070
    44
1040
1.0
1070
    74
1070
     0
1000
MTEXTEND
  0
POINT
  5
5B34
330
5354
100
AcDbEntity
  8
DEFPOINTS
 62
     0
100
AcDbPoint
 10
590.8592528260247
 20
-72.6566670972735
 30
0.0
  0
POINT
  5
5B35
330
5354
100
AcDbEntity
  8
DEFPOINTS
 62
     0
100
AcDbPoint
 10
590.8592528260246
 20
-76.6566670972735
 30
0.0
  0
POINT
  5
5B36
330
5354
100
AcDbEntity
  8
DEFPOINTS
 62
     0
100
AcDbPoint
 10
572.2190589186175
 20
-76.6566670972735
 30
0.0
  0
ENDBLK
  5
535F
330
5354
100
AcDbEntity
  8
0
100
AcDbBlockEnd
  0
BLOCK
  5
536A
330
5360
100
AcDbEntity
  8
0
100
AcDbBlockBegin
  2
*D32
 70
     1
 10
0.0
 20
0.0
 30
0.0
  3
*D32
  1

  0
LINE
  5
5C2B
330
5360
100
AcDbEntity
  8
Z_OM_DIM
100
AcDbLine
 10
531.7826112836298
 20
-80.28166709727344
 30
0.0
 11
531.7826112836298
 21
-93.18250408276162
 31
0.0
  0
LINE
  5
5C2C
330
5360
100
AcDbEntity
  8
Z_OM_DIM
100
AcDbLine
 10
543.7826112836298
 20
-80.28166709727347
 30
0.0
 11
543.7826112836298
 21
-93.18250408276162
 31
0.0
  0
LINE
  5
5C2D
330
5360
100
AcDbEntity
  8
Z_OM_DIM
100
AcDbLine
 10
534.2826112836299
 20
-91.93250408276162
 30
0.0
 11
541.2826112836298
 21
-91.93250408276162
 31
0.0
  0
INSERT
  5
5C2E
330
5360
100
AcDbEntity
  8
Z_OM_DIM
100
AcDbBlockReference
  2
_OPEN30
 10
531.7826112836298
 20
-91.93250408276162
 30
0.0
 41
2.5
 42
2.5
 43
2.5
 50
180.0
  0
INSERT
  5
5C2F
330
5360
100
AcDbEntity
  8
Z_OM_DIM
100
AcDbBlockReference
  2
_OPEN30
 10
543.7826112836298
 20
-91.93250408276162
 30
0.0
 41
2.5
 42
2.5
 43
2.5
  0
MTEXT
  5
5C30
330
5360
100
AcDbEntity
  8
Z_OM_DIM
100
AcDbMText
 10
537.7826112836299
 20
-90.05750408276162
 30
0.0
 40
2.5
 41
0.0
 71
     5
 72
     1
  1
12
  7
CatalogDxf
 73
     1
 44
1.0
1001
ACAD
1000
MTEXTBEGIN
1070
    73
1070
     1
1070
    44
1040
1.0
1070
    74
1070
     0
1000
MTEXTEND
  0
POINT
  5
5C31
330
5360
100
AcDbEntity
  8
DEFPOINTS
 62
     0
100
AcDbPoint
 10
531.7826112836298
 20
-79.65666709727344
 30
0.0
  0
POINT
  5
5C32
330
5360
100
AcDbEntity
  8
DEFPOINTS
 62
     0
100
AcDbPoint
 10
543.7826112836298
 20
-79.65666709727347
 30
0.0
  0
POINT
  5
5C33
330
5360
100
AcDbEntity
  8
DEFPOINTS
 62
     0
100
AcDbPoint
 10
543.7826112836298
 20
-91.93250408276162
 30
0.0
  0
ENDBLK
  5
536B
330
5360
100
AcDbEntity
  8
0
100
AcDbBlockEnd
  0
BLOCK
  5
5376
330
536C
100
AcDbEntity
  8
0
100
AcDbBlockBegin
  2
*D33
 70
     1
 10
0.0
 20
0.0
 30
0.0
  3
*D33
  1

  0
LINE
  5
5C34
330
536C
100
AcDbEntity
  8
Z_OM_DIM
100
AcDbLine
 10
544.4076112836298
 20
-79.65666709727348
 30
0.0
 11
557.3645122854161
 21
-79.65666709727348
 31
0.0
  0
LINE
  5
5C35
330
536C
100
AcDbEntity
  8
Z_OM_DIM
100
AcDbLine
 10
544.4076112836298
 20
-69.6566670972736
 30
0.0
 11
557.3645122854161
 21
-69.6566670972736
 31
0.0
  0
LINE
  5
5C36
330
536C
100
AcDbEntity
  8
Z_OM_DIM
100
AcDbLine
 10
556.1145122854161
 20
-77.15666709727348
 30
0.0
 11
556.1145122854161
 21
-72.1566670972736
 31
0.0
  0
INSERT
  5
5C37
330
536C
100
AcDbEntity
  8
Z_OM_DIM
100
AcDbBlockReference
  2
_OPEN30
 10
556.1145122854161
 20
-79.65666709727348
 30
0.0
 41
2.5
 42
2.5
 43
2.5
 50
270.0
  0
INSERT
  5
5C38
330
536C
100
AcDbEntity
  8
Z_OM_DIM
100
AcDbBlockReference
  2
_OPEN30
 10
556.1145122854161
 20
-69.6566670972736
 30
0.0
 41
2.5
 42
2.5
 43
2.5
 50
90.0
  0
MTEXT
  5
5C39
330
536C
100
AcDbEntity
  8
Z_OM_DIM
100
AcDbMText
 10
554.2395122854161
 20
-74.65666709727344
 30
0.0
 40
2.5
 41
0.0
 71
     5
 72
     1
  1
10
  7
CatalogDxf
 11
0.0000000000000001
 21
1.0
 31
0.0
 73
     1
 44
1.0
1001
ACAD
1000
MTEXTBEGIN
1070
    73
1070
     1
1070
    44
1040
1.0
1070
    74
1070
     0
1000
MTEXTEND
  0
POINT
  5
5C3A
330
536C
100
AcDbEntity
  8
DEFPOINTS
 62
     0
100
AcDbPoint
 10
543.7826112836298
 20
-79.65666709727347
 30
0.0
  0
POINT
  5
5C3B
330
536C
100
AcDbEntity
  8
DEFPOINTS
 62
     0
100
AcDbPoint
 10
543.7826112836298
 20
-69.65666709727358
 30
0.0
  0
POINT
  5
5C3C
330
536C
100
AcDbEntity
  8
DEFPOINTS
 62
     0
100
AcDbPoint
 10
556.1145122854161
 20
-69.6566670972736
 30
0.0
  0
ENDBLK
  5
5377
330
536C
100
AcDbEntity
  8
0
100
AcDbBlockEnd
  0
BLOCK
  5
5382
330
5378
100
AcDbEntity
  8
0
100
AcDbBlockBegin
  2
*D34
 70
     1
 10
0.0
 20
0.0
 30
0.0
  3
*D34
  1

  0
LINE
  5
5B49
330
5378
100
AcDbEntity
  8
Z_OM_DIM
100
AcDbLine
 10
604.6592528260247
 20
-80.60974125641132
 30
0.0
 11
604.6592528260247
 21
-90.68250408276162
 31
0.0
  0
LINE
  5
5B4A
330
5378
100
AcDbEntity
  8
Z_OM_DIM
100
AcDbLine
 10
598.6592528260248
 20
-80.28166709727344
 30
0.0
 11
598.6592528260248
 21
-90.68250408276162
 31
0.0
  0
LINE
  5
5B4B
330
5378
100
AcDbEntity
  8
Z_OM_DIM
100
AcDbLine
 10
607.1592528260246
 20
-89.43250408276162
 30
0.0
 11
609.6592528260247
 21
-89.43250408276162
 31
0.0
  0
LINE
  5
5B4C
330
5378
100
AcDbEntity
  8
Z_OM_DIM
100
AcDbLine
 10
596.1592528260248
 20
-89.43250408276162
 30
0.0
 11
593.6592528260248
 21
-89.43250408276162
 31
0.0
  0
LINE
  5
5B4D
330
5378
100
AcDbEntity
  8
Z_OM_DIM
100
AcDbLine
 10
604.6592528260247
 20
-89.43250408276162
 30
0.0
 11
598.6592528260248
 21
-89.43250408276162
 31
0.0
  0
INSERT
  5
5B4E
330
5378
100
AcDbEntity
  8
Z_OM_DIM
100
AcDbBlockReference
  2
_OPEN30
 10
604.6592528260247
 20
-89.43250408276162
 30
0.0
 41
2.5
 42
2.5
 43
2.5
 50
180.0
  0
INSERT
  5
5B4F
330
5378
100
AcDbEntity
  8
Z_OM_DIM
100
AcDbBlockReference
  2
_OPEN30
 10
598.6592528260248
 20
-89.43250408276162
 30
0.0
 41
2.5
 42
2.5
 43
2.5
  0
MTEXT
  5
5B50
330
5378
100
AcDbEntity
  8
Z_OM_DIM
100
AcDbMText
 10
601.6592528260248
 20
-87.55750408276162
 30
0.0
 40
2.5
 41
0.0
 71
     5
 72
     1
  1
6
  7
CatalogDxf
 73
     1
 44
1.0
1001
ACAD
1000
MTEXTBEGIN
1070
    73
1070
     1
1070
    44
1040
1.0
1070
    74
1070
     0
1000
MTEXTEND
  0
POINT
  5
5B51
330
5378
100
AcDbEntity
  8
DEFPOINTS
 62
     0
100
AcDbPoint
 10
604.6592528260247
 20
-79.98474125641132
 30
0.0
  0
POINT
  5
5B52
330
5378
100
AcDbEntity
  8
DEFPOINTS
 62
     0
100
AcDbPoint
 10
598.6592528260248
 20
-79.65666709727344
 30
0.0
  0
POINT
  5
5B53
330
5378
100
AcDbEntity
  8
DEFPOINTS
 62
     0
100
AcDbPoint
 10
598.6592528260248
 20
-89.43250408276162
 30
0.0
  0
ENDBLK
  5
5383
330
5378
100
AcDbEntity
  8
0
100
AcDbBlockEnd
  0
BLOCK
  5
538E
330
5384
100
AcDbEntity
  8
0
100
AcDbBlockBegin
  2
*D35
 70
     1
 10
0.0
 20
0.0
 30
0.0
  3
*D35
  1

  0
LINE
  5
5C5C
330
5384
100
AcDbEntity
  8
Z_OM_DIM
100
AcDbLine
 10
598.6592528260248
 20
-80.28166709727344
 30
0.0
 11
598.6592528260248
 21
-90.68250408276162
 31
0.0
  0
LINE
  5
5C5D
330
5384
100
AcDbEntity
  8
Z_OM_DIM
100
AcDbLine
 10
592.9592528260248
 20
-77.28166709727353
 30
0.0
 11
592.9592528260248
 21
-90.68250408276162
 31
0.0
  0
LINE
  5
5C5E
330
5384
100
AcDbEntity
  8
Z_OM_DIM
100
AcDbLine
 10
601.1592528260248
 20
-89.43250408276162
 30
0.0
 11
603.6592528260248
 21
-89.43250408276162
 31
0.0
  0
LINE
  5
5C5F
330
5384
100
AcDbEntity
  8
Z_OM_DIM
100
AcDbLine
 10
590.4592528260248
 20
-89.43250408276162
 30
0.0
 11
581.7092528260247
 21
-89.43250408276162
 31
0.0
  0
LINE
  5
5C60
330
5384
100
AcDbEntity
  8
Z_OM_DIM
100
AcDbLine
 10
598.6592528260248
 20
-89.43250408276162
 30
0.0
 11
592.9592528260248
 21
-89.43250408276162
 31
0.0
  0
INSERT
  5
5C61
330
5384
100
AcDbEntity
  8
Z_OM_DIM
100
AcDbBlockReference
  2
_OPEN30
 10
598.6592528260248
 20
-89.43250408276162
 30
0.0
 41
2.5
 42
2.5
 43
2.5
 50
180.0
  0
INSERT
  5
5C62
330
5384
100
AcDbEntity
  8
Z_OM_DIM
100
AcDbBlockReference
  2
_OPEN30
 10
592.9592528260248
 20
-89.43250408276162
 30
0.0
 41
2.5
 42
2.5
 43
2.5
  0
MTEXT
  5
5C63
330
5384
100
AcDbEntity
  8
Z_OM_DIM
100
AcDbMText
 10
584.8342528260247
 20
-87.55750408276162
 30
0.0
 40
2.5
 41
0.0
 71
     5
 72
     1
  1
5.7
  7
CatalogDxf
 73
     1
 44
1.0
1001
ACAD
1000
MTEXTBEGIN
1070
    73
1070
     1
1070
    44
1040
1.0
1070
    74
1070
     0
1000
MTEXTEND
  0
POINT
  5
5C64
330
5384
100
AcDbEntity
  8
DEFPOINTS
 62
     0
100
AcDbPoint
 10
598.6592528260248
 20
-79.65666709727344
 30
0.0
  0
POINT
  5
5C65
330
5384
100
AcDbEntity
  8
DEFPOINTS
 62
     0
100
AcDbPoint
 10
592.9592528260248
 20
-76.65666709727353
 30
0.0
  0
POINT
  5
5C66
330
5384
100
AcDbEntity
  8
DEFPOINTS
 62
     0
100
AcDbPoint
 10
592.9592528260248
 20
-89.43250408276162
 30
0.0
  0
ENDBLK
  5
538F
330
5384
100
AcDbEntity
  8
0
100
AcDbBlockEnd
  0
BLOCK
  5
539C
330
5390
100
AcDbEntity
  8
0
100
AcDbBlockBegin
  2
*D36
 70
     1
 10
0.0
 20
0.0
 30
0.0
  3
*D36
  1

  0
LINE
  5
5BE5
330
5390
100
AcDbEntity
  8
Z_OM_DIM
100
AcDbLine
 10
591.9592528260247
 20
-72.03166709727341
 30
0.0
 11
591.9592528260247
 21
-60.66190691171982
 31
0.0
  0
LINE
  5
5BE6
330
5390
100
AcDbEntity
  8
Z_OM_DIM
100
AcDbLine
 10
592.9592528260248
 20
-72.03166709727341
 30
0.0
 11
592.9592528260248
 21
-60.66190691171982
 31
0.0
  0
LINE
  5
5BE7
330
5390
100
AcDbEntity
  8
Z_OM_DIM
100
AcDbLine
 10
591.9592528260247
 20
-61.91190691171982
 30
0.0
 11
589.4592528260248
 21
-61.91190691171982
 31
0.0
  0
LINE
  5
5BE8
330
5390
100
AcDbEntity
  8
Z_OM_DIM
100
AcDbLine
 10
595.4592528260247
 20
-61.91190691171982
 30
0.0
 11
600.1590852158551
 21
-61.91190691171982
 31
0.0
  0
LINE
  5
5BE9
330
5390
100
AcDbEntity
  8
Z_OM_DIM
100
AcDbLine
 10
591.9592528260247
 20
-61.91190691171982
 30
0.0
 11
592.9592528260248
 21
-61.91190691171982
 31
0.0
  0
INSERT
  5
5BEA
330
5390
100
AcDbEntity
  8
Z_OM_DIM
100
AcDbBlockReference
  2
_DOTSMALL
 10
591.9592528260247
 20
-61.91190691171982
 30
0.0
 41
2.5
 42
2.5
 43
2.5
  0
INSERT
  5
5BEB
330
5390
100
AcDbEntity
  8
Z_OM_DIM
100
AcDbBlockReference
  2
_OPEN30
 10
592.9592528260248
 20
-61.91190691171982
 30
0.0
 41
2.5
 42
2.5
 43
2.5
 50
180.0
  0
MTEXT
  5
5BEC
330
5390
100
AcDbEntity
  8
Z_OM_DIM
100
AcDbMText
 10
599.1174185491884
 20
-60.03690691171982
 30
0.0
 40
2.5
 41
0.0
 71
     5
 72
     1
  1
1
  7
CatalogDxf
 73
     1
 44
1.0
1001
ACAD
1000
MTEXTBEGIN
1070
    73
1070
     1
1070
    44
1040
1.0
1070
    74
1070
     0
1000
MTEXTEND
  0
POINT
  5
5BED
330
5390
100
AcDbEntity
  8
DEFPOINTS
 62
     0
100
AcDbPoint
 10
591.9592528260247
 20
-72.65666709727341
 30
0.0
  0
POINT
  5
5BEE
330
5390
100
AcDbEntity
  8
DEFPOINTS
 62
     0
100
AcDbPoint
 10
592.9592528260248
 20
-72.65666709727341
 30
0.0
  0
POINT
  5
5BEF
330
5390
100
AcDbEntity
  8
DEFPOINTS
 62
     0
100
AcDbPoint
 10
592.9592528260248
 20
-61.91190691171982
 30
0.0
  0
ENDBLK
  5
539D
330
5390
100
AcDbEntity
  8
0
100
AcDbBlockEnd
  0
BLOCK
  5
53AA
330
539E
100
AcDbEntity
  8
0
100
AcDbBlockBegin
  2
*D37
 70
     1
 10
0.0
 20
0.0
 30
0.0
  3
*D37
  1

  0
LINE
  5
5BF0
330
539E
100
AcDbEntity
  8
Z_OM_DIM
100
AcDbLine
 10
591.9592528260247
 20
-72.03166709727341
 30
0.0
 11
591.9592528260247
 21
-60.66190691171975
 31
0.0
  0
LINE
  5
5BF1
330
539E
100
AcDbEntity
  8
Z_OM_DIM
100
AcDbLine
 10
590.6592528260248
 20
-72.23166709727343
 30
0.0
 11
590.6592528260248
 21
-60.66190691171975
 31
0.0
  0
LINE
  5
5BF2
330
539E
100
AcDbEntity
  8
Z_OM_DIM
100
AcDbLine
 10
591.9592528260247
 20
-61.91190691171975
 30
0.0
 11
594.4592528260248
 21
-61.91190691171975
 31
0.0
  0
LINE
  5
5BF3
330
539E
100
AcDbEntity
  8
Z_OM_DIM
100
AcDbLine
 10
588.1592528260248
 20
-61.91190691171975
 30
0.0
 11
580.0863361593582
 21
-61.91190691171975
 31
0.0
  0
LINE
  5
5BF4
330
539E
100
AcDbEntity
  8
Z_OM_DIM
100
AcDbLine
 10
591.9592528260247
 20
-61.91190691171975
 30
0.0
 11
590.6592528260248
 21
-61.91190691171975
 31
0.0
  0
INSERT
  5
5BF5
330
539E
100
AcDbEntity
  8
Z_OM_DIM
100
AcDbBlockReference
  2
_DOTSMALL
 10
591.9592528260247
 20
-61.91190691171975
 30
0.0
 41
2.5
 42
2.5
 43
2.5
 50
180.0
  0
INSERT
  5
5BF6
330
539E
100
AcDbEntity
  8
Z_OM_DIM
100
AcDbBlockReference
  2
_OPEN30
 10
590.6592528260248
 20
-61.91190691171975
 30
0.0
 41
2.5
 42
2.5
 43
2.5
  0
MTEXT
  5
5BF7
330
539E
100
AcDbEntity
  8
Z_OM_DIM
100
AcDbMText
 10
582.7946694926914
 20
-60.03690691171975
 30
0.0
 40
2.5
 41
0.0
 71
     5
 72
     1
  1
1.3
  7
CatalogDxf
 73
     1
 44
1.0
1001
ACAD
1000
MTEXTBEGIN
1070
    73
1070
     1
1070
    44
1040
1.0
1070
    74
1070
     0
1000
MTEXTEND
  0
POINT
  5
5BF8
330
539E
100
AcDbEntity
  8
DEFPOINTS
 62
     0
100
AcDbPoint
 10
591.9592528260247
 20
-72.65666709727341
 30
0.0
  0
POINT
  5
5BF9
330
539E
100
AcDbEntity
  8
DEFPOINTS
 62
     0
100
AcDbPoint
 10
590.6592528260248
 20
-72.85666709727343
 30
0.0
  0
POINT
  5
5BFA
330
539E
100
AcDbEntity
  8
DEFPOINTS
 62
     0
100
AcDbPoint
 10
590.6592528260248
 20
-61.91190691171975
 30
0.0
  0
ENDBLK
  5
53AB
330
539E
100
AcDbEntity
  8
0
100
AcDbBlockEnd
  0
BLOCK
  5
53B6
330
53AC
100
AcDbEntity
  8
0
100
AcDbBlockBegin
  2
*D38
 70
     1
 10
0.0
 20
0.0
 30
0.0
  3
*D38
  1

  0
LINE
  5
5C3D
330
53AC
100
AcDbEntity
  8
Z_OM_DIM
100
AcDbLine
 10
623.5092528260247
 20
-29.4987095059783
 30
0.0
 11
623.5092528260247
 21
-39.4525854038315
 31
0.0
  0
LINE
  5
5C3E
330
53AC
100
AcDbEntity
  8
Z_OM_DIM
100
AcDbLine
 10
598.6592528260247
 20
-30.49870950597824
 30
0.0
 11
598.6592528260247
 21
-39.4525854038315
 31
0.0
  0
LINE
  5
5C3F
330
53AC
100
AcDbEntity
  8
Z_OM_DIM
100
AcDbLine
 10
621.0092528260247
 20
-38.2025854038315
 30
0.0
 11
601.1592528260247
 21
-38.2025854038315
 31
0.0
  0
INSERT
  5
5C40
330
53AC
100
AcDbEntity
  8
Z_OM_DIM
100
AcDbBlockReference
  2
_OPEN30
 10
623.5092528260247
 20
-38.2025854038315
 30
0.0
 41
2.5
 42
2.5
 43
2.5
  0
INSERT
  5
5C41
330
53AC
100
AcDbEntity
  8
Z_OM_DIM
100
AcDbBlockReference
  2
_OPEN30
 10
598.6592528260247
 20
-38.2025854038315
 30
0.0
 41
2.5
 42
2.5
 43
2.5
 50
180.0
  0
MTEXT
  5
5C42
330
53AC
100
AcDbEntity
  8
Z_OM_DIM
100
AcDbMText
 10
611.0842528260247
 20
-36.32758540383151
 30
0.0
 40
2.5
 41
0.0
 71
     5
 72
     1
  1
24.8
  7
CatalogDxf
 73
     1
 44
1.0
1001
ACAD
1000
MTEXTBEGIN
1070
    73
1070
     1
1070
    44
1040
1.0
1070
    74
1070
     0
1000
MTEXTEND
  0
POINT
  5
5C43
330
53AC
100
AcDbEntity
  8
DEFPOINTS
 62
     0
100
AcDbPoint
 10
623.5092528260247
 20
-28.8737095059783
 30
0.0
  0
POINT
  5
5C44
330
53AC
100
AcDbEntity
  8
DEFPOINTS
 62
     0
100
AcDbPoint
 10
598.6592528260247
 20
-29.87370950597824
 30
0.0
  0
POINT
  5
5C45
330
53AC
100
AcDbEntity
  8
DEFPOINTS
 62
     0
100
AcDbPoint
 10
598.6592528260247
 20
-38.2025854038315
 30
0.0
  0
ENDBLK
  5
53B7
330
53AC
100
AcDbEntity
  8
0
100
AcDbBlockEnd
  0
BLOCK
  5
53C0
330
53B8
100
AcDbEntity
  8
0
100
AcDbBlockBegin
  2
*D39
 70
     1
 10
0.0
 20
0.0
 30
0.0
  3
*D39
  1

  0
LINE
  5
5923
330
53B8
100
AcDbEntity
  8
Z_OM_DIM
100
AcDbLine
 10
615.7873046021145
 20
-29.337709145833
 30
0.0
 11
615.7873046021145
 21
-38.09079342037989
 31
0.0
  0
LINE
  5
5924
330
53B8
100
AcDbEntity
  8
Z_OM_DIM
100
AcDbLine
 10
629.1156150946566
 20
-20.53770914583305
 30
0.0
 11
629.1156150946566
 21
-38.09079342037989
 31
0.0
  0
LINE
  5
5925
330
53B8
100
AcDbEntity
  8
Z_OM_DIM
100
AcDbLine
 10
618.2873046021145
 20
-36.8407934203799
 30
0.0
 11
626.6156150946565
 21
-36.8407934203799
 31
0.0
  0
INSERT
  5
5926
330
53B8
100
AcDbEntity
  8
Z_OM_DIM
100
AcDbBlockReference
  2
_OPEN30
 10
615.7873046021145
 20
-36.8407934203799
 30
0.0
 41
2.5
 42
2.5
 43
2.5
 50
180.0
  0
INSERT
  5
5927
330
53B8
100
AcDbEntity
  8
Z_OM_DIM
100
AcDbBlockReference
  2
_OPEN30
 10
629.1156150946566
 20
-36.8407934203799
 30
0.0
 41
2.5
 42
2.5
 43
2.5
  0
MTEXT
  5
5928
330
53B8
100
AcDbEntity
  8
Z_OM_DIM
100
AcDbMText
 10
622.4514598483856
 20
-34.9657934203799
 30
0.0
 40
2.5
 41
0.0
 71
     5
 72
     1
  1
180以上
  7
CatalogDxf
 73
     1
 44
1.0
1001
ACAD
1000
MTEXTBEGIN
1070
    73
1070
     1
1070
    44
1040
1.0
1070
    74
1070
     0
1000
MTEXTEND
  0
POINT
  5
5929
330
53B8
100
AcDbEntity
  8
DEFPOINTS
 62
     0
100
AcDbPoint
 10
615.7873046021145
 20
-28.712709145833
 30
0.0
  0
POINT
  5
592A
330
53B8
100
AcDbEntity
  8
DEFPOINTS
 62
     0
100
AcDbPoint
 10
629.1156150946566
 20
-19.91270914583305
 30
0.0
  0
POINT
  5
592B
330
53B8
100
AcDbEntity
  8
DEFPOINTS
 62
     0
100
AcDbPoint
 10
629.1156150946566
 20
-36.8407934203799
 30
0.0
  0
ENDBLK
  5
53C1
330
53B8
100
AcDbEntity
  8
0
100
AcDbBlockEnd
  0
BLOCK
  5
53CC
330
53C2
100
AcDbEntity
  8
0
100
AcDbBlockBegin
  2
*D40
 70
     1
 10
0.0
 20
0.0
 30
0.0
  3
*D40
  1

  0
LINE
  5
5B18
330
53C2
100
AcDbEntity
  8
Z_OM_DIM
100
AcDbLine
 10
622.676225687662
 20
-71.65666709727344
 30
0.0
 11
638.6893131235735
 21
-71.65666709727344
 31
0.0
  0
LINE
  5
5B19
330
53C2
100
AcDbEntity
  8
Z_OM_DIM
100
AcDbLine
 10
607.7203751703998
 20
-77.65666709727344
 30
0.0
 11
638.6893131235735
 21
-77.65666709727345
 31
0.0
  0
LINE
  5
5B1A
330
53C2
100
AcDbEntity
  8
Z_OM_DIM
100
AcDbLine
 10
637.4393131235735
 20
-69.15666709727344
 30
0.0
 11
637.4393131235735
 21
-66.65666709727344
 31
0.0
  0
LINE
  5
5B1B
330
53C2
100
AcDbEntity
  8
Z_OM_DIM
100
AcDbLine
 10
637.4393131235735
 20
-80.15666709727346
 30
0.0
 11
637.4393131235735
 21
-82.65666709727346
 31
0.0
  0
LINE
  5
5B1C
330
53C2
100
AcDbEntity
  8
Z_OM_DIM
100
AcDbLine
 10
637.4393131235735
 20
-71.65666709727344
 30
0.0
 11
637.4393131235735
 21
-77.65666709727345
 31
0.0
  0
INSERT
  5
5B1D
330
53C2
100
AcDbEntity
  8
Z_OM_DIM
100
AcDbBlockReference
  2
_OPEN30
 10
637.4393131235735
 20
-71.65666709727344
 30
0.0
 41
2.5
 42
2.5
 43
2.5
 50
270.0
  0
INSERT
  5
5B1E
330
53C2
100
AcDbEntity
  8
Z_OM_DIM
100
AcDbBlockReference
  2
_OPEN30
 10
637.4393131235735
 20
-77.65666709727345
 30
0.0
 41
2.5
 42
2.5
 43
2.5
 50
90.0
  0
MTEXT
  5
5B1F
330
53C2
100
AcDbEntity
  8
Z_OM_DIM
100
AcDbMText
 10
635.5643131235735
 20
-74.65666709727334
 30
0.0
 40
2.5
 41
0.0
 71
     5
 72
     1
  1
6
  7
CatalogDxf
 11
0.0000000000000001
 21
1.0
 31
0.0
 73
     1
 44
1.0
1001
ACAD
1000
MTEXTBEGIN
1070
    73
1070
     1
1070
    44
1040
1.0
1070
    74
1070
     0
1000
MTEXTEND
  0
POINT
  5
5B20
330
53C2
100
AcDbEntity
  8
DEFPOINTS
 62
     0
100
AcDbPoint
 10
622.051225687662
 20
-71.65666709727344
 30
0.0
  0
POINT
  5
5B21
330
53C2
100
AcDbEntity
  8
DEFPOINTS
 62
     0
100
AcDbPoint
 10
607.0953751703998
 20
-77.65666709727344
 30
0.0
  0
POINT
  5
5B22
330
53C2
100
AcDbEntity
  8
DEFPOINTS
 62
     0
100
AcDbPoint
 10
637.4393131235735
 20
-77.65666709727345
 30
0.0
  0
ENDBLK
  5
53CD
330
53C2
100
AcDbEntity
  8
0
100
AcDbBlockEnd
  0
BLOCK
  5
53D8
330
53CE
100
AcDbEntity
  8
0
100
AcDbBlockBegin
  2
*D41
 70
     1
 10
0.0
 20
0.0
 30
0.0
  3
*D41
  1

  0
LINE
  5
5B23
330
53CE
100
AcDbEntity
  8
Z_OM_DIM
100
AcDbLine
 10
619.6592528260248
 20
-74.58237839300796
 30
0.0
 11
619.6592528260248
 21
-90.68250408276162
 31
0.0
  0
LINE
  5
5B24
330
53CE
100
AcDbEntity
  8
Z_OM_DIM
100
AcDbLine
 10
604.6592528260247
 20
-80.60974125641132
 30
0.0
 11
604.6592528260247
 21
-90.68250408276162
 31
0.0
  0
LINE
  5
5B25
330
53CE
100
AcDbEntity
  8
Z_OM_DIM
100
AcDbLine
 10
617.1592528260248
 20
-89.43250408276162
 30
0.0
 11
607.1592528260246
 21
-89.43250408276162
 31
0.0
  0
INSERT
  5
5B26
330
53CE
100
AcDbEntity
  8
Z_OM_DIM
100
AcDbBlockReference
  2
_OPEN30
 10
619.6592528260248
 20
-89.43250408276162
 30
0.0
 41
2.5
 42
2.5
 43
2.5
  0
INSERT
  5
5B27
330
53CE
100
AcDbEntity
  8
Z_OM_DIM
100
AcDbBlockReference
  2
_OPEN30
 10
604.6592528260247
 20
-89.43250408276162
 30
0.0
 41
2.5
 42
2.5
 43
2.5
 50
180.0
  0
MTEXT
  5
5B28
330
53CE
100
AcDbEntity
  8
Z_OM_DIM
100
AcDbMText
 10
612.1592528260248
 20
-87.55750408276162
 30
0.0
 40
2.5
 41
0.0
 71
     5
 72
     1
  1
15
  7
CatalogDxf
 73
     1
 44
1.0
1001
ACAD
1000
MTEXTBEGIN
1070
    73
1070
     1
1070
    44
1040
1.0
1070
    74
1070
     0
1000
MTEXTEND
  0
POINT
  5
5B29
330
53CE
100
AcDbEntity
  8
DEFPOINTS
 62
     0
100
AcDbPoint
 10
619.6592528260248
 20
-73.95737839300796
 30
0.0
  0
POINT
  5
5B2A
330
53CE
100
AcDbEntity
  8
DEFPOINTS
 62
     0
100
AcDbPoint
 10
604.6592528260247
 20
-79.98474125641132
 30
0.0
  0
POINT
  5
5B2B
330
53CE
100
AcDbEntity
  8
DEFPOINTS
 62
     0
100
AcDbPoint
 10
604.6592528260247
 20
-89.43250408276162
 30
0.0
  0
ENDBLK
  5
53D9
330
53CE
100
AcDbEntity
  8
0
100
AcDbBlockEnd
  0
BLOCK
  5
5429
330
541D
100
AcDbEntity
  8
0
100
AcDbBlockBegin
  2
*D42
 70
     1
 10
0.0
 20
0.0
 30
0.0
  3
*D42
  1

  0
LINE
  5
5B75
330
541D
100
AcDbEntity
  8
Z_OM_DIM
100
AcDbLine
 10
591.3342528260248
 20
-75.6566670972735
 30
0.0
 11
576.1513117510039
 21
-75.6566670972735
 31
0.0
  0
LINE
  5
5B76
330
541D
100
AcDbEntity
  8
Z_OM_DIM
100
AcDbLine
 10
591.3342528260248
 20
-73.65666709727349
 30
0.0
 11
576.1513117510039
 21
-73.65666709727349
 31
0.0
  0
LINE
  5
5B77
330
541D
100
AcDbEntity
  8
Z_OM_DIM
100
AcDbLine
 10
577.4013117510039
 20
-78.1566670972735
 30
0.0
 11
577.4013117510039
 21
-80.6566670972735
 31
0.0
  0
LINE
  5
5B78
330
541D
100
AcDbEntity
  8
Z_OM_DIM
100
AcDbLine
 10
577.4013117510039
 20
-71.15666709727349
 30
0.0
 11
577.4013117510039
 21
-63.24000043060683
 31
0.0
  0
LINE
  5
5B79
330
541D
100
AcDbEntity
  8
Z_OM_DIM
100
AcDbLine
 10
577.4013117510039
 20
-75.6566670972735
 30
0.0
 11
577.4013117510039
 21
-73.65666709727349
 31
0.0
  0
INSERT
  5
5B7A
330
541D
100
AcDbEntity
  8
Z_OM_DIM
100
AcDbBlockReference
  2
_OPEN30
 10
577.4013117510039
 20
-75.6566670972735
 30
0.0
 41
2.5
 42
2.5
 43
2.5
 50
90.0
  0
INSERT
  5
5B7B
330
541D
100
AcDbEntity
  8
Z_OM_DIM
100
AcDbBlockReference
  2
_OPEN30
 10
577.4013117510039
 20
-73.65666709727349
 30
0.0
 41
2.5
 42
2.5
 43
2.5
 50
270.0
  0
MTEXT
  5
5B7C
330
541D
100
AcDbEntity
  8
Z_OM_DIM
100
AcDbMText
 10
575.5263117510039
 20
-65.94833376394007
 30
0.0
 40
2.5
 41
0.0
 71
     5
 72
     1
  1
%%c2
  7
CatalogDxf
 11
0.0000000000000001
 21
1.0
 31
0.0
 73
     1
 44
1.0
1001
ACAD
1000
MTEXTBEGIN
1070
    73
1070
     1
1070
    44
1040
1.0
1070
    74
1070
     0
1000
MTEXTEND
  0
POINT
  5
5B7D
330
541D
100
AcDbEntity
  8
DEFPOINTS
 62
     0
100
AcDbPoint
 10
591.9592528260247
 20
-75.6566670972735
 30
0.0
  0
POINT
  5
5B7E
330
541D
100
AcDbEntity
  8
DEFPOINTS
 62
     0
100
AcDbPoint
 10
591.9592528260247
 20
-73.65666709727349
 30
0.0
  0
POINT
  5
5B7F
330
541D
100
AcDbEntity
  8
DEFPOINTS
 62
     0
100
AcDbPoint
 10
577.4013117510039
 20
-73.65666709727349
 30
0.0
  0
ENDBLK
  5
542A
330
541D
100
AcDbEntity
  8
0
100
AcDbBlockEnd
  0
BLOCK
  5
594D
330
5943
100
AcDbEntity
  8
0
100
AcDbBlockBegin
  2
*D43
 70
     1
 10
0.0
 20
0.0
 30
0.0
  3
*D43
  1

  0
LINE
  5
5A99
330
5943
100
AcDbEntity
  8
Z_OM_DIM
100
AcDbLine
 10
623.5092528260247
 20
-18.24870950597824
 30
0.0
 11
623.5092528260247
 21
-12.08235250914546
 31
0.0
  0
LINE
  5
5A9A
330
5943
100
AcDbEntity
  8
Z_OM_DIM
100
AcDbLine
 10
661.5232679727179
 20
-22.49870950597824
 30
0.0
 11
661.5232679727179
 21
-12.08235250914546
 31
0.0
  0
LINE
  5
5A9B
330
5943
100
AcDbEntity
  8
Z_OM_DIM
100
AcDbLine
 10
626.0092528260247
 20
-13.33235250914546
 30
0.0
 11
659.0232679727179
 21
-13.33235250914546
 31
0.0
  0
INSERT
  5
5A9C
330
5943
100
AcDbEntity
  8
Z_OM_DIM
100
AcDbBlockReference
  2
_OPEN30
 10
623.5092528260247
 20
-13.33235250914546
 30
0.0
 41
2.5
 42
2.5
 43
2.5
 50
180.0
  0
INSERT
  5
5A9D
330
5943
100
AcDbEntity
  8
Z_OM_DIM
100
AcDbBlockReference
  2
_OPEN30
 10
661.5232679727179
 20
-13.33235250914546
 30
0.0
 41
2.5
 42
2.5
 43
2.5
  0
MTEXT
  5
5A9E
330
5943
100
AcDbEntity
  8
Z_OM_DIM
100
AcDbMText
 10
642.5162603993713
 20
-11.45735250914546
 30
0.0
 40
2.5
 41
0.0
 71
     5
 72
     1
  1
180 - 200
  7
CatalogDxf
 73
     1
 44
1.0
1001
ACAD
1000
MTEXTBEGIN
1070
    73
1070
     1
1070
    44
1040
1.0
1070
    74
1070
     0
1000
MTEXTEND
  0
POINT
  5
5A9F
330
5943
100
AcDbEntity
  8
DEFPOINTS
 62
     0
100
AcDbPoint
 10
623.5092528260247
 20
-18.87370950597824
 30
0.0
  0
POINT
  5
5AA0
330
5943
100
AcDbEntity
  8
DEFPOINTS
 62
     0
100
AcDbPoint
 10
661.5232679727179
 20
-23.12370950597824
 30
0.0
  0
POINT
  5
5AA1
330
5943
100
AcDbEntity
  8
DEFPOINTS
 62
     0
100
AcDbPoint
 10
661.5232679727179
 20
-13.33235250914546
 30
0.0
  0
ENDBLK
  5
594E
330
5943
100
AcDbEntity
  8
0
100
AcDbBlockEnd
  0
ENDSEC
  0
SECTION
  2
ENTITIES
  0
MTEXT
  5
4130
330
17
100
AcDbEntity
  8
Z_OM_DIM
100
AcDbMText
 10
626.7900045662048
 20
-108.9496716376966
 30
0.0
 40
3.0
 41
93.92693936784551
 71
     1
 72
     5
  1
TAKAHA KIKO Co., Ltd\PCAD DRAWING No. CA0425
  7
CatalogDxf
 73
     1
 44
1.0
1001
ACAD
1000
MTEXTBEGIN
1070
    73
1070
     1
1070
    44
1040
1.0
1070
    74
1070
     0
1000
MTEXTEND
  0
MTEXT
  5
431E
330
17
100
AcDbEntity
  8
Z_OM_DIM
100
AcDbMText
 10
517.1964180336417
 20
-1.51453696995242
 30
0.0
 40
3.0
 41
50.80319999999996
 71
     1
 72
     1
  1
Adsorbed position\P
 73
     1
 44
1.0
1001
ACAD
1000
MTEXTBEGIN
1070
    73
1070
     1
1070
    44
1040
1.0
1070
    74
1070
     0
1000
MTEXTEND
  0
MTEXT
  5
4794
330
17
100
AcDbEntity
  8
Z_OM_DIM
100
AcDbMText
 10
627.0915928507658
 20
-28.00609886244144
 30
0.0
 40
2.5
 41
48.67581076998192
 71
     9
 72
     1
  1

  7
CatalogDxf
 73
     1
 44
1.0
1001
ACAD
1000
MTEXTBEGIN
1070
    73
1070
     1
1070
    44
1040
1.0
1070
    74
1070
     0
1000
MTEXTEND
  0
MTEXT
  5
479C
330
17
100
AcDbEntity
  8
Z_OM_DIM
100
AcDbMText
 10
620.6913131326378
 20
-27.6693940842992
 30
0.0
 40
2.5
 41
60.0
 71
     9
 72
     1
  1
  
  7
CatalogDxf
 73
     1
 44
1.0
1001
ACAD
1000
MTEXTBEGIN
1070
    73
1070
     1
1070
    44
1040
1.0
1070
    74
1070
     0
1000
MTEXTEND
  0
DIMENSION
  5
52AA
330
17
100
AcDbEntity
  8
Z_OM_DIM
 48
0.5
100
AcDbDimension
  2
*D40
 10
637.4393131235735
 20
-77.65666709727345
 30
0.0
 11
635.5643131235735
 21
-74.65666709727334
 31
0.0
 70
    32
 71
     5
 42
6.000000000000014
  3
CatalogDxf
100
AcDbAlignedDimension
 13
622.051225687662
 23
-71.65666709727344
 33
0.0
 14
607.0953751703998
 24
-77.65666709727344
 34
0.0
 50
90.0
100
AcDbRotatedDimension
  0
DIMENSION
  5
52AB
330
17
100
AcDbEntity
  8
Z_OM_DIM
 48
0.5
100
AcDbDimension
  2
*D41
 10
604.6592528260247
 20
-89.43250408276162
 30
0.0
 11
612.1592528260248
 21
-87.55750408276162
 31
0.0
 70
    32
 71
     5
 42
15.00000000000011
  3
CatalogDxf
100
AcDbAlignedDimension
 13
619.6592528260248
 23
-73.95737839300796
 33
0.0
 14
604.6592528260247
 24
-79.98474125641132
 34
0.0
100
AcDbRotatedDimension
  0
LINE
  5
52AC
330
17
100
AcDbEntity
  8
additional
  6
CENTER2
 48
0.5
100
AcDbLine
 10
546.8022394336988
 20
-74.6566670972735
 30
0.0
 11
528.528929432047
 21
-74.6566670972735
 31
0.0
  0
LINE
  5
52AD
330
17
100
AcDbEntity
  8
additional
  6
CENTER2
 48
0.5
100
AcDbLine
 10
537.7826112836299
 20
-66.64495730027318
 30
0.0
 11
537.7826112836299
 21
-83.05167322050783
 31
0.0
  0
LINE
  5
52AE
330
17
100
AcDbEntity
  8
0
100
AcDbLine
 10
542.7826112836299
 20
-69.65666709727358
 30
0.0
 11
542.7826112836299
 21
-72.1566670972735
 31
0.0
  0
LINE
  5
52AF
330
17
100
AcDbEntity
  8
0
100
AcDbLine
 10
543.7826112836298
 20
-69.65666709727358
 30
0.0
 11
543.7826112836298
 21
-79.65666709727347
 31
0.0
  0
LINE
  5
52B0
330
17
100
AcDbEntity
  8
0
100
AcDbLine
 10
532.7826112836298
 20
-69.65666709727355
 30
0.0
 11
532.7826112836298
 21
-72.15666709727347
 31
0.0
  0
LINE
  5
52B1
330
17
100
AcDbEntity
  8
0
100
AcDbLine
 10
531.7826112836298
 20
-69.65666709727355
 30
0.0
 11
531.7826112836298
 21
-79.65666709727344
 31
0.0
  0
CIRCLE
  5
52B2
330
17
100
AcDbEntity
  8
0
 48
0.3
100
AcDbCircle
 10
537.7826112836299
 20
-74.6566670972735
 30
0.0
 40
2.0
  0
CIRCLE
  5
52B3
330
17
100
AcDbEntity
  8
0
 48
0.3
100
AcDbCircle
 10
537.7826112836299
 20
-74.6566670972735
 30
0.0
 40
2.5
  0
LINE
  5
52B4
330
17
100
AcDbEntity
  8
0
100
AcDbLine
 10
531.7826112836298
 20
-79.65666709727344
 30
0.0
 11
532.7826112836298
 21
-79.65666709727344
 31
0.0
  0
LINE
  5
52B5
330
17
100
AcDbEntity
  8
0
100
AcDbLine
 10
532.7826112836298
 20
-77.15666709727344
 30
0.0
 11
531.7826112836298
 21
-77.15666709727344
 31
0.0
  0
LINE
  5
52B6
330
17
100
AcDbEntity
  8
0
100
AcDbLine
 10
532.7826112836298
 20
-77.15666709727344
 30
0.0
 11
532.7826112836298
 21
-79.65666709727344
 31
0.0
  0
LINE
  5
52B7
330
17
100
AcDbEntity
  8
0
100
AcDbLine
 10
532.7826112836298
 20
-72.15666709727347
 30
0.0
 11
531.7826112836298
 21
-72.1566670972735
 31
0.0
  0
LINE
  5
52B8
330
17
100
AcDbEntity
  8
0
100
AcDbLine
 10
542.7826112836299
 20
-77.15666709727347
 30
0.0
 11
542.7826112836299
 21
-79.65666709727347
 31
0.0
  0
LINE
  5
52B9
330
17
100
AcDbEntity
  8
0
100
AcDbLine
 10
543.7826112836298
 20
-77.15666709727347
 30
0.0
 11
542.7826112836299
 21
-77.15666709727347
 31
0.0
  0
POINT
  5
52BA
330
17
100
AcDbEntity
  8
0
100
AcDbPoint
 10
543.7826112836298
 20
-74.6566670972735
 30
0.0
  0
LINE
  5
52BB
330
17
100
AcDbEntity
  8
0
100
AcDbLine
 10
543.7826112836298
 20
-72.15666709727353
 30
0.0
 11
542.7826112836299
 21
-72.1566670972735
 31
0.0
  0
LINE
  5
52BC
330
17
100
AcDbEntity
  8
0
100
AcDbLine
 10
543.7826112836298
 20
-69.65666709727355
 30
0.0
 11
542.7826112836299
 21
-69.65666709727355
 31
0.0
  0
LINE
  5
52BD
330
17
100
AcDbEntity
  8
0
 48
0.3
100
AcDbLine
 10
536.5826112836299
 20
-80.85666709727471
 30
0.0
 11
538.9826112836299
 21
-80.85666709727465
 31
0.0
  0
LINE
  5
52BE
330
17
100
AcDbEntity
  8
0
 48
0.3
100
AcDbLine
 10
621.9092528260248
 20
-80.856667097273
 30
0.0
 11
609.6706010478369
 21
-80.85666709727332
 31
0.0
  0
LINE
  5
52BF
330
17
100
AcDbEntity
  8
additional
  6
CENTER2
 48
0.5
100
AcDbLine
 10
627.4569790230666
 20
-74.6566670972735
 30
0.0
 11
588.2626501457359
 21
-74.6566670972735
 31
0.0
  0
LINE
  5
52C0
330
17
100
AcDbEntity
  8
additional
 48
0.3
100
AcDbLine
 10
607.0953751703998
 20
-77.65666709727344
 30
0.0
 11
602.0694852458198
 21
-77.65666709727344
 31
0.0
  0
LINE
  5
52C2
330
17
100
AcDbEntity
  8
0
100
AcDbLine
 10
623.5092528260247
 20
-69.65666709727355
 30
0.0
 11
598.6592528260248
 21
-69.65666709727355
 31
0.0
  0
LINE
  5
52C3
330
17
100
AcDbEntity
  8
0
100
AcDbLine
 10
623.5092528260247
 20
-79.65666709727344
 30
0.0
 11
598.6592528260248
 21
-79.6566670972735
 31
0.0
  0
LINE
  5
52C5
330
17
100
AcDbEntity
  8
0
100
AcDbLine
 10
598.6592528260247
 20
-69.65666709727355
 30
0.0
 11
598.6592528260247
 21
-71.36717857545841
 31
0.0
  0
LINE
  5
52C6
330
17
100
AcDbEntity
  8
additional
 48
0.3
100
AcDbLine
 10
604.6592528260247
 20
-75.53597303048888
 30
0.0
 11
604.6592528260247
 21
-79.98474125641132
 31
0.0
  0
LINE
  5
52C7
330
17
100
AcDbEntity
  8
0
100
AcDbLine
 10
600.5592528260247
 20
-77.1566670972735
 30
0.0
 11
600.5592528260247
 21
-74.65666709727355
 31
0.0
  0
LINE
  5
52C8
330
17
100
AcDbEntity
  8
0
100
AcDbLine
 10
598.9592528260248
 20
-77.1566670972735
 30
0.0
 11
598.9592528260248
 21
-74.65666709727353
 31
0.0
  0
LINE
  5
52C9
330
17
100
AcDbEntity
  8
0
100
AcDbLine
 10
598.6592528260248
 20
-79.65666709727344
 30
0.0
 11
598.6592528260248
 21
-77.94615561908864
 31
0.0
  0
POINT
  5
52CA
330
17
100
AcDbEntity
  8
0
 48
0.3
100
AcDbPoint
 10
598.6592528260248
 20
-79.6566670972735
 30
0.0
  0
LINE
  5
52CB
330
17
100
AcDbEntity
  8
0
100
AcDbLine
 10
598.6592528260248
 20
-77.1566670972735
 30
0.0
 11
600.5592528260247
 21
-77.1566670972735
 31
0.0
  0
LINE
  5
52CC
330
17
100
AcDbEntity
  8
0
100
AcDbLine
 10
598.6592528260248
 20
-77.34615561908867
 30
0.0
 11
598.6592528260248
 21
-77.1566670972735
 31
0.0
  0
LINE
  5
52CD
330
17
100
AcDbEntity
  8
0
100
AcDbLine
 10
599.1592528260248
 20
-77.64615561908863
 30
0.0
 11
598.6592528260248
 21
-77.34615561908862
 31
0.0
  0
LINE
  5
52CE
330
17
100
AcDbEntity
  8
0
100
AcDbLine
 10
598.6592528260248
 20
-77.94615561908864
 30
0.0
 11
599.1592528260248
 21
-77.64615561908863
 31
0.0
  0
LINE
  5
52CF
330
17
100
AcDbEntity
  8
0
100
AcDbLine
 10
600.5592528260247
 20
-72.15666709727355
 30
0.0
 11
600.5592528260247
 21
-74.65666709727355
 31
0.0
  0
LINE
  5
52D0
330
17
100
AcDbEntity
  8
0
100
AcDbLine
 10
598.9592528260248
 20
-72.15666709727355
 30
0.0
 11
598.9592528260248
 21
-74.65666709727353
 31
0.0
  0
LINE
  5
52D1
330
17
100
AcDbEntity
  8
0
100
AcDbLine
 10
598.6592528260248
 20
-72.15666709727355
 30
0.0
 11
600.5592528260247
 21
-72.15666709727355
 31
0.0
  0
LINE
  5
52D2
330
17
100
AcDbEntity
  8
0
100
AcDbLine
 10
599.1592528260248
 20
-71.66717857545837
 30
0.0
 11
598.6592528260248
 21
-71.96717857545838
 31
0.0
  0
LINE
  5
52D3
330
17
100
AcDbEntity
  8
0
100
AcDbLine
 10
598.6592528260248
 20
-71.36717857545836
 30
0.0
 11
599.1592528260248
 21
-71.66717857545837
 31
0.0
  0
LINE
  5
52D4
330
17
100
AcDbEntity
  8
0
100
AcDbLine
 10
598.6592528260248
 20
-71.96717857545838
 30
0.0
 11
598.6592528260248
 21
-72.1566670972735
 31
0.0
  0
POINT
  5
52D5
330
17
100
AcDbEntity
  8
0
 62
     0
 48
0.3
370
    -3
100
AcDbPoint
 10
604.6592528260247
 20
-79.90666709727349
 30
0.0
  0
CIRCLE
  5
52D6
330
17
100
AcDbEntity
  8
additional
  6
HIDDEN2
100
AcDbCircle
 10
604.6592528260248
 20
-77.65666709727344
 30
0.0
 40
1.0
  0
CIRCLE
  5
52D7
330
17
100
AcDbEntity
  8
0
100
AcDbCircle
 10
604.6592528260248
 20
-77.65666709727344
 30
0.0
 40
0.75
  0
POINT
  5
52D8
330
17
100
AcDbEntity
  8
0
 62
     0
370
    -3
100
AcDbPoint
 10
604.6592528260248
 20
-77.65666709727344
 30
0.0
  0
LINE
  5
52D9
330
17
100
AcDbEntity
  8
0
 48
0.3
100
AcDbLine
 10
600.5592528260247
 20
-80.23166709727348
 30
0.0
 11
600.5592528260247
 21
-79.6566670972735
 31
0.0
  0
LINE
  5
52DA
330
17
100
AcDbEntity
  8
0
 48
0.3
100
AcDbLine
 10
606.7840789340098
 20
-79.65666709727338
 30
0.0
 11
609.6706010478369
 21
-80.85666709727332
 31
0.0
  0
LINE
  5
52DC
330
17
100
AcDbEntity
  8
additional
 48
0.3
100
AcDbLine
 10
619.6592528260248
 20
-69.72387347227402
 30
0.0
 11
619.6592528260248
 21
-73.95737839300796
 31
0.0
  0
LINE
  5
52DD
330
17
100
AcDbEntity
  8
0
100
AcDbLine
 10
623.5092528260247
 20
-69.65666709727355
 30
0.0
 11
623.5092528260245
 21
-79.65666709727345
 31
0.0
  0
LINE
  5
52DE
330
17
100
AcDbEntity
  8
additional
 48
0.3
100
AcDbLine
 10
622.051225687662
 20
-71.65666709727344
 30
0.0
 11
617.5095288121931
 21
-71.65666709727344
 31
0.0
  0
LINE
  5
52DF
330
17
100
AcDbEntity
  8
0
 48
0.3
100
AcDbLine
 10
624.0092528260247
 20
-75.85666709727352
 30
0.0
 11
624.0092528260247
 21
-73.45666709727351
 31
0.0
  0
LINE
  5
52E1
330
17
100
AcDbEntity
  8
0
 48
0.3
100
AcDbLine
 10
623.5092528260247
 20
-76.15666709727349
 30
0.0
 11
623.7092528260248
 21
-76.15666709727349
 31
0.0
  0
CIRCLE
  5
52E2
330
17
100
AcDbEntity
  8
additional
  6
HIDDEN2
100
AcDbCircle
 10
619.6592528260248
 20
-71.65666709727344
 30
0.0
 40
1.0
  0
POINT
  5
52E3
330
17
100
AcDbEntity
  8
0
100
AcDbPoint
 10
619.6592528260248
 20
-71.65666709727344
 30
0.0
  0
CIRCLE
  5
52E4
330
17
100
AcDbEntity
  8
0
100
AcDbCircle
 10
619.6592528260248
 20
-71.65666709727344
 30
0.0
 40
0.75
  0
LINE
  5
52E5
330
17
100
AcDbEntity
  8
0
 48
0.3
100
AcDbLine
 10
623.5092528260247
 20
-73.1566670972735
 30
0.0
 11
623.7092528260248
 21
-73.15666709727352
 31
0.0
  0
LINE
  5
52E6
330
17
100
AcDbEntity
  8
0
 48
0.3
100
AcDbLine
 10
623.5092528260247
 20
-79.6566670972729
 30
0.0
 11
633.1825602521822
 21
-79.65666709727265
 31
0.0
  0
LINE
  5
52E7
330
17
100
AcDbEntity
  8
0
 48
0.3
100
AcDbLine
 10
621.9092528260248
 20
-80.65666709727299
 30
0.0
 11
632.6966055895695
 21
-80.65666709727269
 31
0.0
  0
LINE
  5
52E8
330
17
100
AcDbEntity
  8
0
 48
0.3
100
AcDbLine
 10
621.9092528260248
 20
-80.856667097273
 30
0.0
 11
621.9092528260248
 21
-79.65666709727298
 31
0.0
  0
LINE
  5
52E9
330
17
100
AcDbEntity
  8
0
100
AcDbLine
 10
622.5092528260248
 20
-18.87370950597824
 30
0.0
 11
598.6592528260248
 21
-18.87370950597824
 31
0.0
  0
LINE
  5
52EA
330
17
100
AcDbEntity
  8
0
100
AcDbLine
 10
622.5092528260248
 20
-17.87370950597824
 30
0.0
 11
598.6592528260248
 21
-17.87370950597824
 31
0.0
  0
LINE
  5
52EB
330
17
100
AcDbEntity
  8
0
100
AcDbLine
 10
622.5092528260248
 20
-28.8737095059783
 30
0.0
 11
598.6592528260247
 21
-28.87370950597824
 31
0.0
  0
LINE
  5
52EC
330
17
100
AcDbEntity
  8
0
100
AcDbLine
 10
622.5092528260248
 20
-29.8737095059783
 30
0.0
 11
598.6592528260247
 21
-29.87370950597824
 31
0.0
  0
LINE
  5
52ED
330
17
100
AcDbEntity
  8
0
100
AcDbLine
 10
621.0092528260247
 20
-19.37370950597824
 30
0.0
 11
602.5592528260247
 21
-19.37370950597824
 31
0.0
  0
LINE
  5
52EE
330
17
100
AcDbEntity
  8
0
100
AcDbLine
 10
600.5592528260247
 20
-28.87370950597824
 30
0.0
 11
600.5592528260247
 21
-23.87370950597824
 31
0.0
  0
LINE
  5
52EF
330
17
100
AcDbEntity
  8
0
100
AcDbLine
 10
598.9592528260248
 20
-18.87370950597818
 30
0.0
 11
598.9592528260248
 21
-28.87370950597824
 31
0.0
  0
LINE
  5
52F0
330
17
100
AcDbEntity
  8
0
100
AcDbLine
 10
598.6592528260247
 20
-29.87370950597824
 30
0.0
 11
598.6592528260247
 21
-28.87370950597824
 31
0.0
  0
LINE
  5
52F1
330
17
100
AcDbEntity
  8
0
100
AcDbLine
 10
598.6592528260248
 20
-17.87370950597824
 30
0.0
 11
598.6592528260248
 21
-18.87370950597824
 31
0.0
  0
LINE
  5
52F5
330
17
100
AcDbEntity
  8
0
100
AcDbLine
 10
622.5092528260248
 20
-24.87370950597818
 30
0.0
 11
622.5092528260248
 21
-28.8737095059783
 31
0.0
  0
LINE
  5
52F6
330
17
100
AcDbEntity
  8
0
100
AcDbLine
 10
623.5092528260247
 20
-24.87370950597818
 30
0.0
 11
623.5092528260247
 21
-28.8737095059783
 31
0.0
  0
LINE
  5
52F7
330
17
100
AcDbEntity
  8
0
100
AcDbLine
 10
621.9092528260248
 20
-19.07370950597828
 30
0.0
 11
621.9092528260248
 21
-28.67370950597837
 31
0.0
  0
ARC
  5
52F8
330
17
100
AcDbEntity
  8
0
100
AcDbCircle
 10
622.5092528260248
 20
-28.8737095059783
 30
0.0
 40
1.0
100
AcDbArc
 50
270.0
 51
0.0
  0
LINE
  5
52F9
330
17
100
AcDbEntity
  8
0
100
AcDbLine
 10
621.0092528260247
 20
-28.3737095059783
 30
0.0
 11
621.9092528260248
 21
-28.3737095059783
 31
0.0
  0
LINE
  5
52FA
330
17
100
AcDbEntity
  8
0
100
AcDbLine
 10
621.9092528260248
 20
-28.67370950597837
 30
0.0
 11
622.5092528260248
 21
-28.67370950597837
 31
0.0
  0
LINE
  5
52FB
330
17
100
AcDbEntity
  8
0
100
AcDbLine
 10
622.5092528260248
 20
-24.87370950597821
 30
0.0
 11
622.5092528260248
 21
-18.87370950597824
 31
0.0
  0
LINE
  5
52FC
330
17
100
AcDbEntity
  8
0
100
AcDbLine
 10
623.5092528260247
 20
-24.87370950597821
 30
0.0
 11
623.5092528260247
 21
-18.87370950597824
 31
0.0
  0
LINE
  5
52FD
330
17
100
AcDbEntity
  8
0
 48
0.3
100
AcDbLine
 10
623.7092528260248
 20
-25.37370950597818
 30
0.0
 11
623.5092528260247
 21
-25.37370950597818
 31
0.0
  0
LINE
  5
52FE
330
17
100
AcDbEntity
  8
0
100
AcDbLine
 10
624.0092528260247
 20
-24.87370950597818
 30
0.0
 11
624.0092528260247
 21
-25.0737095059782
 31
0.0
  0
LINE
  5
52FF
330
17
100
AcDbEntity
  8
0
 48
0.3
100
AcDbLine
 10
623.5092528260247
 20
-22.37370950597818
 30
0.0
 11
623.7092528260248
 21
-22.37370950597818
 31
0.0
  0
LINE
  5
5300
330
17
100
AcDbEntity
  8
0
100
AcDbLine
 10
624.0092528260247
 20
-22.87370950597818
 30
0.0
 11
624.0092528260247
 21
-22.6737095059782
 31
0.0
  0
ARC
  5
5301
330
17
100
AcDbEntity
  8
0
100
AcDbCircle
 10
622.5092528260248
 20
-18.87370950597824
 30
0.0
 40
1.0
100
AcDbArc
 50
0.0
 51
90.0
  0
LINE
  5
5302
330
17
100
AcDbEntity
  8
0
100
AcDbLine
 10
621.0092528260247
 20
-19.37370950597824
 30
0.0
 11
621.9092528260248
 21
-19.37370950597824
 31
0.0
  0
LINE
  5
5303
330
17
100
AcDbEntity
  8
0
100
AcDbLine
 10
621.9092528260248
 20
-19.07370950597828
 30
0.0
 11
622.5092528260248
 21
-19.07370950597828
 31
0.0
  0
DIMENSION
  5
5305
330
17
100
AcDbEntity
  8
Z_OM_DIM
 48
0.5
100
AcDbDimension
  2
*D31
 10
572.2190589186175
 20
-76.6566670972735
 30
0.0
 11
572.2190589186175
 21
-64.94833376394007
 31
0.0
 70
   160
  1
%%c<>
 71
     5
 42
4.0
  3
CatalogDxf
100
AcDbAlignedDimension
 13
590.8592528260247
 23
-72.6566670972735
 33
0.0
 14
590.8592528260246
 24
-76.6566670972735
 34
0.0
 50
90.0
100
AcDbRotatedDimension
  0
LINE
  5
5306
330
17
100
AcDbEntity
  8
0
 48
0.3
100
AcDbLine
 10
598.9592528260248
 20
-72.15666709727353
 30
0.0
 11
600.5592528260247
 21
-72.15666709727353
 31
0.0
  0
LINE
  5
5307
330
17
100
AcDbEntity
  8
0
 48
0.3
100
AcDbLine
 10
591.9592528260247
 20
-76.6566670972735
 30
0.0
 11
591.9592528260247
 21
-74.6566670972735
 31
0.0
  0
LINE
  5
5308
330
17
100
AcDbEntity
  8
0
 48
0.3
100
AcDbLine
 10
592.9592528260248
 20
-72.6566670972735
 30
0.0
 11
592.9592528260248
 21
-76.6566670972735
 31
0.0
  0
LINE
  5
5309
330
17
100
AcDbEntity
  8
0
 48
0.3
100
AcDbLine
 10
590.6592528260248
 20
-72.85666709727348
 30
0.0
 11
590.6592528260248
 21
-76.45666709727348
 31
0.0
  0
LINE
  5
530A
330
17
100
AcDbEntity
  8
0
 48
0.3
100
AcDbLine
 10
590.8592528260246
 20
-76.6566670972735
 30
0.0
 11
591.9592528260247
 21
-76.6566670972735
 31
0.0
  0
LINE
  5
530B
330
17
100
AcDbEntity
  8
0
 48
0.3
100
AcDbLine
 10
591.9592528260247
 20
-72.6566670972735
 30
0.0
 11
590.8592528260247
 21
-72.6566670972735
 31
0.0
  0
LINE
  5
530C
330
17
100
AcDbEntity
  8
0
 48
0.3
100
AcDbLine
 10
591.9592528260247
 20
-74.6566670972735
 30
0.0
 11
591.9592528260247
 21
-72.6566670972735
 31
0.0
  0
LINE
  5
530D
330
17
100
AcDbEntity
  8
0
 48
0.3
100
AcDbLine
 10
591.9592528260247
 20
-75.6566670972735
 30
0.0
 11
592.9592528260248
 21
-75.6566670972735
 31
0.0
  0
LINE
  5
530E
330
17
100
AcDbEntity
  8
0
 48
0.3
100
AcDbLine
 10
592.9592528260248
 20
-73.65666709727349
 30
0.0
 11
591.9592528260247
 21
-73.65666709727349
 31
0.0
  0
LINE
  5
530F
102
{ACAD_REACTORS
330
534C
102
}
330
17
100
AcDbEntity
  8
0
 48
0.3
100
AcDbLine
 10
591.9592528260247
 20
-73.65666709727349
 30
0.0
 11
591.9592528260247
 21
-75.6566670972735
 31
0.0
  0
LINE
  5
5310
330
17
100
AcDbEntity
  8
0
 48
0.5
100
AcDbLine
 10
598.9592528260248
 20
-76.65666709727353
 30
0.0
 11
592.9592528260248
 21
-76.65666709727353
 31
0.0
  0
LINE
  5
5311
330
17
100
AcDbEntity
  8
0
 48
0.5
100
AcDbLine
 10
598.9592528260248
 20
-72.65666709727352
 30
0.0
 11
592.9592528260248
 21
-72.65666709727341
 31
0.0
  0
DIMENSION
  5
5312
330
17
100
AcDbEntity
  8
Z_OM_DIM
 48
0.5
100
AcDbDimension
  2
*D32
 10
543.7826112836298
 20
-91.93250408276162
 30
0.0
 11
537.7826112836299
 21
-90.05750408276162
 31
0.0
 70
    32
 71
     5
 42
12.0
  3
CatalogDxf
100
AcDbAlignedDimension
 13
531.7826112836298
 23
-79.65666709727344
 33
0.0
 14
543.7826112836298
 24
-79.65666709727347
 34
0.0
100
AcDbRotatedDimension
  0
DIMENSION
  5
5313
330
17
100
AcDbEntity
  8
Z_OM_DIM
 48
0.5
100
AcDbDimension
  2
*D33
 10
556.1145122854161
 20
-69.6566670972736
 30
0.0
 11
554.2395122854161
 21
-74.65666709727344
 31
0.0
 70
    32
 71
     5
 42
9.999999999999886
  3
CatalogDxf
100
AcDbAlignedDimension
 13
543.7826112836298
 23
-79.65666709727347
 33
0.0
 14
543.7826112836298
 24
-69.65666709727358
 34
0.0
 50
90.0
100
AcDbRotatedDimension
  0
DIMENSION
  5
5314
330
17
100
AcDbEntity
  8
Z_OM_DIM
 48
0.5
100
AcDbDimension
  2
*D34
 10
598.6592528260248
 20
-89.43250408276162
 30
0.0
 11
601.6592528260248
 21
-89.43250408276162
 31
0.0
 70
   160
 71
     5
 42
5.999999999999886
  3
CatalogDxf
100
AcDbAlignedDimension
 13
604.6592528260247
 23
-79.98474125641132
 33
0.0
 14
598.6592528260248
 24
-79.65666709727344
 34
0.0
100
AcDbRotatedDimension
  0
DIMENSION
  5
5315
330
17
100
AcDbEntity
  8
Z_OM_DIM
 48
0.5
100
AcDbDimension
  2
*D35
 10
592.9592528260248
 20
-89.43250408276162
 30
0.0
 11
584.8342528260247
 21
-89.43250408276162
 31
0.0
 70
   160
 71
     5
 42
5.700000000000045
  3
CatalogDxf
100
AcDbAlignedDimension
 13
598.6592528260248
 23
-79.65666709727344
 33
0.0
 14
592.9592528260248
 24
-76.65666709727353
 34
0.0
100
AcDbRotatedDimension
  0
LEADER
  5
5317
330
17
100
AcDbEntity
  8
Z_OM_DIM
 48
0.5
370
    -3
100
AcDbLeader
  3
CatalogDxf
 76
     3
 10
620.114356438135
 20
-70.76622860852523
 30
0.0
 10
624.3698804661974
 20
-62.44003148868808
 30
0.0
 10
635.640777059189
 20
-62.44003148868808
 30
0.0
  0
LINE
  5
5318
330
17
100
AcDbEntity
  8
0
 48
0.5
100
AcDbLine
 10
532.7826112836298
 20
-70.1566670972735
 30
0.0
 11
542.7826112836299
 21
-70.1566670972735
 31
0.0
  0
LINE
  5
5319
330
17
100
AcDbEntity
  8
0
 48
0.5
100
AcDbLine
 10
532.7826112836298
 20
-79.1566670972735
 30
0.0
 11
542.7826112836299
 21
-79.1566670972735
 31
0.0
  0
LINE
  5
531A
330
17
100
AcDbEntity
  8
0
100
AcDbLine
 10
542.7826112836299
 20
-79.65666709727347
 30
0.0
 11
543.7826112836298
 21
-79.65666709727347
 31
0.0
  0
LINE
  5
531B
330
17
100
AcDbEntity
  8
0
100
AcDbLine
 10
532.7826112836298
 20
-69.65666709727358
 30
0.0
 11
531.7826112836298
 21
-69.65666709727358
 31
0.0
  0
LINE
  5
531C
330
17
100
AcDbEntity
  8
0
 48
0.5
100
AcDbLine
 10
533.7826112836299
 20
-79.83166709727351
 30
0.0
 11
533.7826112836299
 21
-79.5316670972735
 31
0.0
  0
LINE
  5
531D
330
17
100
AcDbEntity
  8
0
 48
0.5
100
AcDbLine
 10
533.9076112836298
 20
-69.7816670972735
 30
0.0
 11
541.6576112836298
 21
-69.7816670972735
 31
0.0
  0
LINE
  5
531E
330
17
100
AcDbEntity
  8
0
 48
0.5
100
AcDbLine
 10
541.7826112836299
 20
-79.5316670972735
 30
0.0
 11
541.7826112836299
 21
-79.83166709727351
 31
0.0
  0
LINE
  5
531F
330
17
100
AcDbEntity
  8
0
 48
0.5
100
AcDbLine
 10
541.3826112836297
 20
-80.23166709727348
 30
0.0
 11
534.1826112836297
 21
-80.23166709727348
 31
0.0
  0
ARC
  5
5320
330
17
100
AcDbEntity
  8
0
 48
0.5
100
AcDbCircle
 10
533.9076112836298
 20
-70.7816670972735
 30
0.0
 40
1.0
100
AcDbArc
 50
90.0
 51
141.3178125465102
  0
ARC
  5
5321
330
17
100
AcDbEntity
  8
0
 48
0.5
100
AcDbCircle
 10
541.6576112836298
 20
-70.7816670972735
 30
0.0
 40
1.0
100
AcDbArc
 50
38.68218745348865
 51
90.0
  0
ARC
  5
5322
330
17
100
AcDbEntity
  8
0
 48
0.5
100
AcDbCircle
 10
534.1826112836297
 20
-79.83166709727351
 30
0.0
 40
0.4
100
AcDbArc
 50
180.0
 51
270.0
  0
ARC
  5
5323
330
17
100
AcDbEntity
  8
0
 48
0.5
100
AcDbCircle
 10
541.3826112836297
 20
-79.83166709727351
 30
0.0
 40
0.4
100
AcDbArc
 50
270.0
 51
0.0
  0
LINE
  5
5324
330
17
100
AcDbEntity
  8
0
 48
0.5
100
AcDbLine
 10
622.5092528260248
 20
-25.9162095059782
 30
0.0
 11
622.5092528260248
 21
-25.06620950597818
 31
0.0
  0
LINE
  5
5325
330
17
100
AcDbEntity
  8
0
 48
0.5
100
AcDbLine
 10
622.5092528260248
 20
-22.68120950597819
 30
0.0
 11
622.5092528260248
 21
-21.83120950597819
 31
0.0
  0
LINE
  5
5326
330
17
100
AcDbEntity
  8
0
 48
0.3
100
AcDbLine
 10
591.9592528260247
 20
-25.87370950597824
 30
0.0
 11
591.9592528260247
 21
-23.87370950597824
 31
0.0
  0
LINE
  5
5327
330
17
100
AcDbEntity
  8
0
 48
0.3
100
AcDbLine
 10
592.9592528260248
 20
-21.87370950597824
 30
0.0
 11
592.9592528260248
 21
-25.87370950597824
 31
0.0
  0
LINE
  5
5328
330
17
100
AcDbEntity
  8
0
 48
0.3
100
AcDbLine
 10
590.6592528260248
 20
-22.07370950597823
 30
0.0
 11
590.6592528260248
 21
-25.67370950597825
 31
0.0
  0
LINE
  5
5329
330
17
100
AcDbEntity
  8
0
 48
0.3
100
AcDbLine
 10
590.8592528260247
 20
-25.87370950597824
 30
0.0
 11
591.9592528260247
 21
-25.87370950597824
 31
0.0
  0
LINE
  5
532A
330
17
100
AcDbEntity
  8
0
 48
0.3
100
AcDbLine
 10
591.9592528260247
 20
-21.87370950597824
 30
0.0
 11
590.8592528260247
 21
-21.87370950597824
 31
0.0
  0
LINE
  5
532B
330
17
100
AcDbEntity
  8
0
 48
0.3
100
AcDbLine
 10
591.9592528260247
 20
-23.87370950597824
 30
0.0
 11
591.9592528260247
 21
-21.87370950597824
 31
0.0
  0
LINE
  5
532C
330
17
100
AcDbEntity
  8
0
 48
0.3
100
AcDbLine
 10
591.9592528260247
 20
-24.87370950597824
 30
0.0
 11
592.9592528260248
 21
-24.87370950597824
 31
0.0
  0
LINE
  5
532D
330
17
100
AcDbEntity
  8
0
 48
0.3
100
AcDbLine
 10
592.9592528260248
 20
-22.87370950597824
 30
0.0
 11
591.9592528260247
 21
-22.87370950597824
 31
0.0
  0
LINE
  5
532E
330
17
100
AcDbEntity
  8
0
 48
0.3
100
AcDbLine
 10
591.9592528260247
 20
-22.87370950597824
 30
0.0
 11
591.9592528260247
 21
-24.87370950597824
 31
0.0
  0
LINE
  5
532F
330
17
100
AcDbEntity
  8
0
 48
0.5
100
AcDbLine
 10
598.9592528260248
 20
-21.87370950597824
 30
0.0
 11
592.9592528260248
 21
-21.87370950597824
 31
0.0
  0
LINE
  5
5330
330
17
100
AcDbEntity
  8
0
 48
0.5
100
AcDbLine
 10
598.9592528260248
 20
-25.87370950597824
 30
0.0
 11
592.9592528260248
 21
-25.87370950597824
 31
0.0
  0
ARC
  5
5331
330
17
100
AcDbEntity
  8
0
 48
0.5
100
AcDbCircle
 10
541.6576112836298
 20
-78.53166709727346
 30
0.0
 40
1.000000000000003
100
AcDbArc
 50
277.1807557814583
 51
321.3178125465102
  0
ARC
  5
5332
330
17
100
AcDbEntity
  8
0
 48
0.5
100
AcDbCircle
 10
533.9076112836298
 20
-78.5316670972735
 30
0.0
 40
1.000000000000005
100
AcDbArc
 50
218.6821874534887
 51
262.8192442185417
  0
LINE
  5
5333
330
17
100
AcDbEntity
  8
0
 48
0.3
100
AcDbLine
 10
590.8592528260247
 20
-21.87370950597824
 30
0.0
 11
590.6592528260248
 21
-22.07370950597823
 31
0.0
  0
LINE
  5
5334
330
17
100
AcDbEntity
  8
0
 48
0.3
100
AcDbLine
 10
590.8592528260247
 20
-25.87370950597824
 30
0.0
 11
590.6592528260248
 21
-25.67370950597825
 31
0.0
  0
LINE
  5
5335
330
17
100
AcDbEntity
  8
0
 48
0.3
100
AcDbLine
 10
590.8592528260247
 20
-72.6566670972735
 30
0.0
 11
590.6592528260248
 21
-72.85666709727348
 31
0.0
  0
LINE
  5
5336
330
17
100
AcDbEntity
  8
0
 48
0.3
100
AcDbLine
 10
590.8592528260246
 20
-76.6566670972735
 30
0.0
 11
590.6592528260248
 21
-76.45666709727348
 31
0.0
  0
LINE
  5
5337
330
17
100
AcDbEntity
  8
0
 48
0.5
100
AcDbLine
 10
602.5592528260248
 20
-19.07370950597817
 30
0.0
 11
602.5592528260248
 21
-23.87370950597824
 31
0.0
  0
LINE
  5
5338
330
17
100
AcDbEntity
  8
0
 48
0.5
100
AcDbLine
 10
600.5592528260247
 20
-18.87370950597824
 30
0.0
 11
600.5592528260248
 21
-23.87370950597824
 31
0.0
  0
LINE
  5
5339
330
17
100
AcDbEntity
  8
0
100
AcDbLine
 10
600.5592528260247
 20
-19.07370950597817
 30
0.0
 11
602.5592528260248
 21
-19.07370950597817
 31
0.0
  0
LINE
  5
533A
330
17
100
AcDbEntity
  8
0
 48
0.5
100
AcDbLine
 10
602.5592528260245
 20
-28.67370950597837
 30
0.0
 11
602.5592528260248
 21
-23.8737095059783
 31
0.0
  0
LINE
  5
533B
330
17
100
AcDbEntity
  8
0
 48
0.5
100
AcDbLine
 10
600.5592528260244
 20
-28.87370950597821
 30
0.0
 11
600.5592528260248
 21
-23.87370950597824
 31
0.0
  0
LINE
  5
533C
330
17
100
AcDbEntity
  8
0
100
AcDbLine
 10
600.5592528260246
 20
-28.67370950597828
 30
0.0
 11
602.5592528260245
 21
-28.67370950597837
 31
0.0
  0
LINE
  5
533D
330
17
100
AcDbEntity
  8
0
100
AcDbLine
 10
621.0092528260248
 20
-28.37370950597784
 30
0.0
 11
602.5592528260249
 21
-28.37370950597835
 31
0.0
  0
LINE
  5
533E
330
17
100
AcDbEntity
  8
0
 48
0.5
100
AcDbLine
 10
602.5592528260245
 20
-80.23166709727348
 30
0.0
 11
602.5592528260245
 21
-79.6566670972735
 31
0.0
  0
LINE
  5
533F
330
17
100
AcDbEntity
  8
0
 48
0.5
100
AcDbLine
 10
600.5592528260246
 20
-80.23166709727348
 30
0.0
 11
602.5592528260245
 21
-80.23166709727348
 31
0.0
  0
ARC
  5
5340
330
17
100
AcDbEntity
  8
0
 48
0.3
100
AcDbCircle
 10
623.7092528260248
 20
-73.45666709727351
 30
0.0
 40
0.3
100
AcDbArc
 50
0.0
 51
90.0
  0
ARC
  5
5341
330
17
100
AcDbEntity
  8
0
 48
0.3
100
AcDbCircle
 10
623.7092528260248
 20
-75.85666709727352
 30
0.0
 40
0.3
100
AcDbArc
 50
270.0
 51
0.0
  0
ARC
  5
5342
330
17
100
AcDbEntity
  8
0
 48
0.3
100
AcDbCircle
 10
623.7092528260248
 20
-22.6737095059782
 30
0.0
 40
0.3
100
AcDbArc
 50
0.0
 51
90.0
  0
ARC
  5
5343
330
17
100
AcDbEntity
  8
0
 48
0.3
100
AcDbCircle
 10
623.7092528260248
 20
-25.0737095059782
 30
0.0
 40
0.3
100
AcDbArc
 50
270.0
 51
0.0
  0
LINE
  5
5344
330
17
100
AcDbEntity
  8
additional
  6
CENTER2
 48
0.5
100
AcDbLine
 10
588.4516154205339
 20
-23.87370950597824
 30
0.0
 11
624.0092528260247
 21
-23.87370950597824
 31
0.0
  0
DIMENSION
  5
5345
330
17
100
AcDbEntity
  8
Z_OM_DIM
 48
0.5
100
AcDbDimension
  2
*D36
 10
592.9592528260248
 20
-61.91190691171982
 30
0.0
 11
599.1174185491884
 21
-61.91190691171982
 31
0.0
 70
   160
 71
     5
  3
CatalogDxf
100
AcDbAlignedDimension
 13
591.9592528260247
 23
-72.65666709727341
 33
0.0
 14
592.9592528260248
 24
-72.65666709727341
 34
0.0
 50
359.9999999999968
100
AcDbRotatedDimension
1001
ACAD
1000
DSTYLE
1002
{
1070
   343
1005
515C
1070
   342
1005
0
1070
   173
1070
     1
1070
   344
1005
977
1002
}
  0
DIMENSION
  5
5346
330
17
100
AcDbEntity
  8
Z_OM_DIM
 48
0.5
100
AcDbDimension
  2
*D37
 10
590.6592528260248
 20
-61.91190691171975
 30
0.0
 11
582.7946694926914
 21
-61.91190691171975
 31
0.0
 70
   160
 71
     5
 42
1.299999999999954
  3
CatalogDxf
100
AcDbAlignedDimension
 13
591.9592528260247
 23
-72.65666709727341
 33
0.0
 14
590.6592528260248
 24
-72.85666709727343
 34
0.0
 50
359.9999999999968
100
AcDbRotatedDimension
1001
ACAD
1000
DSTYLE
1002
{
1070
   344
1005
977
1070
   342
1005
0
1070
   173
1070
     1
1070
   343
1005
515C
1002
}
  0
LINE
  5
5347
330
17
100
AcDbEntity
  8
0
 48
0.5
100
AcDbLine
 10
536.5826112836299
 20
-80.85666709727471
 30
0.0
 11
535.3208188307982
 21
-80.23166709727348
 31
0.0
  0
LINE
  5
5348
330
17
100
AcDbEntity
  8
0
 48
0.5
100
AcDbLine
 10
538.9826112836299
 20
-80.85666709727465
 30
0.0
 11
540.2444037364613
 21
-80.23166709727348
 31
0.0
  0
LINE
  5
5349
330
17
100
AcDbEntity
  8
0
 48
0.5
100
AcDbLine
 10
624.0092528260247
 20
-22.87370950597818
 30
0.0
 11
624.0092528260247
 21
-24.87370950597818
 31
0.0
  0
DIMENSION
  5
534A
102
{ACAD_XDICTIONARY
360
534B
102
}
102
{ACAD_REACTORS
330
534C
102
}
330
17
100
AcDbEntity
  8
Z_OM_DIM
100
AcDbDimension
  2
*D42
 10
577.4013117510039
 20
-73.65666709727349
 30
0.0
 11
577.4013117510039
 21
-65.94833376394007
 31
0.0
 70
   160
  1
%%c<>
 71
     5
 42
2.0
  3
CatalogDxf
100
AcDbAlignedDimension
 13
591.9592528260247
 23
-75.6566670972735
 33
0.0
 14
591.9592528260247
 24
-73.65666709727349
 34
0.0
 50
90.0
100
AcDbRotatedDimension
  0
DIMENSION
  5
534E
330
17
100
AcDbEntity
  8
Z_OM_DIM
 48
0.5
100
AcDbDimension
  2
*D38
 10
598.6592528260247
 20
-38.2025854038315
 30
0.0
 11
611.0842528260247
 21
-36.32758540383151
 31
0.0
 70
    32
  1
24.8
 71
     5
 42
24.85000000000002
  3
CatalogDxf
100
AcDbAlignedDimension
 13
623.5092528260247
 23
-28.8737095059783
 33
0.0
 14
598.6592528260247
 24
-29.87370950597824
 34
0.0
100
AcDbRotatedDimension
1001
ACAD
1000
DSTYLE
1002
{
1070
   340
1005
3DB6
1002
}
  0
LINE
  5
534F
330
17
100
AcDbEntity
  8
additional
100
AcDbLine
 10
544.8143153096512
 20
-77.65666709727344
 30
0.0
 11
541.8663872856043
 21
-77.65666709727344
 31
0.0
  0
LINE
  5
5350
330
17
100
AcDbEntity
  8
additional
100
AcDbLine
 10
544.8143153096512
 20
-71.65666709727355
 30
0.0
 11
541.8663872856043
 21
-71.65666709727355
 31
0.0
  0
LINE
  5
5352
330
17
100
AcDbEntity
  8
additional
 48
0.3
100
AcDbLine
 10
604.6592528260247
 20
-30.84679348758607
 30
0.0
 11
604.6592528260247
 21
-27.43225731414554
 31
0.0
  0
LINE
  5
5353
330
17
100
AcDbEntity
  8
additional
 48
0.3
100
AcDbLine
 10
619.6592528260248
 20
-30.84679348758611
 30
0.0
 11
619.6592528260248
 21
-27.43225731414559
 31
0.0
  0
MTEXT
  5
5830
102
{ACAD_XDICTIONARY
360
5831
102
}
330
17
100
AcDbEntity
  8
Z_OM_DIM
100
AcDbMText
 10
625.4453221078618
 20
-59.17755681511967
 30
0.0
 40
2.5
 41
9.41596739441001
 71
     1
 72
     5
  1
2-M2
  7
CatalogDxf
 73
     1
 44
0.9
1001
ACAD
1000
ACAD_MTEXT_DEFINED_HEIGHT_BEGIN
1070
    46
1040
11.92101012695991
1000
ACAD_MTEXT_DEFINED_HEIGHT_END
1000
MTEXTBEGIN
1070
    73
1070
     1
1070
    44
1040
0.9
1070
    74
1070
     0
1000
MTEXTEND
  0
DIMENSION
  5
593E
330
17
100
AcDbEntity
  8
Z_OM_DIM
100
AcDbDimension
  2
*D43
 10
661.5232679727179
 20
-13.33235250914546
 30
0.0
 11
642.5162603993713
 21
-11.45735250914546
 31
0.0
 70
    32
  1
180 - 200
 71
     5
 42
38.01401514669317
  3
CatalogDxf
100
AcDbAlignedDimension
 13
623.5092528260247
 23
-18.87370950597824
 33
0.0
 14
661.5232679727179
 24
-23.12370950597824
 34
0.0
100
AcDbRotatedDimension
1001
ACAD
1000
DSTYLE
1002
{
1070
   340
1005
3DB6
1002
}
  0
MTEXT
  5
5941
330
17
100
AcDbEntity
  8
Z_OM_DIM
100
AcDbMText
 10
649.0690176174009
 20
-35.05596370335353
 30
0.0
 40
2.5
 41
42.8494883882687
 71
     7
 72
     1
  1
UL1007 AWG24 white
  7
CatalogDxf
 73
     1
 44
1.0
1001
ACAD
1000
ACAD_MTEXT_DEFINED_HEIGHT_BEGIN
1070
    46
1040
2.500000000000005
1000
ACAD_MTEXT_DEFINED_HEIGHT_END
1000
MTEXTBEGIN
1070
    73
1070
     1
1070
    44
1040
1.0
1070
    74
1070
     0
1000
MTEXTEND
  0
LEADER
  5
5942
330
17
100
AcDbEntity
  8
Z_OM_DIM
100
AcDbLeader
  3
ISO-25
 76
     3
 10
642.9508534022155
 20
-24.87370950597824
 30
0.0
 10
648.5049081236414
 20
-35.68096370335352
 30
0.0
 10
689.8631981957595
 20
-35.68096370335352
 30
0.0
1001
ACAD
1000
DSTYLE
1002
{
1070
   341
1005
977
1070
   147
1040
0.625
1070
    77
1070
     0
1002
}
  0
LINE
  5
5991
330
17
100
AcDbEntity
  8
0
 48
0.5
100
AcDbLine
 10
624.0092528260247
 20
-24.87370950597824
 30
0.0
 11
634.2300134247069
 21
-24.87370950597824
 31
0.0
  0
LINE
  5
5992
330
17
100
AcDbEntity
  8
0
 48
0.5
100
AcDbLine
 10
624.0092528260247
 20
-23.87370950597824
 30
0.0
 11
634.518927228227
 21
-23.87370950597824
 31
0.0
  0
LINE
  5
5993
330
17
100
AcDbEntity
  8
0
 48
0.5
100
AcDbLine
 10
624.0092528260247
 20
-22.87370950597824
 30
0.0
 11
635.028858037467
 21
-22.87370950597824
 31
0.0
  0
LINE
  5
5994
330
17
100
AcDbEntity
  8
0
 48
0.5
100
AcDbLine
 10
654.523267972718
 20
-22.87370950597824
 30
0.0
 11
654.523267972718
 21
-24.87370950597824
 31
0.0
  0
SPLINE
  5
5995
330
17
100
AcDbEntity
  8
additional
 48
0.5
100
AcDbSpline
210
0.0
220
0.0
230
1.0
 70
     8
 71
     3
 72
    18
 73
    14
 74
    12
 42
0.0000000001
 43
0.0000000001
 44
0.0000000001
 40
0.0
 40
0.0
 40
0.0
 40
0.0
 40
0.4472135955000184
 40
0.8944271909998683
 40
1.694427190999819
 40
2.141640786499878
 40
2.588854381999887
 40
3.03606797749975
 40
3.48328157299981
 40
4.683281572999848
 40
5.13049516849971
 40
5.57770876399977
 40
6.024922359499569
 40
6.024922359499569
 40
6.024922359499569
 40
6.024922359499569
 10
634.7398465637155
 20
-21.03477926653863
 30
0.0
 10
634.8041720970256
 20
-21.16922467608657
 30
0.0
 10
634.9328231636457
 20
-21.4381154951824
 30
0.0
 10
635.2297645226635
 20
-21.92222860525557
 30
0.0
 10
635.2298530803366
 20
-22.54735159786112
 30
0.0
 10
634.932674647913
 20
-23.03139315235912
 30
0.0
 10
634.7404014285889
 20
-23.43497203679447
 30
0.0
 10
634.5447990200248
 20
-23.83739429969505
 30
0.0
 10
634.1930578067212
 20
-24.44111934930908
 30
0.0
 10
634.1926043355812
 20
-25.2286053194348
 30
0.0
 10
634.5453060161722
 20
-25.83193233926408
 30
0.0
 10
634.7384817006013
 20
-26.23549099835725
 30
0.0
 10
634.8727249426774
 20
-26.5016831771448
 30
0.0
 10
634.9398465637155
 20
-26.63477926653854
 30
0.0
 11
634.7398465637155
 21
-21.03477926653863
 31
0.0
 11
634.9398465637155
 21
-21.43477926653873
 31
0.0
 11
635.1398465637155
 21
-21.83477926653859
 31
0.0
 11
635.1398465637155
 21
-22.63477926653854
 31
0.0
 11
634.9398465637155
 21
-23.03477926653863
 31
0.0
 11
634.7398465637155
 21
-23.43477926653872
 31
0.0
 11
634.5398465637154
 21
-23.83477926653859
 31
0.0
 11
634.3398465637155
 21
-24.23477926653868
 31
0.0
 11
634.3398465637155
 21
-25.43477926653872
 31
0.0
 11
634.5398465637154
 21
-25.83477926653859
 31
0.0
 11
634.7398465637155
 21
-26.23477926653868
 31
0.0
 11
634.9398465637155
 21
-26.63477926653854
 31
0.0
  0
SPLINE
  5
5996
330
17
100
AcDbEntity
  8
additional
 48
0.5
100
AcDbSpline
210
0.0
220
0.0
230
1.0
 70
     8
 71
     3
 72
    18
 73
    14
 74
    12
 42
0.0000000001
 43
0.0000000001
 44
0.0000000001
 40
0.0
 40
0.0
 40
0.0
 40
0.0
 40
0.4472135955000184
 40
0.8944271909998683
 40
1.694427190999819
 40
2.141640786499878
 40
2.588854381999887
 40
3.03606797749975
 40
3.48328157299981
 40
4.683281572999848
 40
5.13049516849971
 40
5.57770876399977
 40
6.024922359499569
 40
6.024922359499569
 40
6.024922359499569
 40
6.024922359499569
 10
635.7398465637155
 20
-21.03477926653863
 30
0.0
 10
635.8041720970255
 20
-21.16922467608657
 30
0.0
 10
635.9328231636457
 20
-21.4381154951824
 30
0.0
 10
636.2297645226635
 20
-21.92222860525557
 30
0.0
 10
636.2298530803366
 20
-22.54735159786112
 30
0.0
 10
635.932674647913
 20
-23.03139315235912
 30
0.0
 10
635.7404014285889
 20
-23.43497203679447
 30
0.0
 10
635.5447990200247
 20
-23.83739429969505
 30
0.0
 10
635.1930578067212
 20
-24.44111934930908
 30
0.0
 10
635.1926043355812
 20
-25.2286053194348
 30
0.0
 10
635.5453060161722
 20
-25.83193233926408
 30
0.0
 10
635.7384817006013
 20
-26.23549099835725
 30
0.0
 10
635.8727249426774
 20
-26.5016831771448
 30
0.0
 10
635.9398465637155
 20
-26.63477926653854
 30
0.0
 11
635.7398465637155
 21
-21.03477926653863
 31
0.0
 11
635.9398465637155
 21
-21.43477926653873
 31
0.0
 11
636.1398465637155
 21
-21.83477926653859
 31
0.0
 11
636.1398465637155
 21
-22.63477926653854
 31
0.0
 11
635.9398465637155
 21
-23.03477926653863
 31
0.0
 11
635.7398465637155
 21
-23.43477926653872
 31
0.0
 11
635.5398465637155
 21
-23.83477926653859
 31
0.0
 11
635.3398465637154
 21
-24.23477926653868
 31
0.0
 11
635.3398465637154
 21
-25.43477926653872
 31
0.0
 11
635.5398465637155
 21
-25.83477926653859
 31
0.0
 11
635.7398465637155
 21
-26.23477926653868
 31
0.0
 11
635.9398465637155
 21
-26.63477926653854
 31
0.0
  0
LINE
  5
5997
330
17
100
AcDbEntity
  8
0
 48
0.5
100
AcDbLine
 10
635.2300134247069
 20
-24.87370950597824
 30
0.0
 11
654.523267972718
 21
-24.87370950597824
 31
0.0
  0
LINE
  5
5998
330
17
100
AcDbEntity
  8
0
 48
0.5
100
AcDbLine
 10
636.0288580374671
 20
-22.87370950597824
 30
0.0
 11
654.523267972718
 21
-22.87370950597824
 31
0.0
  0
POINT
  5
5999
330
17
100
AcDbEntity
  8
0
100
AcDbPoint
 10
654.523267972718
 20
-22.87370950597824
 30
0.0
  0
POINT
  5
599A
330
17
100
AcDbEntity
  8
0
100
AcDbPoint
 10
654.523267972718
 20
-23.37370950597824
 30
0.0
  0
POINT
  5
599B
330
17
100
AcDbEntity
  8
0
100
AcDbPoint
 10
654.523267972718
 20
-24.87370950597824
 30
0.0
  0
LINE
  5
599C
330
17
100
AcDbEntity
  8
0
100
AcDbLine
 10
654.523267972718
 20
-24.62370950597824
 30
0.0
 11
661.5232679727179
 21
-24.62370950597824
 31
0.0
  0
LINE
  5
599D
330
17
100
AcDbEntity
  8
0
100
AcDbLine
 10
654.523267972718
 20
-24.12370950597824
 30
0.0
 11
661.5232679727179
 21
-24.12370950597824
 31
0.0
  0
POINT
  5
599E
330
17
100
AcDbEntity
  8
0
100
AcDbPoint
 10
654.523267972718
 20
-24.87370950597824
 30
0.0
  0
POINT
  5
599F
330
17
100
AcDbEntity
  8
0
100
AcDbPoint
 10
654.523267972718
 20
-24.37370950597824
 30
0.0
  0
LINE
  5
59A0
330
17
100
AcDbEntity
  8
0
100
AcDbLine
 10
635.518927228227
 20
-23.87370950597824
 30
0.0
 11
654.523267972718
 21
-23.87370950597824
 31
0.0
  0
LINE
  5
59A1
330
17
100
AcDbEntity
  8
0
100
AcDbLine
 10
654.523267972718
 20
-23.62370950597824
 30
0.0
 11
661.5232679727179
 21
-23.62370950597824
 31
0.0
  0
LINE
  5
59A2
330
17
100
AcDbEntity
  8
0
100
AcDbLine
 10
654.523267972718
 20
-23.12370950597824
 30
0.0
 11
661.5232679727179
 21
-23.12370950597824
 31
0.0
  0
SPLINE
  5
5BFC
330
17
100
AcDbEntity
  8
additional
 48
0.5
100
AcDbSpline
210
0.0
220
0.0
230
1.0
 70
     8
 71
     3
 72
    18
 73
    14
 74
    12
 42
0.0000000001
 43
0.0000000001
 44
0.0000000001
 40
0.0
 40
0.0
 40
0.0
 40
0.0
 40
0.4472135955000184
 40
0.8944271909998683
 40
1.694427190999819
 40
2.141640786499878
 40
2.588854381999887
 40
3.03606797749975
 40
3.48328157299981
 40
4.683281572999848
 40
5.13049516849971
 40
5.57770876399977
 40
6.024922359499569
 40
6.024922359499569
 40
6.024922359499569
 40
6.024922359499569
 10
633.1267451649355
 20
-77.3725171671351
 30
0.0
 10
633.1910706982456
 20
-77.50696257668304
 30
0.0
 10
633.3197217648658
 20
-77.77585339577888
 30
0.0
 10
633.6166631238836
 20
-78.25996650585205
 30
0.0
 10
633.6167516815566
 20
-78.88508949845761
 30
0.0
 10
633.3195732491328
 20
-79.36913105295559
 30
0.0
 10
633.1273000298089
 20
-79.77270993739094
 30
0.0
 10
632.9316976212448
 20
-80.17513220029153
 30
0.0
 10
632.579956407941
 20
-80.77885724990554
 30
0.0
 10
632.5795029368015
 20
-81.56634322003128
 30
0.0
 10
632.9322046173921
 20
-82.16967023986056
 30
0.0
 10
633.1253803018214
 20
-82.57322889895373
 30
0.0
 10
633.2596235438974
 20
-82.83942107774128
 30
0.0
 10
633.3267451649354
 20
-82.97251716713502
 30
0.0
 11
633.1267451649355
 21
-77.3725171671351
 31
0.0
 11
633.3267451649354
 21
-77.77251716713521
 31
0.0
 11
633.5267451649355
 21
-78.17251716713506
 31
0.0
 11
633.5267451649355
 21
-78.97251716713501
 31
0.0
 11
633.3267451649354
 21
-79.3725171671351
 31
0.0
 11
633.1267451649355
 21
-79.77251716713519
 31
0.0
 11
632.9267451649355
 21
-80.17251716713506
 31
0.0
 11
632.7267451649354
 21
-80.57251716713514
 31
0.0
 11
632.7267451649354
 21
-81.77251716713518
 31
0.0
 11
632.9267451649355
 21
-82.17251716713505
 31
0.0
 11
633.1267451649355
 21
-82.57251716713515
 31
0.0
 11
633.3267451649354
 21
-82.97251716713502
 31
0.0
  0
ENDSEC
  0
SECTION
  2
OBJECTS
  0
DICTIONARY
  5
C
330
0
100
AcDbDictionary
281
     1
  3
ACAD_2007HEADERVARS_RT
350
47A8
  3
ACAD_COLOR
350
3D57
  3
ACAD_GROUP
350
D
  3
ACAD_LAYOUT
350
3D5A
  3
ACAD_MATERIAL
350
3D42
  3
ACAD_MLINESTYLE
350
1A
  3
ACAD_PLOTSETTINGS
350
957
  3
ACAD_PLOTSTYLENAME
350
3D40
  3
ACAD_TABLESTYLE
350
3D58
  3
ACAD_VISUALSTYLE
350
3D46
  3
AcadDim
350
479D
  3
ACDBHEADERROUNDTRIPXREC
350
5CC8
  3
AcDbVariableDictionary
350
4116
  3
DWGPROPS
350
5CC7
1001
ACAD
1000
TREAT_AS_HARD
1070
     0
  0
DICTIONARY
  5
477D
330
8
100
AcDbDictionary
280
     1
281
     1
  3
ACAD_XREC_ROUNDTRIP
360
47AC
  0
DICTIONARY
  5
3DBA
330
2
100
AcDbDictionary
280
     1
281
     1
  3
ACAD_LAYERFILTERS
360
5839
  3
ACAD_LAYERSTATES
360
3DBB
  3
ACLYDICTIONARY
360
5838
  0
DICTIONARY
  5
47AD
330
E
100
AcDbDictionary
280
     1
281
     1
  3
ACAD_XREC_ROUNDTRIP
360
47AE
  0
DICTIONARY
  5
47AF
330
27
100
AcDbDictionary
280
     1
281
     1
  3
ACAD_XREC_ROUNDTRIP
360
47B0
  0
DICTIONARY
  5
47B1
330
2B
100
AcDbDictionary
280
     1
281
     1
  3
ACAD_XREC_ROUNDTRIP
360
47B2
  0
DICTIONARY
  5
47BB
330
3DB5
100
AcDbDictionary
280
     1
281
     1
  3
ACAD_XREC_ROUNDTRIP
360
47BC
  0
DICTIONARY
  5
1808
330
17
100
AcDbDictionary
280
     1
281
     1
  3
ACAD_LAYOUTSELFREF
360
3D3B
  3
ACAD_SORTENTS
360
50B0
1001
ACAD
1000
TREAT_AS_HARD
1070
     1
  0
DICTIONARY
  5
1806
330
14
100
AcDbDictionary
280
     1
281
     1
  3
ACAD_LAYOUTSELFREF
360
3D3A
1001
ACAD
1000
TREAT_AS_HARD
1070
     1
  0
DICTIONARY
  5
50C5
330
50C0
100
AcDbDictionary
280
     1
281
     1
  3
ACAD_SORTENTS
360
50C6
  0
DICTIONARY
  5
50CE
330
50C9
100
AcDbDictionary
280
     1
281
     1
  3
ACAD_SORTENTS
360
50CF
  0
DICTIONARY
  5
50DD
330
50D9
100
AcDbDictionary
280
     1
281
     1
  3
ACAD_SORTENTS
360
50DE
  0
DICTIONARY
  5
534B
330
534A
100
AcDbDictionary
280
     1
281
     1
  3
ACAD_DIMASSOC
360
534C
  0
DICTIONARY
  5
5831
330
5830
100
AcDbDictionary
280
     1
281
     1
  0
DICTIONARY
  5
47A8
102
{ACAD_REACTORS
330
C
102
}
330
C
100
AcDbDictionary
281
     1
  3
DIMLTEX1
350
47AA
  3
DIMLTEX2
350
47AB
  3
DIMLTYPE
350
47A9
  0
DICTIONARY
  5
3D57
102
{ACAD_REACTORS
330
C
102
}
330
C
100
AcDbDictionary
281
     1
  0
DICTIONARY
  5
D
102
{ACAD_REACTORS
330
C
102
}
330
C
100
AcDbDictionary
281
     1
1001
ACAD
1000
TREAT_AS_HARD
1070
     0
  0
DICTIONARY
  5
3D5A
102
{ACAD_REACTORS
330
C
102
}
330
C
100
AcDbDictionary
281
     1
  3
Model
350
3D5B
  3
レイアウト1
350
3D5C
  0
DICTIONARY
  5
3D42
102
{ACAD_REACTORS
330
C
102
}
330
C
100
AcDbDictionary
281
     1
  3
ByBlock
350
3D44
  3
ByLayer
350
3D43
  3
Global
350
3D45
  0
DICTIONARY
  5
1A
102
{ACAD_REACTORS
330
C
102
}
330
C
100
AcDbDictionary
281
     1
  3
STANDARD
350
1B
1001
ACAD
1000
TREAT_AS_HARD
1070
     0
  0
DICTIONARY
  5
957
102
{ACAD_REACTORS
330
C
102
}
330
C
100
AcDbDictionary
281
     1
1001
ACAD
1000
TREAT_AS_HARD
1070
     0
  0
ACDBDICTIONARYWDFLT
  5
3D40
102
{ACAD_REACTORS
330
C
102
}
330
C
100
AcDbDictionary
281
     1
  3
Normal
350
3D41
100
AcDbDictionaryWithDefault
340
3D41
  0
DICTIONARY
  5
3D58
102
{ACAD_REACTORS
330
C
102
}
330
C
100
AcDbDictionary
281
     1
  3
Standard
350
3D59
  0
DICTIONARY
  5
3D46
102
{ACAD_REACTORS
330
C
102
}
330
C
100
AcDbDictionary
281
     1
  3
2dWireframe
350
3D4C
  3
3D Hidden
350
3D4E
  3
3dWireframe
350
3D4D
  3
Basic
350
3D4B
  3
Brighten
350
3D52
  3
ColorChange
350
3D56
  3
Conceptual
350
3D4F
  3
Dim
350
3D51
  3
Facepattern
350
3D55
  3
Flat
350
3D47
  3
FlatWithEdges
350
3D48
  3
Gouraud
350
3D49
  3
GouraudWithEdges
350
3D4A
  3
Linepattern
350
3D54
  3
Realistic
350
3D50
  3
Thicken
350
3D53
  0
XRECORD
  5
479D
102
{ACAD_REACTORS
330
C
102
}
330
C
100
AcDbXrecord
280
     1
 90
   990106
  3

 60
     0
 61
     0
 62
     4
 63
     4
 64
     1
 65
     0
 66
     0
 67
     2
 68
     1
 69
     0
 70
     0
 71
     0
 72
     0
 40
46.14938475492943
170
     2
340
0
  0
DICTIONARY
  5
5CC8
102
{ACAD_REACTORS
330
C
102
}
330
C
100
AcDbDictionary
281
     1
  0
DICTIONARY
  5
4116
102
{ACAD_REACTORS
330
C
102
}
330
C
100
AcDbDictionary
281
     1
  3
CTABLESTYLE
350
4117
  3
DIMASSOC
350
5CC4
  3
PROJECTNAME
350
5CC5
  0
XRECORD
  5
5CC7
102
{ACAD_REACTORS
330
C
102
}
330
C
100
AcDbXrecord
280
     1
  1
DWGPROPS COOKIE
  2

  3

  4

  6

  7

  8
mitsuhara
  9

300
=
301
=
302
=
303
=
304
=
305
=
306
=
307
=
308
=
309
=
 40
0.6554591319444445
 41
2455090.761732894
 42
2455678.691132211
  1

 90
        0
  0
XRECORD
  5
47AC
102
{ACAD_REACTORS
330
477D
102
}
330
477D
100
AcDbXrecord
280
     1
102
VTR_0.000_0.000_1.000_1.000_VISUALSTYLE
340
3D4C
102
VTR_0.000_0.000_1.000_1.000_GRIDDISPLAY
 70
     3
102
VTR_0.000_0.000_1.000_1.000_GRIDMAJOR
 70
     5
102
VTR_0.000_0.000_1.000_1.000_DEFAULTLIGHTING
280
     1
102
VTR_0.000_0.000_1.000_1.000_DEFAULTLIGHTINGTYPE
 70
     1
102
VTR_0.000_0.000_1.000_1.000_BRIGHTNESS
141
0.0
102
VTR_0.000_0.000_1.000_1.000_CONTRAST
142
0.0
  0
DICTIONARY
  5
5839
102
{ACAD_REACTORS
330
3DBA
102
}
330
3DBA
100
AcDbDictionary
281
     1
  0
DICTIONARY
  5
3DBB
102
{ACAD_REACTORS
330
3DBA
102
}
330
3DBA
100
AcDbDictionary
281
     1
  0
DICTIONARY
  5
5838
102
{ACAD_REACTORS
330
3DBA
102
}
330
3DBA
100
AcDbDictionary
281
     1
1001
ACAD
1000
<All
  0
XRECORD
  5
47AE
102
{ACAD_REACTORS
330
47AD
102
}
330
47AD
100
AcDbXrecord
280
     1
102
MATERIAL
340
3D45
  0
XRECORD
  5
47B0
102
{ACAD_REACTORS
330
47AF
102
}
330
47AF
100
AcDbXrecord
280
     1
102
MATERIAL
340
3D45
  0
XRECORD
  5
47B2
102
{ACAD_REACTORS
330
47B1
102
}
330
47B1
100
AcDbXrecord
280
     1
102
MATERIAL
340
3D45
  0
XRECORD
  5
47BC
102
{ACAD_REACTORS
330
47BB
102
}
330
47BB
100
AcDbXrecord
280
     1
102
MATERIAL
340
3D45
  0
XRECORD
  5
3D3B
102
{ACAD_REACTORS
330
1808
102
}
330
1808
100
AcDbXrecord
280
     1
340
17
  0
SORTENTSTABLE
  5
50B0
102
{ACAD_REACTORS
330
1808
102
}
330
1808
100
AcDbSortentsTable
330
17
331
59A1
  5
59A2
331
52D8
  5
52D8
331
5317
  5
5318
331
531F
  5
5320
331
52E8
  5
52E9
331
5327
  5
5328
331
52F0
  5
52F1
331
52B1
  5
52B2
331
532F
  5
5330
331
4130
  5
431E
331
52F8
  5
52F9
331
52B9
  5
52BA
331
5337
  5
5338
331
5300
  5
5301
331
533F
  5
5340
331
5308
  5
5309
331
52C9
  5
52C9
331
5347
  5
5348
331
52D1
  5
52D1
331
534F
  5
5350
331
5996
  5
5997
331
599E
  5
599F
331
59A2
  5
5BFB
331
5310
  5
5311
331
52D9
  5
52D9
331
5318
  5
5319
331
52E1
  5
52E1
331
5320
  5
5321
331
52E9
  5
52EA
331
52AA
  5
52AB
331
5328
  5
5329
331
52F1
  5
52F5
331
52B2
  5
52B3
331
5330
  5
5331
331
52F9
  5
52FA
331
52BA
  5
52BB
331
5338
  5
5339
331
5301
  5
5302
331
52C2
  5
3FD9
331
5340
  5
5341
331
5309
  5
530A
331
52CA
  5
52CA
331
5348
  5
5349
331
52D2
  5
52D2
331
5997
  5
5998
331
599F
  5
59A0
331
5350
  5
5352
331
5311
  5
5312
331
52DA
  5
52DA
331
5319
  5
531A
331
52E2
  5
52E2
331
5321
  5
5322
331
52EA
  5
52EB
331
52AB
  5
52AC
331
5329
  5
532A
331
52B3
  5
52B4
331
5941
  5
5942
331
5331
  5
5332
331
52FA
  5
52FB
331
52BB
  5
52BC
331
5339
  5
533A
331
5302
  5
5303
331
52C3
  5
52C3
331
5341
  5
5342
331
530A
  5
530B
331
52CB
  5
52CB
331
5349
  5
534A
331
52D3
  5
52D3
331
5998
  5
5999
331
5312
  5
5313
331
531A
  5
531B
331
52E3
  5
52E3
331
5322
  5
5323
331
52EB
  5
52EC
331
52AC
  5
52AD
331
532A
  5
532B
331
52B4
  5
52B5
331
5942
  5
5991
331
5332
  5
5333
331
52FB
  5
52FC
331
52BC
  5
52BD
331
533A
  5
533B
331
5303
  5
5305
331
5342
  5
5343
331
530B
  5
530C
331
52CC
  5
52CC
331
534A
  5
534E
331
52D4
  5
52D4
331
5991
  5
5992
331
5999
  5
599A
331
5352
  5
5353
331
5313
  5
5314
331
52DC
  5
52DC
331
531B
  5
531C
331
52E4
  5
52E4
331
5323
  5
5324
331
52EC
  5
52ED
331
52AD
  5
52AE
331
532B
  5
532C
331
52B5
  5
52B6
331
5333
  5
5334
331
52FC
  5
52FD
331
52BD
  5
52BE
331
533B
  5
533C
331
52C5
  5
52C5
331
5343
  5
5344
331
530C
  5
530D
331
52CD
  5
52CD
331
52D5
  5
52D5
331
5992
  5
5993
331
5830
  5
593E
331
599A
  5
599B
331
5353
  5
5830
331
5314
  5
5315
331
52DD
  5
52DD
331
531C
  5
531D
331
52E5
  5
52E5
331
5324
  5
5325
331
52ED
  5
52EE
331
52AE
  5
52AF
331
532C
  5
532D
331
52F5
  5
52F6
331
52B6
  5
52B7
331
4794
  5
479C
331
479C
  5
4990
331
5334
  5
5335
331
52FD
  5
52FE
331
52BE
  5
52BF
331
533C
  5
533D
331
5305
  5
5306
331
52C6
  5
52C6
331
5344
  5
5345
331
530D
  5
530E
331
52CE
  5
52CE
331
52D6
  5
52D6
331
5993
  5
5994
331
599B
  5
599C
331
5315
  5
5317
331
52DE
  5
52DE
331
531D
  5
531E
331
52E6
  5
52E6
331
5325
  5
5326
331
52EE
  5
52EF
331
52AF
  5
52B0
331
532D
  5
532E
331
52F6
  5
52F7
331
52B7
  5
52B8
331
5335
  5
5336
331
52FE
  5
52FF
331
52BF
  5
52C0
331
533D
  5
533E
331
5306
  5
5307
331
52C7
  5
52C7
331
5345
  5
5346
331
530E
  5
530F
331
52CF
  5
52CF
331
52D7
  5
52D7
331
5994
  5
5995
331
599C
  5
599D
331
431E
  5
4794
331
59A0
  5
59A1
331
52DF
  5
52DF
331
531E
  5
531F
331
52E7
  5
52E8
331
5326
  5
5327
331
52EF
  5
52F0
331
52B0
  5
52B1
331
532E
  5
532F
331
52F7
  5
52F8
331
593E
  5
5941
331
52B8
  5
52B9
331
5336
  5
5337
331
52FF
  5
5300
331
52C0
  5
52C1
331
533E
  5
533F
331
5307
  5
5308
331
52C8
  5
52C8
331
5346
  5
5347
331
530F
  5
5310
331
52D0
  5
52D0
331
534E
  5
534F
331
5995
  5
5996
331
599D
  5
599E
  0
XRECORD
  5
3D3A
102
{ACAD_REACTORS
330
1806
102
}
330
1806
100
AcDbXrecord
280
     1
340
14
  0
SORTENTSTABLE
  5
50C6
102
{ACAD_REACTORS
330
50C5
102
}
330
50C5
100
AcDbSortentsTable
330
50C0
  0
SORTENTSTABLE
  5
50CF
102
{ACAD_REACTORS
330
50CE
102
}
330
50CE
100
AcDbSortentsTable
330
50C9
  0
SORTENTSTABLE
  5
50DE
102
{ACAD_REACTORS
330
50DD
102
}
330
50DD
100
AcDbSortentsTable
330
50D9
  0
DIMASSOC
  5
534C
102
{ACAD_REACTORS
330
534B
102
}
330
534B
100
AcDbDimAssoc
330
534A
 90
        3
 70
     0
 71
     0
  1
AcDbOsnapPointRef
 72
     1
331
530F
 73
     2
 91
        0
 40
1.0
 10
0.0
 20
0.0
 30
2.000000000000000E+50
 75
     0
  1
AcDbOsnapPointRef
 72
    13
331
530F
 73
     2
 91
        0
 40
0.0
 10
0.0
 20
0.0
 30
2.000000000000000E+50
 75
     0
  0
XRECORD
  5
47AA
102
{ACAD_REACTORS
330
47A8
102
}
330
47A8
100
AcDbXrecord
280
     1
340
12
  0
XRECORD
  5
47AB
102
{ACAD_REACTORS
330
47A8
102
}
330
47A8
100
AcDbXrecord
280
     1
340
12
  0
XRECORD
  5
47A9
102
{ACAD_REACTORS
330
47A8
102
}
330
47A8
100
AcDbXrecord
280
     1
340
12
  0
LAYOUT
  5
3D5B
102
{ACAD_XDICTIONARY
360
5CC9
102
}
102
{ACAD_REACTORS
330
3D5A
102
}
330
3D5A
100
AcDbPlotSettings
  1

  2
none_device
  4
Letter_(8.50_x_11.00_Inches)
  6

 40
6.349999904632568
 41
6.349999904632568
 42
6.350006103515625
 43
6.350006103515625
 44
215.8999938964844
 45
279.3999938964844
 46
-9.732241422055615
 47
-112.8239536738654
 48
0.0
 49
0.0
140
0.0
141
0.0
142
1.0
143
19.07794
 70
 11940
 72
     0
 73
     1
 74
     0
  7
monochrome.ctb
 75
     0
147
0.0524165606978531
148
-11090.88908621467
149
3478.534010618924
100
AcDbLayout
  1
Model
 70
     1
 71
     0
 10
0.0
 20
0.0
 11
12.0
 21
9.0
 12
0.0
 22
0.0
 32
0.0
 14
0.0
 24
0.0
 34
0.0
 15
0.0
 25
0.0
 35
0.0
146
0.0
 13
0.0
 23
0.0
 33
0.0
 16
1.0
 26
0.0
 36
0.0
 17
0.0
 27
1.0
 37
0.0
 76
     0
330
17
1001
ACAD_PSEXT
1000
なし
1000
なし
1000
適切ではありません
1000
新しいプロッタ環境設定名を選択しない限り、レイアウトは印刷されません。
1070
     0
  0
LAYOUT
  5
3D5C
102
{ACAD_XDICTIONARY
360
5CCB
102
}
102
{ACAD_REACTORS
330
3D5A
102
}
330
3D5A
100
AcDbPlotSettings
  1

  2
Microsoft XPS Document Writer
  4

  6

 40
0.0
 41
0.0
 42
0.0
 43
0.0
 44
0.0
 45
0.0
 46
0.0
 47
0.0
 48
0.0
 49
0.0
140
0.0
141
0.0
142
1.0
143
1.0
 70
   688
 72
     0
 73
     0
 74
     5
  7
monochrome.ctb
 75
    16
147
1.0
148
0.0
149
0.0
100
AcDbLayout
  1
レイアウト1
 70
     1
 71
     1
 10
0.0
 20
0.0
 11
12.0
 21
9.0
 12
0.0
 22
0.0
 32
0.0
 14
1.000000000000000E+20
 24
1.000000000000000E+20
 34
1.000000000000000E+20
 15
-1.000000000000000E+20
 25
-1.000000000000000E+20
 35
-1.000000000000000E+20
146
0.0
 13
0.0
 23
0.0
 33
0.0
 16
1.0
 26
0.0
 36
0.0
 17
0.0
 27
1.0
 37
0.0
 76
     0
330
14
  0
MATERIAL
  5
3D44
102
{ACAD_XDICTIONARY
360
47B5
102
}
102
{ACAD_REACTORS
330
3D42
102
}
330
3D42
100
AcDbMaterial
  1
ByBlock
  0
MATERIAL
  5
3D43
102
{ACAD_XDICTIONARY
360
47B3
102
}
102
{ACAD_REACTORS
330
3D42
102
}
330
3D42
100
AcDbMaterial
  1
ByLayer
  0
MATERIAL
  5
3D45
102
{ACAD_XDICTIONARY
360
47B7
102
}
102
{ACAD_REACTORS
330
3D42
102
}
330
3D42
100
AcDbMaterial
  1
Global
  0
MLINESTYLE
  5
1B
102
{ACAD_REACTORS
330
1A
102
}
330
1A
100
AcDbMlineStyle
  2
STANDARD
 70
     0
  3

 62
   256
 51
90.0
 52
90.0
 71
     2
 49
0.5
 62
   256
  6
BYLAYER
 49
-0.5
 62
   256
  6
BYLAYER
  0
ACDBPLACEHOLDER
  5
3D41
102
{ACAD_REACTORS
330
3D40
102
}
330
3D40
  0
TABLESTYLE
  5
3D59
102
{ACAD_XDICTIONARY
360
47B9
102
}
102
{ACAD_REACTORS
330
3D58
102
}
330
3D58
100
AcDbTableStyle
  3
Standard
 70
     0
 71
     0
 40
0.06
 41
0.06
280
     0
281
     0
  7
STANDARD
140
0.18
170
     2
 62
     0
 63
     7
283
     0
274
    -2
284
     1
 64
     0
275
    -2
285
     1
 65
     0
276
    -2
286
     1
 66
     0
277
    -2
287
     1
 67
     0
278
    -2
288
     1
 68
     0
279
    -2
289
     1
 69
     0
  7
STANDARD
140
0.25
170
     5
 62
     0
 63
     7
283
     0
274
    -2
284
     1
 64
     0
275
    -2
285
     1
 65
     0
276
    -2
286
     1
 66
     0
277
    -2
287
     1
 67
     0
278
    -2
288
     1
 68
     0
279
    -2
289
     1
 69
     0
  7
STANDARD
140
0.18
170
     5
 62
     0
 63
     7
283
     0
274
    -2
284
     1
 64
     0
275
    -2
285
     1
 65
     0
276
    -2
286
     1
 66
     0
277
    -2
287
     1
 67
     0
278
    -2
288
     1
 68
     0
279
    -2
289
     1
 69
     0
  0
ACAD_PROXY_OBJECT
  5
3D4C
102
{ACAD_REACTORS
330
3D46
102
}
330
3D46
100
AcDbProxyObject
 90
      499
 91
      503
 95
  2555929
 70
     0
 93
      598
310
430C9915DA5C99599C985B59401049028333333333333E3BF0000000000000FB023FFFFFF0802405048070000C3008000000C800405A000000320014050640A01C00030C010500920280D3
 94
        0
1001
ACAD
1000
AcDbSavedByObjectVersion
1070
     0
1000
AcDbSavedByObjectVersion
1070
     0
1000
AcDbSavedByObjectVersion
1070
     0
1000
AcDbSavedByObjectVersion
1070
     0
1000
AcDbSavedByObjectVersion
1070
     0
1000
AcDbSavedByObjectVersion
1070
     0
1000
AcRTDxfName
1000
VISUALSTYLE
  0
ACAD_PROXY_OBJECT
  5
3D4E
102
{ACAD_REACTORS
330
3D46
102
}
330
3D46
100
AcDbProxyObject
 90
      499
 91
      503
 95
  2555929
 70
     0
 93
      662
310
428CD108121A5919195B8010640502408333333333333E3BF0000000000000FB023FFFFFF0802409028070000C3008000000C8004080000000000004440A000000320014050640A01C00030C010300920280D0
 94
        0
1001
ACAD
1000
AcDbSavedByObjectVersion
1070
     0
1000
AcDbSavedByObjectVersion
1070
     0
1000
AcDbSavedByObjectVersion
1070
     0
1000
AcDbSavedByObjectVersion
1070
     0
1000
AcDbSavedByObjectVersion
1070
     0
1000
AcDbSavedByObjectVersion
1070
     0
1000
AcRTDxfName
1000
VISUALSTYLE
  0
ACAD_PROXY_OBJECT
  5
3D4D
102
{ACAD_REACTORS
330
3D46
102
}
330
3D46
100
AcDbProxyObject
 90
      499
 91
      503
 95
  2555929
 70
     0
 93
      598
310
430CD915DA5C99599C985B59401059028333333333333E3BF0000000000000FB023FFFFFF0802405048070000C3008000000C800405A000000320014050640A01C00030C010500920280D0
 94
        0
1001
ACAD
1000
AcDbSavedByObjectVersion
1070
     0
1000
AcDbSavedByObjectVersion
1070
     0
1000
AcDbSavedByObjectVersion
1070
     0
1000
AcDbSavedByObjectVersion
1070
     0
1000
AcDbSavedByObjectVersion
1070
     0
1000
AcDbSavedByObjectVersion
1070
     0
1000
AcRTDxfName
1000
VISUALSTYLE
  0
ACAD_PROXY_OBJECT
  5
3D4B
102
{ACAD_REACTORS
330
3D46
102
}
330
3D46
100
AcDbProxyObject
 90
      499
 91
      503
 95
  2555929
 70
     0
 93
      558
310
4190985CDA58C0107406404333333333333E3BF0000000000000FB023FFFFFF08029048070000C3008000000C80040542201C00030C014050640A01C00030C010500920280D6
 94
        0
1001
ACAD
1000
AcDbSavedByObjectVersion
1070
     0
1000
AcDbSavedByObjectVersion
1070
     0
1000
AcDbSavedByObjectVersion
1070
     0
1000
AcDbSavedByObjectVersion
1070
     0
1000
AcDbSavedByObjectVersion
1070
     0
1000
AcDbSavedByObjectVersion
1070
     0
1000
AcRTDxfName
1000
VISUALSTYLE
  0
ACAD_PROXY_OBJECT
  5
3D52
102
{ACAD_REACTORS
330
3D46
102
}
330
3D46
100
AcDbProxyObject
 90
      499
 91
      503
 95
  2555929
 70
     0
 93
      598
310
42509C9A59DA1D195B8010C409028333333333333E3BF0000000000000FB023FFFFFF0802405048070000C3008000000C80040542201C00030C014050640A01C00030C010500920280A654
 94
        0
1001
ACAD
1000
AcDbSavedByObjectVersion
1070
     0
1000
AcDbSavedByObjectVersion
1070
     0
1000
AcDbSavedByObjectVersion
1070
     0
1000
AcDbSavedByObjectVersion
1070
     0
1000
AcDbSavedByObjectVersion
1070
     0
1000
AcDbSavedByObjectVersion
1070
     0
1000
AcRTDxfName
1000
VISUALSTYLE
  0
ACAD_PROXY_OBJECT
  5
3D56
102
{ACAD_REACTORS
330
3D46
102
}
330
3D46
100
AcDbProxyObject
 90
      499
 91
      503
 95
  2555929
 70
     0
 93
      622
310
4310DBDB1BDC90DA185B99D9401104090240C333333333333E3BF0000000000000FB0220202030802405048070000C3008000000C800405422202020308014050640A01C00030C010500920280D4
 94
        0
1001
ACAD
1000
AcDbSavedByObjectVersion
1070
     0
1000
AcDbSavedByObjectVersion
1070
     0
1000
AcDbSavedByObjectVersion
1070
     0
1000
AcDbSavedByObjectVersion
1070
     0
1000
AcDbSavedByObjectVersion
1070
     0
1000
AcDbSavedByObjectVersion
1070
     0
1000
AcRTDxfName
1000
VISUALSTYLE
  0
ACAD_PROXY_OBJECT
  5
3D4F
102
{ACAD_REACTORS
330
3D46
102
}
330
3D46
100
AcDbProxyObject
 90
      499
 91
      503
 95
  2555929
 70
     0
 93
      670
310
42D0DBDB98D95C1D1D585B0010940D028333333333333E3BF0000000000000FB023FFFFFF0802409028070000C3008000000C800404000000000000444042201C00030C014050640A01C00030C010300920280D0
 94
        0
1001
ACAD
1000
AcDbSavedByObjectVersion
1070
     0
1000
AcDbSavedByObjectVersion
1070
     0
1000
AcDbSavedByObjectVersion
1070
     0
1000
AcDbSavedByObjectVersion
1070
     0
1000
AcDbSavedByObjectVersion
1070
     0
1000
AcDbSavedByObjectVersion
1070
     0
1000
AcRTDxfName
1000
VISUALSTYLE
  0
ACAD_PROXY_OBJECT
  5
3D51
102
{ACAD_REACTORS
330
3D46
102
}
330
3D46
100
AcDbProxyObject
 90
      499
 91
      503
 95
  2555929
 70
     0
 93
      582
310
41111A5B4010B409028333333333333E3BF0000000000000FB023FFFFFF0802405048070000C3008000000C80040542201C00030C014050640A01C00030C01050092028099DFFFFFF4
 94
        0
1001
ACAD
1000
AcDbSavedByObjectVersion
1070
     0
1000
AcDbSavedByObjectVersion
1070
     0
1000
AcDbSavedByObjectVersion
1070
     0
1000
AcDbSavedByObjectVersion
1070
     0
1000
AcDbSavedByObjectVersion
1070
     0
1000
AcDbSavedByObjectVersion
1070
     0
1000
AcRTDxfName
1000
VISUALSTYLE
  0
ACAD_PROXY_OBJECT
  5
3D55
102
{ACAD_REACTORS
330
3D46
102
}
330
3D46
100
AcDbProxyObject
 90
      499
 91
      503
 95
  2555929
 70
     0
 93
      614
310
43119858D95C185D1D195C9B8010F409028333333333333E3BF0000000000000FB023FFFFFF0802405048070000C3008000000C80040542201C00030C014050640A01C00030C010500920280D4
 94
        0
1001
ACAD
1000
AcDbSavedByObjectVersion
1070
     0
1000
AcDbSavedByObjectVersion
1070
     0
1000
AcDbSavedByObjectVersion
1070
     0
1000
AcDbSavedByObjectVersion
1070
     0
1000
AcDbSavedByObjectVersion
1070
     0
1000
AcDbSavedByObjectVersion
1070
     0
1000
AcRTDxfName
1000
VISUALSTYLE
  0
ACAD_PROXY_OBJECT
  5
3D47
102
{ACAD_REACTORS
330
3D46
102
}
330
3D46
100
AcDbProxyObject
 90
      499
 91
      503
 95
  2555929
 70
     0
 93
      558
310
41519B185D00240901404333333333333E3BF0000000000000F9023FFFFFF0801029048070000C3008000000C80040542201C00030C014050640A01C00030C010500920286D4
 94
        0
1001
ACAD
1000
AcDbSavedByObjectVersion
1070
     0
1000
AcDbSavedByObjectVersion
1070
     0
1000
AcDbSavedByObjectVersion
1070
     0
1000
AcDbSavedByObjectVersion
1070
     0
1000
AcDbSavedByObjectVersion
1070
     0
1000
AcDbSavedByObjectVersion
1070
     0
1000
AcRTDxfName
1000
VISUALSTYLE
  0
ACAD_PROXY_OBJECT
  5
3D48
102
{ACAD_REACTORS
330
3D46
102
}
330
3D46
100
AcDbProxyObject
 90
      499
 91
      503
 95
  2555929
 70
     0
 93
      638
310
43919B185D15DA5D1A115919D95CC010140901404333333333333E3BF0000000000000F9023FFFFFF080102405048070000C3008000000C800405A000000320014050640A01C00030C010500920286D4
 94
        0
1001
ACAD
1000
AcDbSavedByObjectVersion
1070
     0
1000
AcDbSavedByObjectVersion
1070
     0
1000
AcDbSavedByObjectVersion
1070
     0
1000
AcDbSavedByObjectVersion
1070
     0
1000
AcDbSavedByObjectVersion
1070
     0
1000
AcDbSavedByObjectVersion
1070
     0
1000
AcRTDxfName
1000
VISUALSTYLE
  0
ACAD_PROXY_OBJECT
  5
3D49
102
{ACAD_REACTORS
330
3D46
102
}
330
3D46
100
AcDbProxyObject
 90
      499
 91
      503
 95
  2555929
 70
     0
 93
      582
310
4211DBDD5C985D590010240902404333333333333E3BF0000000000000F9023FFFFFF0801029048070000C3008000000C800405A01C00030C014050640A01C00030C010500920286D4
 94
        0
1001
ACAD
1000
AcDbSavedByObjectVersion
1070
     0
1000
AcDbSavedByObjectVersion
1070
     0
1000
AcDbSavedByObjectVersion
1070
     0
1000
AcDbSavedByObjectVersion
1070
     0
1000
AcDbSavedByObjectVersion
1070
     0
1000
AcDbSavedByObjectVersion
1070
     0
1000
AcRTDxfName
1000
VISUALSTYLE
  0
ACAD_PROXY_OBJECT
  5
3D4A
102
{ACAD_REACTORS
330
3D46
102
}
330
3D46
100
AcDbProxyObject
 90
      499
 91
      503
 95
  2555929
 70
     0
 93
      662
310
4451DBDD5C985D5915DA5D1A115919D95CC010340902404333333333333E3BF0000000000000F9023FFFFFF080102405048070000C3008000000C800405A000000320014050640A01C00030C010500920286D4
 94
        0
1001
ACAD
1000
AcDbSavedByObjectVersion
1070
     0
1000
AcDbSavedByObjectVersion
1070
     0
1000
AcDbSavedByObjectVersion
1070
     0
1000
AcDbSavedByObjectVersion
1070
     0
1000
AcDbSavedByObjectVersion
1070
     0
1000
AcDbSavedByObjectVersion
1070
     0
1000
AcRTDxfName
1000
VISUALSTYLE
  0
ACAD_PROXY_OBJECT
  5
3D54
102
{ACAD_REACTORS
330
3D46
102
}
330
3D46
100
AcDbProxyObject
 90
      499
 91
      503
 95
  2555929
 70
     0
 93
      614
310
43131A5B995C185D1D195C9B8010E409028333333333333E3BF0000000000000FB023FFFFFF0802405048070000C3008000000C80041D42201C00030C014050640A01C00030C010500920E80D4
 94
        0
1001
ACAD
1000
AcDbSavedByObjectVersion
1070
     0
1000
AcDbSavedByObjectVersion
1070
     0
1000
AcDbSavedByObjectVersion
1070
     0
1000
AcDbSavedByObjectVersion
1070
     0
1000
AcDbSavedByObjectVersion
1070
     0
1000
AcDbSavedByObjectVersion
1070
     0
1000
AcRTDxfName
1000
VISUALSTYLE
  0
ACAD_PROXY_OBJECT
  5
3D50
102
{ACAD_REACTORS
330
3D46
102
}
330
3D46
100
AcDbProxyObject
 90
      499
 91
      503
 95
  2555929
 70
     0
 93
      590
310
429499585B1A5CDD1A58C0108409028333333333333E3BF0000000000000FB023FFFFFF08024068070000C3008000000C8004054221E1E1E308014050640A01C00030C010500920286D0
 94
        0
1001
ACAD
1000
AcDbSavedByObjectVersion
1070
     0
1000
AcDbSavedByObjectVersion
1070
     0
1000
AcDbSavedByObjectVersion
1070
     0
1000
AcDbSavedByObjectVersion
1070
     0
1000
AcDbSavedByObjectVersion
1070
     0
1000
AcDbSavedByObjectVersion
1070
     0
1000
AcRTDxfName
1000
VISUALSTYLE
  0
ACAD_PROXY_OBJECT
  5
3D53
102
{ACAD_REACTORS
330
3D46
102
}
330
3D46
100
AcDbProxyObject
 90
      499
 91
      503
 95
  2555929
 70
     0
 93
      582
310
42151A1A58DAD95B8010D409028333333333333E3BF0000000000000FB023FFFFFF0802405048070000C3008000000C80040543201C00030C014050640A01C00030C010500920280D4
 94
        0
1001
ACAD
1000
AcDbSavedByObjectVersion
1070
     0
1000
AcDbSavedByObjectVersion
1070
     0
1000
AcDbSavedByObjectVersion
1070
     0
1000
AcDbSavedByObjectVersion
1070
     0
1000
AcDbSavedByObjectVersion
1070
     0
1000
AcDbSavedByObjectVersion
1070
     0
1000
AcRTDxfName
1000
VISUALSTYLE
  0
DICTIONARYVAR
  5
4117
102
{ACAD_REACTORS
330
4116
102
}
330
4116
100
DictionaryVariables
280
     0
  1
STANDARD
  0
DICTIONARYVAR
  5
5CC4
102
{ACAD_REACTORS
330
4116
102
}
330
4116
100
DictionaryVariables
280
     0
  1
1
  0
DICTIONARYVAR
  5
5CC5
102
{ACAD_REACTORS
330
4116
102
}
330
4116
100
DictionaryVariables
280
     0
  1

  0
DICTIONARY
  5
5CC9
330
3D5B
100
AcDbDictionary
280
     1
281
     1
  3
ACAD_XREC_ROUNDTRIP
360
5CCA
  0
DICTIONARY
  5
5CCB
330
3D5C
100
AcDbDictionary
280
     1
281
     1
  3
ACAD_XREC_ROUNDTRIP
360
5CCC
  0
DICTIONARY
  5
47B5
330
3D44
100
AcDbDictionary
280
     1
281
     1
  3
ACAD_XREC_ROUNDTRIP
360
47B6
  0
DICTIONARY
  5
47B3
330
3D43
100
AcDbDictionary
280
     1
281
     1
  3
ACAD_XREC_ROUNDTRIP
360
47B4
  0
DICTIONARY
  5
47B7
330
3D45
100
AcDbDictionary
280
     1
281
     1
  3
ACAD_XREC_ROUNDTRIP
360
47B8
  0
DICTIONARY
  5
47B9
330
3D59
100
AcDbDictionary
280
     1
281
     1
  3
ACAD_XREC_ROUNDTRIP
360
47BA
  0
XRECORD
  5
5CCA
102
{ACAD_REACTORS
330
5CC9
102
}
330
5CC9
100
AcDbXrecord
280
     1
102
SHADEPLOT
 70
     0
102
SHADEPLOTRESLEVEL
 70
     2
102
SHADEPLOTCUSTOMDPI
 70
   300
  0
XRECORD
  5
5CCC
102
{ACAD_REACTORS
330
5CCB
102
}
330
5CCB
100
AcDbXrecord
280
     1
102
SHADEPLOT
 70
     0
102
SHADEPLOTRESLEVEL
 70
     2
102
SHADEPLOTCUSTOMDPI
 70
   300
  0
XRECORD
  5
47B6
102
{ACAD_REACTORS
330
47B5
102
}
330
47B5
100
AcDbXrecord
280
     1
102
MATERIAL
148
0.0
149
0.0
149
0.0
 93
        0
 94
       63
282
     0
 72
     1
 77
     1
171
     1
175
     1
179
     1
273
     0
  0
XRECORD
  5
47B4
102
{ACAD_REACTORS
330
47B3
102
}
330
47B3
100
AcDbXrecord
280
     1
102
MATERIAL
148
0.0
149
0.0
149
0.0
 93
        0
 94
       63
282
     0
 72
     1
 77
     1
171
     1
175
     1
179
     1
273
     0
  0
XRECORD
  5
47B8
102
{ACAD_REACTORS
330
47B7
102
}
330
47B7
100
AcDbXrecord
280
     1
102
MATERIAL
148
0.0
149
0.0
149
0.0
 93
        0
 94
       63
282
     0
 72
     1
 77
     1
171
     1
175
     1
179
     1
273
     0
  0
XRECORD
  5
47BA
102
{ACAD_REACTORS
330
47B9
102
}
330
47B9
100
AcDbXrecord
280
     1
102
ACAD_ROUNDTRIP_PRE2007_TABLESTYLE
 90
      512
 91
        0
  1

 92
      512
 93
        0
  2

 94
      512
 95
        0
  3

  0
ENDSEC
  0
EOF
