  0
SECTION
  2
HEADER
  9
$ACADVER
  1
AC1015
  9
$ACADMAINTVER
 70
    20
  9
$DWGCODEPAGE
  3
ANSI_932
  9
$INSBASE
 10
0.0
 20
0.0
 30
0.0
  9
$EXTMIN
 10
507.2565806918249
 20
-116.9496716376966
 30
0.0
  9
$EXTMAX
 10
685.6900045662046
 20
14.90571305982058
 30
0.0
  9
$LIMMIN
 10
0.0
 20
0.0
  9
$LIMMAX
 10
12.0
 20
9.0
  9
$ORTHOMODE
 70
     1
  9
$REGENMODE
 70
     1
  9
$FILLMODE
 70
     1
  9
$QTEXTMODE
 70
     0
  9
$MIRRTEXT
 70
     1
  9
$LTSCALE
 40
0.5
  9
$ATTMODE
 70
     1
  9
$TEXTSIZE
 40
2.5
  9
$TRACEWID
 40
0.05
  9
$TEXTSTYLE
  7
CatalogDxf
  9
$CLAYER
  8
0
  9
$CELTYPE
  6
BYLAYER
  9
$CECOLOR
 62
   256
  9
$CELTSCALE
 40
1.0
  9
$DISPSILH
 70
     0
  9
$DIMSCALE
 40
1.0
  9
$DIMASZ
 40
2.5
  9
$DIMEXO
 40
0.625
  9
$DIMDLI
 40
3.75
  9
$DIMRND
 40
0.0
  9
$DIMDLE
 40
0.0
  9
$DIMEXE
 40
1.25
  9
$DIMTP
 40
0.0
  9
$DIMTM
 40
0.0
  9
$DIMTXT
 40
2.5
  9
$DIMCEN
 40
2.5
  9
$DIMTSZ
 40
0.0
  9
$DIMTOL
 70
     0
  9
$DIMLIM
 70
     0
  9
$DIMTIH
 70
     0
  9
$DIMTOH
 70
     0
  9
$DIMSE1
 70
     0
  9
$DIMSE2
 70
     0
  9
$DIMTAD
 70
     1
  9
$DIMZIN
 70
     8
  9
$DIMBLK
  1
OPEN30
  9
$DIMASO
 70
     1
  9
$DIMSHO
 70
     1
  9
$DIMPOST
  1

  9
$DIMAPOST
  1

  9
$DIMALT
 70
     0
  9
$DIMALTD
 70
     3
  9
$DIMALTF
 40
0.03937007874016
  9
$DIMLFAC
 40
1.0
  9
$DIMTOFL
 70
     1
  9
$DIMTVP
 40
0.0
  9
$DIMTIX
 70
     0
  9
$DIMSOXD
 70
     0
  9
$DIMSAH
 70
     0
  9
$DIMBLK1
  1

  9
$DIMBLK2
  1

  9
$DIMSTYLE
  2
CatalogDxf
  9
$DIMCLRD
 70
   256
  9
$DIMCLRE
 70
   256
  9
$DIMCLRT
 70
   256
  9
$DIMTFAC
 40
1.0
  9
$DIMGAP
 40
0.625
  9
$DIMJUST
 70
     0
  9
$DIMSD1
 70
     0
  9
$DIMSD2
 70
     0
  9
$DIMTOLJ
 70
     0
  9
$DIMTZIN
 70
     8
  9
$DIMALTZ
 70
     0
  9
$DIMALTTZ
 70
     0
  9
$DIMUPT
 70
     0
  9
$DIMDEC
 70
     1
  9
$DIMTDEC
 70
     1
  9
$DIMALTU
 70
     2
  9
$DIMALTTD
 70
     3
  9
$DIMTXSTY
  7
CatalogDxf
  9
$DIMAUNIT
 70
     0
  9
$DIMADEC
 70
     0
  9
$DIMALTRND
 40
0.0
  9
$DIMAZIN
 70
     0
  9
$DIMDSEP
 70
    46
  9
$DIMATFIT
 70
     3
  9
$DIMFRAC
 70
     0
  9
$DIMLDRBLK
  1
OPEN30
  9
$DIMLUNIT
 70
     2
  9
$DIMLWD
 70
    -1
  9
$DIMLWE
 70
    -1
  9
$DIMTMOVE
 70
     0
  9
$LUNITS
 70
     2
  9
$LUPREC
 70
     2
  9
$SKETCHINC
 40
0.1
  9
$FILLETRAD
 40
0.0
  9
$AUNITS
 70
     0
  9
$AUPREC
 70
     2
  9
$MENU
  1
acad
  9
$ELEVATION
 40
0.0
  9
$PELEVATION
 40
0.0
  9
$THICKNESS
 40
0.0
  9
$LIMCHECK
 70
     0
  9
$CHAMFERA
 40
0.0
  9
$CHAMFERB
 40
0.0
  9
$CHAMFERC
 40
0.0
  9
$CHAMFERD
 40
0.0
  9
$SKPOLY
 70
     0
  9
$TDCREATE
 40
2455090.761732894
  9
$TDUCREATE
 40
2455090.386732893
  9
$TDUPDATE
 40
2455678.617612512
  9
$TDUUPDATE
 40
2455678.242612512
  9
$TDINDWG
 40
0.6217158796
  9
$TDUSRTIMER
 40
0.6217095602
  9
$USRTIMER
 70
     1
  9
$ANGBASE
 50
0.0
  9
$ANGDIR
 70
     0
  9
$PDMODE
 70
     0
  9
$PDSIZE
 40
0.0
  9
$PLINEWID
 40
0.0
  9
$SPLFRAME
 70
     0
  9
$SPLINETYPE
 70
     6
  9
$SPLINESEGS
 70
     8
  9
$HANDSEED
  5
5206
  9
$SURFTAB1
 70
     6
  9
$SURFTAB2
 70
     6
  9
$SURFTYPE
 70
     6
  9
$SURFU
 70
     6
  9
$SURFV
 70
     6
  9
$UCSBASE
  2

  9
$UCSNAME
  2

  9
$UCSORG
 10
0.0
 20
0.0
 30
0.0
  9
$UCSXDIR
 10
1.0
 20
0.0
 30
0.0
  9
$UCSYDIR
 10
0.0
 20
1.0
 30
0.0
  9
$UCSORTHOREF
  2

  9
$UCSORTHOVIEW
 70
     1
  9
$UCSORGTOP
 10
0.0
 20
0.0
 30
0.0
  9
$UCSORGBOTTOM
 10
0.0
 20
0.0
 30
0.0
  9
$UCSORGLEFT
 10
0.0
 20
0.0
 30
0.0
  9
$UCSORGRIGHT
 10
0.0
 20
0.0
 30
0.0
  9
$UCSORGFRONT
 10
0.0
 20
0.0
 30
0.0
  9
$UCSORGBACK
 10
0.0
 20
0.0
 30
0.0
  9
$PUCSBASE
  2

  9
$PUCSNAME
  2

  9
$PUCSORG
 10
0.0
 20
0.0
 30
0.0
  9
$PUCSXDIR
 10
1.0
 20
0.0
 30
0.0
  9
$PUCSYDIR
 10
0.0
 20
1.0
 30
0.0
  9
$PUCSORTHOREF
  2

  9
$PUCSORTHOVIEW
 70
     0
  9
$PUCSORGTOP
 10
0.0
 20
0.0
 30
0.0
  9
$PUCSORGBOTTOM
 10
0.0
 20
0.0
 30
0.0
  9
$PUCSORGLEFT
 10
0.0
 20
0.0
 30
0.0
  9
$PUCSORGRIGHT
 10
0.0
 20
0.0
 30
0.0
  9
$PUCSORGFRONT
 10
0.0
 20
0.0
 30
0.0
  9
$PUCSORGBACK
 10
0.0
 20
0.0
 30
0.0
  9
$USERI1
 70
     0
  9
$USERI2
 70
     0
  9
$USERI3
 70
     0
  9
$USERI4
 70
     0
  9
$USERI5
 70
     0
  9
$USERR1
 40
0.0
  9
$USERR2
 40
0.0
  9
$USERR3
 40
0.0
  9
$USERR4
 40
0.0
  9
$USERR5
 40
0.0
  9
$WORLDVIEW
 70
     1
  9
$SHADEDGE
 70
     3
  9
$SHADEDIF
 70
    70
  9
$TILEMODE
 70
     1
  9
$MAXACTVP
 70
    16
  9
$PINSBASE
 10
0.0
 20
0.0
 30
0.0
  9
$PLIMCHECK
 70
     0
  9
$PEXTMIN
 10
1.000000000000000E+20
 20
1.000000000000000E+20
 30
1.000000000000000E+20
  9
$PEXTMAX
 10
-1.000000000000000E+20
 20
-1.000000000000000E+20
 30
-1.000000000000000E+20
  9
$PLIMMIN
 10
0.0
 20
0.0
  9
$PLIMMAX
 10
12.0
 20
9.0
  9
$UNITMODE
 70
     0
  9
$VISRETAIN
 70
     0
  9
$PLINEGEN
 70
     0
  9
$PSLTSCALE
 70
     1
  9
$TREEDEPTH
 70
  3020
  9
$CMLSTYLE
  2
STANDARD
  9
$CMLJUST
 70
     0
  9
$CMLSCALE
 40
1.0
  9
$PROXYGRAPHICS
 70
     1
  9
$MEASUREMENT
 70
     0
  9
$CELWEIGHT
370
    -1
  9
$ENDCAPS
280
     0
  9
$JOINSTYLE
280
     0
  9
$LWDISPLAY
290
     0
  9
$INSUNITS
 70
     0
  9
$HYPERLINKBASE
  1

  9
$STYLESHEET
  1
MONOCHROME.CTB
  9
$XEDIT
290
     1
  9
$CEPSNTYPE
380
     0
  9
$PSTYLEMODE
290
     1
  9
$FINGERPRINTGUID
  2
{AFC0AA2D-B3CD-48CF-B830-EF9C44F122D3}
  9
$VERSIONGUID
  2
{1DB1F51D-DE75-4946-B62B-211E13F99DEF}
  9
$EXTNAMES
290
     1
  9
$PSVPSCALE
 40
0.0
  9
$OLESTARTUP
290
     0
  0
ENDSEC
  0
SECTION
  2
CLASSES
  0
CLASS
  1
ACDBDICTIONARYWDFLT
  2
AcDbDictionaryWithDefault
  3
ObjectDBX Classes
 90
        0
280
     0
281
     0
  0
CLASS
  1
DICTIONARYVAR
  2
AcDbDictionaryVar
  3
ObjectDBX Classes
 90
        0
280
     0
281
     0
  0
CLASS
  1
MATERIAL
  2
AcDbMaterial
  3
ObjectDBX Classes
 90
     1024
280
     0
281
     0
  0
CLASS
  1
VISUALSTYLE
  2
AcDbVisualStyle
  3
ObjectDBX Classes
 90
     4095
280
     0
281
     0
  0
CLASS
  1
TABLESTYLE
  2
AcDbTableStyle
  3
ObjectDBX Classes
 90
     4095
280
     0
281
     0
  0
CLASS
  1
DIMASSOC
  2
AcDbDimAssoc
  3
"AcDbDimAssoc|Product Desc:     AcDim ARX App For Dimension|Company:          Autodesk, Inc.|WEB Address:      www.autodesk.com"
 90
        0
280
     0
281
     0
  0
CLASS
  1
SORTENTSTABLE
  2
AcDbSortentsTable
  3
ObjectDBX Classes
 90
        0
280
     0
281
     0
  0
CLASS
  1
ACDBPLACEHOLDER
  2
AcDbPlaceHolder
  3
ObjectDBX Classes
 90
        0
280
     0
281
     0
  0
CLASS
  1
LAYOUT
  2
AcDbLayout
  3
ObjectDBX Classes
 90
        0
280
     0
281
     0
  0
ENDSEC
  0
SECTION
  2
TABLES
  0
TABLE
  2
VPORT
  5
8
330
0
100
AcDbSymbolTable
 70
     1
  0
VPORT
  5
5176
330
8
100
AcDbSymbolTableRecord
100
AcDbViewportTableRecord
  2
*Active
 70
     0
 10
0.0
 20
0.0
 11
1.0
 21
1.0
 12
596.4732926290148
 22
-51.02197928893801
 13
0.0
 23
0.0
 14
1.0
 24
1.0
 15
0.0
 25
0.0
 16
0.0
 26
0.0
 36
1.0
 17
0.0
 27
0.0
 37
0.0
 40
132.8580872427454
 41
1.552030456852791
 42
50.0
 43
0.0
 44
0.0
 50
0.0
 51
0.0
 71
     0
 72
   100
 73
     1
 74
     1
 75
     0
 76
     0
 77
     0
 78
     0
281
     0
 65
     1
110
0.0
120
0.0
130
0.0
111
1.0
121
0.0
131
0.0
112
0.0
122
1.0
132
0.0
 79
     0
146
0.0
  0
ENDTAB
  0
TABLE
  2
LTYPE
  5
5
330
0
100
AcDbSymbolTable
 70
     6
  0
LTYPE
  5
11
330
5
100
AcDbSymbolTableRecord
100
AcDbLinetypeTableRecord
  2
BYBLOCK
 70
     0
  3

 72
    65
 73
     0
 40
0.0
  0
LTYPE
  5
12
330
5
100
AcDbSymbolTableRecord
100
AcDbLinetypeTableRecord
  2
BYLAYER
 70
     0
  3

 72
    65
 73
     0
 40
0.0
  0
LTYPE
  5
13
330
5
100
AcDbSymbolTableRecord
100
AcDbLinetypeTableRecord
  2
CONTINUOUS
 70
     0
  3
Solid line
 72
    65
 73
     0
 40
0.0
  0
LTYPE
  5
1D
330
5
100
AcDbSymbolTableRecord
100
AcDbLinetypeTableRecord
  2
CENTER
 70
     0
  3
____ _ ____ _ ____ _ ____ _ ____ _ ____ _ ____ 
 72
    65
 73
     4
 40
2.0
 49
1.25
 74
     0
 49
-0.25
 74
     0
 49
0.25
 74
     0
 49
-0.25
 74
     0
  0
LTYPE
  5
1E
330
5
100
AcDbSymbolTableRecord
100
AcDbLinetypeTableRecord
  2
PHANTOM
 70
     0
  3
______  __  __  ______  __  __  ______  __  __ 
 72
    65
 73
     6
 40
2.5
 49
1.25
 74
     0
 49
-0.25
 74
     0
 49
0.25
 74
     0
 49
-0.25
 74
     0
 49
0.25
 74
     0
 49
-0.25
 74
     0
  0
LTYPE
  5
1F
330
5
100
AcDbSymbolTableRecord
100
AcDbLinetypeTableRecord
  2
DASHED
 70
     0
  3
__ __ __ __ __ __ __ __ __ __ __ __ __ __ __ __
 72
    65
 73
     2
 40
0.75
 49
0.5
 74
     0
 49
-0.25
 74
     0
  0
LTYPE
  5
3DB3
330
5
100
AcDbSymbolTableRecord
100
AcDbLinetypeTableRecord
  2
CENTER2
 70
     0
  3
Center (.5x) ___ _ ___ _ ___ _ ___ _ ___ _ ___
 72
    65
 73
     4
 40
28.575
 49
19.05
 74
     0
 49
-3.174999999999998
 74
     0
 49
3.174999999999998
 74
     0
 49
-3.174999999999998
 74
     0
  0
LTYPE
  5
3DB4
330
5
100
AcDbSymbolTableRecord
100
AcDbLinetypeTableRecord
  2
HIDDEN2
 70
     0
  3
Hidden (.5x) _ _ _ _ _ _ _ _ _ _ _ _ _ _ _ _ _
 72
    65
 73
     2
 40
4.762499999999998
 49
3.174999999999998
 74
     0
 49
-1.587499999999999
 74
     0
  0
ENDTAB
  0
TABLE
  2
LAYER
  5
2
102
{ACAD_XDICTIONARY
360
3DBA
102
}
330
0
100
AcDbSymbolTable
 70
     4
  0
LAYER
  5
E
330
2
100
AcDbSymbolTableRecord
100
AcDbLayerTableRecord
  2
0
 70
     0
 62
     7
  6
CONTINUOUS
370
    -3
390
3D41
  0
LAYER
  5
27
330
2
100
AcDbSymbolTableRecord
100
AcDbLayerTableRecord
  2
Z_OM_DIM
 70
     0
 62
     4
  6
CONTINUOUS
370
    -3
390
3D41
  0
LAYER
  5
2B
330
2
100
AcDbSymbolTableRecord
100
AcDbLayerTableRecord
  2
DEFPOINTS
 70
     0
 62
     7
  6
CONTINUOUS
290
     0
370
    -3
390
3D41
  0
LAYER
  5
3DB5
330
2
100
AcDbSymbolTableRecord
100
AcDbLayerTableRecord
  2
additional
 70
     0
 62
    50
  6
CONTINUOUS
370
    -3
390
3D41
1001
AcAecLayerStandard
1000

1000

  0
ENDTAB
  0
TABLE
  2
STYLE
  5
3
330
0
100
AcDbSymbolTable
 70
     5
  0
STYLE
  5
F
330
3
100
AcDbSymbolTableRecord
100
AcDbTextStyleTableRecord
  2
STANDARD
 70
     0
 40
0.0
 41
1.08
 50
0.0
 71
     0
 42
3.0
  3
txt.shx
  4
bigfont.shx
  0
STYLE
  5
3DB6
330
3
100
AcDbSymbolTableRecord
100
AcDbTextStyleTableRecord
  2
CatalogDxf
 70
     0
 40
0.0
 41
1.0
 50
0.0
 71
     0
 42
2.5
  3
txt.shx
  4
bigfont.shx
  0
STYLE
  5
4196
330
3
100
AcDbSymbolTableRecord
100
AcDbTextStyleTableRecord
  2

 70
     1
 40
0.0
 41
1.0
 50
0.0
 71
     0
 42
3.0
  3
ltypeshp.shx
  4

  0
STYLE
  5
4FF0
330
3
100
AcDbSymbolTableRecord
100
AcDbTextStyleTableRecord
  2
イラストレーター
 70
     0
 40
2.5
 41
1.0
 50
0.0
 71
     0
 42
2.5
  3
HGRSMP.TTF
  4

1001
ACAD
1000
HGMaruGothicMPRO
1071
    32818
  0
ENDTAB
  0
TABLE
  2
VIEW
  5
6
330
0
100
AcDbSymbolTable
 70
     0
  0
ENDTAB
  0
TABLE
  2
UCS
  5
7
330
0
100
AcDbSymbolTable
 70
     0
  0
ENDTAB
  0
TABLE
  2
APPID
  5
9
330
0
100
AcDbSymbolTable
 70
     7
  0
APPID
  5
10
330
9
100
AcDbSymbolTableRecord
100
AcDbRegAppTableRecord
  2
ACAD
 70
     0
  0
APPID
  5
3D5E
330
9
100
AcDbSymbolTableRecord
100
AcDbRegAppTableRecord
  2
ACAD_PSEXT
 70
     0
  0
APPID
  5
3DB9
330
9
100
AcDbSymbolTableRecord
100
AcDbRegAppTableRecord
  2
AcAecLayerStandard
 70
     0
  0
APPID
  5
41A3
330
9
100
AcDbSymbolTableRecord
100
AcDbRegAppTableRecord
  2
ACAD_DSTYLE_DIM_LINETYPE
 70
     0
  0
APPID
  5
41A4
330
9
100
AcDbSymbolTableRecord
100
AcDbRegAppTableRecord
  2
ACAD_DSTYLE_DIM_EXT1_LINETYPE
 70
     0
  0
APPID
  5
41A5
330
9
100
AcDbSymbolTableRecord
100
AcDbRegAppTableRecord
  2
ACAD_DSTYLE_DIM_EXT2_LINETYPE
 70
     0
  0
APPID
  5
47D5
330
9
100
AcDbSymbolTableRecord
100
AcDbRegAppTableRecord
  2
ACAD_DSTYLE_DIMTEXT_FILL
 70
     0
  0
ENDTAB
  0
TABLE
  2
DIMSTYLE
  5
A
330
0
100
AcDbSymbolTable
 70
     6
100
AcDbDimStyleTable
 71
     3
340
3DB8
340
30
340
3DB7
  0
DIMSTYLE
105
30
330
A
100
AcDbSymbolTableRecord
100
AcDbDimStyleTableRecord
  2
STANDARD
 70
     0
 41
6.0
 42
1.0
 43
16.0
 44
3.0
 73
     0
 74
     0
 77
     1
 78
     8
140
4.4
141
10.0
147
1.6
172
     1
176
   256
177
   256
178
   256
340
F
341
977
342
977
  0
DIMSTYLE
105
3DB7
330
A
100
AcDbSymbolTableRecord
100
AcDbDimStyleTableRecord
  2
ISO-25
 70
     0
 41
2.5
 42
0.625
 43
3.75
 44
1.25
 73
     0
 74
     0
 77
     1
 78
     8
140
2.5
141
2.5
143
0.03937007874016
147
0.625
171
     3
172
     1
178
   256
271
     1
272
     1
274
     3
278
    44
283
     0
284
     8
340
F
  0
DIMSTYLE
105
3DB8
102
{ACAD_REACTORS
330
4067
330
406A
330
406D
330
4070
330
4073
330
4076
330
4079
330
4082
330
4085
330
4990
330
4AB1
330
407E
330
407F
102
}
330
A
100
AcDbSymbolTableRecord
100
AcDbDimStyleTableRecord
  2
CatalogDxf
 70
     0
 41
2.5
 42
0.625
 43
3.75
 44
1.25
 73
     0
 74
     0
 77
     1
 78
     8
140
2.5
141
2.5
143
0.03937007874016
147
0.625
171
     3
172
     1
176
   256
177
   256
178
   256
271
     1
272
     1
274
     3
283
     0
284
     8
340
3DB6
341
977
342
977
371
    -1
372
    -1
1001
ACAD_DSTYLE_DIM_LINETYPE
1070
   380
1005
12
1001
ACAD_DSTYLE_DIM_EXT1_LINETYPE
1070
   381
1005
12
1001
ACAD_DSTYLE_DIM_EXT2_LINETYPE
1070
   382
1005
12
  0
DIMSTYLE
105
4FF1
330
A
100
AcDbSymbolTableRecord
100
AcDbDimStyleTableRecord
  2
TAKAHA
 70
     0
 40
0.0
 41
2.5
 42
0.63
 43
6.0
 44
1.0
 73
     0
 74
     0
 77
     1
 78
     8
 79
     2
140
2.5
141
0.0
143
0.0394
144
0.5
147
0.63
171
     4
172
     1
173
     1
176
   256
177
   256
178
     2
179
     4
271
     3
272
     3
273
     8
274
     4
289
     0
340
F
341
4FDC
343
4FDC
344
4FDC
371
    -1
372
    -1
  0
DIMSTYLE
105
4FF2
330
A
100
AcDbSymbolTableRecord
100
AcDbDimStyleTableRecord
  2
ｲﾗｽﾄ 0.5
 70
     0
 41
2.5
 42
1.0
 43
8.0
 44
1.0
 48
0.000000001
 73
     0
 74
     0
 77
     1
 78
     8
140
2.5
141
0.0
143
0.0394
144
0.5
147
1.0
171
     4
172
     1
173
     1
179
     3
271
     1
272
     1
273
     8
274
     4
284
     8
289
     0
340
4FF0
341
4FDC
343
4FDC
344
4FDC
371
    25
372
    25
  0
ENDTAB
  0
TABLE
  2
BLOCK_RECORD
  5
1
330
0
100
AcDbSymbolTable
 70
    17
  0
BLOCK_RECORD
  5
17
102
{ACAD_XDICTIONARY
360
1808
102
}
330
1
100
AcDbSymbolTableRecord
100
AcDbBlockTableRecord
  2
*MODEL_SPACE
340
3D5B
  0
BLOCK_RECORD
  5
14
102
{ACAD_XDICTIONARY
360
1806
102
}
330
1
100
AcDbSymbolTableRecord
100
AcDbBlockTableRecord
  2
*PAPER_SPACE
340
3D5C
  0
BLOCK_RECORD
  5
977
330
1
100
AcDbSymbolTableRecord
100
AcDbBlockTableRecord
  2
_OPEN30
340
0
102
{BLKREFS
331
5184
331
5185
331
518D
331
518E
331
5196
331
5197
331
51A1
331
51A2
331
51AA
331
51AB
331
51B5
331
51B6
331
51BE
331
51BF
331
51C7
331
51C8
331
51D2
331
51D3
331
51DD
331
51DE
331
51E8
331
51E9
102
}
  0
BLOCK_RECORD
  5
40A4
330
1
100
AcDbSymbolTableRecord
100
AcDbBlockTableRecord
  2
*D1
340
0
  0
BLOCK_RECORD
  5
40B0
330
1
100
AcDbSymbolTableRecord
100
AcDbBlockTableRecord
  2
*D2
340
0
  0
BLOCK_RECORD
  5
40BC
330
1
100
AcDbSymbolTableRecord
100
AcDbBlockTableRecord
  2
*D3
340
0
  0
BLOCK_RECORD
  5
40C8
330
1
100
AcDbSymbolTableRecord
100
AcDbBlockTableRecord
  2
*D4
340
0
  0
BLOCK_RECORD
  5
40D6
330
1
100
AcDbSymbolTableRecord
100
AcDbBlockTableRecord
  2
*D5
340
0
  0
BLOCK_RECORD
  5
40E2
330
1
100
AcDbSymbolTableRecord
100
AcDbBlockTableRecord
  2
*D6
340
0
  0
BLOCK_RECORD
  5
40F0
330
1
100
AcDbSymbolTableRecord
100
AcDbBlockTableRecord
  2
*D7
340
0
  0
BLOCK_RECORD
  5
40FC
330
1
100
AcDbSymbolTableRecord
100
AcDbBlockTableRecord
  2
*D8
340
0
  0
BLOCK_RECORD
  5
4108
330
1
100
AcDbSymbolTableRecord
100
AcDbBlockTableRecord
  2
*D9
340
0
  0
BLOCK_RECORD
  5
4991
330
1
100
AcDbSymbolTableRecord
100
AcDbBlockTableRecord
  2
*D10
340
0
  0
BLOCK_RECORD
  5
4AB2
330
1
100
AcDbSymbolTableRecord
100
AcDbBlockTableRecord
  2
*D11
340
0
  0
BLOCK_RECORD
  5
4FDC
330
1
100
AcDbSymbolTableRecord
100
AcDbBlockTableRecord
  2
_OPEN
340
0
  0
BLOCK_RECORD
  5
50C0
102
{ACAD_XDICTIONARY
360
50C5
102
}
330
1
100
AcDbSymbolTableRecord
100
AcDbBlockTableRecord
  2
A$C7D437A46
340
0
  0
BLOCK_RECORD
  5
50C9
102
{ACAD_XDICTIONARY
360
50CE
102
}
330
1
100
AcDbSymbolTableRecord
100
AcDbBlockTableRecord
  2
A$C4B3765E4
340
0
  0
BLOCK_RECORD
  5
50D9
102
{ACAD_XDICTIONARY
360
50DD
102
}
330
1
100
AcDbSymbolTableRecord
100
AcDbBlockTableRecord
  2
A$C4C4E4789
340
0
  0
ENDTAB
  0
ENDSEC
  0
SECTION
  2
BLOCKS
  0
BLOCK
  5
2E
330
17
100
AcDbEntity
  8
0
100
AcDbBlockBegin
  2
*MODEL_SPACE
 70
     0
 10
0.0
 20
0.0
 30
0.0
  3
*MODEL_SPACE
  1

  0
ENDBLK
  5
2F
330
17
100
AcDbEntity
  8
0
100
AcDbBlockEnd
  0
BLOCK
  5
2C
330
14
100
AcDbEntity
 67
     1
  8
0
100
AcDbBlockBegin
  2
*PAPER_SPACE
 70
     0
 10
0.0
 20
0.0
 30
0.0
  3
*PAPER_SPACE
  1

  0
ENDBLK
  5
2D
330
14
100
AcDbEntity
 67
     1
  8
0
100
AcDbBlockEnd
  0
BLOCK
  5
97B
330
977
100
AcDbEntity
  8
0
100
AcDbBlockBegin
  2
_OPEN30
 70
     0
 10
0.0
 20
0.0
 30
0.0
  3
_OPEN30
  1

  0
LINE
  5
978
330
977
100
AcDbEntity
  8
0
  6
ByBlock
 62
     0
100
AcDbLine
 10
-1.0
 20
0.26794919
 30
0.0
 11
0.0
 21
0.0
 31
0.0
  0
LINE
  5
979
330
977
100
AcDbEntity
  8
0
  6
ByBlock
 62
     0
100
AcDbLine
 10
0.0
 20
0.0
 30
0.0
 11
-1.0
 21
-0.26794919
 31
0.0
  0
LINE
  5
97A
330
977
100
AcDbEntity
  8
0
  6
ByBlock
 62
     0
100
AcDbLine
 10
0.0
 20
0.0
 30
0.0
 11
-1.0
 21
0.0
 31
0.0
  0
ENDBLK
  5
97C
330
977
100
AcDbEntity
  8
0
100
AcDbBlockEnd
  0
BLOCK
  5
40AE
330
40A4
100
AcDbEntity
  8
0
100
AcDbBlockBegin
  2
*D1
 70
     1
 10
0.0
 20
0.0
 30
0.0
  3
*D1
  1

  0
LINE
  5
5181
330
40A4
100
AcDbEntity
  8
Z_OM_DIM
100
AcDbLine
 10
586.2297897339819
 20
-23.27059963451134
 30
0.0
 11
586.2297897339819
 21
-34.39681714895798
 31
0.0
  0
LINE
  5
5182
330
40A4
100
AcDbEntity
  8
Z_OM_DIM
100
AcDbLine
 10
607.5297897339818
 20
-22.27059963451134
 30
0.0
 11
607.5297897339818
 21
-34.39681714895798
 31
0.0
  0
LINE
  5
5183
330
40A4
100
AcDbEntity
  8
Z_OM_DIM
100
AcDbLine
 10
588.7297897339818
 20
-33.14681714895798
 30
0.0
 11
605.0297897339818
 21
-33.14681714895798
 31
0.0
  0
INSERT
  5
5184
330
40A4
100
AcDbEntity
  8
Z_OM_DIM
100
AcDbBlockReference
  2
_OPEN30
 10
586.2297897339819
 20
-33.14681714895798
 30
0.0
 41
2.5
 42
2.5
 43
2.5
 50
180.0
  0
INSERT
  5
5185
330
40A4
100
AcDbEntity
  8
Z_OM_DIM
100
AcDbBlockReference
  2
_OPEN30
 10
607.5297897339818
 20
-33.14681714895798
 30
0.0
 41
2.5
 42
2.5
 43
2.5
  0
MTEXT
  5
5186
330
40A4
100
AcDbEntity
  8
Z_OM_DIM
100
AcDbMText
 10
596.8797897339818
 20
-31.27181714895798
 30
0.0
 40
2.5
 41
0.0
 71
     5
 72
     1
  1
21.3
  7
CatalogDxf
 73
     1
 44
1.0
1001
ACAD
1000
MTEXTBEGIN
1070
    73
1070
     1
1070
    44
1040
1.0
1070
    74
1070
     0
1000
MTEXTEND
  0
POINT
  5
5187
330
40A4
100
AcDbEntity
  8
DEFPOINTS
 62
     0
100
AcDbPoint
 10
586.2297897339819
 20
-22.64559963451134
 30
0.0
  0
POINT
  5
5188
330
40A4
100
AcDbEntity
  8
DEFPOINTS
 62
     0
100
AcDbPoint
 10
607.5297897339818
 20
-21.64559963451134
 30
0.0
  0
POINT
  5
5189
330
40A4
100
AcDbEntity
  8
DEFPOINTS
 62
     0
100
AcDbPoint
 10
607.5297897339818
 20
-33.14681714895798
 30
0.0
  0
ENDBLK
  5
40AF
330
40A4
100
AcDbEntity
  8
0
100
AcDbBlockEnd
  0
BLOCK
  5
40BA
330
40B0
100
AcDbEntity
  8
0
100
AcDbBlockBegin
  2
*D2
 70
     1
 10
0.0
 20
0.0
 30
0.0
  3
*D2
  1

  0
LINE
  5
518A
330
40B0
100
AcDbEntity
  8
Z_OM_DIM
100
AcDbLine
 10
603.7297897339818
 20
-68.8534931660272
 30
0.0
 11
603.7297897339818
 21
-56.5756130252612
 31
0.0
  0
LINE
  5
518B
330
40B0
100
AcDbEntity
  8
Z_OM_DIM
100
AcDbLine
 10
582.7547897339817
 20
-69.50730442668339
 30
0.0
 11
582.7547897339817
 21
-56.5756130252612
 31
0.0
  0
LINE
  5
518C
330
40B0
100
AcDbEntity
  8
Z_OM_DIM
100
AcDbLine
 10
601.2297897339817
 20
-57.8256130252612
 30
0.0
 11
585.2547897339817
 21
-57.8256130252612
 31
0.0
  0
INSERT
  5
518D
330
40B0
100
AcDbEntity
  8
Z_OM_DIM
100
AcDbBlockReference
  2
_OPEN30
 10
603.7297897339818
 20
-57.8256130252612
 30
0.0
 41
2.5
 42
2.5
 43
2.5
  0
INSERT
  5
518E
330
40B0
100
AcDbEntity
  8
Z_OM_DIM
100
AcDbBlockReference
  2
_OPEN30
 10
582.7547897339817
 20
-57.8256130252612
 30
0.0
 41
2.5
 42
2.5
 43
2.5
 50
180.0
  0
MTEXT
  5
518F
330
40B0
100
AcDbEntity
  8
Z_OM_DIM
100
AcDbMText
 10
593.2422897339818
 20
-55.9506130252612
 30
0.0
 40
2.5
 41
0.0
 71
     5
 72
     1
  1
21
  7
CatalogDxf
 73
     1
 44
1.0
1001
ACAD
1000
MTEXTBEGIN
1070
    73
1070
     1
1070
    44
1040
1.0
1070
    74
1070
     0
1000
MTEXTEND
  0
POINT
  5
5190
330
40B0
100
AcDbEntity
  8
DEFPOINTS
 62
     0
100
AcDbPoint
 10
603.7297897339818
 20
-69.4784931660272
 30
0.0
  0
POINT
  5
5191
330
40B0
100
AcDbEntity
  8
DEFPOINTS
 62
     0
100
AcDbPoint
 10
582.7547897339817
 20
-70.13230442668339
 30
0.0
  0
POINT
  5
5192
330
40B0
100
AcDbEntity
  8
DEFPOINTS
 62
     0
100
AcDbPoint
 10
582.7547897339817
 20
-57.8256130252612
 30
0.0
  0
ENDBLK
  5
40BB
330
40B0
100
AcDbEntity
  8
0
100
AcDbBlockEnd
  0
BLOCK
  5
40C6
330
40BC
100
AcDbEntity
  8
0
100
AcDbBlockBegin
  2
*D3
 70
     1
 10
0.0
 20
0.0
 30
0.0
  3
*D3
  1

  0
LINE
  5
5193
330
40BC
100
AcDbEntity
  8
Z_OM_DIM
100
AcDbLine
 10
603.7297897339811
 20
-74.52720874838016
 30
0.0
 11
603.7297897339811
 21
-89.88904605934882
 31
0.0
  0
LINE
  5
5194
330
40BC
100
AcDbEntity
  8
Z_OM_DIM
100
AcDbLine
 10
596.7297897339817
 20
-77.52720874838018
 30
0.0
 11
596.7297897339817
 21
-89.88904605934882
 31
0.0
  0
LINE
  5
5195
330
40BC
100
AcDbEntity
  8
Z_OM_DIM
100
AcDbLine
 10
601.2297897339812
 20
-88.63904605934882
 30
0.0
 11
599.2297897339817
 21
-88.63904605934882
 31
0.0
  0
INSERT
  5
5196
330
40BC
100
AcDbEntity
  8
Z_OM_DIM
100
AcDbBlockReference
  2
_OPEN30
 10
603.7297897339811
 20
-88.63904605934882
 30
0.0
 41
2.5
 42
2.5
 43
2.5
  0
INSERT
  5
5197
330
40BC
100
AcDbEntity
  8
Z_OM_DIM
100
AcDbBlockReference
  2
_OPEN30
 10
596.7297897339817
 20
-88.63904605934882
 30
0.0
 41
2.5
 42
2.5
 43
2.5
 50
180.0
  0
MTEXT
  5
5198
330
40BC
100
AcDbEntity
  8
Z_OM_DIM
100
AcDbMText
 10
600.2297897339815
 20
-86.76404605934882
 30
0.0
 40
2.5
 41
0.0
 71
     5
 72
     1
  1
7
  7
CatalogDxf
 73
     1
 44
1.0
1001
ACAD
1000
MTEXTBEGIN
1070
    73
1070
     1
1070
    44
1040
1.0
1070
    74
1070
     0
1000
MTEXTEND
  0
POINT
  5
5199
330
40BC
100
AcDbEntity
  8
DEFPOINTS
 62
     0
100
AcDbPoint
 10
603.7297897339811
 20
-73.90220874838016
 30
0.0
  0
POINT
  5
519A
330
40BC
100
AcDbEntity
  8
DEFPOINTS
 62
     0
100
AcDbPoint
 10
596.7297897339817
 20
-76.90220874838018
 30
0.0
  0
POINT
  5
519B
330
40BC
100
AcDbEntity
  8
DEFPOINTS
 62
     0
100
AcDbPoint
 10
596.7297897339817
 20
-88.63904605934882
 30
0.0
  0
ENDBLK
  5
40C7
330
40BC
100
AcDbEntity
  8
0
100
AcDbBlockEnd
  0
BLOCK
  5
40D4
330
40C8
100
AcDbEntity
  8
0
100
AcDbBlockBegin
  2
*D4
 70
     1
 10
0.0
 20
0.0
 30
0.0
  3
*D4
  1

  0
LINE
  5
519C
330
40C8
100
AcDbEntity
  8
Z_OM_DIM
100
AcDbLine
 10
596.7297897339817
 20
-77.52720874838018
 30
0.0
 11
596.7297897339817
 21
-89.88904605934882
 31
0.0
  0
LINE
  5
519D
330
40C8
100
AcDbEntity
  8
Z_OM_DIM
100
AcDbLine
 10
590.7297897339817
 20
-71.52720874838016
 30
0.0
 11
590.7297897339817
 21
-89.88904605934882
 31
0.0
  0
LINE
  5
519E
330
40C8
100
AcDbEntity
  8
Z_OM_DIM
100
AcDbLine
 10
599.2297897339817
 20
-88.63904605934882
 30
0.0
 11
601.7297897339817
 21
-88.63904605934882
 31
0.0
  0
LINE
  5
519F
330
40C8
100
AcDbEntity
  8
Z_OM_DIM
100
AcDbLine
 10
588.2297897339817
 20
-88.63904605934882
 30
0.0
 11
585.7297897339817
 21
-88.63904605934882
 31
0.0
  0
LINE
  5
51A0
330
40C8
100
AcDbEntity
  8
Z_OM_DIM
100
AcDbLine
 10
596.7297897339817
 20
-88.63904605934882
 30
0.0
 11
590.7297897339817
 21
-88.63904605934882
 31
0.0
  0
INSERT
  5
51A1
330
40C8
100
AcDbEntity
  8
Z_OM_DIM
100
AcDbBlockReference
  2
_OPEN30
 10
596.7297897339817
 20
-88.63904605934882
 30
0.0
 41
2.5
 42
2.5
 43
2.5
 50
180.0
  0
INSERT
  5
51A2
330
40C8
100
AcDbEntity
  8
Z_OM_DIM
100
AcDbBlockReference
  2
_OPEN30
 10
590.7297897339817
 20
-88.63904605934882
 30
0.0
 41
2.5
 42
2.5
 43
2.5
  0
MTEXT
  5
51A3
330
40C8
100
AcDbEntity
  8
Z_OM_DIM
100
AcDbMText
 10
593.7297897339817
 20
-86.76404605934882
 30
0.0
 40
2.5
 41
0.0
 71
     5
 72
     1
  1
6
  7
CatalogDxf
 73
     1
 44
1.0
1001
ACAD
1000
MTEXTBEGIN
1070
    73
1070
     1
1070
    44
1040
1.0
1070
    74
1070
     0
1000
MTEXTEND
  0
POINT
  5
51A4
330
40C8
100
AcDbEntity
  8
DEFPOINTS
 62
     0
100
AcDbPoint
 10
596.7297897339817
 20
-76.90220874838018
 30
0.0
  0
POINT
  5
51A5
330
40C8
100
AcDbEntity
  8
DEFPOINTS
 62
     0
100
AcDbPoint
 10
590.7297897339817
 20
-70.90220874838016
 30
0.0
  0
POINT
  5
51A6
330
40C8
100
AcDbEntity
  8
DEFPOINTS
 62
     0
100
AcDbPoint
 10
590.7297897339817
 20
-88.63904605934882
 30
0.0
  0
ENDBLK
  5
40D5
330
40C8
100
AcDbEntity
  8
0
100
AcDbBlockEnd
  0
BLOCK
  5
40E0
330
40D6
100
AcDbEntity
  8
0
100
AcDbBlockBegin
  2
*D5
 70
     1
 10
0.0
 20
0.0
 30
0.0
  3
*D5
  1

  0
LINE
  5
51A7
330
40D6
100
AcDbEntity
  8
Z_OM_DIM
100
AcDbLine
 10
608.1547897339818
 20
-66.92980442668345
 30
0.0
 11
627.8306360252634
 21
-66.92980442668345
 31
0.0
  0
LINE
  5
51A8
330
40D6
100
AcDbEntity
  8
Z_OM_DIM
100
AcDbLine
 10
608.1547897339818
 20
-76.72980442668336
 30
0.0
 11
627.8306360252634
 21
-76.72980442668336
 31
0.0
  0
LINE
  5
51A9
330
40D6
100
AcDbEntity
  8
Z_OM_DIM
100
AcDbLine
 10
626.5806360252634
 20
-69.42980442668345
 30
0.0
 11
626.5806360252634
 21
-74.22980442668336
 31
0.0
  0
INSERT
  5
51AA
330
40D6
100
AcDbEntity
  8
Z_OM_DIM
100
AcDbBlockReference
  2
_OPEN30
 10
626.5806360252634
 20
-66.92980442668345
 30
0.0
 41
2.5
 42
2.5
 43
2.5
 50
90.0
  0
INSERT
  5
51AB
330
40D6
100
AcDbEntity
  8
Z_OM_DIM
100
AcDbBlockReference
  2
_OPEN30
 10
626.5806360252634
 20
-76.72980442668336
 30
0.0
 41
2.5
 42
2.5
 43
2.5
 50
270.0
  0
MTEXT
  5
51AC
330
40D6
100
AcDbEntity
  8
Z_OM_DIM
100
AcDbMText
 10
624.7056360252634
 20
-71.82980442668331
 30
0.0
 40
2.5
 41
0.0
 71
     5
 72
     1
  1
9.8
  7
CatalogDxf
 11
0.0000000000000001
 21
1.0
 31
0.0
 73
     1
 44
1.0
1001
ACAD
1000
MTEXTBEGIN
1070
    73
1070
     1
1070
    44
1040
1.0
1070
    74
1070
     0
1000
MTEXTEND
  0
POINT
  5
51AD
330
40D6
100
AcDbEntity
  8
DEFPOINTS
 62
     0
100
AcDbPoint
 10
607.5297897339818
 20
-66.92980442668343
 30
0.0
  0
POINT
  5
51AE
330
40D6
100
AcDbEntity
  8
DEFPOINTS
 62
     0
100
AcDbPoint
 10
607.5297897339818
 20
-76.72980442668334
 30
0.0
  0
POINT
  5
51AF
330
40D6
100
AcDbEntity
  8
DEFPOINTS
 62
     0
100
AcDbPoint
 10
626.5806360252634
 20
-76.72980442668336
 30
0.0
  0
ENDBLK
  5
40E1
330
40D6
100
AcDbEntity
  8
0
100
AcDbBlockEnd
  0
BLOCK
  5
40EE
330
40E2
100
AcDbEntity
  8
0
100
AcDbBlockBegin
  2
*D6
 70
     1
 10
0.0
 20
0.0
 30
0.0
  3
*D6
  1

  0
LINE
  5
51B0
330
40E2
100
AcDbEntity
  8
Z_OM_DIM
100
AcDbLine
 10
593.6752720579155
 20
-68.82980442668332
 30
0.0
 11
622.3379244436808
 21
-68.82980442668333
 31
0.0
  0
LINE
  5
51B1
330
40E2
100
AcDbEntity
  8
Z_OM_DIM
100
AcDbLine
 10
599.6752720579155
 20
-74.82980442668334
 30
0.0
 11
622.3379244436808
 21
-74.82980442668335
 31
0.0
  0
LINE
  5
51B2
330
40E2
100
AcDbEntity
  8
Z_OM_DIM
100
AcDbLine
 10
621.0879244436807
 20
-66.32980442668333
 30
0.0
 11
621.0879244436807
 21
-63.82980442668333
 31
0.0
  0
LINE
  5
51B3
330
40E2
100
AcDbEntity
  8
Z_OM_DIM
100
AcDbLine
 10
621.0879244436807
 20
-77.32980442668335
 30
0.0
 11
621.0879244436807
 21
-79.82980442668335
 31
0.0
  0
LINE
  5
51B4
330
40E2
100
AcDbEntity
  8
Z_OM_DIM
100
AcDbLine
 10
621.0879244436807
 20
-68.82980442668333
 30
0.0
 11
621.0879244436807
 21
-74.82980442668335
 31
0.0
  0
INSERT
  5
51B5
330
40E2
100
AcDbEntity
  8
Z_OM_DIM
100
AcDbBlockReference
  2
_OPEN30
 10
621.0879244436807
 20
-68.82980442668333
 30
0.0
 41
2.5
 42
2.5
 43
2.5
 50
270.0
  0
INSERT
  5
51B6
330
40E2
100
AcDbEntity
  8
Z_OM_DIM
100
AcDbBlockReference
  2
_OPEN30
 10
621.0879244436807
 20
-74.82980442668335
 30
0.0
 41
2.5
 42
2.5
 43
2.5
 50
90.0
  0
MTEXT
  5
51B7
330
40E2
100
AcDbEntity
  8
Z_OM_DIM
100
AcDbMText
 10
619.2129244436808
 20
-71.82980442668325
 30
0.0
 40
2.5
 41
0.0
 71
     5
 72
     1
  1
6
  7
CatalogDxf
 11
0.0000000000000001
 21
1.0
 31
0.0
 73
     1
 44
1.0
1001
ACAD
1000
MTEXTBEGIN
1070
    73
1070
     1
1070
    44
1040
1.0
1070
    74
1070
     0
1000
MTEXTEND
  0
POINT
  5
51B8
330
40E2
100
AcDbEntity
  8
DEFPOINTS
 62
     0
100
AcDbPoint
 10
593.0502720579155
 20
-68.82980442668332
 30
0.0
  0
POINT
  5
51B9
330
40E2
100
AcDbEntity
  8
DEFPOINTS
 62
     0
100
AcDbPoint
 10
599.0502720579155
 20
-74.82980442668334
 30
0.0
  0
POINT
  5
51BA
330
40E2
100
AcDbEntity
  8
DEFPOINTS
 62
     0
100
AcDbPoint
 10
621.0879244436807
 20
-74.82980442668335
 30
0.0
  0
ENDBLK
  5
40EF
330
40E2
100
AcDbEntity
  8
0
100
AcDbBlockEnd
  0
BLOCK
  5
40FA
330
40F0
100
AcDbEntity
  8
0
100
AcDbBlockBegin
  2
*D7
 70
     1
 10
0.0
 20
0.0
 30
0.0
  3
*D7
  1

  0
LINE
  5
51BB
330
40F0
100
AcDbEntity
  8
Z_OM_DIM
100
AcDbLine
 10
553.2071409907769
 20
-66.30480442668354
 30
0.0
 11
553.2071409907769
 21
-56.57561302526133
 31
0.0
  0
LINE
  5
51BC
330
40F0
100
AcDbEntity
  8
Z_OM_DIM
100
AcDbLine
 10
564.0071409907768
 20
-66.30480442668354
 30
0.0
 11
564.0071409907768
 21
-56.57561302526133
 31
0.0
  0
LINE
  5
51BD
330
40F0
100
AcDbEntity
  8
Z_OM_DIM
100
AcDbLine
 10
555.7071409907769
 20
-57.82561302526133
 30
0.0
 11
561.5071409907767
 21
-57.82561302526133
 31
0.0
  0
INSERT
  5
51BE
330
40F0
100
AcDbEntity
  8
Z_OM_DIM
100
AcDbBlockReference
  2
_OPEN30
 10
553.2071409907769
 20
-57.82561302526133
 30
0.0
 41
2.5
 42
2.5
 43
2.5
 50
180.0
  0
INSERT
  5
51BF
330
40F0
100
AcDbEntity
  8
Z_OM_DIM
100
AcDbBlockReference
  2
_OPEN30
 10
564.0071409907768
 20
-57.82561302526133
 30
0.0
 41
2.5
 42
2.5
 43
2.5
  0
MTEXT
  5
51C0
330
40F0
100
AcDbEntity
  8
Z_OM_DIM
100
AcDbMText
 10
558.6071409907767
 20
-55.95061302526133
 30
0.0
 40
2.5
 41
0.0
 71
     5
 72
     1
  1
10.8
  7
CatalogDxf
 73
     1
 44
1.0
1001
ACAD
1000
MTEXTBEGIN
1070
    73
1070
     1
1070
    44
1040
1.0
1070
    74
1070
     0
1000
MTEXTEND
  0
POINT
  5
51C1
330
40F0
100
AcDbEntity
  8
DEFPOINTS
 62
     0
100
AcDbPoint
 10
553.2071409907769
 20
-66.92980442668354
 30
0.0
  0
POINT
  5
51C2
330
40F0
100
AcDbEntity
  8
DEFPOINTS
 62
     0
100
AcDbPoint
 10
564.0071409907768
 20
-66.92980442668354
 30
0.0
  0
POINT
  5
51C3
330
40F0
100
AcDbEntity
  8
DEFPOINTS
 62
     0
100
AcDbPoint
 10
564.0071409907768
 20
-57.82561302526133
 30
0.0
  0
ENDBLK
  5
40FB
330
40F0
100
AcDbEntity
  8
0
100
AcDbBlockEnd
  0
BLOCK
  5
4106
330
40FC
100
AcDbEntity
  8
0
100
AcDbBlockBegin
  2
*D8
 70
     1
 10
0.0
 20
0.0
 30
0.0
  3
*D8
  1

  0
LINE
  5
51C4
330
40FC
100
AcDbEntity
  8
Z_OM_DIM
100
AcDbLine
 10
607.5297897339818
 20
-12.74559963451136
 30
0.0
 11
607.5297897339818
 21
-5.82581920381844
 31
0.0
  0
LINE
  5
51C5
330
40FC
100
AcDbEntity
  8
Z_OM_DIM
100
AcDbLine
 10
644.4161836396351
 20
-12.93309963451136
 30
0.0
 11
644.4161836396351
 21
-5.82581920381844
 31
0.0
  0
LINE
  5
51C6
330
40FC
100
AcDbEntity
  8
Z_OM_DIM
100
AcDbLine
 10
610.0297897339818
 20
-7.07581920381844
 30
0.0
 11
641.9161836396352
 21
-7.07581920381844
 31
0.0
  0
INSERT
  5
51C7
330
40FC
100
AcDbEntity
  8
Z_OM_DIM
100
AcDbBlockReference
  2
_OPEN30
 10
607.5297897339818
 20
-7.07581920381844
 30
0.0
 41
2.5
 42
2.5
 43
2.5
 50
180.0
  0
INSERT
  5
51C8
330
40FC
100
AcDbEntity
  8
Z_OM_DIM
100
AcDbBlockReference
  2
_OPEN30
 10
644.4161836396351
 20
-7.07581920381844
 30
0.0
 41
2.5
 42
2.5
 43
2.5
  0
MTEXT
  5
51C9
330
40FC
100
AcDbEntity
  8
Z_OM_DIM
100
AcDbMText
 10
625.9729866868085
 20
-5.20081920381844
 30
0.0
 40
2.5
 41
0.0
 71
     5
 72
     1
  1
180 - 200
  7
CatalogDxf
 73
     1
 44
1.0
1001
ACAD
1000
MTEXTBEGIN
1070
    73
1070
     1
1070
    44
1040
1.0
1070
    74
1070
     0
1000
MTEXTEND
  0
POINT
  5
51CA
330
40FC
100
AcDbEntity
  8
DEFPOINTS
 62
     0
100
AcDbPoint
 10
607.5297897339818
 20
-13.37059963451136
 30
0.0
  0
POINT
  5
51CB
330
40FC
100
AcDbEntity
  8
DEFPOINTS
 62
     0
100
AcDbPoint
 10
644.4161836396351
 20
-13.55809963451136
 30
0.0
  0
POINT
  5
51CC
330
40FC
100
AcDbEntity
  8
DEFPOINTS
 62
     0
100
AcDbPoint
 10
644.4161836396351
 20
-7.07581920381844
 30
0.0
  0
ENDBLK
  5
4107
330
40FC
100
AcDbEntity
  8
0
100
AcDbBlockEnd
  0
BLOCK
  5
4114
330
4108
100
AcDbEntity
  8
0
100
AcDbBlockBegin
  2
*D9
 70
     1
 10
0.0
 20
0.0
 30
0.0
  3
*D9
  1

  0
LINE
  5
51CD
330
4108
100
AcDbEntity
  8
Z_OM_DIM
100
AcDbLine
 10
603.7297897339818
 20
-74.52720874838016
 30
0.0
 11
603.7297897339818
 21
-89.88904605934882
 31
0.0
  0
LINE
  5
51CE
330
4108
100
AcDbEntity
  8
Z_OM_DIM
100
AcDbLine
 10
607.5297897339818
 20
-77.35480442668334
 30
0.0
 11
607.5297897339818
 21
-89.88904605934882
 31
0.0
  0
LINE
  5
51CF
330
4108
100
AcDbEntity
  8
Z_OM_DIM
100
AcDbLine
 10
601.2297897339817
 20
-88.63904605934882
 30
0.0
 11
598.7297897339817
 21
-88.63904605934882
 31
0.0
  0
LINE
  5
51D0
330
4108
100
AcDbEntity
  8
Z_OM_DIM
100
AcDbLine
 10
610.0297897339818
 20
-88.63904605934882
 30
0.0
 11
618.7797897339818
 21
-88.63904605934882
 31
0.0
  0
LINE
  5
51D1
330
4108
100
AcDbEntity
  8
Z_OM_DIM
100
AcDbLine
 10
603.7297897339818
 20
-88.63904605934882
 30
0.0
 11
607.5297897339818
 21
-88.63904605934882
 31
0.0
  0
INSERT
  5
51D2
330
4108
100
AcDbEntity
  8
Z_OM_DIM
100
AcDbBlockReference
  2
_OPEN30
 10
603.7297897339818
 20
-88.63904605934882
 30
0.0
 41
2.5
 42
2.5
 43
2.5
  0
INSERT
  5
51D3
330
4108
100
AcDbEntity
  8
Z_OM_DIM
100
AcDbBlockReference
  2
_OPEN30
 10
607.5297897339818
 20
-88.63904605934882
 30
0.0
 41
2.5
 42
2.5
 43
2.5
 50
180.0
  0
MTEXT
  5
51D4
330
4108
100
AcDbEntity
  8
Z_OM_DIM
100
AcDbMText
 10
615.6547897339818
 20
-86.76404605934882
 30
0.0
 40
2.5
 41
0.0
 71
     5
 72
     1
  1
3.8
  7
CatalogDxf
 73
     1
 44
1.0
1001
ACAD
1000
MTEXTBEGIN
1070
    73
1070
     1
1070
    44
1040
1.0
1070
    74
1070
     0
1000
MTEXTEND
  0
POINT
  5
51D5
330
4108
100
AcDbEntity
  8
DEFPOINTS
 62
     0
100
AcDbPoint
 10
603.7297897339818
 20
-73.90220874838016
 30
0.0
  0
POINT
  5
51D6
330
4108
100
AcDbEntity
  8
DEFPOINTS
 62
     0
100
AcDbPoint
 10
607.5297897339818
 20
-76.72980442668334
 30
0.0
  0
POINT
  5
51D7
330
4108
100
AcDbEntity
  8
DEFPOINTS
 62
     0
100
AcDbPoint
 10
607.5297897339818
 20
-88.63904605934882
 30
0.0
  0
ENDBLK
  5
4115
330
4108
100
AcDbEntity
  8
0
100
AcDbBlockEnd
  0
BLOCK
  5
499D
330
4991
100
AcDbEntity
  8
0
100
AcDbBlockBegin
  2
*D10
 70
     1
 10
0.0
 20
0.0
 30
0.0
  3
*D10
  1

  0
LINE
  5
51D8
330
4991
100
AcDbEntity
  8
Z_OM_DIM
100
AcDbLine
 10
583.1047897339817
 20
-18.74559963451136
 30
0.0
 11
572.5870371070246
 21
-18.74559963451136
 31
0.0
  0
LINE
  5
51D9
330
4991
100
AcDbEntity
  8
Z_OM_DIM
100
AcDbLine
 10
583.1047897339817
 20
-15.74559963451136
 30
0.0
 11
572.5870371070246
 21
-15.74559963451136
 31
0.0
  0
LINE
  5
51DA
330
4991
100
AcDbEntity
  8
Z_OM_DIM
100
AcDbLine
 10
573.8370371070245
 20
-21.24559963451136
 30
0.0
 11
573.8370371070245
 21
-23.74559963451136
 31
0.0
  0
LINE
  5
51DB
330
4991
100
AcDbEntity
  8
Z_OM_DIM
100
AcDbLine
 10
573.8370371070245
 20
-13.24559963451136
 30
0.0
 11
573.8370371070245
 21
-5.32893296784469
 31
0.0
  0
LINE
  5
51DC
330
4991
100
AcDbEntity
  8
Z_OM_DIM
100
AcDbLine
 10
573.8370371070245
 20
-18.74559963451136
 30
0.0
 11
573.8370371070245
 21
-15.74559963451136
 31
0.0
  0
INSERT
  5
51DD
330
4991
100
AcDbEntity
  8
Z_OM_DIM
100
AcDbBlockReference
  2
_OPEN30
 10
573.8370371070245
 20
-18.74559963451136
 30
0.0
 41
2.5
 42
2.5
 43
2.5
 50
90.0
  0
INSERT
  5
51DE
330
4991
100
AcDbEntity
  8
Z_OM_DIM
100
AcDbBlockReference
  2
_OPEN30
 10
573.8370371070245
 20
-15.74559963451136
 30
0.0
 41
2.5
 42
2.5
 43
2.5
 50
270.0
  0
MTEXT
  5
51DF
330
4991
100
AcDbEntity
  8
Z_OM_DIM
100
AcDbMText
 10
571.9620371070245
 20
-8.037266301177931
 30
0.0
 40
2.5
 41
0.0
 71
     5
 72
     1
  1
%%c3
  7
CatalogDxf
 11
0.0000000000000001
 21
1.0
 31
0.0
 73
     1
 44
1.0
1001
ACAD
1000
MTEXTBEGIN
1070
    73
1070
     1
1070
    44
1040
1.0
1070
    74
1070
     0
1000
MTEXTEND
  0
POINT
  5
51E0
330
4991
100
AcDbEntity
  8
DEFPOINTS
 62
     0
100
AcDbPoint
 10
583.7297897339817
 20
-18.74559963451136
 30
0.0
  0
POINT
  5
51E1
330
4991
100
AcDbEntity
  8
DEFPOINTS
 62
     0
100
AcDbPoint
 10
583.7297897339817
 20
-15.74559963451136
 30
0.0
  0
POINT
  5
51E2
330
4991
100
AcDbEntity
  8
DEFPOINTS
 62
     0
100
AcDbPoint
 10
573.8370371070245
 20
-15.74559963451136
 30
0.0
  0
ENDBLK
  5
499E
330
4991
100
AcDbEntity
  8
0
100
AcDbBlockEnd
  0
BLOCK
  5
4ABE
330
4AB2
100
AcDbEntity
  8
0
100
AcDbBlockBegin
  2
*D11
 70
     1
 10
0.0
 20
0.0
 30
0.0
  3
*D11
  1

  0
LINE
  5
51E3
330
4AB2
100
AcDbEntity
  8
Z_OM_DIM
100
AcDbLine
 10
582.429789733982
 20
-19.24309963451136
 30
0.0
 11
567.0248206451742
 21
-19.24309963451135
 31
0.0
  0
LINE
  5
51E4
330
4AB2
100
AcDbEntity
  8
Z_OM_DIM
100
AcDbLine
 10
582.4297897339821
 20
-15.24809963451136
 30
0.0
 11
567.0248206451742
 21
-15.24809963451135
 31
0.0
  0
LINE
  5
51E5
330
4AB2
100
AcDbEntity
  8
Z_OM_DIM
100
AcDbLine
 10
568.2748206451742
 20
-21.74309963451136
 30
0.0
 11
568.2748206451742
 21
-24.24309963451136
 31
0.0
  0
LINE
  5
51E6
330
4AB2
100
AcDbEntity
  8
Z_OM_DIM
100
AcDbLine
 10
568.2748206451742
 20
-12.74809963451135
 30
0.0
 11
568.2748206451742
 21
-4.831432967844687
 31
0.0
  0
LINE
  5
51E7
330
4AB2
100
AcDbEntity
  8
Z_OM_DIM
100
AcDbLine
 10
568.2748206451742
 20
-19.24309963451136
 30
0.0
 11
568.2748206451742
 21
-15.24809963451135
 31
0.0
  0
INSERT
  5
51E8
330
4AB2
100
AcDbEntity
  8
Z_OM_DIM
100
AcDbBlockReference
  2
_OPEN30
 10
568.2748206451742
 20
-19.24309963451136
 30
0.0
 41
2.5
 42
2.5
 43
2.5
 50
90.0
  0
INSERT
  5
51E9
330
4AB2
100
AcDbEntity
  8
Z_OM_DIM
100
AcDbBlockReference
  2
_OPEN30
 10
568.2748206451742
 20
-15.24809963451135
 30
0.0
 41
2.5
 42
2.5
 43
2.5
 50
270.0
  0
MTEXT
  5
51EA
330
4AB2
100
AcDbEntity
  8
Z_OM_DIM
100
AcDbMText
 10
566.3998206451743
 20
-7.539766301177929
 30
0.0
 40
2.5
 41
0.0
 71
     5
 72
     1
  1
%%c4
  7
CatalogDxf
 11
0.0000000000000001
 21
1.0
 31
0.0
 73
     1
 44
1.0
1001
ACAD
1000
MTEXTBEGIN
1070
    73
1070
     1
1070
    44
1040
1.0
1070
    74
1070
     0
1000
MTEXTEND
  0
POINT
  5
51EB
330
4AB2
100
AcDbEntity
  8
DEFPOINTS
 62
     0
100
AcDbPoint
 10
583.054789733982
 20
-19.24309963451136
 30
0.0
  0
POINT
  5
51EC
330
4AB2
100
AcDbEntity
  8
DEFPOINTS
 62
     0
100
AcDbPoint
 10
583.0547897339821
 20
-15.24809963451136
 30
0.0
  0
POINT
  5
51ED
330
4AB2
100
AcDbEntity
  8
DEFPOINTS
 62
     0
100
AcDbPoint
 10
568.2748206451742
 20
-15.24809963451135
 30
0.0
  0
ENDBLK
  5
4ABF
330
4AB2
100
AcDbEntity
  8
0
100
AcDbBlockEnd
  0
BLOCK
  5
4FDD
330
4FDC
100
AcDbEntity
  8
0
100
AcDbBlockBegin
  2
_OPEN
 70
     0
 10
0.0
 20
0.0
 30
0.0
  3
_OPEN
  1

  0
LINE
  5
4FDE
330
4FDC
100
AcDbEntity
  8
0
  6
ByBlock
 62
     0
100
AcDbLine
 10
-1.0
 20
0.1666666666666666
 30
0.0
 11
0.0
 21
0.0
 31
0.0
  0
LINE
  5
4FDF
330
4FDC
100
AcDbEntity
  8
0
  6
ByBlock
 62
     0
100
AcDbLine
 10
0.0
 20
0.0
 30
0.0
 11
-1.0
 21
-0.1666666666666666
 31
0.0
  0
LINE
  5
4FE0
330
4FDC
100
AcDbEntity
  8
0
  6
ByBlock
 62
     0
100
AcDbLine
 10
0.0
 20
0.0
 30
0.0
 11
-1.0
 21
0.0
 31
0.0
  0
ENDBLK
  5
4FE1
330
4FDC
100
AcDbEntity
  8
0
100
AcDbBlockEnd
  0
BLOCK
  5
50C7
330
50C0
100
AcDbEntity
  8
0
100
AcDbBlockBegin
  2
A$C7D437A46
 70
     0
 10
0.0
 20
0.0
 30
0.0
  3
A$C7D437A46
  1

  0
LINE
  5
50C1
330
50C0
100
AcDbEntity
  8
0
 62
     0
 48
0.5
370
    -3
100
AcDbLine
 10
0.0
 20
4.148190905103432
 30
0.0
 11
9.538693903707155
 21
4.148190905103432
 31
0.0
  0
LINE
  5
50C2
330
50C0
100
AcDbEntity
  8
0
 62
     0
 48
0.5
370
    -3
100
AcDbLine
 10
0.0
 20
1.034733115410232
 30
0.0
 11
7.741138210717252
 21
1.034733115410232
 31
0.0
  0
LINE
  5
50C3
330
50C0
100
AcDbEntity
  8
0
 62
     0
 48
0.5
370
    -3
100
AcDbLine
 10
0.0
 20
2.598190905103421
 30
0.0
 11
8.643800986463219
 21
2.598190905103421
 31
0.0
  0
LINE
  5
50C4
330
50C0
100
AcDbEntity
  8
0
 62
     0
 48
0.5
370
    -3
100
AcDbLine
 10
10.55830181967891
 20
5.914203619366046
 30
0.0
 11
6.675949934507087
 21
-0.8102270986125006
 31
0.0
  0
ENDBLK
  5
50C8
330
50C0
100
AcDbEntity
  8
0
100
AcDbBlockEnd
  0
BLOCK
  5
50D0
330
50C9
100
AcDbEntity
  8
0
100
AcDbBlockBegin
  2
A$C4B3765E4
 70
     0
 10
0.0
 20
0.0
 30
0.0
  3
A$C4B3765E4
  1

  0
LINE
  5
50CA
330
50C9
100
AcDbEntity
  8
0
 62
     0
 48
0.5
370
    -3
100
AcDbLine
 10
0.0
 20
4.148190905103432
 30
0.0
 11
9.538693903707155
 21
4.148190905103432
 31
0.0
  0
LINE
  5
50CB
330
50C9
100
AcDbEntity
  8
0
 62
     0
 48
0.5
370
    -3
100
AcDbLine
 10
0.0
 20
1.034733115410232
 30
0.0
 11
7.741138210717252
 21
1.034733115410232
 31
0.0
  0
LINE
  5
50CC
330
50C9
100
AcDbEntity
  8
0
 62
     0
 48
0.5
370
    -3
100
AcDbLine
 10
0.0
 20
2.598190905103421
 30
0.0
 11
8.643800986463219
 21
2.598190905103421
 31
0.0
  0
LINE
  5
50CD
330
50C9
100
AcDbEntity
  8
0
 62
     0
 48
0.5
370
    -3
100
AcDbLine
 10
10.55830181967891
 20
5.914203619366046
 30
0.0
 11
6.675949934507087
 21
-0.8102270986125006
 31
0.0
  0
ENDBLK
  5
50D1
330
50C9
100
AcDbEntity
  8
0
100
AcDbBlockEnd
  0
BLOCK
  5
50DF
330
50D9
100
AcDbEntity
  8
0
100
AcDbBlockBegin
  2
A$C4C4E4789
 70
     0
 10
0.0
 20
0.0
 30
0.0
  3
A$C4C4E4789
  1

  0
LINE
  5
50DA
330
50D9
100
AcDbEntity
  8
0
 62
     0
 48
0.5
370
    -3
100
AcDbLine
 10
1.0
 20
3.0
 30
0.0
 11
1.0
 21
-3.0
 31
0.0
  0
LINE
  5
50DB
330
50D9
100
AcDbEntity
  8
0
 62
     0
 48
0.5
370
    -3
100
AcDbLine
 10
1.0
 20
3.0
 30
0.0
 11
0.0
 21
3.0
 31
0.0
  0
LINE
  5
50DC
330
50D9
100
AcDbEntity
  8
0
 62
     0
 48
0.5
370
    -3
100
AcDbLine
 10
1.0
 20
-3.0
 30
0.0
 11
0.0
 21
-3.0
 31
0.0
  0
ENDBLK
  5
50E0
330
50D9
100
AcDbEntity
  8
0
100
AcDbBlockEnd
  0
ENDSEC
  0
SECTION
  2
ENTITIES
  0
LINE
  5
3FD9
330
17
100
AcDbEntity
  8
0
100
AcDbLine
 10
607.5297897339818
 20
-14.12059963451125
 30
0.0
 11
617.8783837530586
 21
-14.12059963451125
 31
0.0
  0
LINE
  5
3FDA
330
17
100
AcDbEntity
  8
0
 48
0.5
100
AcDbLine
 10
637.4161836396353
 20
-14.87059963451136
 30
0.0
 11
618.4238107980132
 21
-14.87059963451136
 31
0.0
  0
LINE
  5
3FDB
330
17
100
AcDbEntity
  8
0
 48
0.5
100
AcDbLine
 10
637.4161836396353
 20
-13.37059963451125
 30
0.0
 11
618.8885841145567
 21
-13.37059963451125
 31
0.0
  0
LINE
  5
3FDC
330
17
100
AcDbEntity
  8
0
100
AcDbLine
 10
617.7988107980134
 20
-14.87059963451136
 30
0.0
 11
607.5297897339818
 21
-14.87059963451136
 31
0.0
  0
LINE
  5
3FDD
330
17
100
AcDbEntity
  8
0
 48
0.5
100
AcDbLine
 10
618.5033837530587
 20
-14.12059963451125
 30
0.0
 11
637.4161836396353
 21
-14.12059963451125
 31
0.0
  0
LINE
  5
3FDE
102
{ACAD_REACTORS
330
4084
102
}
330
17
100
AcDbEntity
  8
0
100
AcDbLine
 10
618.2635841145565
 20
-13.37059963451125
 30
0.0
 11
607.5297897339818
 21
-13.37059963451136
 31
0.0
  0
SPLINE
  5
3FE0
330
17
100
AcDbEntity
  8
additional
 48
0.5
100
AcDbSpline
210
0.0
220
0.0
230
1.0
 70
     8
 71
     3
 72
    18
 73
    14
 74
    12
 42
0.0000000001
 43
0.0000000001
 44
0.0000000001
 40
0.0
 40
0.0
 40
0.0
 40
0.0
 40
0.2795084971874737
 40
0.5590169943749475
 40
1.059016994374947
 40
1.338525491562421
 40
1.618033988749894
 40
1.897542485937368
 40
2.177050983124892
 40
2.927050983124884
 40
3.206559480312416
 40
3.48606797749989
 40
3.765576474687363
 40
3.765576474687363
 40
3.765576474687363
 40
3.765576474687363
 10
618.0823019609131
 20
-12.22246660716357
 30
0.0
 10
618.1225054192318
 20
-12.306494988131
 30
0.0
 10
618.2029123358694
 20
-12.47455175006587
 30
0.0
 10
618.3885006852555
 20
-12.77712244386169
 30
0.0
 10
618.3885560338012
 20
-13.16782431424014
 30
0.0
 10
618.2028195135366
 20
-13.4703502858014
 30
0.0
 10
618.0826487514589
 20
-13.72258708857342
 30
0.0
 10
617.9603972461066
 20
-13.97410100288636
 30
0.0
 10
617.7405589877913
 20
-14.351429158895
 30
0.0
 10
617.7402755683291
 20
-14.84360789022369
 30
0.0
 10
617.9607141186986
 20
-15.22068727761694
 30
0.0
 10
618.0814489214666
 20
-15.47291143955022
 30
0.0
 10
618.1653509477642
 20
-15.63928155129245
 30
0.0
 10
618.2073019609131
 20
-15.72246660716357
 30
0.0
 11
618.0823019609131
 21
-12.22246660716357
 31
0.0
 11
618.2073019609131
 21
-12.47246660716357
 31
0.0
 11
618.3323019609131
 21
-12.72246660716357
 31
0.0
 11
618.3323019609131
 21
-13.22246660716357
 31
0.0
 11
618.2073019609131
 21
-13.47246660716357
 31
0.0
 11
618.0823019609131
 21
-13.72246660716357
 31
0.0
 11
617.9573019609131
 21
-13.97246660716357
 31
0.0
 11
617.832301960913
 21
-14.22246660716357
 31
0.0
 11
617.832301960913
 21
-14.97246660716356
 31
0.0
 11
617.9573019609131
 21
-15.22246660716357
 31
0.0
 11
618.0823019609131
 21
-15.47246660716357
 31
0.0
 11
618.2073019609131
 21
-15.72246660716357
 31
0.0
  0
SPLINE
  5
3FE1
330
17
100
AcDbEntity
  8
additional
 48
0.5
100
AcDbSpline
210
0.0
220
0.0
230
1.0
 70
     8
 71
     3
 72
    18
 73
    14
 74
    12
 42
0.0000000001
 43
0.0000000001
 44
0.0000000001
 40
0.0
 40
0.0
 40
0.0
 40
0.0
 40
0.2795084971874737
 40
0.5590169943749475
 40
1.059016994374947
 40
1.338525491562421
 40
1.618033988749894
 40
1.897542485937368
 40
2.177050983124842
 40
2.927050983124833
 40
3.206559480312315
 40
3.486067977499788
 40
3.765576474687262
 40
3.765576474687262
 40
3.765576474687262
 40
3.765576474687262
 10
618.7073019609131
 20
-12.22246660716357
 30
0.0
 10
618.7475054192319
 20
-12.306494988131
 30
0.0
 10
618.8279123358694
 20
-12.47455175006587
 30
0.0
 10
619.0135006852558
 20
-12.77712244386169
 30
0.0
 10
619.0135560338013
 20
-13.16782431424014
 30
0.0
 10
618.8278195135366
 20
-13.4703502858014
 30
0.0
 10
618.7076487514587
 20
-13.72258708857341
 30
0.0
 10
618.5853972461066
 20
-13.97410100288633
 30
0.0
 10
618.3655589877916
 20
-14.35142915889507
 30
0.0
 10
618.3652755683294
 20
-14.84360789022362
 30
0.0
 10
618.5857141186984
 20
-15.22068727761697
 30
0.0
 10
618.706448921467
 20
-15.47291143955022
 30
0.0
 10
618.7903509477642
 20
-15.63928155129245
 30
0.0
 10
618.8323019609131
 20
-15.72246660716357
 30
0.0
 11
618.7073019609131
 21
-12.22246660716357
 31
0.0
 11
618.8323019609131
 21
-12.47246660716357
 31
0.0
 11
618.9573019609131
 21
-12.72246660716357
 31
0.0
 11
618.9573019609131
 21
-13.22246660716357
 31
0.0
 11
618.8323019609131
 21
-13.47246660716357
 31
0.0
 11
618.7073019609131
 21
-13.72246660716357
 31
0.0
 11
618.5823019609131
 21
-13.97246660716357
 31
0.0
 11
618.4573019609131
 21
-14.22246660716357
 31
0.0
 11
618.4573019609131
 21
-14.97246660716356
 31
0.0
 11
618.5823019609131
 21
-15.22246660716357
 31
0.0
 11
618.7073019609131
 21
-15.47246660716357
 31
0.0
 11
618.8323019609131
 21
-15.72246660716357
 31
0.0
  0
LINE
  5
3FE2
330
17
100
AcDbEntity
  8
0
100
AcDbLine
 10
588.3297897339818
 20
-66.92980442668343
 30
0.0
 11
607.5297897339818
 21
-66.92980442668343
 31
0.0
  0
LINE
  5
3FE3
102
{ACAD_REACTORS
330
4075
102
}
330
17
100
AcDbEntity
  8
0
100
AcDbLine
 10
607.5297897339818
 20
-66.92980442668343
 30
0.0
 11
607.5297897339818
 21
-76.72980442668334
 31
0.0
  0
LINE
  5
3FE4
102
{ACAD_REACTORS
330
4075
102
}
330
17
100
AcDbEntity
  8
0
100
AcDbLine
 10
607.5297897339818
 20
-76.72980442668334
 30
0.0
 11
588.3297897339818
 21
-76.72980442668334
 31
0.0
  0
LINE
  5
3FE5
330
17
100
AcDbEntity
  8
0
100
AcDbLine
 10
588.3297897339818
 20
-66.92980442668343
 30
0.0
 11
588.3297897339818
 21
-69.21730442668333
 31
0.0
  0
LINE
  5
3FE6
330
17
100
AcDbEntity
  8
0
100
AcDbLine
 10
588.3297897339818
 20
-69.21730442668333
 30
0.0
 11
586.2297897339817
 21
-69.21730442668333
 31
0.0
  0
LINE
  5
3FE7
330
17
100
AcDbEntity
  8
0
100
AcDbLine
 10
586.2297897339817
 20
-69.21730442668333
 30
0.0
 11
586.2297897339817
 21
-74.44230442668341
 31
0.0
  0
LINE
  5
3FE8
330
17
100
AcDbEntity
  8
0
100
AcDbLine
 10
585.6797897339817
 20
-74.44230442668341
 30
0.0
 11
587.7797897339818
 21
-74.44230442668341
 31
0.0
  0
LINE
  5
3FE9
330
17
100
AcDbEntity
  8
0
100
AcDbLine
 10
588.3297897339818
 20
-74.44230442668341
 30
0.0
 11
588.3297897339818
 21
-76.72980442668334
 31
0.0
  0
CIRCLE
  5
3FEA
330
17
100
AcDbEntity
  8
0
100
AcDbCircle
 10
603.7297897339822
 20
-71.82980442668334
 30
0.0
 40
1.012499999999999
  0
LINE
  5
3FEB
330
17
100
AcDbEntity
  8
0
100
AcDbLine
 10
605.5297897339818
 20
-66.92980442668343
 30
0.0
 11
605.5297897339818
 21
-69.02980442668341
 31
0.0
  0
LINE
  5
3FEC
330
17
100
AcDbEntity
  8
0
100
AcDbLine
 10
606.0297897339818
 20
-69.52980442668341
 30
0.0
 11
607.5297897339818
 21
-69.52980442668341
 31
0.0
  0
ARC
  5
3FED
330
17
100
AcDbEntity
  8
0
100
AcDbCircle
 10
606.029789733982
 20
-69.02980442668341
 30
0.0
 40
0.5
100
AcDbArc
 50
180.0
 51
270.0
  0
LINE
  5
3FEE
330
17
100
AcDbEntity
  8
0
100
AcDbLine
 10
586.2297897339819
 20
-11.84559963451144
 30
0.0
 11
606.5297897339818
 21
-11.84559963451144
 31
0.0
  0
LINE
  5
3FEF
330
17
100
AcDbEntity
  8
0
100
AcDbLine
 10
607.5297897339818
 20
-12.84559963451139
 30
0.0
 11
607.5297897339818
 21
-21.64559963451134
 31
0.0
  0
LINE
  5
3FF0
330
17
100
AcDbEntity
  8
0
100
AcDbLine
 10
606.5297897339818
 20
-22.64559963451134
 30
0.0
 11
586.2297897339819
 21
-22.64559963451134
 31
0.0
  0
LINE
  5
3FF1
102
{ACAD_REACTORS
330
4069
102
}
330
17
100
AcDbEntity
  8
0
100
AcDbLine
 10
586.2297897339819
 20
-22.64559963451134
 30
0.0
 11
586.2297897339819
 21
-21.62059963451136
 31
0.0
  0
LINE
  5
3FF2
330
17
100
AcDbEntity
  8
0
100
AcDbLine
 10
586.2297897339819
 20
-21.62059963451136
 30
0.0
 11
607.5297897339818
 21
-21.62059963451136
 31
0.0
  0
LINE
  5
3FF3
330
17
100
AcDbEntity
  8
0
100
AcDbLine
 10
606.5297897339818
 20
-18.14559963451123
 30
0.0
 11
606.5297897339818
 21
-12.87059963451136
 31
0.0
  0
LINE
  5
3FF4
330
17
100
AcDbEntity
  8
0
100
AcDbLine
 10
606.5297897339818
 20
-12.87059963451136
 30
0.0
 11
586.2297897339819
 21
-12.87059963451136
 31
0.0
  0
LINE
  5
3FF5
330
17
100
AcDbEntity
  8
0
100
AcDbLine
 10
586.2297897339819
 20
-12.87059963451136
 30
0.0
 11
586.2297897339819
 21
-11.84559963451144
 31
0.0
  0
ARC
  5
3FF6
330
17
100
AcDbEntity
  8
0
100
AcDbCircle
 10
606.5297897339818
 20
-12.84559963451139
 30
0.0
 40
1.0
100
AcDbArc
 50
0.0
 51
90.0
  0
ARC
  5
3FF7
102
{ACAD_REACTORS
330
4069
102
}
330
17
100
AcDbEntity
  8
0
100
AcDbCircle
 10
606.5297897339818
 20
-21.64559963451134
 30
0.0
 40
1.0
100
AcDbArc
 50
270.0
 51
0.0
  0
LINE
  5
3FF8
330
17
100
AcDbEntity
  8
additional
100
AcDbLine
 10
590.7297897339819
 20
-10.52580724899584
 30
0.0
 11
590.7297897339819
 21
-14.16728885608566
 31
0.0
  0
LINE
  5
3FF9
330
17
100
AcDbEntity
  8
additional
100
AcDbLine
 10
603.7297897339819
 20
-10.52580724899584
 30
0.0
 11
603.7297897339819
 21
-14.16728885608566
 31
0.0
  0
LINE
  5
3FFA
330
17
100
AcDbEntity
  8
additional
100
AcDbLine
 10
590.7297897339819
 20
-20.30080724899582
 30
0.0
 11
590.7297897339819
 21
-23.94228885608553
 31
0.0
  0
LINE
  5
3FFB
330
17
100
AcDbEntity
  8
additional
100
AcDbLine
 10
596.7297897339817
 20
-20.30080724899582
 30
0.0
 11
596.7297897339817
 21
-23.94228885608553
 31
0.0
  0
LINE
  5
3FFC
330
17
100
AcDbEntity
  8
additional
100
AcDbLine
 10
603.7297897339819
 20
-20.30080724899582
 30
0.0
 11
603.7297897339819
 21
-23.94228885608553
 31
0.0
  0
LINE
  5
3FFD
330
17
100
AcDbEntity
  8
0
 48
0.5
100
AcDbLine
 10
590.7297897339817
 20
-66.4784931660272
 30
0.0
 11
590.7297897339817
 21
-70.90220874838016
 31
0.0
  0
LINE
  5
3FFE
330
17
100
AcDbEntity
  8
0
 48
0.5
100
AcDbLine
 10
596.7297897339817
 20
-72.97687754866412
 30
0.0
 11
596.7297897339817
 21
-76.90220874838018
 31
0.0
  0
LINE
  5
3FFF
330
17
100
AcDbEntity
  8
0
 48
0.5
100
AcDbLine
 10
603.7297897339818
 20
-69.4784931660272
 30
0.0
 11
603.7297897339818
 21
-73.90220874838016
 31
0.0
  0
LINE
  5
4000
330
17
100
AcDbEntity
  8
0
 48
0.5
100
AcDbLine
 10
588.3297897339818
 20
-68.82980442668332
 30
0.0
 11
593.0502720579155
 21
-68.82980442668332
 31
0.0
  0
CIRCLE
  5
4001
330
17
100
AcDbEntity
  8
additional
  6
HIDDEN2
 48
0.5
100
AcDbCircle
 10
590.7297897339822
 20
-68.82980442668332
 30
0.0
 40
1.0
  0
CIRCLE
  5
4002
330
17
100
AcDbEntity
  8
0
100
AcDbCircle
 10
590.7297897339822
 20
-68.82980442668332
 30
0.0
 40
0.75
  0
CIRCLE
  5
4003
330
17
100
AcDbEntity
  8
additional
  6
HIDDEN2
 48
0.5
100
AcDbCircle
 10
596.7297897339817
 20
-74.82980442668334
 30
0.0
 40
1.0
  0
CIRCLE
  5
4004
330
17
100
AcDbEntity
  8
0
100
AcDbCircle
 10
596.7297897339817
 20
-74.82980442668334
 30
0.0
 40
0.75
  0
LINE
  5
4005
330
17
100
AcDbEntity
  8
0
 48
0.5
100
AcDbLine
 10
594.3297897339817
 20
-74.82980442668334
 30
0.0
 11
599.0502720579155
 21
-74.82980442668334
 31
0.0
  0
LINE
  5
4006
330
17
100
AcDbEntity
  8
additional
  6
HIDDEN2
 48
0.5
100
AcDbLine
 10
586.7297897339819
 20
-19.24309963451136
 30
0.0
 11
585.2547897339817
 21
-19.24309963451136
 31
0.0
  0
LINE
  5
4007
330
17
100
AcDbEntity
  8
0
100
AcDbLine
 10
584.8297897339818
 20
-19.24309963451136
 30
0.0
 11
584.8297897339818
 21
-15.24809963451136
 31
0.0
  0
LINE
  5
4008
330
17
100
AcDbEntity
  8
additional
  6
HIDDEN2
 48
0.5
100
AcDbLine
 10
585.2547897339817
 20
-15.24809963451136
 30
0.0
 11
586.7297897339819
 21
-15.24809963451136
 31
0.0
  0
LINE
  5
4009
330
17
100
AcDbEntity
  8
0
100
AcDbLine
 10
583.7297897339817
 20
-15.24809963451136
 30
0.0
 11
583.7297897339817
 21
-19.24309963451136
 31
0.0
  0
LINE
  5
400A
330
17
100
AcDbEntity
  8
0
100
AcDbLine
 10
582.7547897339822
 20
-18.94309963451124
 30
0.0
 11
582.7547897339822
 21
-15.54809963451137
 31
0.0
  0
LINE
  5
400B
330
17
100
AcDbEntity
  8
0
  6
HIDDEN2
100
AcDbLine
 10
584.8297897339818
 20
-15.74559963451136
 30
0.0
 11
585.2547897339817
 21
-15.74559963451136
 31
0.0
  0
LINE
  5
400C
330
17
100
AcDbEntity
  8
0
  6
HIDDEN2
100
AcDbLine
 10
584.8297897339818
 20
-18.74559963451136
 30
0.0
 11
585.2547897339817
 21
-18.74559963451136
 31
0.0
  0
LINE
  5
400D
330
17
100
AcDbEntity
  8
0
100
AcDbLine
 10
582.7547897339822
 20
-18.94309963451124
 30
0.0
 11
583.054789733982
 21
-19.24309963451136
 31
0.0
  0
LINE
  5
400E
330
17
100
AcDbEntity
  8
0
100
AcDbLine
 10
583.054789733982
 20
-15.24809963451136
 30
0.0
 11
582.7547897339822
 21
-15.54809963451137
 31
0.0
  0
LINE
  5
400F
330
17
100
AcDbEntity
  8
0
100
AcDbLine
 10
583.054789733982
 20
-15.24809963451136
 30
0.0
 11
583.054789733982
 21
-19.24309963451136
 31
0.0
  0
LINE
  5
4010
330
17
100
AcDbEntity
  8
0
100
AcDbLine
 10
606.0297897339818
 20
-21.62059963451136
 30
0.0
 11
606.0297897339818
 21
-12.87059963451136
 31
0.0
  0
LINE
  5
4011
330
17
100
AcDbEntity
  8
0
 48
0.5
100
AcDbLine
 10
588.3297897339819
 20
-12.87059963451136
 30
0.0
 11
588.3297897339819
 21
-21.62059963451136
 31
0.0
  0
LINE
  5
4012
330
17
100
AcDbEntity
  8
0
 48
0.5
100
AcDbLine
 10
586.7297897339819
 20
-12.87059963451136
 30
0.0
 11
586.7297897339819
 21
-21.62059963451136
 31
0.0
  0
LINE
  5
4013
330
17
100
AcDbEntity
  8
0
100
AcDbLine
 10
586.7297897339819
 20
-14.84559963451139
 30
0.0
 11
584.8297897339818
 21
-14.84559963451139
 31
0.0
  0
LINE
  5
4014
330
17
100
AcDbEntity
  8
0
100
AcDbLine
 10
584.8297897339818
 20
-14.84559963451139
 30
0.0
 11
584.8297897339818
 21
-19.64559963451123
 31
0.0
  0
LINE
  5
4015
330
17
100
AcDbEntity
  8
0
100
AcDbLine
 10
584.8297897339818
 20
-19.64559963451123
 30
0.0
 11
586.7297897339819
 21
-19.64559963451123
 31
0.0
  0
LINE
  5
4016
330
17
100
AcDbEntity
  8
0
 48
0.5
100
AcDbLine
 10
589.0797897339819
 20
-12.87059963451136
 30
0.0
 11
589.0797897339819
 21
-21.62059963451136
 31
0.0
  0
LINE
  5
4017
330
17
100
AcDbEntity
  8
0
100
AcDbLine
 10
589.0797897339819
 20
-21.12059963451137
 30
0.0
 11
606.0297897339818
 21
-21.12059963451137
 31
0.0
  0
LINE
  5
4018
330
17
100
AcDbEntity
  8
0
100
AcDbLine
 10
606.0297897339818
 20
-13.37059963451125
 30
0.0
 11
589.0797897339819
 21
-13.37059963451125
 31
0.0
  0
LINE
  5
401C
330
17
100
AcDbEntity
  8
0
 48
0.5
100
AcDbLine
 10
586.7297897339817
 20
-69.21730442668333
 30
0.0
 11
586.7297897339817
 21
-66.92980442668343
 31
0.0
  0
LINE
  5
401D
330
17
100
AcDbEntity
  8
0
 48
0.5
100
AcDbLine
 10
586.7297897339817
 20
-66.92980442668343
 30
0.0
 11
588.3297897339818
 21
-66.92980442668343
 31
0.0
  0
LINE
  5
401E
330
17
100
AcDbEntity
  8
0
 48
0.5
100
AcDbLine
 10
588.3297897339818
 20
-76.72980442668334
 30
0.0
 11
586.7297897339817
 21
-76.72980442668334
 31
0.0
  0
LINE
  5
401F
330
17
100
AcDbEntity
  8
0
 48
0.5
100
AcDbLine
 10
586.7297897339817
 20
-76.72980442668334
 30
0.0
 11
586.7297897339817
 21
-74.44230442668341
 31
0.0
  0
LINE
  5
4023
330
17
100
AcDbEntity
  8
0
100
AcDbLine
 10
605.5297897339818
 20
-21.62059963451136
 30
0.0
 11
605.5297897339818
 21
-22.64559963451134
 31
0.0
  0
LINE
  5
4024
330
17
100
AcDbEntity
  8
0
 48
0.5
100
AcDbLine
 10
606.5297897339818
 20
-18.14559963451123
 30
0.0
 11
607.5297897339818
 21
-18.14559963451123
 31
0.0
  0
LINE
  5
4025
330
17
100
AcDbEntity
  8
0
 48
0.5
100
AcDbLine
 10
553.2071409907769
 20
-66.92980442668354
 30
0.0
 11
564.0071409907768
 21
-66.92980442668354
 31
0.0
  0
LINE
  5
4026
102
{ACAD_REACTORS
330
407B
102
}
330
17
100
AcDbEntity
  8
0
 48
0.5
100
AcDbLine
 10
564.0071409907768
 20
-66.92980442668354
 30
0.0
 11
564.0071409907768
 21
-76.72980442668346
 31
0.0
  0
LINE
  5
4027
330
17
100
AcDbEntity
  8
0
 48
0.5
100
AcDbLine
 10
564.0071409907768
 20
-76.72980442668346
 30
0.0
 11
553.2071409907769
 21
-76.72980442668346
 31
0.0
  0
LINE
  5
4028
102
{ACAD_REACTORS
330
407B
102
}
330
17
100
AcDbEntity
  8
0
 48
0.5
100
AcDbLine
 10
553.2071409907769
 20
-76.72980442668346
 30
0.0
 11
553.2071409907769
 21
-66.92980442668354
 31
0.0
  0
LINE
  5
4029
330
17
100
AcDbEntity
  8
0
 48
0.5
100
AcDbLine
 10
564.0071409907768
 20
-69.21730442668345
 30
0.0
 11
563.0071409907769
 21
-69.21730442668345
 31
0.0
  0
LINE
  5
402A
330
17
100
AcDbEntity
  8
0
 48
0.5
100
AcDbLine
 10
563.0071409907769
 20
-69.21730442668345
 30
0.0
 11
563.0071409907769
 21
-74.44230442668353
 31
0.0
  0
LINE
  5
402B
330
17
100
AcDbEntity
  8
0
 48
0.5
100
AcDbLine
 10
563.0071409907769
 20
-74.44230442668353
 30
0.0
 11
564.0071409907768
 21
-74.44230442668345
 31
0.0
  0
LINE
  5
402C
330
17
100
AcDbEntity
  8
0
 48
0.5
100
AcDbLine
 10
553.2071409907769
 20
-69.21730442668345
 30
0.0
 11
554.2071409907769
 21
-69.21730442668345
 31
0.0
  0
LINE
  5
402D
330
17
100
AcDbEntity
  8
0
 48
0.5
100
AcDbLine
 10
554.2071409907769
 20
-69.21730442668345
 30
0.0
 11
554.2071409907769
 21
-74.44230442668353
 31
0.0
  0
LINE
  5
402E
330
17
100
AcDbEntity
  8
0
 48
0.5
100
AcDbLine
 10
554.2071409907769
 20
-74.44230442668353
 30
0.0
 11
553.2071409907769
 21
-74.44230442668345
 31
0.0
  0
CIRCLE
  5
402F
330
17
100
AcDbEntity
  8
0
 48
0.5
100
AcDbCircle
 10
558.607140990777
 20
-71.82980442668347
 30
0.0
 40
1.997499999999945
  0
CIRCLE
  5
4030
330
17
100
AcDbEntity
  8
0
 48
0.5
100
AcDbCircle
 10
558.607140990777
 20
-71.82980442668347
 30
0.0
 40
2.399999999999977
  0
LINE
  5
4033
330
17
100
AcDbEntity
  8
0
 48
0.5
100
AcDbLine
 10
553.857140990777
 20
-76.72980442668346
 30
0.0
 11
563.3571409907768
 21
-76.72980442668346
 31
0.0
  0
LINE
  5
4037
330
17
100
AcDbEntity
  8
0
 48
0.5
100
AcDbLine
 10
606.0297897339818
 20
-66.92980442668343
 30
0.0
 11
606.029789733982
 21
-69.52980442668341
 31
0.0
  0
LINE
  5
4038
330
17
100
AcDbEntity
  8
0
 48
0.5
100
AcDbLine
 10
584.8297897339818
 20
-73.82730442668334
 30
0.0
 11
584.8297897339818
 21
-69.83230442668333
 31
0.0
  0
LINE
  5
4039
330
17
100
AcDbEntity
  8
0
 48
0.5
100
AcDbLine
 10
586.2297897339817
 20
-69.42980442668343
 30
0.0
 11
584.8297897339818
 21
-69.42980442668343
 31
0.0
  0
LINE
  5
403A
330
17
100
AcDbEntity
  8
0
 48
0.5
100
AcDbLine
 10
584.8297897339818
 20
-69.42980442668343
 30
0.0
 11
584.8297897339818
 21
-74.22980442668339
 31
0.0
  0
LINE
  5
403B
330
17
100
AcDbEntity
  8
0
 48
0.5
100
AcDbLine
 10
584.8297897339818
 20
-74.22980442668339
 30
0.0
 11
586.2297897339817
 21
-74.22980442668339
 31
0.0
  0
LINE
  5
403C
330
17
100
AcDbEntity
  8
additional
  6
HIDDEN2
 48
0.5
100
AcDbLine
 10
585.2547897339817
 20
-15.24809963451136
 30
0.0
 11
585.2547897339817
 21
-19.24309963451136
 31
0.0
  0
LINE
  5
403D
330
17
100
AcDbEntity
  8
0
 48
0.5
100
AcDbLine
 10
584.8297897339818
 20
-73.82730442668334
 30
0.0
 11
584.8297897339818
 21
-69.83230442668333
 31
0.0
  0
LINE
  5
403E
330
17
100
AcDbEntity
  8
0
 48
0.5
100
AcDbLine
 10
583.7297897339818
 20
-69.83230442668333
 30
0.0
 11
583.7297897339818
 21
-73.82730442668334
 31
0.0
  0
LINE
  5
403F
330
17
100
AcDbEntity
  8
0
 48
0.5
100
AcDbLine
 10
582.7547897339817
 20
-73.52730442668333
 30
0.0
 11
582.7547897339817
 21
-70.13230442668339
 31
0.0
  0
LINE
  5
4040
330
17
100
AcDbEntity
  8
0
 48
0.5
100
AcDbLine
 10
582.7547897339817
 20
-73.52730442668333
 30
0.0
 11
583.0547897339818
 21
-73.82730442668334
 31
0.0
  0
LINE
  5
4041
330
17
100
AcDbEntity
  8
0
 48
0.5
100
AcDbLine
 10
583.0547897339818
 20
-69.83230442668333
 30
0.0
 11
582.7547897339817
 21
-70.13230442668339
 31
0.0
  0
LINE
  5
4042
330
17
100
AcDbEntity
  8
0
 48
0.5
100
AcDbLine
 10
583.0547897339818
 20
-69.83230442668333
 30
0.0
 11
583.0547897339818
 21
-73.82730442668334
 31
0.0
  0
LINE
  5
4043
330
17
100
AcDbEntity
  8
0
 48
0.5
100
AcDbLine
 10
584.8297897339818
 20
-69.42980442668343
 30
0.0
 11
584.8297897339818
 21
-74.22980442668339
 31
0.0
  0
LINE
  5
4044
330
17
100
AcDbEntity
  8
additional
  6
CENTER2
 48
0.5
100
AcDbLine
 10
611.0217617436826
 20
-17.24559963451125
 30
0.0
 11
580.0244971187327
 21
-17.24559963451125
 31
0.0
  0
LINE
  5
4045
330
17
100
AcDbEntity
  8
additional
100
AcDbLine
 10
596.7297897339817
 20
-10.52580724899584
 30
0.0
 11
596.7297897339817
 21
-14.16728885608566
 31
0.0
  0
LINE
  5
4046
330
17
100
AcDbEntity
  8
0
100
AcDbLine
 10
605.5297897339818
 20
-67.42980442668343
 30
0.0
 11
607.5297897339818
 21
-67.42980442668343
 31
0.0
  0
LINE
  5
4047
330
17
100
AcDbEntity
  8
0
100
AcDbLine
 10
606.0297897339818
 20
-68.52980442668343
 30
0.0
 11
607.5297897339818
 21
-68.52980442668343
 31
0.0
  0
LINE
  5
4048
330
17
100
AcDbEntity
  8
0
100
AcDbLine
 10
606.0297897339818
 20
-67.92980442668334
 30
0.0
 11
607.5297897339818
 21
-67.92980442668334
 31
0.0
  0
LINE
  5
4049
330
17
100
AcDbEntity
  8
0
 48
0.5
100
AcDbLine
 10
606.0297897339818
 20
-18.64559963451123
 30
0.0
 11
607.5297897339818
 21
-18.64559963451123
 31
0.0
  0
LINE
  5
404A
330
17
100
AcDbEntity
  8
0
100
AcDbLine
 10
606.0297897339818
 20
-21.12059963451137
 30
0.0
 11
607.5297897339818
 21
-21.12059963451137
 31
0.0
  0
LINE
  5
404B
330
17
100
AcDbEntity
  8
0
100
AcDbLine
 10
584.8297897339818
 20
-15.74559963451136
 30
0.0
 11
583.7297897339817
 21
-15.74559963451136
 31
0.0
  0
LINE
  5
404C
330
17
100
AcDbEntity
  8
0
100
AcDbLine
 10
584.8297897339818
 20
-18.74559963451136
 30
0.0
 11
583.7297897339817
 21
-18.74559963451136
 31
0.0
  0
LINE
  5
404D
330
17
100
AcDbEntity
  8
0
100
AcDbLine
 10
583.054789733982
 20
-15.24809963451136
 30
0.0
 11
583.7297897339817
 21
-15.24809963451136
 31
0.0
  0
LINE
  5
404E
330
17
100
AcDbEntity
  8
0
100
AcDbLine
 10
583.054789733982
 20
-19.24309963451136
 30
0.0
 11
583.7297897339817
 21
-19.24309963451136
 31
0.0
  0
LINE
  5
404F
330
17
100
AcDbEntity
  8
0
 48
0.5
100
AcDbLine
 10
584.8297897339818
 20
-70.32980442668334
 30
0.0
 11
583.7297897339818
 21
-70.32980442668334
 31
0.0
  0
LINE
  5
4050
330
17
100
AcDbEntity
  8
0
 48
0.5
100
AcDbLine
 10
584.8297897339818
 20
-73.32980442668334
 30
0.0
 11
583.7297897339818
 21
-73.32980442668334
 31
0.0
  0
LINE
  5
4051
330
17
100
AcDbEntity
  8
0
 48
0.5
100
AcDbLine
 10
583.0547897339818
 20
-69.83230442668333
 30
0.0
 11
583.7297897339818
 21
-69.83230442668333
 31
0.0
  0
LINE
  5
4052
330
17
100
AcDbEntity
  8
0
 48
0.5
100
AcDbLine
 10
583.7297897339818
 20
-73.82730442668334
 30
0.0
 11
583.0547897339818
 21
-73.82730442668334
 31
0.0
  0
LINE
  5
4053
330
17
100
AcDbEntity
  8
0
 48
0.5
100
AcDbLine
 10
637.4161836396353
 20
-13.37059963451125
 30
0.0
 11
637.4161836396353
 21
-14.87059963451136
 31
0.0
  0
POINT
  5
4054
330
17
100
AcDbEntity
  8
0
 48
0.5
100
AcDbPoint
 10
637.4161836396353
 20
-13.37059963451125
 30
0.0
  0
POINT
  5
4055
330
17
100
AcDbEntity
  8
0
 48
0.5
100
AcDbPoint
 10
637.4161836396353
 20
-13.74559963451136
 30
0.0
  0
POINT
  5
4056
330
17
100
AcDbEntity
  8
0
 48
0.5
100
AcDbPoint
 10
637.4161836396353
 20
-14.87059963451136
 30
0.0
  0
POINT
  5
4057
330
17
100
AcDbEntity
  8
0
 48
0.5
100
AcDbPoint
 10
637.4161836396353
 20
-14.49559963451136
 30
0.0
  0
LINE
  5
4058
330
17
100
AcDbEntity
  8
0
 48
0.5
100
AcDbLine
 10
637.4161836396353
 20
-14.68309963451136
 30
0.0
 11
644.4161836396351
 21
-14.68309963451136
 31
0.0
  0
LINE
  5
4059
330
17
100
AcDbEntity
  8
0
 48
0.5
100
AcDbLine
 10
637.4161836396353
 20
-14.30809963451125
 30
0.0
 11
644.4161836396351
 21
-14.30809963451125
 31
0.0
  0
LINE
  5
405A
330
17
100
AcDbEntity
  8
additional
  6
CENTER2
 48
0.5
100
AcDbLine
 10
611.0217617436825
 20
-71.82980442668334
 30
0.0
 11
580.0244971187327
 21
-71.82980442668334
 31
0.0
  0
LINE
  5
405B
330
17
100
AcDbEntity
  8
additional
 48
0.5
100
AcDbLine
 10
562.636016153362
 20
-68.82980442668347
 30
0.0
 11
565.3276233147104
 21
-68.82980442668347
 31
0.0
  0
LINE
  5
405C
330
17
100
AcDbEntity
  8
additional
 48
0.5
100
AcDbLine
 10
562.6360161533623
 20
-74.82980442668353
 30
0.0
 11
565.3276233147102
 21
-74.82980442668353
 31
0.0
  0
LINE
  5
405D
330
17
100
AcDbEntity
  8
additional
 48
0.5
100
AcDbLine
 10
554.5782658281916
 20
-68.82980442668347
 30
0.0
 11
551.8866586668433
 21
-68.82980442668347
 31
0.0
  0
LINE
  5
405E
330
17
100
AcDbEntity
  8
additional
 48
0.5
100
AcDbLine
 10
554.5782658281916
 20
-74.82980442668353
 30
0.0
 11
551.8866586668433
 21
-74.82980442668353
 31
0.0
  0
LINE
  5
405F
330
17
100
AcDbEntity
  8
0
 48
0.5
100
AcDbLine
 10
637.4161836396353
 20
-13.93309963451136
 30
0.0
 11
644.4161836396351
 21
-13.93309963451136
 31
0.0
  0
LINE
  5
4060
102
{ACAD_REACTORS
330
4084
102
}
330
17
100
AcDbEntity
  8
0
 48
0.5
100
AcDbLine
 10
637.4161836396353
 20
-13.55809963451136
 30
0.0
 11
644.4161836396351
 21
-13.55809963451136
 31
0.0
  0
DIMENSION
  5
4067
102
{ACAD_XDICTIONARY
360
4068
102
}
102
{ACAD_REACTORS
330
4069
102
}
330
17
100
AcDbEntity
  8
Z_OM_DIM
100
AcDbDimension
  2
*D1
 10
607.5297897339818
 20
-33.14681714895798
 30
0.0
 11
596.8797897339818
 21
-31.27181714895798
 31
0.0
 70
    32
  1
<>
 71
     5
 42
21.29999999999995
  3
CatalogDxf
100
AcDbAlignedDimension
 13
586.2297897339819
 23
-22.64559963451134
 33
0.0
 14
607.5297897339818
 24
-21.64559963451134
 34
0.0
100
AcDbRotatedDimension
1001
ACAD
1000
DSTYLE
1002
{
1070
   340
1005
3DB6
1002
}
  0
DIMENSION
  5
406A
330
17
100
AcDbEntity
  8
Z_OM_DIM
100
AcDbDimension
  2
*D2
 10
582.7547897339817
 20
-57.8256130252612
 30
0.0
 11
593.2422897339818
 21
-55.9506130252612
 31
0.0
 70
    32
 71
     5
 42
20.97500000000002
  3
CatalogDxf
100
AcDbAlignedDimension
 13
603.7297897339818
 23
-69.4784931660272
 33
0.0
 14
582.7547897339817
 24
-70.13230442668339
 34
0.0
100
AcDbRotatedDimension
  0
DIMENSION
  5
406D
330
17
100
AcDbEntity
  8
Z_OM_DIM
100
AcDbDimension
  2
*D3
 10
596.7297897339817
 20
-88.63904605934882
 30
0.0
 11
600.2297897339815
 21
-86.76404605934882
 31
0.0
 70
    32
 71
     5
 42
6.999999999999431
  3
CatalogDxf
100
AcDbAlignedDimension
 13
603.7297897339811
 23
-73.90220874838016
 33
0.0
 14
596.7297897339817
 24
-76.90220874838018
 34
0.0
100
AcDbRotatedDimension
  0
DIMENSION
  5
4070
330
17
100
AcDbEntity
  8
Z_OM_DIM
100
AcDbDimension
  2
*D4
 10
590.7297897339817
 20
-88.63904605934882
 30
0.0
 11
593.7297897339817
 21
-86.76404605934882
 31
0.0
 70
    32
 71
     5
 42
6.0
  3
CatalogDxf
100
AcDbAlignedDimension
 13
596.7297897339817
 23
-76.90220874838018
 33
0.0
 14
590.7297897339817
 24
-70.90220874838016
 34
0.0
100
AcDbRotatedDimension
  0
DIMENSION
  5
4073
102
{ACAD_XDICTIONARY
360
4074
102
}
102
{ACAD_REACTORS
330
4075
102
}
330
17
100
AcDbEntity
  8
Z_OM_DIM
100
AcDbDimension
  2
*D5
 10
626.5806360252634
 20
-76.72980442668336
 30
0.0
 11
624.7056360252634
 21
-71.82980442668331
 31
0.0
 70
    32
 71
     5
 42
9.799999999999911
  3
CatalogDxf
100
AcDbAlignedDimension
 13
607.5297897339818
 23
-66.92980442668343
 33
0.0
 14
607.5297897339818
 24
-76.72980442668334
 34
0.0
 50
90.0
100
AcDbRotatedDimension
1001
ACAD
1000
DSTYLE
1002
{
1070
   340
1005
3DB6
1002
}
  0
DIMENSION
  5
4076
330
17
100
AcDbEntity
  8
Z_OM_DIM
100
AcDbDimension
  2
*D6
 10
621.0879244436807
 20
-74.82980442668335
 30
0.0
 11
619.2129244436808
 21
-71.82980442668325
 31
0.0
 70
    32
 71
     5
 42
6.000000000000014
  3
CatalogDxf
100
AcDbAlignedDimension
 13
593.0502720579155
 23
-68.82980442668332
 33
0.0
 14
599.0502720579155
 24
-74.82980442668334
 34
0.0
 50
90.0
100
AcDbRotatedDimension
1001
ACAD
1000
DSTYLE
1002
{
1070
   340
1005
3DB6
1002
}
  0
DIMENSION
  5
4079
102
{ACAD_XDICTIONARY
360
407A
102
}
102
{ACAD_REACTORS
330
407B
102
}
330
17
100
AcDbEntity
  8
Z_OM_DIM
100
AcDbDimension
  2
*D7
 10
564.0071409907768
 20
-57.82561302526133
 30
0.0
 11
558.6071409907767
 21
-55.95061302526133
 31
0.0
 70
    32
 71
     5
 42
10.79999999999984
  3
CatalogDxf
100
AcDbAlignedDimension
 13
553.2071409907769
 23
-66.92980442668354
 33
0.0
 14
564.0071409907768
 24
-66.92980442668354
 34
0.0
100
AcDbRotatedDimension
1001
ACAD
1000
DSTYLE
1002
{
1070
   340
1005
3DB6
1002
}
  0
MTEXT
  5
407C
102
{ACAD_XDICTIONARY
360
407D
102
}
330
17
100
AcDbEntity
  8
Z_OM_DIM
100
AcDbMText
 10
558.9596618215927
 20
-82.9487421313574
 30
0.0
 40
2.5
 41
25.41593641135614
 71
     1
 72
     5
  1
M2\Pboth faces
  7
CatalogDxf
 73
     1
 44
0.9
1001
ACAD
1000
MTEXTBEGIN
1070
    73
1070
     1
1070
    44
1040
0.9
1070
    74
1070
     0
1000
MTEXTEND
1000
ACAD_MTEXT_DEFINED_HEIGHT_BEGIN
1070
    46
1040
11.92101012695991
1000
ACAD_MTEXT_DEFINED_HEIGHT_END
  0
LEADER
  5
407E
330
17
100
AcDbEntity
  8
Z_OM_DIM
100
AcDbLeader
  3
CatalogDxf
 76
     3
 10
590.4207603866748
 20
-69.51317904027593
 30
0.0
 10
582.932496118716
 20
-86.0724144177097
 30
0.0
 10
558.172213083418
 20
-86.0724144177097
 30
0.0
1001
ACAD
1000
DSTYLE
1002
{
1070
   147
1040
0.625
1070
    77
1070
     0
1002
}
  0
LEADER
  5
407F
330
17
100
AcDbEntity
  8
Z_OM_DIM
100
AcDbLeader
  3
CatalogDxf
 76
     2
 10
596.0929378104672
 20
-75.22593524789742
 30
0.0
 10
582.932496118716
 20
-86.0724144177097
 30
0.0
1001
ACAD
1000
DSTYLE
1002
{
1070
   147
1040
0.625
1070
    77
1070
     0
1002
}
  0
MTEXT
  5
4080
330
17
100
AcDbEntity
  8
Z_OM_DIM
100
AcDbMText
 10
614.3013181907072
 20
-53.31682364806072
 30
0.0
 40
2.5
 41
23.72843807704816
 71
     1
 72
     5
  1
%%C2\Pboth faces
  7
CatalogDxf
 73
     1
 44
0.9
1001
ACAD
1000
MTEXTBEGIN
1070
    73
1070
     1
1070
    44
1040
0.9
1070
    74
1070
     0
1000
MTEXTEND
1000
ACAD_MTEXT_DEFINED_HEIGHT_BEGIN
1070
    46
1040
15.39969163331591
1000
ACAD_MTEXT_DEFINED_HEIGHT_END
  0
LEADER
  5
4081
330
17
100
AcDbEntity
  8
Z_OM_DIM
100
AcDbLeader
  3
ISO-25
 76
     3
 10
604.255696183695
 20
-70.96460002531308
 30
0.0
 10
613.0562366519937
 20
-56.48623347977966
 30
0.0
 10
638.0025228608403
 20
-56.48623347977966
 30
0.0
1001
ACAD
1000
DSTYLE
1002
{
1070
   341
1005
977
1070
   147
1040
0.625
1070
    77
1070
     0
1002
}
  0
DIMENSION
  5
4082
102
{ACAD_XDICTIONARY
360
4083
102
}
102
{ACAD_REACTORS
330
4084
102
}
330
17
100
AcDbEntity
  8
Z_OM_DIM
100
AcDbDimension
  2
*D8
 10
644.4161836396351
 20
-7.07581920381844
 30
0.0
 11
625.9729866868085
 21
-5.20081920381844
 31
0.0
 70
    32
  1
180 - 200
 71
     5
 42
36.88639390565334
  3
CatalogDxf
100
AcDbAlignedDimension
 13
607.5297897339818
 23
-13.37059963451136
 33
0.0
 14
644.4161836396351
 24
-13.55809963451136
 34
0.0
100
AcDbRotatedDimension
1001
ACAD
1000
DSTYLE
1002
{
1070
   340
1005
3DB6
1002
}
  0
DIMENSION
  5
4085
330
17
100
AcDbEntity
  8
Z_OM_DIM
100
AcDbDimension
  2
*D9
 10
607.5297897339818
 20
-88.63904605934882
 30
0.0
 11
615.6547897339818
 21
-86.76404605934882
 31
0.0
 70
    32
 71
     5
 42
3.800000000000068
  3
CatalogDxf
100
AcDbAlignedDimension
 13
603.7297897339818
 23
-73.90220874838016
 33
0.0
 14
607.5297897339818
 24
-76.72980442668334
 34
0.0
100
AcDbRotatedDimension
  0
MTEXT
  5
4130
330
17
100
AcDbEntity
  8
Z_OM_DIM
100
AcDbMText
 10
626.7900045662047
 20
-108.9496716376966
 30
0.0
 40
3.0
 41
93.92693936784551
 71
     1
 72
     5
  1
TAKAHA KIKO Co., Ltd\PCAD DRAWING No. CA0422
  7
CatalogDxf
 73
     1
 44
1.0
1001
ACAD
1000
MTEXTBEGIN
1070
    73
1070
     1
1070
    44
1040
1.0
1070
    74
1070
     0
1000
MTEXTEND
  0
MTEXT
  5
431E
330
17
100
AcDbEntity
  8
Z_OM_DIM
100
AcDbMText
 10
507.256580691825
 20
14.90571305982058
 30
0.0
 40
3.0
 41
50.80319999999996
 71
     1
 72
     1
  1
Adsorbed position\P
 73
     1
 44
1.0
1001
ACAD
1000
MTEXTBEGIN
1070
    73
1070
     1
1070
    44
1040
1.0
1070
    74
1070
     0
1000
MTEXTEND
  0
MTEXT
  5
4794
330
17
100
AcDbEntity
  8
Z_OM_DIM
100
AcDbMText
 10
627.0915928507657
 20
-28.00609886244144
 30
0.0
 40
2.5
 41
48.67581076998192
 71
     9
 72
     1
  1

  7
CatalogDxf
 73
     1
 44
1.0
1001
ACAD
1000
MTEXTBEGIN
1070
    73
1070
     1
1070
    44
1040
1.0
1070
    74
1070
     0
1000
MTEXTEND
  0
MTEXT
  5
479C
330
17
100
AcDbEntity
  8
Z_OM_DIM
100
AcDbMText
 10
620.6913131326378
 20
-27.6693940842992
 30
0.0
 40
2.5
 41
60.0
 71
     9
 72
     1
  1
  
  7
CatalogDxf
 73
     1
 44
1.0
1001
ACAD
1000
MTEXTBEGIN
1070
    73
1070
     1
1070
    44
1040
1.0
1070
    74
1070
     0
1000
MTEXTEND
  0
DIMENSION
  5
4990
330
17
100
AcDbEntity
  8
Z_OM_DIM
100
AcDbDimension
  2
*D10
 10
573.8370371070245
 20
-15.74559963451136
 30
0.0
 11
573.8370371070245
 21
-8.037266301177931
 31
0.0
 70
   160
  1
%%c<>
 71
     5
 42
3.0
  3
CatalogDxf
100
AcDbAlignedDimension
 13
583.7297897339817
 23
-18.74559963451136
 33
0.0
 14
583.7297897339817
 24
-15.74559963451136
 34
0.0
 50
90.0
100
AcDbRotatedDimension
1001
ACAD
1000
DSTYLE
1002
{
1070
   174
1070
     1
1070
    77
1070
     1
1002
}
  0
DIMENSION
  5
4AB1
330
17
100
AcDbEntity
  8
Z_OM_DIM
100
AcDbDimension
  2
*D11
 10
568.2748206451742
 20
-15.24809963451135
 30
0.0
 11
568.2748206451742
 21
-7.539766301177929
 31
0.0
 70
   160
  1
%%c<>
 71
     5
 42
3.995000000000002
  3
CatalogDxf
100
AcDbAlignedDimension
 13
583.054789733982
 23
-19.24309963451136
 33
0.0
 14
583.0547897339821
 24
-15.24809963451136
 34
0.0
 50
90.0
100
AcDbRotatedDimension
1001
ACAD
1000
DSTYLE
1002
{
1070
   174
1070
     1
1070
   175
1070
     0
1002
}
  0
MTEXT
  5
4FD0
330
17
100
AcDbEntity
  8
Z_OM_DIM
100
AcDbMText
 10
631.8809023650146
 20
-24.84408422673304
 30
0.0
 40
2.5
 41
42.8494883882687
 71
     7
 72
     1
  1
UL1007 AWG24 white
  7
CatalogDxf
 73
     1
 44
1.0
1001
ACAD
1000
MTEXTBEGIN
1070
    73
1070
     1
1070
    44
1040
1.0
1070
    74
1070
     0
1000
MTEXTEND
1000
ACAD_MTEXT_DEFINED_HEIGHT_BEGIN
1070
    46
1040
2.500000000000004
1000
ACAD_MTEXT_DEFINED_HEIGHT_END
  0
LEADER
  5
4FD1
330
17
100
AcDbEntity
  8
Z_OM_DIM
100
AcDbLeader
  3
ISO-25
 76
     3
 10
625.7627381498292
 20
-14.87059963451136
 30
0.0
 10
631.3167928712551
 20
-25.46908422673304
 30
0.0
 10
672.6750829433732
 20
-25.46908422673304
 30
0.0
1001
ACAD
1000
DSTYLE
1002
{
1070
   341
1005
977
1070
   147
1040
0.625
1070
    77
1070
     0
1002
}
  0
LINE
  5
5025
330
17
100
AcDbEntity
  8
additional
  6
CENTER2
 48
0.5
100
AcDbLine
 10
650.892914137362
 20
-64.42980442668329
 30
0.0
 11
650.8929141373621
 21
-79.22980442668333
 31
0.0
  0
LINE
  5
5026
330
17
100
AcDbEntity
  8
0
 62
     0
 48
0.5
370
    -3
100
AcDbLine
 10
645.4929141373619
 20
-66.92980442668329
 30
0.0
 11
656.2929141373619
 21
-66.92980442668329
 31
0.0
  0
LINE
  5
5027
330
17
100
AcDbEntity
  8
0
 62
     0
 48
0.5
370
    -3
100
AcDbLine
 10
656.2929141373619
 20
-76.72980442668332
 30
0.0
 11
655.544705663351
 21
-76.72980442668332
 31
0.0
  0
LINE
  5
5028
330
17
100
AcDbEntity
  8
0
 62
     0
 48
0.5
370
    -3
100
AcDbLine
 10
656.2929141373619
 20
-76.72980442668332
 30
0.0
 11
656.2929141373619
 21
-66.92980442668329
 31
0.0
  0
LINE
  5
5029
330
17
100
AcDbEntity
  8
0
 62
     0
 48
0.5
370
    -3
100
AcDbLine
 10
645.4929141373619
 20
-66.92980442668329
 30
0.0
 11
645.4929141373619
 21
-76.72980442668332
 31
0.0
  0
LINE
  5
502A
330
17
100
AcDbEntity
  8
0
 62
     0
 48
0.5
370
    -3
100
AcDbLine
 10
649.9929141373619
 20
-66.92980442668329
 30
0.0
 11
649.9929141373619
 21
-68.00416396209276
 31
0.0
  0
LINE
  5
502B
330
17
100
AcDbEntity
  8
0
 62
     0
 48
0.5
370
    -3
100
AcDbLine
 10
651.792914137362
 20
-75.6554448912739
 30
0.0
 11
651.792914137362
 21
-76.72980442668332
 31
0.0
  0
LINE
  5
502C
330
17
100
AcDbEntity
  8
0
 62
     0
 48
0.5
370
    -3
100
AcDbLine
 10
645.4929141373619
 20
-69.5298044266833
 30
0.0
 11
647.8140737488518
 21
-69.5298044266833
 31
0.0
  0
LINE
  5
502D
330
17
100
AcDbEntity
  8
0
 62
     0
 48
0.5
370
    -3
100
AcDbLine
 10
651.792914137362
 20
-75.6554448912739
 30
0.0
 11
653.9717545258721
 21
-74.12980442668331
 31
0.0
  0
LINE
  5
502E
330
17
100
AcDbEntity
  8
0
 62
     0
 48
0.5
370
    -3
100
AcDbLine
 10
649.6594697911842
 20
-68.23764420685989
 30
0.0
 11
647.9392504981772
 21
-69.44215472319712
 31
0.0
  0
LINE
  5
502F
330
17
100
AcDbEntity
  8
0
 62
     0
 48
0.5
370
    -3
100
AcDbLine
 10
653.8465777765468
 20
-74.21745413016956
 30
0.0
 11
652.1263584835399
 21
-75.42196464650676
 31
0.0
  0
LINE
  5
5030
330
17
100
AcDbEntity
  8
0
 62
     0
 48
0.5
370
    -3
100
AcDbLine
 10
649.331723970794
 20
-67.856747006533
 30
0.0
 11
647.6934198822163
 21
-69.00389987923507
 31
0.0
  0
LINE
  5
5031
330
17
100
AcDbEntity
  8
0
 62
     0
 48
0.5
370
    -3
100
AcDbLine
 10
654.0924083925077
 20
-74.6557089741316
 30
0.0
 11
652.4541043039297
 21
-75.8028618468337
 31
0.0
  0
LINE
  5
5032
330
17
100
AcDbEntity
  8
0
 62
     0
 48
0.5
370
    -3
100
AcDbLine
 10
653.2732563482189
 20
-75.22928541048266
 30
0.0
 11
656.8579941690966
 21
-80.34882158406229
 31
0.0
  0
LINE
  5
5033
330
17
100
AcDbEntity
  8
0
 62
     0
 48
0.5
370
    -3
100
AcDbLine
 10
654.0924083925077
 20
-74.6557089741316
 30
0.0
 11
654.6659848288587
 21
-75.4748610184206
 31
0.0
  0
LINE
  5
5034
330
17
100
AcDbEntity
  8
0
 62
     0
 48
0.5
370
    -3
100
AcDbLine
 10
652.4541043039297
 20
-75.80286184683372
 30
0.0
 11
652.7408925221052
 21
-76.2124378689782
 31
0.0
  0
LINE
  5
5035
330
17
100
AcDbEntity
  8
0
 62
     0
 48
0.5
370
    -3
100
AcDbLine
 10
652.0158494599677
 20
-76.04869246279476
 30
0.0
 11
652.3313164999608
 21
-76.4992260871537
 31
0.0
  0
LINE
  5
5036
330
17
100
AcDbEntity
  8
0
 62
     0
 48
0.5
370
    -3
100
AcDbLine
 10
654.4733055928348
 20
-74.32796315374162
 30
0.0
 11
655.0755608510034
 21
-75.18807280024508
 31
0.0
  0
LINE
  5
5037
330
17
100
AcDbEntity
  8
0
 62
     0
 48
0.5
370
    -3
100
AcDbLine
 10
649.7699788147562
 20
-67.6109163905719
 30
0.0
 11
649.4545117747629
 21
-67.16038276621294
 31
0.0
  0
LINE
  5
5038
330
17
100
AcDbEntity
  8
0
 62
     0
 48
0.5
370
    -3
100
AcDbLine
 10
649.331723970794
 20
-67.85674700653295
 30
0.0
 11
649.0449357526187
 21
-67.44717098438846
 31
0.0
  0
LINE
  5
5039
330
17
100
AcDbEntity
  8
0
 62
     0
 48
0.5
370
    -3
100
AcDbLine
 10
647.6934198822163
 20
-69.00389987923507
 30
0.0
 11
647.119843445865
 21
-68.18474783494608
 31
0.0
  0
LINE
  5
503A
330
17
100
AcDbEntity
  8
0
 62
     0
 48
0.5
370
    -3
100
AcDbLine
 10
647.3125226818893
 20
-69.33164569962503
 30
0.0
 11
646.7102674237207
 21
-68.47153605312159
 31
0.0
  0
ARC
  5
503B
330
17
100
AcDbEntity
  8
0
 62
     0
 48
0.5
370
    -3
100
AcDbCircle
 10
647.6811411018192
 20
-69.07353630326712
 30
0.0
 40
0.45
100
AcDbArc
 50
214.9999999999947
 51
305.000000000005
  0
ARC
  5
503C
330
17
100
AcDbEntity
  8
0
 62
     0
 48
0.5
370
    -3
100
AcDbCircle
 10
649.4013603948261
 20
-67.86902578692987
 30
0.0
 40
0.45
100
AcDbArc
 50
304.9999999999983
 51
34.99999999999869
  0
LINE
  5
503D
330
17
100
AcDbEntity
  8
0
 62
     0
 48
0.5
370
    -3
100
AcDbLine
 10
649.9929141373619
 20
-68.00416396209276
 30
0.0
 11
647.8140737488518
 21
-69.52980442668328
 31
0.0
  0
LINE
  5
503E
330
17
100
AcDbEntity
  8
0
 62
     0
 48
0.5
370
    -3
100
AcDbLine
 10
649.4545117747629
 20
-67.16038276621294
 30
0.0
 11
649.0449357526187
 21
-67.44717098438846
 31
0.0
  0
LINE
  5
503F
330
17
100
AcDbEntity
  8
0
 62
     0
 48
0.5
370
    -3
100
AcDbLine
 10
647.119843445865
 20
-68.18474783494607
 30
0.0
 11
646.7102674237207
 21
-68.47153605312159
 31
0.0
  0
LINE
  5
5040
330
17
100
AcDbEntity
  8
0
 62
     0
 48
0.5
370
    -3
100
AcDbLine
 10
646.4929141373619
 20
-66.92980442668329
 30
0.0
 11
646.4929141373619
 21
-69.5298044266833
 31
0.0
  0
LINE
  5
5041
330
17
100
AcDbEntity
  8
0
 62
     0
 48
0.5
370
    -3
100
AcDbLine
 10
655.292914137362
 20
-74.12980442668331
 30
0.0
 11
655.292914137362
 21
-76.3702088607276
 31
0.0
  0
ARC
  5
5042
330
17
100
AcDbEntity
  8
0
 62
     0
 48
0.5
370
    -3
100
AcDbCircle
 10
654.1046871729047
 20
-74.58607255009964
 30
0.0
 40
0.45
100
AcDbArc
 50
35.00000000000003
 51
124.9999999999974
  0
ARC
  5
5043
330
17
100
AcDbEntity
  8
0
 62
     0
 48
0.5
370
    -3
100
AcDbCircle
 10
652.3844678798979
 20
-75.7905830664368
 30
0.0
 40
0.45
100
AcDbArc
 50
124.9999999999974
 51
215.0
  0
LINE
  5
5044
330
17
100
AcDbEntity
  8
0
 62
     0
 48
0.5
370
    -3
100
AcDbLine
 10
653.9717545258723
 20
-74.12980442668331
 30
0.0
 11
656.2929141373619
 21
-74.12980442668331
 31
0.0
  0
LINE
  5
5045
330
17
100
AcDbEntity
  8
0
 62
     0
 48
0.5
370
    -3
100
AcDbLine
 10
652.7408925221052
 20
-76.2124378689782
 30
0.0
 11
652.3313164999608
 21
-76.49922608715373
 31
0.0
  0
LINE
  5
5046
330
17
100
AcDbEntity
  8
0
 62
     0
 48
0.5
370
    -3
100
AcDbLine
 10
655.0755608510034
 20
-75.18807280024508
 30
0.0
 11
654.6659848288587
 21
-75.47486101842061
 31
0.0
  0
CIRCLE
  5
5047
330
17
100
AcDbEntity
  8
0
 62
     0
 48
0.5
370
    -3
100
AcDbCircle
 10
650.892914137362
 20
-71.82980442668334
 30
0.0
 40
1.5
  0
LINE
  5
5048
330
17
100
AcDbEntity
  8
0
 62
     0
 48
0.5
370
    -3
100
AcDbLine
 10
654.0924083925077
 20
-74.6557089741316
 30
0.0
 11
657.8146528299408
 21
-79.97162494805831
 31
0.0
  0
LINE
  5
5049
330
17
100
AcDbEntity
  8
0
 62
     0
 48
0.5
370
    -3
100
AcDbLine
 10
652.4541043039297
 20
-75.8028618468337
 30
0.0
 11
656.0595557839413
 21
-80.95198019141729
 31
0.0
  0
LINE
  5
504A
330
17
100
AcDbEntity
  8
0
 62
     0
 48
0.5
370
    -3
100
AcDbLine
 10
653.1031564858281
 20
-76.72980442668332
 30
0.0
 11
645.4929141373619
 21
-76.72980442668332
 31
0.0
  0
LINE
  5
504B
330
17
100
AcDbEntity
  8
additional
  6
CENTER2
 48
0.5
100
AcDbLine
 10
642.9929141373619
 20
-71.82980442668334
 30
0.0
 11
658.7929141373619
 21
-71.82980442668334
 31
0.0
  0
SPLINE
  5
50A1
330
17
100
AcDbEntity
  8
additional
 48
0.5
100
AcDbSpline
210
0.0
220
0.0
230
1.0
 70
     8
 71
     3
 72
    18
 73
    14
 74
    12
 42
0.0000000001
 43
0.0000000001
 44
0.0000000001
 40
0.0
 40
0.0
 40
0.0
 40
0.0
 40
0.2795084971874625
 40
0.5590169943747228
 40
1.059016994374646
 40
1.338525491562571
 40
1.61803398874967
 40
1.897542485937334
 40
2.177050983124244
 40
2.927050983124753
 40
3.206559480312103
 40
3.486067977499718
 40
3.765576474687064
 40
3.765576474687064
 40
3.765576474687064
 40
3.765576474687064
 10
658.1727334654133
 20
-79.20236679314331
 30
0.0
 10
658.1417445654237
 20
-79.29021196914193
 30
0.0
 10
658.0797667654443
 20
-79.46590232113909
 30
0.0
 10
657.9970477564325
 20
-79.81108289087024
 30
0.0
 10
657.720818951798
 20
-80.08738997016966
 30
0.0
 10
657.3755652328286
 20
-80.16997258315189
 30
0.0
 10
657.1122333183581
 20
-80.26335737609164
 30
0.0
 10
656.84794125554
 20
-80.35475970202011
 30
0.0
 10
656.4256808344749
 20
-80.46612187664786
 30
0.0
 10
656.0774575081726
 20
-80.81394438730191
 30
0.0
 10
655.9666957101024
 20
-81.23645337297475
 30
0.0
 10
655.8737186925829
 20
-81.5001751860194
 30
0.0
 10
655.8154049501336
 20
-81.67714431196948
 30
0.0
 10
655.7862480789091
 20
-81.76562887494448
 30
0.0
 11
658.1727334654133
 21
-79.20236679314331
 31
0.0
 11
658.0843451177652
 21
-79.46753183608833
 31
0.0
 11
657.9959567701167
 21
-79.73269687903301
 31
0.0
 11
657.6424033795237
 21
-80.08625026962645
 31
0.0
 11
657.3772383365783
 21
-80.1746386172747
 31
0.0
 11
657.1120732936337
 21
-80.26302696492306
 31
0.0
 11
656.8469082506886
 21
-80.35141531257151
 31
0.0
 11
656.5817432077442
 21
-80.43980366021962
 31
0.0
 11
656.0514131218536
 21
-80.97013374610959
 31
0.0
 11
655.9630247742054
 21
-81.23529878905445
 31
0.0
 11
655.8746364265571
 21
-81.50046383199955
 31
0.0
 11
655.7862480789091
 21
-81.76562887494448
 31
0.0
  0
LINE
  5
50BD
330
17
100
AcDbEntity
  8
additional
  6
CENTER2
 48
0.5
100
AcDbLine
 10
558.607140990777
 20
-64.42980442668346
 30
0.0
 11
558.6071409907771
 21
-79.22980442668348
 31
0.0
  0
LINE
  5
50BE
330
17
100
AcDbEntity
  8
additional
  6
CENTER2
 48
0.5
100
AcDbLine
 10
550.707140990777
 20
-71.82980442668351
 30
0.0
 11
566.5071409907767
 21
-71.82980442668348
 31
0.0
  0
SPLINE
  5
50D4
330
17
100
AcDbEntity
  8
additional
 48
0.5
100
AcDbSpline
210
0.0
220
0.0
230
1.0
 70
     8
 71
     3
 72
    18
 73
    14
 74
    12
 42
0.0000000001
 43
0.0000000001
 44
0.0000000001
 40
0.0
 40
0.0
 40
0.0
 40
0.0
 40
0.2795084971874737
 40
0.5590169943749475
 40
1.059016994374947
 40
1.338525491562421
 40
1.618033988749894
 40
1.897542485937419
 40
2.177050983124892
 40
2.927050983124892
 40
3.206559480312366
 40
3.486067977499891
 40
3.765576474687364
 40
3.765576474687364
 40
3.765576474687364
 40
3.765576474687364
 10
611.9714253466284
 20
-73.69061526774745
 30
0.0
 10
612.0116288049471
 20
-73.77464364871487
 30
0.0
 10
612.0920357215849
 20
-73.94270041064974
 30
0.0
 10
612.2776240709708
 20
-74.24527110444557
 30
0.0
 10
612.2776794195167
 20
-74.63597297482403
 30
0.0
 10
612.0919428992517
 20
-74.93849894638526
 30
0.0
 10
611.9717721371742
 20
-75.19073574915734
 30
0.0
 10
611.8495206318216
 20
-75.44224966347018
 30
0.0
 10
611.6296823735069
 20
-75.81957781947896
 30
0.0
 10
611.629398954044
 20
-76.31175655080745
 30
0.0
 10
611.8498375044138
 20
-76.68883593820088
 30
0.0
 10
611.9705723071819
 20
-76.94106010013405
 30
0.0
 10
612.0544743334796
 20
-77.10743021187633
 30
0.0
 10
612.0964253466284
 20
-77.19061526774744
 30
0.0
 11
611.9714253466284
 21
-73.69061526774745
 31
0.0
 11
612.0964253466284
 21
-73.94061526774745
 31
0.0
 11
612.2214253466284
 21
-74.19061526774744
 31
0.0
 11
612.2214253466284
 21
-74.69061526774744
 31
0.0
 11
612.0964253466284
 21
-74.94061526774745
 31
0.0
 11
611.9714253466284
 21
-75.19061526774745
 31
0.0
 11
611.8464253466282
 21
-75.44061526774744
 31
0.0
 11
611.7214253466283
 21
-75.69061526774745
 31
0.0
 11
611.7214253466283
 21
-76.44061526774745
 31
0.0
 11
611.8464253466282
 21
-76.69061526774744
 31
0.0
 11
611.9714253466284
 21
-76.94061526774745
 31
0.0
 11
612.0964253466284
 21
-77.19061526774744
 31
0.0
  0
LINE
  5
50D5
330
17
100
AcDbEntity
  8
0
 62
     0
 48
0.5
370
    -3
100
AcDbLine
 10
607.5297897339818
 20
-74.65570897413162
 30
0.0
 11
612.2328275664454
 21
-74.65570897413162
 31
0.0
  0
LINE
  5
50D6
330
17
100
AcDbEntity
  8
0
 62
     0
 48
0.5
370
    -3
100
AcDbLine
 10
607.5297897339818
 20
-76.21243786897823
 30
0.0
 11
611.6624964917506
 21
-76.21243786897823
 31
0.0
  0
LINE
  5
50D7
330
17
100
AcDbEntity
  8
0
 62
     0
 48
0.5
370
    -3
100
AcDbLine
 10
607.5297897339818
 20
-75.43070897413162
 30
0.0
 11
611.8516902272133
 21
-75.43070897413162
 31
0.0
  0
LINE
  5
50E2
330
17
100
AcDbEntity
  8
0
 62
     0
 48
0.5
370
    -3
100
AcDbLine
 10
608.0297897339818
 20
-15.74559963451129
 30
0.0
 11
608.0297897339818
 21
-18.74559963451129
 31
0.0
  0
LINE
  5
50E3
330
17
100
AcDbEntity
  8
0
 62
     0
 48
0.5
370
    -3
100
AcDbLine
 10
608.0297897339818
 20
-15.74559963451129
 30
0.0
 11
607.5297897339818
 21
-15.74559963451129
 31
0.0
  0
LINE
  5
50E4
330
17
100
AcDbEntity
  8
0
 62
     0
 48
0.5
370
    -3
100
AcDbLine
 10
608.0297897339818
 20
-18.74559963451129
 30
0.0
 11
607.5297897339818
 21
-18.74559963451129
 31
0.0
  0
CIRCLE
  5
512E
330
17
100
AcDbEntity
  8
0
100
AcDbCircle
 10
558.607140990777
 20
-71.82980442668351
 30
0.0
 40
1.697499999999948
  0
ENDSEC
  0
SECTION
  2
OBJECTS
  0
DICTIONARY
  5
C
330
0
100
AcDbDictionary
281
     1
  3
ACAD_2007HEADERVARS_RT
350
51FC
  3
ACAD_COLOR
350
3D57
  3
ACAD_GROUP
350
D
  3
ACAD_LAYOUT
350
3D5A
  3
ACAD_MATERIAL
350
3D42
  3
ACAD_MLINESTYLE
350
1A
  3
ACAD_PLOTSETTINGS
350
957
  3
ACAD_PLOTSTYLENAME
350
3D40
  3
ACAD_TABLESTYLE
350
3D58
  3
ACAD_VISUALSTYLE
350
3D46
  3
AcadDim
350
479D
  3
ACDBHEADERROUNDTRIPXREC
350
5178
  3
AcDbVariableDictionary
350
4116
  3
DWGPROPS
350
51FB
1001
ACAD
1000
TREAT_AS_HARD
1070
     0
  0
DICTIONARY
  5
3DBA
330
2
100
AcDbDictionary
280
     1
281
     1
  3
ACAD_LAYERFILTERS
360
5153
  3
ACAD_LAYERSTATES
360
3DBB
  3
ACLYDICTIONARY
360
5152
  0
DICTIONARY
  5
1808
330
17
100
AcDbDictionary
280
     1
281
     1
  3
ACAD_LAYOUTSELFREF
360
3D3B
  3
ACAD_SORTENTS
360
50B0
1001
ACAD
1000
TREAT_AS_HARD
1070
     1
  0
DICTIONARY
  5
1806
330
14
100
AcDbDictionary
280
     1
281
     1
  3
ACAD_LAYOUTSELFREF
360
3D3A
1001
ACAD
1000
TREAT_AS_HARD
1070
     1
  0
DICTIONARY
  5
50C5
330
50C0
100
AcDbDictionary
280
     1
281
     1
  3
ACAD_SORTENTS
360
50C6
  0
DICTIONARY
  5
50CE
330
50C9
100
AcDbDictionary
280
     1
281
     1
  3
ACAD_SORTENTS
360
50CF
  0
DICTIONARY
  5
50DD
330
50D9
100
AcDbDictionary
280
     1
281
     1
  3
ACAD_SORTENTS
360
50DE
  0
DICTIONARY
  5
4068
330
4067
100
AcDbDictionary
280
     1
281
     1
  3
ACAD_DIMASSOC
360
4069
  0
DICTIONARY
  5
4074
330
4073
100
AcDbDictionary
280
     1
281
     1
  3
ACAD_DIMASSOC
360
4075
  0
DICTIONARY
  5
407A
330
4079
100
AcDbDictionary
280
     1
281
     1
  3
ACAD_DIMASSOC
360
407B
  0
DICTIONARY
  5
407D
330
407C
100
AcDbDictionary
280
     1
281
     1
  0
DICTIONARY
  5
4083
330
4082
100
AcDbDictionary
280
     1
281
     1
  3
ACAD_DIMASSOC
360
4084
  0
DICTIONARY
  5
51FC
102
{ACAD_REACTORS
330
C
102
}
330
C
100
AcDbDictionary
281
     1
  3
DIMLTEX1
350
51FE
  3
DIMLTEX2
350
51FF
  3
DIMLTYPE
350
51FD
  0
DICTIONARY
  5
3D57
102
{ACAD_REACTORS
330
C
102
}
330
C
100
AcDbDictionary
281
     1
  0
DICTIONARY
  5
D
102
{ACAD_REACTORS
330
C
102
}
330
C
100
AcDbDictionary
281
     1
1001
ACAD
1000
TREAT_AS_HARD
1070
     0
  0
DICTIONARY
  5
3D5A
102
{ACAD_REACTORS
330
C
102
}
330
C
100
AcDbDictionary
281
     1
  3
Model
350
3D5B
  3
レイアウト1
350
3D5C
  0
DICTIONARY
  5
3D42
102
{ACAD_REACTORS
330
C
102
}
330
C
100
AcDbDictionary
281
     1
  3
ByBlock
350
3D44
  3
ByLayer
350
3D43
  3
Global
350
3D45
  0
DICTIONARY
  5
1A
102
{ACAD_REACTORS
330
C
102
}
330
C
100
AcDbDictionary
281
     1
  3
STANDARD
350
1B
1001
ACAD
1000
TREAT_AS_HARD
1070
     0
  0
DICTIONARY
  5
957
102
{ACAD_REACTORS
330
C
102
}
330
C
100
AcDbDictionary
281
     1
1001
ACAD
1000
TREAT_AS_HARD
1070
     0
  0
ACDBDICTIONARYWDFLT
  5
3D40
102
{ACAD_REACTORS
330
C
102
}
330
C
100
AcDbDictionary
281
     1
  3
Normal
350
3D41
100
AcDbDictionaryWithDefault
340
3D41
  0
DICTIONARY
  5
3D58
102
{ACAD_REACTORS
330
C
102
}
330
C
100
AcDbDictionary
281
     1
  3
Standard
350
3D59
  0
DICTIONARY
  5
3D46
102
{ACAD_REACTORS
330
C
102
}
330
C
100
AcDbDictionary
281
     1
  3
2dWireframe
350
3D4C
  3
3D Hidden
350
3D4E
  3
3dWireframe
350
3D4D
  3
Basic
350
3D4B
  3
Brighten
350
3D52
  3
ColorChange
350
3D56
  3
Conceptual
350
3D4F
  3
Dim
350
3D51
  3
Facepattern
350
3D55
  3
Flat
350
3D47
  3
FlatWithEdges
350
3D48
  3
Gouraud
350
3D49
  3
GouraudWithEdges
350
3D4A
  3
Linepattern
350
3D54
  3
Realistic
350
3D50
  3
Thicken
350
3D53
  0
XRECORD
  5
479D
102
{ACAD_REACTORS
330
C
102
}
330
C
100
AcDbXrecord
280
     1
 90
   990106
  3

 60
     0
 61
     0
 62
     4
 63
     4
 64
     1
 65
     0
 66
     0
 67
     2
 68
     1
 69
     0
 70
     0
 71
     0
 72
     0
 40
46.14938475492943
170
     2
340
0
  0
DICTIONARY
  5
5178
102
{ACAD_REACTORS
330
C
102
}
330
C
100
AcDbDictionary
281
     1
  0
DICTIONARY
  5
4116
102
{ACAD_REACTORS
330
C
102
}
330
C
100
AcDbDictionary
281
     1
  3
CTABLESTYLE
350
4117
  3
DIMASSOC
350
5174
  3
INDEXCTL
350
51FA
  3
PROJECTNAME
350
5175
  3
SORTENTS
350
51F9
  0
XRECORD
  5
51FB
102
{ACAD_REACTORS
330
C
102
}
330
C
100
AcDbXrecord
280
     1
  1
DWGPROPS COOKIE
  2

  3

  4

  6

  7

  8
yakata
  9

300
=
301
=
302
=
303
=
304
=
305
=
306
=
307
=
308
=
309
=
 40
0.6217158796296296
 41
2455090.761732894
 42
2455678.617612512
  1

 90
        0
  0
DICTIONARY
  5
5153
102
{ACAD_REACTORS
330
3DBA
102
}
330
3DBA
100
AcDbDictionary
281
     1
  0
DICTIONARY
  5
3DBB
102
{ACAD_REACTORS
330
3DBA
102
}
330
3DBA
100
AcDbDictionary
281
     1
  0
DICTIONARY
  5
5152
102
{ACAD_REACTORS
330
3DBA
102
}
330
3DBA
100
AcDbDictionary
281
     1
1001
ACAD
1000
<All
  0
XRECORD
  5
3D3B
102
{ACAD_REACTORS
330
1808
102
}
330
1808
100
AcDbXrecord
280
     1
340
17
  0
SORTENTSTABLE
  5
50B0
102
{ACAD_REACTORS
330
1808
102
}
330
1808
100
AcDbSortentsTable
330
17
331
4039
  5
4039
331
3FFA
  5
3FFA
331
4002
  5
4002
331
4041
  5
4041
331
4FD0
  5
4FD0
331
400A
  5
400A
331
4049
  5
4049
331
4012
  5
4012
331
4082
  5
4082
331
4051
  5
4051
331
3FDB
  5
3FDB
331
5028
  5
5029
331
4059
  5
4059
331
3FE3
  5
3FE3
331
5030
  5
5033
331
5038
  5
503B
331
402A
  5
402A
331
3FEB
  5
3FEB
331
3FF3
  5
3FF3
331
5040
  5
5043
331
50D4
  5
50D8
331
4073
  5
4073
331
5048
  5
504B
331
3FFB
  5
3FFB
331
403A
  5
403A
331
4042
  5
4042
331
4003
  5
4003
331
404A
  5
404A
331
4FD1
  5
4FD1
331
400B
  5
400B
331
4013
  5
4013
331
5029
  5
502B
331
3FDC
  5
3FDC
331
4052
  5
4052
331
5031
  5
5034
331
3FE4
  5
3FE4
331
4023
  5
4023
331
405A
  5
405A
331
5039
  5
503C
331
3FEC
  5
3FEC
331
402B
  5
402B
331
4033
  5
4033
331
3FF4
  5
3FF4
331
5041
  5
5044
331
50D5
  5
50D4
331
5049
  5
504C
331
403B
  5
403B
331
3FFC
  5
3FFC
331
50A1
  5
50B3
331
4004
  5
4004
331
4043
  5
4043
331
400C
  5
400C
331
404B
  5
404B
331
4014
  5
4014
331
407C
  5
407C
331
4053
  5
4053
331
502A
  5
502D
331
3FDD
  5
3FDD
331
401C
  5
401C
331
4024
  5
4024
331
405B
  5
405B
331
3FE5
  5
3FE5
331
5032
  5
5035
331
503A
  5
503D
331
3FED
  5
3FED
331
402C
  5
402C
331
3FF5
  5
3FF5
331
5042
  5
5045
331
50D6
  5
50D5
331
406D
  5
406D
331
504A
  5
50A1
331
3FFD
  5
3FFD
331
403C
  5
403C
331
4044
  5
4044
331
4005
  5
4005
331
404C
  5
404C
331
400D
  5
400D
331
4015
  5
4015
331
4085
  5
4085
331
502B
  5
502E
331
3FDE
  5
3FDE
331
401D
  5
401D
331
4054
  5
4054
331
405C
  5
405C
331
5033
  5
5036
331
3FE6
  5
3FE6
331
4025
  5
4025
331
503B
  5
503E
331
3FEE
  5
3FEE
331
402D
  5
402D
331
3FF6
  5
3FF6
331
5043
  5
5046
331
50D7
  5
50D6
331
4076
  5
4076
331
504B
  5
50B1
331
3FFE
  5
3FFE
331
403D
  5
403D
331
4794
  5
4794
331
4006
  5
4006
331
4045
  5
4045
331
479C
  5
479C
331
400E
  5
400E
331
404D
  5
404D
331
4016
  5
4016
331
407E
  5
407E
331
4055
  5
4055
331
502C
  5
502F
331
401E
  5
401E
331
4026
  5
4026
331
405D
  5
405D
331
3FE7
  5
3FE7
331
5034
  5
5037
331
503C
  5
503F
331
3FEF
  5
3FEF
331
402E
  5
402E
331
3FF7
  5
3FF7
331
5044
  5
5047
331
4067
  5
4067
331
3FFF
  5
3FFF
331
403E
  5
403E
331
4046
  5
4046
331
4007
  5
4007
331
400F
  5
400F
331
404E
  5
404E
331
4017
  5
4017
331
5025
  5
5025
331
407F
  5
407F
331
502D
  5
5030
331
3FE0
  5
3FE0
331
401F
  5
401F
331
4056
  5
4056
331
405E
  5
405E
331
5035
  5
5038
331
3FE8
  5
3FE8
331
4027
  5
4027
331
503D
  5
5040
331
3FF0
  5
3FF0
331
50E2
  5
50E2
331
402F
  5
402F
331
4037
  5
4037
331
431E
  5
431E
331
5045
  5
5048
331
4060
  5
4060
331
4070
  5
4070
331
3FF8
  5
3FF8
331
4000
  5
4000
331
403F
  5
403F
331
4008
  5
4008
331
4047
  5
4047
331
50BD
  5
50BD
331
4010
  5
4010
331
404F
  5
404F
331
5026
  5
5026
331
4080
  5
4080
331
4990
  5
4990
331
3FD9
  5
3FD9
331
4018
  5
4018
331
4057
  5
4057
331
3FE1
  5
3FE1
331
502E
  5
5031
331
4028
  5
4028
331
405F
  5
405F
331
3FE9
  5
3FE9
331
5036
  5
5039
331
503E
  5
5041
331
3FF1
  5
3FF1
331
50E3
  5
50E3
331
4030
  5
4030
331
5046
  5
5049
331
3FF9
  5
3FF9
331
4038
  5
4038
331
4001
  5
4001
331
4040
  5
4040
331
4048
  5
4048
331
4009
  5
4009
331
4011
  5
4011
331
50BE
  5
50BE
331
5027
  5
5028
331
4079
  5
4079
331
4081
  5
4081
331
4AB1
  5
4AB1
331
4050
  5
4050
331
3FDA
  5
3FDA
331
502F
  5
5032
331
3FE2
  5
3FE2
331
4058
  5
4058
331
4130
  5
4130
331
5037
  5
503A
331
3FEA
  5
3FEA
331
4029
  5
4029
331
3FF2
  5
3FF2
331
503F
  5
5042
331
50E4
  5
50E4
331
5047
  5
504A
331
406A
  5
406A
  0
XRECORD
  5
3D3A
102
{ACAD_REACTORS
330
1806
102
}
330
1806
100
AcDbXrecord
280
     1
340
14
  0
SORTENTSTABLE
  5
50C6
102
{ACAD_REACTORS
330
50C5
102
}
330
50C5
100
AcDbSortentsTable
330
50C0
  0
SORTENTSTABLE
  5
50CF
102
{ACAD_REACTORS
330
50CE
102
}
330
50CE
100
AcDbSortentsTable
330
50C9
  0
SORTENTSTABLE
  5
50DE
102
{ACAD_REACTORS
330
50DD
102
}
330
50DD
100
AcDbSortentsTable
330
50D9
  0
DIMASSOC
  5
4069
102
{ACAD_REACTORS
330
4068
102
}
330
4068
100
AcDbDimAssoc
330
4067
 90
        3
 70
     0
 71
     0
  1
AcDbOsnapPointRef
 72
    13
331
3FF1
 73
     2
 91
        0
 40
0.0
 10
0.0
 20
0.0
 30
2.000000000000000E+50
 75
     0
  1
AcDbOsnapPointRef
 72
     1
331
3FF7
 73
     2
 91
        0
 40
6.283185307179584
 10
0.0
 20
0.0
 30
2.000000000000000E+50
 75
     0
  0
DIMASSOC
  5
4075
102
{ACAD_REACTORS
330
4074
102
}
330
4074
100
AcDbDimAssoc
330
4073
 90
        3
 70
     0
 71
     0
  1
AcDbOsnapPointRef
 72
    13
331
3FE3
 73
     2
 91
        0
 40
0.0
 10
0.0
 20
0.0
 30
2.000000000000000E+50
 75
     0
  1
AcDbOsnapPointRef
 72
    13
331
3FE4
 73
     2
 91
        0
 40
0.0
 10
0.0
 20
0.0
 30
2.000000000000000E+50
 75
     0
  0
DIMASSOC
  5
407B
102
{ACAD_REACTORS
330
407A
102
}
330
407A
100
AcDbDimAssoc
330
4079
 90
        3
 70
     0
 71
     0
  1
AcDbOsnapPointRef
 72
     1
331
4028
 73
     2
 91
        0
 40
1.0
 10
0.0
 20
0.0
 30
2.000000000000000E+50
 75
     0
  1
AcDbOsnapPointRef
 72
    13
331
4026
 73
     2
 91
        0
 40
0.0
 10
0.0
 20
0.0
 30
2.000000000000000E+50
 75
     0
  0
DIMASSOC
  5
4084
102
{ACAD_REACTORS
330
4083
102
}
330
4083
100
AcDbDimAssoc
330
4082
 90
        3
 70
     0
 71
     0
  1
AcDbOsnapPointRef
 72
     1
331
3FDE
 73
     2
 91
        0
 40
1.0
 10
0.0
 20
0.0
 30
2.000000000000000E+50
 75
     0
  1
AcDbOsnapPointRef
 72
     1
331
4060
 73
     2
 91
        0
 40
1.0
 10
0.0
 20
0.0
 30
2.000000000000000E+50
 75
     0
  0
XRECORD
  5
51FE
102
{ACAD_REACTORS
330
51FC
102
}
330
51FC
100
AcDbXrecord
280
     1
340
12
  0
XRECORD
  5
51FF
102
{ACAD_REACTORS
330
51FC
102
}
330
51FC
100
AcDbXrecord
280
     1
340
12
  0
XRECORD
  5
51FD
102
{ACAD_REACTORS
330
51FC
102
}
330
51FC
100
AcDbXrecord
280
     1
340
12
  0
LAYOUT
  5
3D5B
102
{ACAD_XDICTIONARY
360
5202
102
}
102
{ACAD_REACTORS
330
3D5A
102
}
330
3D5A
100
AcDbPlotSettings
  1

  2
none_device
  4
Letter_(8.50_x_11.00_Inches)
  6

 40
6.349999904632567
 41
6.349999904632567
 42
6.350006103515625
 43
6.350006103515625
 44
215.8999938964844
 45
279.3999938964844
 46
-26.67093934196252
 47
-160.2587582925263
 48
0.0
 49
0.0
140
0.0
141
0.0
142
1.0
143
19.07794
 70
 11940
 72
     0
 73
     1
 74
     0
  7
monochrome.ctb
 75
     0
147
0.0524165606978531
148
-9636.305597707613
149
3206.892703177723
100
AcDbLayout
  1
Model
 70
     1
 71
     0
 10
0.0
 20
0.0
 11
12.0
 21
9.0
 12
0.0
 22
0.0
 32
0.0
 14
0.0
 24
0.0
 34
0.0
 15
0.0
 25
0.0
 35
0.0
146
0.0
 13
0.0
 23
0.0
 33
0.0
 16
1.0
 26
0.0
 36
0.0
 17
0.0
 27
1.0
 37
0.0
 76
     0
330
17
331
5176
1001
ACAD_PSEXT
1000
なし
1000
なし
1000
適切ではありません
1000
新しいプロッタ環境設定名を選択しない限り、レイアウトは印刷されません。
1070
     0
  0
LAYOUT
  5
3D5C
102
{ACAD_XDICTIONARY
360
5204
102
}
102
{ACAD_REACTORS
330
3D5A
102
}
330
3D5A
100
AcDbPlotSettings
  1

  2
Microsoft XPS Document Writer
  4

  6

 40
0.0
 41
0.0
 42
0.0
 43
0.0
 44
0.0
 45
0.0
 46
0.0
 47
0.0
 48
0.0
 49
0.0
140
0.0
141
0.0
142
1.0
143
1.0
 70
   688
 72
     0
 73
     0
 74
     5
  7
monochrome.ctb
 75
    16
147
1.0
148
0.0
149
0.0
100
AcDbLayout
  1
レイアウト1
 70
     1
 71
     1
 10
0.0
 20
0.0
 11
12.0
 21
9.0
 12
0.0
 22
0.0
 32
0.0
 14
1.000000000000000E+20
 24
1.000000000000000E+20
 34
1.000000000000000E+20
 15
-1.000000000000000E+20
 25
-1.000000000000000E+20
 35
-1.000000000000000E+20
146
0.0
 13
0.0
 23
0.0
 33
0.0
 16
1.0
 26
0.0
 36
0.0
 17
0.0
 27
1.0
 37
0.0
 76
     0
330
14
  0
MATERIAL
  5
3D44
102
{ACAD_XDICTIONARY
360
47B5
102
}
102
{ACAD_REACTORS
330
3D42
102
}
330
3D42
100
AcDbMaterial
  1
ByBlock
  0
MATERIAL
  5
3D43
102
{ACAD_XDICTIONARY
360
47B3
102
}
102
{ACAD_REACTORS
330
3D42
102
}
330
3D42
100
AcDbMaterial
  1
ByLayer
  0
MATERIAL
  5
3D45
102
{ACAD_XDICTIONARY
360
47B7
102
}
102
{ACAD_REACTORS
330
3D42
102
}
330
3D42
100
AcDbMaterial
  1
Global
  0
MLINESTYLE
  5
1B
102
{ACAD_REACTORS
330
1A
102
}
330
1A
100
AcDbMlineStyle
  2
STANDARD
 70
     0
  3

 62
   256
 51
90.0
 52
90.0
 71
     2
 49
0.5
 62
   256
  6
BYLAYER
 49
-0.5
 62
   256
  6
BYLAYER
  0
ACDBPLACEHOLDER
  5
3D41
102
{ACAD_REACTORS
330
3D40
102
}
330
3D40
  0
TABLESTYLE
  5
3D59
102
{ACAD_XDICTIONARY
360
5200
102
}
102
{ACAD_REACTORS
330
3D58
102
}
330
3D58
100
AcDbTableStyle
  3
Standard
 70
     0
 71
     0
 40
0.06
 41
0.06
280
     0
281
     0
  7
STANDARD
140
0.18
170
     2
 62
     0
 63
     7
283
     0
274
    -2
284
     1
 64
     0
275
    -2
285
     1
 65
     0
276
    -2
286
     1
 66
     0
277
    -2
287
     1
 67
     0
278
    -2
288
     1
 68
     0
279
    -2
289
     1
 69
     0
  7
STANDARD
140
0.25
170
     5
 62
     0
 63
     7
283
     0
274
    -2
284
     1
 64
     0
275
    -2
285
     1
 65
     0
276
    -2
286
     1
 66
     0
277
    -2
287
     1
 67
     0
278
    -2
288
     1
 68
     0
279
    -2
289
     1
 69
     0
  7
STANDARD
140
0.18
170
     5
 62
     0
 63
     7
283
     0
274
    -2
284
     1
 64
     0
275
    -2
285
     1
 65
     0
276
    -2
286
     1
 66
     0
277
    -2
287
     1
 67
     0
278
    -2
288
     1
 68
     0
279
    -2
289
     1
 69
     0
  0
VISUALSTYLE
  5
3D4C
102
{ACAD_REACTORS
330
3D46
102
}
330
3D46
100
AcDbVisualStyle
  2
2dWireframe
 70
     4
 71
     0
 72
     2
 73
     0
 90
        0
 40
-0.6
 41
-30.0
 62
     5
 63
     7
 74
     1
 91
        4
 64
     7
 65
   257
 75
     1
175
     1
 42
1.0
 92
        0
 66
   257
 43
1.0
 76
     1
 77
     6
 78
     2
 67
     7
 79
     5
170
     0
171
     0
290
     0
174
     0
 93
        1
 44
0.0
173
     0
291
     0
 45
0.0
1001
ACAD
1000
AcDbSavedByObjectVersion
1070
     0
1000
AcDbSavedByObjectVersion
1070
     0
1000
AcDbSavedByObjectVersion
1070
     0
1000
AcDbSavedByObjectVersion
1070
     0
1000
AcDbSavedByObjectVersion
1070
     0
1000
AcRTDxfName
1000
VISUALSTYLE
1000
AcDbSavedByObjectVersion
1070
     0
  0
VISUALSTYLE
  5
3D4E
102
{ACAD_REACTORS
330
3D46
102
}
330
3D46
100
AcDbVisualStyle
  2
3D Hidden
 70
     6
 71
     1
 72
     2
 73
     2
 90
        0
 40
-0.6
 41
-30.0
 62
     5
 63
     7
 74
     2
 91
        2
 64
     7
 65
   257
 75
     2
175
     1
 42
40.0
 92
        0
 66
   257
 43
1.0
 76
     1
 77
     6
 78
     2
 67
     7
 79
     3
170
     0
171
     0
290
     0
174
     0
 93
        1
 44
0.0
173
     0
291
     0
 45
0.0
1001
ACAD
1000
AcDbSavedByObjectVersion
1070
     0
1000
AcDbSavedByObjectVersion
1070
     0
1000
AcDbSavedByObjectVersion
1070
     0
1000
AcDbSavedByObjectVersion
1070
     0
1000
AcDbSavedByObjectVersion
1070
     0
1000
AcRTDxfName
1000
VISUALSTYLE
1000
AcDbSavedByObjectVersion
1070
     0
  0
VISUALSTYLE
  5
3D4D
102
{ACAD_REACTORS
330
3D46
102
}
330
3D46
100
AcDbVisualStyle
  2
3dWireframe
 70
     5
 71
     0
 72
     2
 73
     0
 90
        0
 40
-0.6
 41
-30.0
 62
     5
 63
     7
 74
     1
 91
        4
 64
     7
 65
   257
 75
     1
175
     1
 42
1.0
 92
        0
 66
   257
 43
1.0
 76
     1
 77
     6
 78
     2
 67
     7
 79
     5
170
     0
171
     0
290
     0
174
     0
 93
        1
 44
0.0
173
     0
291
     0
 45
0.0
1001
ACAD
1000
AcDbSavedByObjectVersion
1070
     0
1000
AcDbSavedByObjectVersion
1070
     0
1000
AcDbSavedByObjectVersion
1070
     0
1000
AcDbSavedByObjectVersion
1070
     0
1000
AcDbSavedByObjectVersion
1070
     0
1000
AcRTDxfName
1000
VISUALSTYLE
1000
AcDbSavedByObjectVersion
1070
     0
  0
VISUALSTYLE
  5
3D4B
102
{ACAD_REACTORS
330
3D46
102
}
330
3D46
100
AcDbVisualStyle
  2
Basic
 70
     7
 71
     1
 72
     0
 73
     1
 90
        0
 40
-0.6
 41
-30.0
 62
     5
 63
     7
 74
     0
 91
        4
 64
     7
 65
   257
 75
     1
175
     1
 42
1.0
 92
        8
 66
     7
 43
1.0
 76
     1
 77
     6
 78
     2
 67
     7
 79
     5
170
     0
171
     0
290
     0
174
     0
 93
        1
 44
0.0
173
     0
291
     1
 45
0.0
1001
ACAD
1000
AcDbSavedByObjectVersion
1070
     0
1000
AcDbSavedByObjectVersion
1070
     0
1000
AcDbSavedByObjectVersion
1070
     0
1000
AcDbSavedByObjectVersion
1070
     0
1000
AcDbSavedByObjectVersion
1070
     0
1000
AcRTDxfName
1000
VISUALSTYLE
1000
AcDbSavedByObjectVersion
1070
     0
  0
VISUALSTYLE
  5
3D52
102
{ACAD_REACTORS
330
3D46
102
}
330
3D46
100
AcDbVisualStyle
  2
Brighten
 70
    12
 71
     2
 72
     2
 73
     0
 90
        0
 40
-0.6
 41
-30.0
 62
     5
 63
     7
 74
     1
 91
        4
 64
     7
 65
   257
 75
     1
175
     1
 42
1.0
 92
        8
 66
     7
 43
1.0
 76
     1
 77
     6
 78
     2
 67
     7
 79
     5
170
     0
171
     0
290
     0
174
     0
 93
        1
 44
50.0
173
     0
291
     1
 45
0.0
1001
ACAD
1000
AcDbSavedByObjectVersion
1070
     0
1000
AcDbSavedByObjectVersion
1070
     0
1000
AcDbSavedByObjectVersion
1070
     0
1000
AcDbSavedByObjectVersion
1070
     0
1000
AcDbSavedByObjectVersion
1070
     0
1000
AcRTDxfName
1000
VISUALSTYLE
1000
AcDbSavedByObjectVersion
1070
     0
  0
VISUALSTYLE
  5
3D56
102
{ACAD_REACTORS
330
3D46
102
}
330
3D46
100
AcDbVisualStyle
  2
ColorChange
 70
    16
 71
     2
 72
     2
 73
     3
 90
        0
 40
-0.6
 41
-30.0
 62
     5
 63
     8
 74
     1
 91
        4
 64
     7
 65
   257
 75
     1
175
     1
 42
1.0
 92
        8
 66
     8
 43
1.0
 76
     1
 77
     6
 78
     2
 67
     7
 79
     5
170
     0
171
     0
290
     0
174
     0
 93
        1
 44
0.0
173
     0
291
     1
 45
0.0
1001
ACAD
1000
AcDbSavedByObjectVersion
1070
     0
1000
AcDbSavedByObjectVersion
1070
     0
1000
AcDbSavedByObjectVersion
1070
     0
1000
AcDbSavedByObjectVersion
1070
     0
1000
AcDbSavedByObjectVersion
1070
     0
1000
AcRTDxfName
1000
VISUALSTYLE
1000
AcDbSavedByObjectVersion
1070
     0
  0
VISUALSTYLE
  5
3D4F
102
{ACAD_REACTORS
330
3D46
102
}
330
3D46
100
AcDbVisualStyle
  2
Conceptual
 70
     9
 71
     3
 72
     2
 73
     0
 90
        0
 40
-0.6
 41
-30.0
 62
     5
 63
     7
 74
     2
 91
        2
 64
     7
 65
   257
 75
     1
175
     1
 42
40.0
 92
        8
 66
     7
 43
1.0
 76
     1
 77
     6
 78
     2
 67
     7
 79
     3
170
     0
171
     0
290
     0
174
     0
 93
        1
 44
0.0
173
     0
291
     0
 45
0.0
1001
ACAD
1000
AcDbSavedByObjectVersion
1070
     0
1000
AcDbSavedByObjectVersion
1070
     0
1000
AcDbSavedByObjectVersion
1070
     0
1000
AcDbSavedByObjectVersion
1070
     0
1000
AcDbSavedByObjectVersion
1070
     0
1000
AcRTDxfName
1000
VISUALSTYLE
1000
AcDbSavedByObjectVersion
1070
     0
  0
VISUALSTYLE
  5
3D51
102
{ACAD_REACTORS
330
3D46
102
}
330
3D46
100
AcDbVisualStyle
  2
Dim
 70
    11
 71
     2
 72
     2
 73
     0
 90
        0
 40
-0.6
 41
-30.0
 62
     5
 63
     7
 74
     1
 91
        4
 64
     7
 65
   257
 75
     1
175
     1
 42
1.0
 92
        8
 66
     7
 43
1.0
 76
     1
 77
     6
 78
     2
 67
     7
 79
     5
170
     0
171
     0
290
     0
174
     0
 93
        1
 44
-50.0
173
     0
291
     1
 45
0.0
1001
ACAD
1000
AcDbSavedByObjectVersion
1070
     0
1000
AcDbSavedByObjectVersion
1070
     0
1000
AcDbSavedByObjectVersion
1070
     0
1000
AcDbSavedByObjectVersion
1070
     0
1000
AcDbSavedByObjectVersion
1070
     0
1000
AcRTDxfName
1000
VISUALSTYLE
1000
AcDbSavedByObjectVersion
1070
     0
  0
VISUALSTYLE
  5
3D55
102
{ACAD_REACTORS
330
3D46
102
}
330
3D46
100
AcDbVisualStyle
  2
Facepattern
 70
    15
 71
     2
 72
     2
 73
     0
 90
        0
 40
-0.6
 41
-30.0
 62
     5
 63
     7
 74
     1
 91
        4
 64
     7
 65
   257
 75
     1
175
     1
 42
1.0
 92
        8
 66
     7
 43
1.0
 76
     1
 77
     6
 78
     2
 67
     7
 79
     5
170
     0
171
     0
290
     0
174
     0
 93
        1
 44
0.0
173
     0
291
     1
 45
0.0
1001
ACAD
1000
AcDbSavedByObjectVersion
1070
     0
1000
AcDbSavedByObjectVersion
1070
     0
1000
AcDbSavedByObjectVersion
1070
     0
1000
AcDbSavedByObjectVersion
1070
     0
1000
AcDbSavedByObjectVersion
1070
     0
1000
AcRTDxfName
1000
VISUALSTYLE
1000
AcDbSavedByObjectVersion
1070
     0
  0
VISUALSTYLE
  5
3D47
102
{ACAD_REACTORS
330
3D46
102
}
330
3D46
100
AcDbVisualStyle
  2
Flat
 70
     0
 71
     2
 72
     1
 73
     1
 90
        2
 40
-0.6
 41
30.0
 62
     5
 63
     7
 74
     0
 91
        4
 64
     7
 65
   257
 75
     1
175
     1
 42
1.0
 92
        8
 66
     7
 43
1.0
 76
     1
 77
     6
 78
     2
 67
     7
 79
     5
170
     0
171
     0
290
     0
174
     0
 93
       13
 44
0.0
173
     0
291
     1
 45
0.0
1001
ACAD
1000
AcDbSavedByObjectVersion
1070
     0
1000
AcDbSavedByObjectVersion
1070
     0
1000
AcDbSavedByObjectVersion
1070
     0
1000
AcDbSavedByObjectVersion
1070
     0
1000
AcDbSavedByObjectVersion
1070
     0
1000
AcRTDxfName
1000
VISUALSTYLE
1000
AcDbSavedByObjectVersion
1070
     0
  0
VISUALSTYLE
  5
3D48
102
{ACAD_REACTORS
330
3D46
102
}
330
3D46
100
AcDbVisualStyle
  2
FlatWithEdges
 70
     1
 71
     2
 72
     1
 73
     1
 90
        2
 40
-0.6
 41
30.0
 62
     5
 63
     7
 74
     1
 91
        4
 64
     7
 65
   257
 75
     1
175
     1
 42
1.0
 92
        0
 66
   257
 43
1.0
 76
     1
 77
     6
 78
     2
 67
     7
 79
     5
170
     0
171
     0
290
     0
174
     0
 93
       13
 44
0.0
173
     0
291
     1
 45
0.0
1001
ACAD
1000
AcDbSavedByObjectVersion
1070
     0
1000
AcDbSavedByObjectVersion
1070
     0
1000
AcDbSavedByObjectVersion
1070
     0
1000
AcDbSavedByObjectVersion
1070
     0
1000
AcDbSavedByObjectVersion
1070
     0
1000
AcRTDxfName
1000
VISUALSTYLE
1000
AcDbSavedByObjectVersion
1070
     0
  0
VISUALSTYLE
  5
3D49
102
{ACAD_REACTORS
330
3D46
102
}
330
3D46
100
AcDbVisualStyle
  2
Gouraud
 70
     2
 71
     2
 72
     2
 73
     1
 90
        2
 40
-0.6
 41
30.0
 62
     5
 63
     7
 74
     0
 91
        4
 64
     7
 65
   257
 75
     1
175
     1
 42
1.0
 92
        0
 66
     7
 43
1.0
 76
     1
 77
     6
 78
     2
 67
     7
 79
     5
170
     0
171
     0
290
     0
174
     0
 93
       13
 44
0.0
173
     0
291
     1
 45
0.0
1001
ACAD
1000
AcDbSavedByObjectVersion
1070
     0
1000
AcDbSavedByObjectVersion
1070
     0
1000
AcDbSavedByObjectVersion
1070
     0
1000
AcDbSavedByObjectVersion
1070
     0
1000
AcDbSavedByObjectVersion
1070
     0
1000
AcRTDxfName
1000
VISUALSTYLE
1000
AcDbSavedByObjectVersion
1070
     0
  0
VISUALSTYLE
  5
3D4A
102
{ACAD_REACTORS
330
3D46
102
}
330
3D46
100
AcDbVisualStyle
  2
GouraudWithEdges
 70
     3
 71
     2
 72
     2
 73
     1
 90
        2
 40
-0.6
 41
30.0
 62
     5
 63
     7
 74
     1
 91
        4
 64
     7
 65
   257
 75
     1
175
     1
 42
1.0
 92
        0
 66
   257
 43
1.0
 76
     1
 77
     6
 78
     2
 67
     7
 79
     5
170
     0
171
     0
290
     0
174
     0
 93
       13
 44
0.0
173
     0
291
     1
 45
0.0
1001
ACAD
1000
AcDbSavedByObjectVersion
1070
     0
1000
AcDbSavedByObjectVersion
1070
     0
1000
AcDbSavedByObjectVersion
1070
     0
1000
AcDbSavedByObjectVersion
1070
     0
1000
AcDbSavedByObjectVersion
1070
     0
1000
AcRTDxfName
1000
VISUALSTYLE
1000
AcDbSavedByObjectVersion
1070
     0
  0
VISUALSTYLE
  5
3D54
102
{ACAD_REACTORS
330
3D46
102
}
330
3D46
100
AcDbVisualStyle
  2
Linepattern
 70
    14
 71
     2
 72
     2
 73
     0
 90
        0
 40
-0.6
 41
-30.0
 62
     5
 63
     7
 74
     1
 91
        4
 64
     7
 65
   257
 75
     7
175
     7
 42
1.0
 92
        8
 66
     7
 43
1.0
 76
     1
 77
     6
 78
     2
 67
     7
 79
     5
170
     0
171
     0
290
     0
174
     0
 93
        1
 44
0.0
173
     0
291
     1
 45
0.0
1001
ACAD
1000
AcDbSavedByObjectVersion
1070
     0
1000
AcDbSavedByObjectVersion
1070
     0
1000
AcDbSavedByObjectVersion
1070
     0
1000
AcDbSavedByObjectVersion
1070
     0
1000
AcDbSavedByObjectVersion
1070
     0
1000
AcRTDxfName
1000
VISUALSTYLE
1000
AcDbSavedByObjectVersion
1070
     0
  0
VISUALSTYLE
  5
3D50
102
{ACAD_REACTORS
330
3D46
102
}
330
3D46
100
AcDbVisualStyle
  2
Realistic
 70
     8
 71
     2
 72
     2
 73
     0
 90
        0
 40
-0.6
 41
-30.0
 62
     5
 63
     7
 74
     1
 91
        0
 64
     7
 65
   257
 75
     1
175
     1
 42
1.0
 92
        8
 66
     8
 43
1.0
 76
     1
 77
     6
 78
     2
 67
     7
 79
     5
170
     0
171
     0
290
     0
174
     0
 93
       13
 44
0.0
173
     0
291
     0
 45
0.0
1001
ACAD
1000
AcDbSavedByObjectVersion
1070
     0
1000
AcDbSavedByObjectVersion
1070
     0
1000
AcDbSavedByObjectVersion
1070
     0
1000
AcDbSavedByObjectVersion
1070
     0
1000
AcDbSavedByObjectVersion
1070
     0
1000
AcRTDxfName
1000
VISUALSTYLE
1000
AcDbSavedByObjectVersion
1070
     0
  0
VISUALSTYLE
  5
3D53
102
{ACAD_REACTORS
330
3D46
102
}
330
3D46
100
AcDbVisualStyle
  2
Thicken
 70
    13
 71
     2
 72
     2
 73
     0
 90
        0
 40
-0.6
 41
-30.0
 62
     5
 63
     7
 74
     1
 91
        4
 64
     7
 65
   257
 75
     1
175
     1
 42
1.0
 92
       12
 66
     7
 43
1.0
 76
     1
 77
     6
 78
     2
 67
     7
 79
     5
170
     0
171
     0
290
     0
174
     0
 93
        1
 44
0.0
173
     0
291
     1
 45
0.0
1001
ACAD
1000
AcDbSavedByObjectVersion
1070
     0
1000
AcDbSavedByObjectVersion
1070
     0
1000
AcDbSavedByObjectVersion
1070
     0
1000
AcDbSavedByObjectVersion
1070
     0
1000
AcDbSavedByObjectVersion
1070
     0
1000
AcRTDxfName
1000
VISUALSTYLE
1000
AcDbSavedByObjectVersion
1070
     0
  0
DICTIONARYVAR
  5
4117
102
{ACAD_REACTORS
330
4116
102
}
330
4116
100
DictionaryVariables
280
     0
  1
STANDARD
  0
DICTIONARYVAR
  5
5174
102
{ACAD_REACTORS
330
4116
102
}
330
4116
100
DictionaryVariables
280
     0
  1
1
  0
DICTIONARYVAR
  5
51FA
102
{ACAD_REACTORS
330
4116
102
}
330
4116
100
DictionaryVariables
280
     0
  1
0
  0
DICTIONARYVAR
  5
5175
102
{ACAD_REACTORS
330
4116
102
}
330
4116
100
DictionaryVariables
280
     0
  1

  0
DICTIONARYVAR
  5
51F9
102
{ACAD_REACTORS
330
4116
102
}
330
4116
100
DictionaryVariables
280
     0
  1
127
  0
DICTIONARY
  5
5202
330
3D5B
100
AcDbDictionary
280
     1
281
     1
  3
ACAD_XREC_ROUNDTRIP
360
5203
  0
DICTIONARY
  5
5204
330
3D5C
100
AcDbDictionary
280
     1
281
     1
  3
ACAD_XREC_ROUNDTRIP
360
5205
  0
DICTIONARY
  5
47B5
330
3D44
100
AcDbDictionary
280
     1
281
     1
  3
ACAD_XREC_ROUNDTRIP
360
47B6
  0
DICTIONARY
  5
47B3
330
3D43
100
AcDbDictionary
280
     1
281
     1
  3
ACAD_XREC_ROUNDTRIP
360
47B4
  0
DICTIONARY
  5
47B7
330
3D45
100
AcDbDictionary
280
     1
281
     1
  3
ACAD_XREC_ROUNDTRIP
360
47B8
  0
DICTIONARY
  5
5200
330
3D59
100
AcDbDictionary
280
     1
281
     1
  3
ACAD_XREC_ROUNDTRIP
360
5201
  0
XRECORD
  5
5203
102
{ACAD_REACTORS
330
5202
102
}
330
5202
100
AcDbXrecord
280
     1
102
SHADEPLOT
 70
     0
102
SHADEPLOTRESLEVEL
 70
     2
102
SHADEPLOTCUSTOMDPI
 70
   300
  0
XRECORD
  5
5205
102
{ACAD_REACTORS
330
5204
102
}
330
5204
100
AcDbXrecord
280
     1
102
SHADEPLOT
 70
     0
102
SHADEPLOTRESLEVEL
 70
     2
102
SHADEPLOTCUSTOMDPI
 70
   300
  0
XRECORD
  5
47B6
102
{ACAD_REACTORS
330
47B5
102
}
330
47B5
100
AcDbXrecord
280
     1
102
MATERIAL
148
0.0
149
0.0
149
0.0
 93
        0
 94
       63
282
     0
 72
     1
 77
     1
171
     1
175
     1
179
     1
273
     0
  0
XRECORD
  5
47B4
102
{ACAD_REACTORS
330
47B3
102
}
330
47B3
100
AcDbXrecord
280
     1
102
MATERIAL
148
0.0
149
0.0
149
0.0
 93
        0
 94
       63
282
     0
 72
     1
 77
     1
171
     1
175
     1
179
     1
273
     0
  0
XRECORD
  5
47B8
102
{ACAD_REACTORS
330
47B7
102
}
330
47B7
100
AcDbXrecord
280
     1
102
MATERIAL
148
0.0
149
0.0
149
0.0
 93
        0
 94
       63
282
     0
 72
     1
 77
     1
171
     1
175
     1
179
     1
273
     0
  0
XRECORD
  5
5201
102
{ACAD_REACTORS
330
5200
102
}
330
5200
100
AcDbXrecord
280
     1
102
ACAD_ROUNDTRIP_PRE2007_TABLESTYLE
 90
      512
 91
        0
  1

 92
      512
 93
        0
  2

 94
      512
 95
        0
  3

  0
ENDSEC
  0
EOF
